osu file format v14

[General]
AudioFilename: audio.mp3
AudioLeadIn: 0
PreviewTime: 73374
Countdown: 0
SampleSet: Soft
StackLeniency: 0.7
Mode: 0
LetterboxInBreaks: 0
WidescreenStoryboard: 0

[Editor]
Bookmarks: 96110
DistanceSpacing: 1
BeatDivisor: 4
GridSize: 16
TimelineZoom: 3.399999

[Metadata]
Title:First Storm -Japanese Version-
TitleUnicode:初嵐 -日本語版-
Artist:DECO*27
ArtistUnicode:DECO*27
Creator:Mnyui
Version:Promise
Source:
Tags:Chu Lan deco 27 Mes Rockwell hatsune miku vocaloid 混乱P KonranP 初音ミク 伊优_水之浪 他城 asaiga shifu touka
BeatmapID:2117485
BeatmapSetID:1011691

[Difficulty]
HPDrainRate:5.5
CircleSize:4.3
OverallDifficulty:9.3
ApproachRate:9.6
SliderMultiplier:1.55
SliderTickRate:1

[Events]
//Background and Video events
0,0,"firststorm.jpg",0,0
//Break Periods
//Storyboard Layer 0 (Background)
//Storyboard Layer 1 (Fail)
//Storyboard Layer 2 (Pass)
//Storyboard Layer 3 (Foreground)
//Storyboard Layer 4 (Overlay)
//Storyboard Sound Samples

[TimingPoints]
1374,315.789473684211,4,2,0,40,1,0
2084,-100,4,2,1,5,0,0
2163,-100,4,2,1,40,0,0
2716,-100,4,2,1,5,0,0
2795,-100,4,2,1,40,0,0
6426,-66.6666666666667,4,2,1,70,0,1
13452,-66.6666666666667,4,2,1,5,0,1
13531,-66.6666666666667,4,2,1,70,0,1
15347,-66.6666666666667,4,2,1,5,0,1
15426,-66.6666666666667,4,2,1,70,0,1
16768,-66.6666666666667,4,2,1,5,0,1
16847,-66.6666666666667,4,2,1,70,0,1
20558,-66.6666666666667,4,2,1,5,0,1
20637,-66.6666666666667,4,2,1,70,0,1
24110,-90.9090909090909,4,2,1,70,0,0
36742,-100,4,2,1,50,0,0
41795,-90.9090909090909,4,2,1,55,0,0
44321,-90.9090909090909,4,2,1,60,0,0
64531,-133.333333333333,4,2,1,30,0,0
67062,-100,4,2,1,35,0,0
69584,-100,4,2,1,40,0,0
73374,-100,4,2,2,40,0,0
73689,-100,4,2,3,40,0,0
74005,-100,4,2,4,40,0,0
74321,-100,4,2,2,40,0,0
74637,-66.6666666666667,4,2,1,65,0,1
81031,-66.6666666666667,4,2,1,5,0,1
81110,-66.6666666666667,4,2,1,65,0,1
82216,-66.6666666666667,4,2,1,75,0,1
83795,-76.9230769230769,4,2,1,65,0,1
84742,-66.6666666666667,4,2,1,75,0,1
92321,-76.9230769230769,4,2,1,45,0,1
92952,-71.4285714285714,4,2,1,50,0,1
93584,-66.6666666666667,4,2,1,55,0,1
94216,-62.5,4,2,1,60,0,1
94847,-58.8235294117647,4,2,1,65,0,1
95479,-55.5555555555556,4,2,1,70,0,1
96110,-55.5555555555556,4,2,1,75,0,1
97374,-76.9230769230769,4,2,1,45,0,0
101005,-76.9230769230769,4,2,1,55,0,0
103531,-71.4285714285714,4,2,1,55,0,0
104952,-76.9230769230769,4,2,1,60,0,0
107479,-90.9090909090909,4,2,1,40,0,0
108347,-90.9090909090909,4,2,1,5,0,0
108426,-90.9090909090909,4,2,1,40,0,0
110874,-90.9090909090909,4,2,1,5,0,0
110952,-90.9090909090909,4,2,1,40,0,0
127689,-83.3333333333333,4,2,1,50,0,0
142847,-76.9230769230769,4,2,1,55,0,0
147900,-133.333333333333,4,2,1,40,0,0
150426,-100,4,2,1,45,0,0
152952,-100,4,2,1,50,0,0
156742,-100,4,2,2,100,0,0
157058,-100,4,2,3,100,0,0
157374,-100,4,2,4,100,0,0
157689,-100,4,2,2,100,0,0
158005,-100,4,2,5,100,0,0
158321,-100,4,2,5,5,0,0
158479,-100,4,2,6,100,0,0
158637,-100,4,2,5,100,0,0
159110,-100,4,2,5,5,0,0
159268,-100,4,2,11,100,0,0
159426,-100,4,2,11,5,0,0
159584,-100,4,2,12,100,0,0
159900,-100,4,2,13,100,0,0
160058,-100,4,2,13,5,0,0
160216,-100,4,2,11,100,0,0
160374,-100,4,2,11,5,0,0
160531,-100,4,2,14,100,0,0
160847,-100,4,2,14,5,0,0
161005,-100,4,2,15,100,0,0
161163,-100,4,2,14,100,0,0
161637,-100,4,2,15,100,0,0
161795,-100,4,2,14,100,0,0
162110,-100,4,2,16,100,0,0
162426,-100,4,2,17,100,0,0
162742,-100,4,2,14,100,0,0
163058,-100,4,2,16,40,0,0
163374,-100,4,2,1,40,0,0
163689,-100,4,2,1,45,0,0
164005,-100,4,2,1,50,0,0
164321,-100,4,2,1,55,0,0
164637,-100,4,2,1,60,0,0
165584,-100,4,2,1,65,0,0
168110,-90.9090909090909,4,2,1,60,0,0
170637,-100,4,2,1,70,0,0
173163,-90.9090909090909,4,2,1,65,0,0
174347,-90.9090909090909,4,2,1,5,0,0
174426,-90.9090909090909,4,2,1,65,0,0
178216,-71.4285714285714,4,2,1,65,0,0
178847,-66.6666666666667,4,2,1,70,0,0
179479,-66.6666666666667,4,2,2,55,0,0
179795,-66.6666666666667,4,2,3,55,0,0
180110,-66.6666666666667,4,2,4,55,0,0
180426,-66.6666666666667,4,2,2,55,0,0
180742,-66.6666666666667,4,2,1,75,0,1
202847,-62.5,4,2,1,65,0,1
203479,-66.6666666666667,4,2,1,70,0,1
203952,-62.5,4,2,1,75,0,1
204742,-58.8235294117647,4,2,1,80,0,1
205216,-55.5555555555556,4,2,1,85,0,1
206005,-52.6315789473684,4,2,1,90,0,1
206479,-50,4,2,1,95,0,1
206952,-47.6190476190476,4,2,1,90,0,1
207347,-47.6190476190476,4,2,1,90,0,0
208847,-62.5,4,2,1,75,0,1
217452,-62.5,4,2,1,5,0,1
217531,-62.5,4,2,1,75,0,1
227479,-163.934426229508,4,2,1,75,0,0
227795,-163.934426229508,4,2,1,70,0,0
228110,-163.934426229508,4,2,1,65,0,0
228426,-163.934426229508,4,2,1,60,0,0
228742,-163.934426229508,4,2,1,55,0,0
229058,-163.934426229508,4,2,1,50,0,0
229374,-163.934426229508,4,2,1,45,0,0
229689,-163.934426229508,4,2,1,40,0,0
230005,-163.934426229508,4,2,1,35,0,0
230321,-163.934426229508,4,2,1,30,0,0
230637,-163.934426229508,4,2,1,25,0,0
230952,-163.934426229508,4,2,1,20,0,0
231268,-163.934426229508,4,2,1,15,0,0
231584,-163.934426229508,4,2,1,10,0,0
233795,-178.571428571429,4,2,1,5,0,0

[Colours]
Combo1 : 0,128,192
Combo2 : 48,76,88
Combo3 : 206,217,220
Combo4 : 122,148,161

[HitObjects]
85,131,1374,6,0,P|65:94|67:37,1,77.5,2|0,0:0|0:0,0:0:0:0:
173,144,1690,1,0,0:0:0:0:
56,310,1848,2,0,P|31:263|33:192,1,116.25,2|0,0:0|0:0,0:0:0:0:
32,181,2164,1,0,0:0:0:0:
144,311,2322,1,0,0:0:0:0:
173,144,2480,2,0,B|201:132|231:147|231:147|262:166|313:149,1,116.25,2|0,0:0|0:0,0:0:0:0:
307,131,2796,1,2,0:0:0:0:
378,58,2953,1,0,0:0:0:0:
448,182,3111,2,0,B|469:240|469:240|423:339,1,155,2|0,0:0|0:0,0:0:0:0:
385,233,3585,1,0,0:0:0:0:
288,188,3900,5,2,0:0:0:0:
385,233,4059,1,0,0:0:0:0:
298,294,4217,1,0,0:0:0:0:
376,126,4374,1,0,0:0:0:0:
395,340,4532,1,0,0:0:0:0:
201,249,4690,1,0,0:0:0:0:
385,233,4848,5,0,0:0:0:0:
217,349,5006,1,0,0:0:0:0:
279,122,5164,5,0,0:0:0:0:
298,294,5480,5,0,0:0:0:0:
52,215,5638,1,0,0:0:0:0:
277,384,5953,5,0,0:0:0:0:
343,148,6111,1,0,0:0:0:0:
38,324,6427,6,0,B|26:280|26:280|56:203,1,116.250004434586,4|0,0:0|0:0,0:0:0:0:
294,302,6743,2,0,P|225:328|167:307,1,116.250004434586,0|0,0:0|0:0,0:0:0:0:
175,52,7059,1,2,0:0:0:0:
294,302,7217,1,2,0:0:0:0:
51,214,7374,1,8,0:0:0:0:
343,139,7532,5,0,0:0:0:0:
343,139,7611,1,0,0:0:0:0:
343,139,7690,2,0,B|343:217|343:217|370:284|370:284|370:402,1,232.500008869171,2|8,0:0|0:0,0:0:0:0:
491,127,8164,2,0,P|420:163|516:171,1,232.500008869171,0|2,0:0|0:0,0:0:0:0:
395,0,8638,1,8,0:0:0:0:
294,278,8796,1,8,0:0:0:0:
189,37,8953,6,0,P|109:18|31:136,2,232.500008869171,4|8|0,0:0|0:0|0:0,0:0:0:0:
310,167,9743,1,0,0:0:0:0:
487,11,9901,1,0,0:0:0:0:
425,256,10059,5,0,3:0:0:0:
425,256,10138,1,0,3:0:0:0:
425,256,10217,2,0,B|313:292|313:292|200:252,1,232.500008869171,2|8,0:0|0:0,0:0:0:0:
317,10,10689,2,0,B|310:168|310:168|309:114|253:77,1,232.500008869171
105,3,11164,1,0,0:0:0:0:
235,164,11322,1,2,0:0:0:0:
386,37,11480,6,0,P|434:9|495:26,1,116.250004434586,4|0,0:0|0:0,0:0:0:0:
429,201,11796,2,0,L|447:84,1,116.250004434586,8|0,0:0|0:0,0:0:0:0:
512,373,12111,1,2,0:0:0:0:
429,201,12269,1,2,0:0:0:0:
304,384,12427,1,8,0:0:0:0:
294,155,12585,6,0,P|253:226|262:274,1,116.250004434586,4|0,0:0|0:0,0:0:0:0:
431,384,12901,1,4,0:0:0:0:
429,201,13059,1,8,0:0:0:0:
177,215,13217,2,0,P|204:315|253:332,1,116.250004434586
333,266,13532,1,0,0:0:0:0:
262,84,13689,1,0,0:0:0:0:
78,165,13847,1,0,3:0:0:0:
262,261,14006,5,4,0:0:0:0:
181,41,14164,1,0,0:0:0:0:
181,258,14322,1,2,0:0:0:0:
332,125,14480,5,8,0:0:0:0:
94,72,14638,1,0,0:0:0:0:
342,226,14796,1,2,0:0:0:0:
27,306,14953,1,2,0:0:0:0:
181,41,15111,6,0,B|195:107|195:107|173:155|173:155|181:231,1,174.375006651879,8|0,2:0|0:0,0:0:0:0:
181,258,15427,1,2,0:0:0:0:
289,73,15585,1,8,3:2:0:0:
339,50,15664,1,0,3:0:0:0:
386,81,15743,1,0,3:2:0:0:
383,137,15822,1,0,3:0:0:0:
335,165,15901,1,8,3:2:0:0:
293,203,15980,1,0,3:0:0:0:
280,259,16059,1,0,3:2:0:0:
300,313,16138,1,0,3:0:0:0:
347,345,16217,1,8,3:2:0:0:
405,346,16296,1,0,3:0:0:0:
452,314,16374,1,0,3:2:0:0:
474,261,16453,1,0,3:0:0:0:
462,205,16531,6,0,P|417:160|306:201,1,174.375006651879,12|0,2:0|0:0,0:0:0:0:
293,203,16847,2,0,P|270:124|284:56,1,116.250004434586,8|0,0:0|0:0,0:0:0:0:
379,245,17163,1,2,0:0:0:0:
147,124,17321,1,2,0:0:0:0:
308,384,17479,1,8,0:0:0:0:
439,104,17637,1,2,0:0:0:0:
262,265,17796,6,0,L|254:127,1,116.250004434586,4|0,0:0|0:0,0:0:0:0:
398,29,18111,2,0,L|390:167,1,116.250004434586,8|0,0:0|0:0,0:0:0:0:
379,245,18427,5,8,0:0:0:0:
505,165,18584,1,2,0:0:0:0:
297,32,18742,1,8,0:0:0:0:
295,61,18821,1,2,0:0:0:0:
293,90,18900,1,8,0:0:0:0:
291,119,18979,1,0,0:0:0:0:
290,148,19059,6,0,L|261:4,1,116.250004434586,4|0,0:0|0:0,0:0:0:0:
91,115,19374,1,8,0:0:0:0:
92,144,19452,1,2,0:0:0:0:
94,173,19531,1,8,0:0:0:0:
96,202,19611,1,0,0:0:0:0:
98,231,19689,6,0,L|127:87,1,116.250004434586,4|0,0:0|0:0,0:0:0:0:
17,190,20005,2,0,L|5:246,1,58.1250022172929,8|2,0:0|0:0,0:0:0:0:
172,368,20163,2,0,L|183:311,1,58.1250022172929,8|0,3:0|3:0,0:0:0:0:
366,102,20322,6,0,B|363:150|390:162|390:162|365:217|387:286,1,174.375006651879,4|0,0:0|0:0,0:0:0:0:
381,309,20638,1,8,0:0:0:0:
308,183,20796,1,0,0:0:0:0:
255,367,20953,1,2,0:0:0:0:
119,184,21111,1,2,0:0:0:0:
381,309,21269,2,0,L|419:171,1,116.250004434586,8|0,0:0|0:0,0:0:0:0:
238,103,21585,6,0,P|261:159|319:185,1,116.250004434586,2|0,0:0|0:0,0:0:0:0:
460,0,21901,2,0,P|400:-9|347:29,1,116.250004434586,8|0,0:0|0:0,0:0:0:0:
484,191,22217,1,2,0:0:0:0:
460,0,22374,1,2,0:0:0:0:
356,238,22532,1,0,0:0:0:0:
259,56,22690,5,2,0:0:0:0:
503,116,22848,1,4,0:0:0:0:
224,293,23006,1,0,3:0:0:0:
224,293,23085,1,0,3:0:0:0:
224,293,23164,1,0,3:0:0:0:
355,21,23322,5,8,0:0:0:0:
434,284,23480,1,8,0:0:0:0:
167,221,23638,1,8,0:0:0:0:
332,142,23796,1,2,0:0:0:0:
309,272,23953,1,2,0:0:0:0:
240,137,24110,6,0,P|195:113|136:127,1,85.2500026016236,0|0,3:0|0:0,0:0:0:0:
49,109,24427,1,0,0:0:0:0:
14,199,24585,1,0,0:0:0:0:
14,199,24664,1,0,0:0:0:0:
14,199,24742,1,2,0:0:0:0:
112,181,24901,1,0,0:0:0:0:
154,288,25058,2,0,L|158:411,1,85.2500026016236,8|0,0:0|0:0,0:0:0:0:
73,280,25374,5,2,0:0:0:0:
205,207,25532,1,0,0:0:0:0:
230,321,25690,1,8,0:0:0:0:
112,181,25848,1,0,0:0:0:0:
112,181,25927,1,0,0:0:0:0:
112,181,26006,1,2,0:0:0:0:
285,245,26164,1,0,0:0:0:0:
289,138,26321,2,0,L|185:129,1,85.2500026016236,8|0,0:0|0:0,0:0:0:0:
353,334,26638,6,0,L|358:245,1,85.2500026016236,2|0,0:0|0:0,0:0:0:0:
399,159,26953,1,8,0:0:0:0:
452,245,27111,1,0,0:0:0:0:
452,245,27190,1,0,0:0:0:0:
452,245,27269,1,2,0:0:0:0:
357,248,27427,1,0,0:0:0:0:
490,157,27585,1,8,0:0:0:0:
400,318,27743,1,0,0:0:0:0:
312,160,27901,5,0,0:0:0:0:
270,239,28058,1,0,0:0:0:0:
357,248,28216,1,8,0:0:0:0:
219,161,28374,1,0,0:0:0:0:
219,161,28452,1,0,0:0:0:0:
219,161,28532,1,2,0:0:0:0:
402,162,28690,1,0,0:0:0:0:
219,161,28848,1,8,0:0:0:0:
357,248,29005,1,0,0:0:0:0:
258,91,29164,6,0,P|202:74|144:87,1,85.2500026016236,2|0,0:0|0:0,0:0:0:0:
24,164,29480,2,0,P|80:181|141:161,1,85.2500026016236,8|0,0:0|0:0,0:0:0:0:
148,183,29717,1,0,0:0:0:0:
187,199,29796,6,0,P|201:236|198:282,1,85.2500026016236,2|0,0:0|0:0,0:0:0:0:
275,163,30111,2,0,P|272:122|286:75,1,85.2500026016236,8|0,0:0|0:0,0:0:0:0:
399,292,30427,6,0,L|291:262,1,85.2500026016236,2|0,0:0|0:0,0:0:0:0:
275,163,30743,2,0,L|360:139,1,85.2500026016236,8|0,0:0|0:0,0:0:0:0:
398,127,30980,1,0,0:0:0:0:
431,100,31059,6,0,P|413:41|419:2,1,85.2500026016236,2|0,0:0|0:0,0:0:0:0:
512,177,31374,2,0,P|511:223|494:260,1,85.2500026016236,8|0,0:0|0:0,0:0:0:0:
272,125,31690,6,0,B|301:85|365:108|365:169|313:228,1,170.500005203247,2|8,0:0|0:0,0:0:0:0:
238,311,32164,1,0,0:0:0:0:
238,311,32243,1,0,0:0:0:0:
238,311,32322,1,2,0:0:0:0:
188,189,32480,1,0,0:0:0:0:
373,341,32638,2,0,L|385:249,1,85.2500026016236,8|0,0:0|0:0,0:0:0:0:
237,310,32953,5,2,0:0:0:0:
270,174,33111,1,0,0:0:0:0:
387,249,33269,1,8,0:0:0:0:
270,174,33427,1,0,0:0:0:0:
270,174,33506,1,0,0:0:0:0:
270,174,33585,5,2,0:0:0:0:
220,265,33743,1,2,0:0:0:0:
153,205,33901,1,8,0:0:0:0:
180,116,34057,1,2,0:0:0:0:
27,374,34217,6,0,B|26:340|26:340|16:314|16:314|17:256,1,85.2500026016236,4|0,0:0|0:0,0:0:0:0:
30,113,34532,1,8,0:0:0:0:
115,305,34690,5,0,0:0:0:0:
115,305,34769,1,0,0:0:0:0:
115,305,34848,1,0,0:0:0:0:
179,237,35006,1,0,0:0:0:0:
23,283,35163,1,8,0:0:0:0:
89,215,35322,5,0,0:0:0:0:
89,215,35401,1,0,0:0:0:0:
89,215,35480,1,2,0:0:0:0:
206,327,35638,1,0,0:0:0:0:
153,148,35795,5,8,0:0:0:0:
270,259,35952,1,0,0:0:0:0:
270,259,36032,1,0,0:0:0:0:
270,259,36111,1,2,0:0:0:0:
307,102,36269,1,0,0:0:0:0:
212,204,36427,1,8,0:0:0:0:
307,102,36585,1,0,0:0:0:0:
402,350,36742,6,0,P|455:287|425:190,1,155,0|8,0:0|0:0,0:0:0:0:
307,102,37217,1,0,0:0:0:0:
307,102,37296,1,0,0:0:0:0:
307,102,37374,1,2,0:0:0:0:
392,79,37532,1,0,0:0:0:0:
370,168,37690,1,8,0:0:0:0:
465,136,37848,1,0,0:0:0:0:
261,230,38006,6,0,L|73:192,1,155,2|8,0:0|0:0,0:0:0:0:
199,140,38480,1,0,0:0:0:0:
199,140,38559,1,0,0:0:0:0:
199,140,38638,1,2,0:0:0:0:
252,308,38796,1,0,0:0:0:0:
153,318,38953,1,8,0:0:0:0:
295,163,39111,1,0,0:0:0:0:
73,111,39269,6,0,L|80:223,1,77.5,2|0,0:0|0:0,0:0:0:0:
153,318,39585,1,8,0:0:0:0:
295,163,39743,1,0,0:0:0:0:
295,163,39822,1,0,0:0:0:0:
295,163,39901,6,0,L|288:275,1,77.5,2|0,0:0|0:0,0:0:0:0:
225,75,40217,1,8,0:0:0:0:
165,230,40374,1,0,0:0:0:0:
165,230,40453,1,0,0:0:0:0:
165,230,40532,6,0,L|181:131,1,77.5,2|0,0:0|0:0,0:0:0:0:
323,274,40848,2,0,L|229:309,1,77.5,8|0,0:0|0:0,0:0:0:0:
289,112,41164,2,0,L|366:175,1,77.5,2|0,0:0|0:0,0:0:0:0:
165,230,41480,2,0,P|185:190|181:131,1,77.5,8|0,0:0|0:0,0:0:0:0:
433,376,41796,6,0,B|436:336|405:299|405:299|391:254|416:202,1,170.500005203247,4|0,0:0|0:0,0:0:0:0:
366,97,42269,1,0,0:0:0:0:
268,164,42427,2,0,P|220:170|173:147,1,85.2500026016236,2|2,0:0|0:0,0:0:0:0:
292,31,42743,1,8,0:0:0:0:
329,224,42901,2,0,B|284:242|258:277|258:277|221:255|160:262,1,170.500005203247,4|0,0:0|0:0,0:0:0:0:
95,141,43374,1,8,0:0:0:0:
50,297,43532,1,0,0:0:0:0:
50,297,43611,1,0,3:0:0:0:
50,297,43690,1,8,3:2:0:0:
260,162,43848,5,0,3:0:0:0:
260,162,43927,1,0,3:0:0:0:
260,162,44006,2,0,L|179:174,1,42.6250013008118,8|0,3:2|3:0,0:0:0:0:
59,62,44164,2,0,L|140:74,1,42.6250013008118,0|0,3:0|0:0,0:0:0:0:
147,250,44322,5,4,0:0:0:0:
188,72,44480,1,0,0:0:0:0:
365,250,44638,1,8,0:0:0:0:
324,72,44796,1,0,0:0:0:0:
229,267,44953,6,0,L|216:371,1,85.2500026016236,0|2,0:0|0:0,0:0:0:0:
294,191,45269,1,8,0:0:0:0:
364,345,45427,1,0,0:0:0:0:
433,179,45585,6,0,P|426:129|449:70,1,85.2500026016236,2|0,0:0|0:0,0:0:0:0:
294,191,45901,2,0,P|340:209|380:259,1,85.2500026016236,8|0,0:0|0:0,0:0:0:0:
352,63,46216,2,0,P|320:96|277:103,2,85.2500026016236,0|2|8,0:0|0:0|0:0,0:0:0:0:
432,12,46690,1,0,0:0:0:0:
282,103,46848,5,2,0:0:0:0:
417,152,47006,1,0,0:0:0:0:
301,239,47164,1,8,0:0:0:0:
441,302,47322,1,0,0:0:0:0:
234,210,47480,6,0,P|198:195|139:202,1,85.2500026016236,0|2,0:0|0:0,0:0:0:0:
96,274,47796,1,8,0:0:0:0:
75,106,47953,1,0,0:0:0:0:
295,164,48111,6,0,P|312:210|302:252,1,85.2500026016236,0|0,0:0|0:0,0:0:0:0:
204,371,48427,2,0,P|187:325|197:283,1,85.2500026016236,8|0,1:2|0:0,0:0:0:0:
295,164,48743,6,0,P|319:206|317:249,2,85.2500026016236,0|2|8,0:0|0:0|1:2,0:0:0:0:
159,135,49217,1,0,0:0:0:0:
292,321,49374,6,0,B|332:331|332:331|383:321,1,85.2500026016236,4|0,0:0|0:0,0:0:0:0:
473,233,49690,2,0,P|433:220|392:228,1,85.2500026016236,8|0,0:0|0:0,0:0:0:0:
292,315,50006,6,0,B|332:325|332:325|383:315,1,85.2500026016236,0|0,0:0|0:0,0:0:0:0:
470,229,50322,2,0,B|432:217|432:217|387:225,1,85.2500026016236,8|0,0:0|0:0,0:0:0:0:
292,315,50638,6,0,L|280:224,1,85.2500026016236,2|0,0:0|0:0,0:0:0:0:
404,60,50953,2,0,L|392:151,1,85.2500026016236,8|0,0:0|0:0,0:0:0:0:
292,311,51269,6,0,B|279:263|279:263|280:220,1,85.2500026016236,0|2,0:0|0:0,0:0:0:0:
404,56,51585,2,0,B|417:104|417:104|416:147,1,85.2500026016236,8|0,1:2|0:0,0:0:0:0:
201,341,51901,6,0,B|180:271|180:271|208:229|188:157,1,170.500005203247,2|8,0:0|0:0,0:0:0:0:
155,50,52374,1,0,0:0:0:0:
70,258,52532,2,0,L|65:171,1,85.2500026016236,0|2,0:0|0:0,0:0:0:0:
201,341,52848,2,0,L|206:254,1,85.2500026016236,8|0,0:0|0:0,0:0:0:0:
65,172,53164,1,2,0:0:0:0:
227,120,53322,6,0,L|222:177,1,42.6250013008118,2|0,0:0|0:0,0:0:0:0:
344,291,53480,2,0,L|340:248,1,42.6250013008118,12|0,0:0|0:0,0:0:0:0:
394,70,53638,1,0,0:0:0:0:
499,237,53795,5,2,0:0:0:0:
295,161,53952,1,2,0:0:0:0:
484,104,54110,1,2,0:0:0:0:
412,285,54268,1,2,0:0:0:0:
266,50,54426,6,0,P|199:18|81:57,1,170.500005203247,4|2,0:0|0:0,0:0:0:0:
143,146,54901,2,0,P|207:166|184:96,1,170.500005203247,0|2,0:0|0:0,0:0:0:0:
26,168,55374,1,8,0:0:0:0:
65,297,55532,1,0,0:0:0:0:
143,146,55690,6,0,L|161:247,1,85.2500026016236,2|0,0:0|0:0,0:0:0:0:
223,317,56006,1,8,0:0:0:0:
268,123,56164,1,0,0:0:0:0:
223,317,56322,1,0,0:0:0:0:
268,123,56480,1,2,0:0:0:0:
327,341,56638,1,8,1:2:0:0:
151,227,56796,1,0,0:0:0:0:
395,36,56953,6,0,B|404:89|404:89|385:119|385:119|397:209,1,170.500005203247,4|8,0:0|0:0,0:0:0:0:
271,290,57427,1,0,0:0:0:0:
271,290,57585,2,0,B|270:237|244:212|244:212|241:157|268:116,1,170.500005203247,0|8,0:0|0:0,0:0:0:0:
399,368,58059,1,0,0:0:0:0:
399,368,58216,2,0,B|378:312|414:254|414:254|397:202,1,170.500005203247,2|8,0:0|0:0,0:0:0:0:
271,290,58690,1,0,0:0:0:0:
202,169,58847,2,0,P|157:158|102:171,2,85.2500026016236,2|2|8,0:0|0:0|1:2,0:0:0:0:
271,290,59322,5,0,0:0:0:0:
104,91,59480,2,0,P|49:129|86:238,1,170.500005203247,4|8,0:0|0:0,0:0:0:0:
208,109,59953,1,0,0:0:0:0:
158,327,60111,1,0,0:0:0:0:
119,163,60269,1,2,0:0:0:0:
286,177,60426,1,8,0:0:0:0:
79,259,60585,1,0,0:0:0:0:
358,143,60743,6,0,P|367:193|336:250,1,85.2500026016236,2|0,0:0|0:0,0:0:0:0:
269,84,61059,1,8,0:0:0:0:
201,277,61217,2,0,P|192:227|223:170,1,85.2500026016236,0|0,0:0|0:0,0:0:0:0:
331,358,61532,1,2,0:0:0:0:
411,322,61690,1,8,0:0:0:0:
262,236,61848,1,0,0:0:0:0:
496,356,62006,6,0,L|502:260,1,85.2500026016236,4|2,0:0|0:0,0:0:0:0:
408,152,62321,2,0,L|402:248,1,85.2500026016236,2|2,0:0|0:0,0:0:0:0:
487,122,62638,5,8,0:0:0:0:
322,130,62796,1,0,0:0:0:0:
512,197,62953,1,2,0:0:0:0:
343,30,63110,2,0,B|289:37|253:15|253:15|230:50|175:64,1,170.500005203247,4|0,0:0|0:0,0:0:0:0:
165,185,63584,1,8,0:0:0:0:
109,15,63742,5,0,3:0:0:0:
109,15,63821,1,0,3:0:0:0:
109,15,63899,1,8,3:2:0:0:
58,184,64058,1,2,0:0:0:0:
113,91,64217,1,2,0:0:0:0:
5,89,64374,1,2,0:0:0:0:
165,185,64532,6,0,L|162:263,1,58.1250022172929,4|0,0:0|0:0,0:0:0:0:
279,183,64848,2,0,L|282:105,1,58.1250022172929,0|2,0:0|0:0,0:0:0:0:
165,185,65164,2,0,L|162:263,1,58.1250022172929,2|0,0:0|0:0,0:0:0:0:
279,183,65480,2,0,L|282:105,1,58.1250022172929,8|0,0:0|0:0,0:0:0:0:
360,22,65796,6,0,L|418:24,1,58.1250022172929,2|0,0:0|0:0,0:0:0:0:
479,149,66111,2,0,L|420:146,1,58.1250022172929,0|2,0:0|0:0,0:0:0:0:
360,22,66427,2,0,L|418:24,1,58.1250022172929,2|0,0:0|0:0,0:0:0:0:
479,149,66743,2,0,L|420:146,1,58.1250022172929,8|0,0:0|0:0,0:0:0:0:
411,282,67059,5,2,0:0:0:0:
373,210,67217,1,0,0:0:0:0:
330,278,67374,1,0,0:0:0:0:
454,214,67532,1,2,0:0:0:0:
483,367,67690,2,0,L|493:284,1,77.5,8|2,0:0|0:0,0:0:0:0:
411,282,68006,1,0,0:0:0:0:
290,200,68164,1,0,3:0:0:0:
420,146,68322,1,2,0:0:0:0:
290,200,68480,5,0,3:0:0:0:
290,200,68559,1,0,3:0:0:0:
290,200,68638,1,0,3:0:0:0:
220,87,68796,1,0,3:0:0:0:
198,272,68953,1,0,3:0:0:0:
314,121,69111,1,0,0:0:0:0:
140,142,69269,1,0,0:0:0:0:
290,200,69427,1,0,0:0:0:0:
94,297,69585,6,0,L|59:113,1,155,4|8,0:0|0:0,0:0:0:0:
159,101,70216,6,0,L|179:207,1,77.5
261,234,70532,1,0,0:0:0:0:
261,234,70848,6,0,L|273:129,2,77.5,2|2|8,0:0|0:0|0:0,0:0:0:0:
453,44,71480,6,0,L|482:136,1,77.5
366,233,71796,2,0,L|395:141,1,77.5,8|0,0:0|0:0,0:0:0:0:
455,298,72111,5,0,0:0:0:0:
246,295,72269,1,0,0:0:0:0:
390,160,72427,5,8,0:0:0:0:
182,344,72585,1,0,3:0:0:0:
306,86,72743,5,0,3:0:0:0:
255,375,72901,1,0,0:0:0:0:
184,52,73059,6,0,L|187:120,1,38.75,8|0,3:2|3:0,0:0:0:0:
104,369,73217,2,0,L|107:301,1,38.75,0|0,3:0|0:0,0:0:0:0:
256,160,73374,5,2,0:0:0:0:
106,205,73690,1,2,0:0:0:0:
255,375,74005,1,2,0:0:0:0:
105,330,74321,1,2,0:0:0:0:
406,79,74638,6,0,B|406:115|433:152|433:152|363:195|390:301,1,232.500008869171,4|0,0:0|0:0,0:0:0:0:
178,315,75111,1,0,0:0:0:0:
343,134,75269,1,2,0:0:0:0:
403,372,75427,1,2,0:0:0:0:
260,224,75585,1,8,0:0:0:0:
475,165,75743,1,0,3:0:0:0:
475,165,75822,1,0,3:0:0:0:
475,165,75901,6,0,P|487:223|459:291,1,116.250004434586,2|0,0:0|0:0,0:0:0:0:
343,134,76217,1,8,0:0:0:0:
178,315,76374,1,0,0:0:0:0:
400,64,76532,6,0,P|346:47|289:60,1,116.250004434586,2|2,0:0|0:0,0:0:0:0:
351,237,76848,1,8,0:0:0:0:
512,89,77006,1,2,0:0:0:0:
426,291,77164,2,0,P|333:317|261:211,1,232.500008869171,4|8,0:0|0:0,0:0:0:0:
232,0,77638,1,0,0:0:0:0:
351,237,77796,1,2,0:0:0:0:
157,123,77953,1,2,0:0:0:0:
400,64,78110,1,8,0:0:0:0:
230,300,78269,1,0,3:0:0:0:
230,300,78348,1,0,3:0:0:0:
230,300,78427,6,0,P|170:252|158:175,1,116.250004434586,2|0,0:0|0:3,0:0:0:0:
309,33,78743,2,0,P|330:105|296:175,1,116.250004434586,8|0,0:0|0:0,0:0:0:0:
196,60,79059,1,2,0:0:0:0:
479,8,79217,1,2,0:0:0:0:
283,248,79374,2,0,P|247:160|264:120,1,116.250004434586,8|2,0:0|0:0,0:0:0:0:
450,289,79690,6,0,B|380:289|380:289|309:330|309:330|198:330,1,232.500008869171,4|8,0:0|0:0,0:0:0:0:
83,169,80164,1,0,0:0:0:0:
126,384,80322,1,2,0:0:0:0:
283,248,80480,1,2,0:0:0:0:
12,298,80638,1,8,0:0:0:0:
282,73,80796,6,0,L|283:277,1,174.375006651879,4|0,0:0|0:0,0:0:0:0:
283,282,81111,1,2,0:0:0:0:
394,104,81269,1,8,0:0:0:0:
132,315,81427,6,0,B|110:250|110:250|119:176,1,116.250004434586,2|0,0:0|0:0,0:0:0:0:
124,78,81743,1,2,0:0:0:0:
207,206,81901,1,8,0:0:0:0:
255,21,82059,1,2,0:0:0:0:
48,258,82217,5,12,0:0:0:0:
338,268,82374,1,2,0:0:0:0:
36,170,82532,1,0,0:0:0:0:
283,342,82690,5,8,0:0:0:0:
295,80,82848,1,0,0:0:0:0:
193,367,83006,1,2,0:0:0:0:
438,116,83162,5,2,0:0:0:0:
153,45,83321,1,8,0:0:0:0:
488,310,83480,6,0,P|499:241|479:194,1,116.250004434586,0|2,0:0|0:0,0:0:0:0:
322,329,83796,1,8,3:2:0:0:
287,365,83874,1,0,3:0:0:0:
239,378,83953,1,0,3:0:0:0:
191,365,84032,1,0,3:0:0:0:
157,329,84110,5,8,3:2:0:0:
145,281,84189,1,0,3:0:0:0:
160,233,84268,1,0,3:0:0:0:
174,185,84348,1,0,3:0:0:0:
163,137,84426,1,8,3:2:0:0:
128,101,84506,1,0,3:0:0:0:
80,88,84585,1,0,3:0:0:0:
32,101,84664,1,0,3:0:0:0:
0,137,84742,6,0,L|18:-3,1,116.250004434586,12|0,0:0|0:0,0:0:0:0:
256,170,85058,2,0,L|241:285,1,116.250004434586,12|0,0:0|0:0,0:0:0:0:
238,94,85374,5,8,0:0:0:0:
414,168,85532,1,0,0:0:0:0:
241,279,85690,1,8,0:0:0:0:
365,38,85848,1,2,0:0:0:0:
374,350,86006,6,0,P|401:300|392:229,1,116.250004434586,8|2,0:0|0:0,0:0:0:0:
217,171,86322,2,0,P|213:228|241:279,1,116.250004434586,8|2,0:0|0:0,0:0:0:0:
290,42,86638,1,8,0:0:0:0:
291,213,86796,1,2,0:0:0:0:
65,29,86953,5,8,3:2:0:0:
62,72,87032,1,0,3:0:0:0:
60,116,87111,1,0,3:0:0:0:
58,159,87190,1,0,3:0:0:0:
56,203,87269,6,0,L|92:55,1,116.250004434586,4|0,3:2|0:0,0:0:0:0:
317,130,87585,1,0,3:0:0:0:
304,171,87664,1,0,3:0:0:0:
291,213,87743,1,0,3:0:0:0:
278,254,87822,1,0,3:0:0:0:
265,296,87901,6,0,L|279:148,1,116.250004434586,4|0,0:0|0:0,0:0:0:0:
370,206,88217,2,0,L|364:269,1,58.1250022172929,0|0,3:0|3:0,0:0:0:0:
192,170,88374,2,0,L|197:110,1,58.1250022172929,0|0,3:0|3:0,0:0:0:0:
470,333,88531,6,0,B|409:322|345:357|345:357|305:306|258:294,1,232.500008869171,4|0,0:0|0:0,0:0:0:0:
192,170,89006,1,2,0:0:0:0:
92,267,89164,2,0,L|91:393,1,116.250004434586,8|2,0:0|0:0,0:0:0:0:
11,167,89480,1,8,0:0:0:0:
193,331,89638,1,2,0:0:0:0:
291,89,89796,6,0,P|328:81|409:104,1,116.250004434586,4|0,0:0|0:0,0:0:0:0:
292,255,90111,2,0,P|257:209|245:152,1,116.250004434586,8|0,0:0|0:0,0:0:0:0:
452,174,90427,1,2,0:0:0:0:
377,354,90585,2,0,L|388:206,1,116.250004434586,2|8,0:0|0:0,0:0:0:0:
402,99,90901,1,0,0:0:0:0:
292,255,91059,5,2,0:0:0:0:
491,273,91217,1,0,0:0:0:0:
297,159,91374,1,8,0:0:0:0:
377,354,91532,1,0,0:0:0:0:
402,99,91690,1,2,0:0:0:0:
198,210,91848,1,2,0:0:0:0:
488,169,92006,1,8,0:0:0:0:
201,50,92164,1,2,0:0:0:0:
351,329,92321,5,12,3:2:0:0:
380,293,92400,1,0,3:0:0:0:
388,247,92479,1,0,3:0:0:0:
374,203,92558,1,0,3:0:0:0:
341,172,92637,1,8,3:2:0:0:
297,159,92716,1,0,3:0:0:0:
251,169,92795,5,4,3:2:0:0:
217,199,92873,1,0,3:0:0:0:
200,242,92952,1,8,3:2:0:0:
168,279,93031,1,0,3:0:0:0:
121,295,93111,1,0,3:0:0:0:
73,283,93190,1,0,3:0:0:0:
38,247,93269,1,8,3:2:0:0:
26,199,93348,1,0,3:0:0:0:
42,152,93427,1,0,3:0:0:0:
79,120,93506,1,0,3:0:0:0:
127,113,93585,5,12,3:2:0:0:
180,110,93664,1,0,3:0:0:0:
232,123,93743,1,0,3:0:0:0:
271,160,93822,1,0,3:0:0:0:
311,194,93901,1,8,3:2:0:0:
364,201,93980,1,0,3:0:0:0:
413,192,94058,5,4,3:2:0:0:
460,170,94138,1,0,3:0:0:0:
477,124,94217,1,8,3:2:0:0:
436,83,94296,1,0,3:0:0:0:
382,70,94374,1,0,3:0:0:0:
327,88,94453,1,0,3:0:0:0:
291,131,94531,1,8,3:2:0:0:
282,186,94610,1,0,3:0:0:0:
303,239,94690,1,0,3:0:0:0:
349,272,94769,1,0,3:2:0:0:
406,277,94847,5,12,3:2:0:0:
412,217,94927,1,0,3:2:0:0:
390,161,95006,1,0,3:2:0:0:
344,121,95085,1,0,3:2:0:0:
286,107,95163,1,8,3:2:0:0:
227,122,95243,1,0,3:2:0:0:
182,161,95321,5,4,3:2:0:0:
161,218,95401,1,0,3:2:0:0:
167,278,95479,1,8,3:2:0:0:
207,333,95557,1,0,3:2:0:0:
273,354,95636,1,0,3:2:0:0:
338,333,95715,1,0,3:2:0:0:
379,278,95795,5,8,3:2:0:0:
452,240,95873,1,0,3:2:0:0:
509,293,95952,1,0,3:2:0:0:
480,369,96031,1,0,3:2:0:0:
404,364,96110,1,12,3:2:0:0:
474,41,97374,6,2,L|458:163,1,100.749995388031,6|2,0:0|0:0,0:0:0:0:
428,213,97689,1,8,2:0:0:0:
345,78,97847,5,2,0:0:0:0:
345,78,97926,1,2,2:0:0:0:
345,78,98005,1,2,3:0:0:0:
269,216,98163,5,2,0:0:0:0:
380,149,98321,1,8,0:2:0:0:
383,283,98480,5,2,0:0:0:0:
383,283,98559,1,2,0:0:0:0:
383,283,98638,1,2,0:0:0:0:
301,146,98796,1,2,0:0:0:0:
248,286,98952,1,8,0:0:0:0:
225,150,99111,5,2,0:0:0:0:
225,150,99190,1,2,0:0:0:0:
225,150,99269,1,2,0:0:0:0:
172,213,99427,1,2,0:0:0:0:
342,215,99584,1,8,0:0:0:0:
125,134,99743,5,2,0:0:0:0:
125,134,99822,1,2,0:0:0:0:
125,134,99901,2,2,L|249:153,1,100.749995388031,2|2,0:0|0:0,0:0:0:0:
172,213,100216,1,8,0:0:0:0:
98,53,100374,5,2,0:0:0:0:
98,53,100453,1,2,0:0:0:0:
98,53,100532,1,2,0:0:0:0:
172,213,100689,1,2,0:0:0:0:
271,96,100847,1,8,0:0:0:0:
314,240,101005,5,0,0:0:0:0:
314,240,101084,1,0,0:0:0:0:
314,240,101164,1,4,0:0:0:0:
71,171,101322,1,0,0:0:0:0:
249,175,101480,1,0,0:0:0:0:
104,299,101638,5,0,3:0:0:0:
104,299,101717,1,0,3:0:0:0:
104,299,101796,1,0,3:0:0:0:
249,175,101953,1,0,0:0:0:0:
71,171,102111,1,0,0:0:0:0:
270,297,102269,5,0,3:0:0:0:
270,297,102348,1,0,3:0:0:0:
270,297,102427,1,4,0:0:0:0:
277,74,102585,1,0,3:0:0:0:
376,248,102743,1,0,3:0:0:0:
465,53,102901,1,0,3:0:0:0:
488,300,103059,5,0,3:0:0:0:
466,136,103217,1,0,3:0:0:0:
405,366,103374,1,0,3:0:0:0:
277,74,103531,2,0,B|253:147|253:147|292:289,1,216.999993377686,4|0,0:0|0:0,0:0:0:0:
353,149,104006,1,0,0:0:0:0:
172,278,104164,5,0,3:0:0:0:
172,278,104243,1,0,3:0:0:0:
172,278,104322,2,0,L|135:142,1,108.499996688843,0|0,3:0|0:0,0:0:0:0:
21,294,104638,1,0,0:0:0:0:
89,89,104796,1,0,0:0:0:0:
247,362,104953,6,0,L|271:127,1,201.499990776062,4|0,0:0|0:0,0:0:0:0:
415,41,105427,2,0,B|449:135|449:135|439:276,1,201.499990776062
267,161,105901,1,0,3:0:0:0:
109,328,106059,2,0,B|100:192|100:192|135:168|180:186,1,201.499990776062,4|0,0:0|0:0,0:0:0:0:
324,229,106532,1,0,0:0:0:0:
206,301,106690,1,0,0:0:0:0:
206,301,106769,1,0,0:0:0:0:
206,301,106848,1,0,0:0:0:0:
223,109,107006,5,0,0:0:0:0:
310,145,107163,1,0,0:0:0:0:
235,206,107321,1,0,0:0:0:0:
295,49,107479,5,4,0:0:0:0:
325,241,107638,1,0,0:0:0:0:
386,84,107795,1,0,0:0:0:0:
401,180,107952,1,0,0:0:0:0:
490,0,108111,2,0,L|478:154,1,127.875003902435,0|0,0:0|0:0,0:0:0:0:
483,157,108427,1,0,0:0:0:0:
331,1,108585,2,0,B|300:49|300:49|325:167,1,170.500005203247
215,350,109059,5,0,0:0:0:0:
215,213,109374,1,0,0:0:0:0:
218,76,109689,1,0,0:0:0:0:
261,145,109847,1,0,0:0:0:0:
179,140,110005,5,0,0:0:0:0:
135,210,110163,1,0,0:0:0:0:
96,137,110321,1,0,0:0:0:0:
215,213,110479,1,0,0:0:0:0:
215,213,110558,1,0,0:0:0:0:
215,213,110637,2,0,L|211:289,2,56.8333350677491
61,207,110952,2,0,L|65:283,2,56.8333350677491
301,310,111268,1,0,0:0:0:0:
296,292,111347,6,0,L|280:142,1,127.875003902435
135,210,111900,1,0,0:0:0:0:
215,77,112217,1,0,0:0:0:0:
283,170,112374,1,0,0:0:0:0:
283,170,112532,6,0,L|238:345,1,170.500005203247,0|0,0:0|0:0,0:0:0:0:
442,239,113164,2,0,L|397:64,1,170.500005203247,0|0,0:0|0:0,0:0:0:0:
237,331,113796,6,0,L|194:165,1,170.500005203247
400,74,114427,2,0,L|357:239,1,170.500005203247,0|0,0:0|0:0,0:0:0:0:
161,348,114901,5,0,3:0:0:0:
161,348,114980,1,0,3:0:0:0:
161,348,115059,2,0,B|147:262|147:262|181:215|171:173,1,170.500005203247,4|0,0:0|0:0,0:0:0:0:
247,63,115531,1,0,0:0:0:0:
99,87,115690,2,0,L|13:103,1,85.2500026016236,8|2,0:0|0:0,0:0:0:0:
196,256,116006,2,0,L|180:170,1,85.2500026016236,8|2,0:0|0:0,0:0:0:0:
172,69,116321,1,2,0:0:0:0:
48,276,116480,5,8,0:0:0:0:
99,87,116637,1,0,0:0:0:0:
180,172,116796,1,2,0:0:0:0:
65,187,116953,1,0,0:0:0:0:
243,116,117111,1,0,0:0:0:0:
243,116,117190,1,2,0:0:0:0:
243,116,117269,1,2,0:0:0:0:
176,255,117427,1,2,0:0:0:0:
345,56,117585,6,0,P|356:142|360:242,1,170.500005203247,4|0,0:0|0:0,0:0:0:0:
323,357,118059,1,2,0:0:0:0:
471,336,118217,2,0,L|487:162,1,170.500005203247,8|0,0:0|0:0,0:0:0:0:
364,189,118848,1,2,0:0:0:0:
364,189,119005,5,0,0:0:0:0:
235,102,119164,1,2,0:0:0:0:
421,131,119322,1,0,0:0:0:0:
268,273,119480,2,0,L|249:176,1,85.2500026016236,8|0,0:0|0:0,0:0:0:0:
351,320,119796,1,2,0:0:0:0:
208,361,119953,1,0,0:0:0:0:
370,168,120111,6,0,B|399:222|399:222|338:344,1,170.500005203247,4|0,0:0|0:0,0:0:0:0:
287,158,120585,1,2,0:0:0:0:
287,158,120743,2,0,P|318:95|416:104,1,170.500005203247,8|0,0:0|0:0,0:0:0:0:
483,243,121217,1,0,0:0:0:0:
483,243,121374,6,0,P|412:247|371:158,1,170.500005203247,2|2,0:0|0:0,0:0:0:0:
379,29,121848,1,0,0:0:0:0:
276,178,122006,2,0,L|262:83,1,85.2500026016236,8|0,0:0|0:0,0:0:0:0:
190,179,122322,1,2,0:0:0:0:
185,63,122480,1,0,0:0:0:0:
97,289,122638,6,0,L|84:113,1,170.500005203247,4|0,0:0|0:0,0:0:0:0:
263,281,123111,1,0,0:0:0:0:
275,110,123269,2,0,L|262:280,1,170.500005203247,8|0,0:0|0:0,0:0:0:0:
358,178,123743,1,0,0:0:0:0:
422,352,123900,6,0,L|431:268,1,85.2500026016236,2|0,0:0|0:0,0:0:0:0:
443,187,124216,2,0,L|463:105,1,85.2500026016236,2|0,0:0|0:0,0:0:0:0:
294,319,124531,6,0,L|285:235,1,85.2500026016236,2|0,0:0|0:0,0:0:0:0:
273,154,124847,2,0,L|253:72,1,85.2500026016236,2|0,0:0|0:0,0:0:0:0:
149,258,125164,6,0,P|100:252|59:204,1,85.2500026016236,4|0,0:0|0:0,0:0:0:0:
121,99,125480,2,0,P|140:144|119:203,1,85.2500026016236,2|0,0:0|0:0,0:0:0:0:
0,208,125796,2,0,P|29:168|91:157,1,85.2500026016236,8|0,0:0|0:0,0:0:0:0:
211,206,126109,1,0,0:0:0:0:
87,310,126268,1,4,0:0:0:0:
46,75,126427,6,0,P|69:73|128:107,1,85.2500026016236,0|2,0:0|0:0,0:0:0:0:
254,74,126743,1,8,0:0:0:0:
284,234,126901,1,2,0:0:0:0:
134,178,127059,1,8,0:0:0:0:
362,94,127217,1,0,3:0:0:0:
399,74,127296,1,0,3:0:0:0:
441,74,127374,1,2,3:2:0:0:
478,94,127453,1,0,3:0:0:0:
501,128,127531,1,0,0:0:0:0:
506,171,127611,1,0,3:0:0:0:
490,210,127690,6,0,L|475:320,1,92.9999971618653,4|0,0:0|0:0,0:0:0:0:
326,368,128006,2,0,L|313:275,1,92.9999971618653,8|0,0:0|0:0,0:0:0:0:
416,164,128322,2,0,L|401:274,1,92.9999971618653,0|0,0:0|0:0,0:0:0:0:
313,275,128637,1,8,0:0:0:0:
220,217,128796,1,0,0:0:0:0:
308,178,128952,1,2,0:0:0:0:
215,298,129111,5,0,0:0:0:0:
223,127,129269,1,8,0:0:0:0:
313,275,129427,1,0,0:0:0:0:
220,217,129585,1,0,0:0:0:0:
311,97,129743,1,2,0:0:0:0:
313,275,129901,1,8,1:2:0:0:
223,127,130059,1,0,0:0:0:0:
163,280,130217,6,0,P|114:292|69:273,1,92.9999971618653,2|0,0:0|0:0,0:0:0:0:
123,128,130532,1,8,1:2:0:0:
120,217,130690,1,0,0:2:0:0:
76,65,130848,6,0,P|120:52|181:73,1,92.9999971618653,0|2,0:0|0:0,0:0:0:0:
41,168,131164,1,8,0:0:0:0:
120,217,131322,1,0,0:0:0:0:
123,128,131480,5,2,0:0:0:0:
66,285,131638,1,0,0:0:0:0:
201,171,131796,2,0,L|219:271,1,92.9999971618653,8|0,1:2|0:0,0:0:0:0:
280,137,132111,1,0,0:0:0:0:
291,301,132269,1,2,0:0:0:0:
365,117,132427,2,0,L|347:217,1,92.9999971618653,8|0,1:2|0:0,0:0:0:0:
201,171,132743,6,0,L|184:79,1,92.9999971618653,4|0,0:0|0:0,0:0:0:0:
289,223,133059,2,0,L|272:314,1,92.9999971618653,8|0,0:0|0:0,0:0:0:0:
290,141,133374,2,0,L|381:124,1,92.9999971618653,2|2,0:0|0:0,0:0:0:0:
210,229,133689,2,0,L|118:212,1,92.9999971618653,8|0,0:0|0:0,0:0:0:0:
228,61,134005,6,0,P|206:105|211:152,1,92.9999971618653,2|0,0:0|0:0,0:0:0:0:
271,314,134321,2,0,P|293:270|288:223,1,92.9999971618653,2|0,0:0|0:0,0:0:0:0:
118,212,134638,2,0,L|209:228,1,92.9999971618653,0|2,0:0|0:0,0:0:0:0:
381,123,134953,2,0,L|289:139,1,92.9999971618653,8|0,1:2|0:0,0:0:0:0:
450,210,135269,6,0,B|496:117|431:15,1,185.999994323731,2|8,0:0|0:0,0:0:0:0:
359,198,135743,1,0,0:0:0:0:
297,54,135901,2,0,P|241:46|202:60,1,92.9999971618653,0|2,0:0|0:0,0:0:0:0:
65,157,136217,2,0,P|121:165|160:151,1,92.9999971618653,8|0,0:0|0:0,0:0:0:0:
108,86,136532,1,0,0:0:0:0:
7,264,136690,6,0,L|2:317,1,46.4999985809327
211,268,136848,2,0,L|217:318,1,46.4999985809327,12|0,0:0|0:0,0:0:0:0:
108,86,137006,1,0,0:0:0:0:
110,240,137164,1,0,0:0:0:0:
230,82,137322,5,8,0:2:0:0:
0,78,137479,1,4,0:0:0:0:
168,19,137637,1,0,0:0:0:0:
91,325,137796,6,0,P|30:260|88:159,1,185.999994323731,4|8,0:0|0:0,0:0:0:0:
263,243,138269,2,0,B|116:239|116:239|142:232|158:218,1,185.999994323731,0|2,0:0|0:0,0:0:0:0:
296,160,138742,1,8,0:0:0:0:
248,325,138901,1,0,0:0:0:0:
199,161,139058,1,2,0:0:0:0:
345,241,139217,5,0,0:0:0:0:
296,160,139374,1,8,0:0:0:0:
236,318,139532,1,0,0:0:0:0:
239,94,139690,5,0,0:0:0:0:
236,318,139846,1,2,0:0:0:0:
239,94,140005,1,8,0:0:0:0:
236,318,140163,1,0,0:0:0:0:
71,84,140322,6,0,B|46:135|57:174|57:174|90:193|108:268,1,185.999994323731,4|8,0:0|0:0,0:0:0:0:
174,128,140796,1,0,0:0:0:0:
338,217,140953,2,0,B|400:183|390:138|390:138|348:112|302:129,1,185.999994323731,0|8,0:0|0:0,0:0:0:0:
300,299,141427,1,0,0:0:0:0:
472,155,141585,6,0,P|464:96|436:68,1,92.9999971618653,2|0,0:0|0:0,0:0:0:0:
483,251,141901,2,0,P|491:310|519:338,1,92.9999971618653,8|0,0:0|0:0,0:0:0:0:
391,139,142217,1,0,0:0:0:0:
300,299,142374,1,2,0:0:0:0:
261,84,142532,2,0,L|250:189,1,92.9999971618653,8|0,0:0|0:0,0:0:0:0:
121,370,142847,6,0,B|92:296|92:296|99:166,1,201.499990776062,4|0,0:0|0:0,0:0:0:0:
104,42,143322,1,0,0:0:0:0:
171,203,143480,1,2,0:0:0:0:
21,96,143638,1,2,0:0:0:0:
187,98,143796,1,8,0:0:0:0:
26,205,143953,1,0,0:0:0:0:
238,30,144111,6,0,B|283:83|283:83|258:204,1,151.124993082047,2|0,0:0|0:0,0:0:0:0:
261,188,144427,1,8,0:0:0:0:
385,254,144585,2,0,L|358:142,1,100.749995388031
284,360,144901,1,2,0:0:0:0:
199,258,145059,1,8,0:0:0:0:
385,254,145217,1,0,0:0:0:0:
191,336,145374,6,0,P|134:343|87:321,1,100.749995388031,4|2,0:0|0:0,0:0:0:0:
381,340,145690,2,0,P|438:347|485:325,1,100.749995388031,0|2,0:0|0:0,0:0:0:0:
288,99,146005,1,8,0:0:0:0:
284,272,146163,1,0,0:0:0:0:
288,99,146321,1,2,0:0:0:0:
161,264,146480,6,0,B|173:196|141:166|141:166|179:120|159:49,1,201.499990776062,4|0,0:0|0:0,0:0:0:0:
287,189,146953,1,8,0:0:0:0:
376,62,147111,1,0,3:0:0:0:
376,62,147190,1,0,3:0:0:0:
376,62,147269,1,0,3:0:0:0:
449,223,147427,1,2,0:0:0:0:
288,99,147585,1,2,0:0:0:0:
284,272,147743,1,2,0:0:0:0:
148,157,147901,6,0,L|137:238,1,58.1250022172929,4|0,0:0|0:0,0:0:0:0:
36,71,148217,2,0,L|25:-10,1,58.1250022172929,0|2,0:0|0:0,0:0:0:0:
148,157,148532,2,0,L|137:238,1,58.1250022172929,0|0,0:0|0:0,0:0:0:0:
36,71,148848,2,0,L|25:-10,1,58.1250022172929,0|0,0:0|0:0,0:0:0:0:
254,311,149164,6,0,L|246:253,1,58.1250022172929,2|0,0:0|0:0,0:0:0:0:
148,157,149480,2,0,L|140:214,1,58.1250022172929,0|2,0:0|0:0,0:0:0:0:
254,311,149796,2,0,L|246:253,1,58.1250022172929,2|0,0:0|0:0,0:0:0:0:
148,157,150111,2,0,L|140:214,1,58.1250022172929,8|2,0:0|0:0,0:0:0:0:
324,67,150427,5,0,0:0:0:0:
319,165,150585,1,0,0:0:0:0:
236,112,150743,1,0,0:0:0:0:
231,211,150901,1,2,0:0:0:0:
146,79,151059,2,0,L|148:164,1,77.5,8|2,0:0|0:0,0:0:0:0:
144,256,151374,1,0,0:0:0:0:
61,203,151532,1,0,0:0:0:0:
231,211,151690,1,0,3:0:0:0:
147,156,151848,5,0,0:0:0:0:
147,156,151927,1,0,3:0:0:0:
147,156,152006,1,0,3:0:0:0:
57,301,152164,1,0,0:0:0:0:
61,110,152322,1,0,3:0:0:0:
144,256,152480,1,0,3:0:0:0:
61,203,152638,1,0,3:0:0:0:
57,301,152796,1,0,0:0:0:0:
159,355,152953,6,0,L|264:343,2,77.5,4|0|8,0:0|0:0|0:0,0:0:0:0:
317,266,153585,6,0,L|422:254,1,77.5,0|0,0:0|0:0,0:0:0:0:
394,162,153901,1,8,0:0:0:0:
411,143,154217,6,0,L|492:149,2,77.5,2|2|0,0:0|0:0|0:0,0:0:0:0:
199,52,154848,6,0,L|172:150,1,77.5,0|0,0:0|0:0,0:0:0:0:
297,231,155164,2,0,L|276:156,1,77.5,0|0,0:0|0:0,0:0:0:0:
314,91,155480,5,4,0:0:0:0:
188,199,155638,1,0,0:0:0:0:
199,52,155796,1,8,0:0:0:0:
297,231,155952,1,0,3:0:0:0:
80,78,156110,1,0,3:0:0:0:
153,335,156268,1,0,0:0:0:0:
320,108,156427,6,0,L|388:105,1,38.75,8|0,3:2|3:0,0:0:0:0:
492,245,156585,2,0,L|424:242,1,38.75,0|0,3:0|3:0,0:0:0:0:
241,148,156742,5,2,0:0:0:0:
153,335,157059,1,2,0:0:0:0:
75,150,157374,1,2,0:0:0:0:
3,344,157690,1,2,0:0:0:0:
266,79,158005,6,0,P|319:119|403:83,1,155,2|0,0:0|0:0,0:0:0:0:
334,41,158479,1,2,0:0:0:0:
215,136,158637,2,0,P|313:197|442:157,1,232.5,2|0,0:0|0:0,0:0:0:0:
171,304,159268,6,0,P|146:352|157:408,1,77.5,2|0,0:0|0:0,0:0:0:0:
258,305,159584,1,2,0:0:0:0:
191,217,159742,1,2,0:0:0:0:
100,279,159900,2,0,P|133:300|172:303,1,77.5,2|0,0:0|0:0,0:0:0:0:
84,207,160216,2,0,P|49:225|27:257,1,77.5,2|0,0:0|0:0,0:0:0:0:
160,229,160531,6,0,P|189:145|162:66,1,155,2|0,0:0|0:0,0:0:0:0:
71,75,161005,1,2,0:0:0:0:
166,11,161163,1,2,0:0:0:0:
79,173,161637,1,2,0:0:0:0:
160,229,161795,5,2,0:0:0:0:
253,162,162110,1,2,0:0:0:0:
347,229,162426,1,2,0:0:0:0:
313,338,162742,1,2,0:0:0:0:
111,91,163058,5,2,3:2:0:0:
236,174,163374,1,2,0:0:0:0:
101,242,163690,1,2,0:0:0:0:
227,325,164006,1,2,0:0:0:0:
327,164,164322,5,2,0:0:0:0:
227,325,164638,1,2,0:0:0:0:
204,142,164953,1,2,0:0:0:0:
320,293,165269,1,2,0:0:0:0:
320,293,165427,1,0,0:0:0:0:
430,77,165584,5,4,0:0:0:0:
219,238,165743,1,0,3:0:0:0:
219,238,165822,1,0,3:0:0:0:
219,238,165901,1,0,3:0:0:0:
484,319,166059,2,0,L|484:223,1,77.5,0|0,0:0|0:0,0:0:0:0:
232,130,166374,5,2,0:0:0:0:
408,288,166531,1,0,0:0:0:0:
219,238,166690,1,4,0:0:0:0:
430,77,166848,6,0,L|419:185,1,77.5,0|2,0:0|0:0,0:0:0:0:
333,323,167164,1,8,3:2:0:0:
306,117,167322,1,0,3:0:0:0:
306,117,167401,1,0,3:0:0:0:
306,117,167480,1,0,3:0:0:0:
219,238,167638,1,0,3:0:0:0:
422,154,167796,1,0,3:0:0:0:
178,90,167953,1,0,3:0:0:0:
368,374,168110,6,0,L|370:285,1,85.2500026016236,4|0,0:0|0:0,0:0:0:0:
395,21,168426,1,8,0:0:0:0:
352,203,168585,1,0,3:0:0:0:
352,203,168664,1,0,3:0:0:0:
352,203,168743,5,8,0:0:0:0:
395,21,168901,1,2,0:0:0:0:
252,170,169059,1,8,0:0:0:0:
441,229,169217,1,0,0:0:0:0:
264,66,169374,6,0,P|194:51|158:84,1,85.2500026016236,8|2,0:0|0:0,0:0:0:0:
130,195,169689,1,8,0:0:0:0:
92,45,169848,1,2,0:0:0:0:
150,271,170005,1,8,0:0:0:0:
186,141,170163,1,2,0:0:0:0:
243,363,170322,1,8,0:0:0:0:
110,119,170480,1,2,0:0:0:0:
0,384,170638,6,0,B|2:210|2:210|9:246|33:271,1,232.5,4|0,0:0|0:0,0:0:0:0:
207,147,171269,2,0,P|116:123|146:213,1,232.5,4|0,0:0|0:0,0:0:0:0:
303,69,171901,2,0,B|349:123|320:185|320:185|287:248|342:315,1,232.5,4|0,0:0|0:0,0:0:0:0:
454,295,172532,5,8,0:0:0:0:
382,345,172690,1,0,0:0:0:0:
406,173,172848,1,0,0:0:0:0:
507,384,173006,1,0,0:0:0:0:
245,125,173164,2,0,L|253:228,1,85.2500026016236,2|0,0:0|0:0,0:0:0:0:
135,330,173480,2,0,L|143:227,1,85.2500026016236,8|0,0:0|0:0,0:0:0:0:
117,104,173796,5,2,0:0:0:0:
238,296,173953,1,2,0:0:0:0:
379,60,174111,2,0,L|372:197,1,127.875003902435,8|0,0:0|0:0,0:0:0:0:
371,208,174427,5,2,0:0:0:0:
479,104,174585,1,0,3:0:0:0:
282,118,174743,1,8,0:0:0:0:
456,311,174901,1,0,0:0:0:0:
379,60,175059,1,2,0:0:0:0:
216,314,175217,1,2,0:0:0:0:
216,314,175296,1,0,0:0:0:0:
216,314,175374,6,0,L|207:206,1,85.2500026016236,8|0,0:0|0:0,0:0:0:0:
208,83,175690,5,4,0:0:0:0:
322,187,175848,1,2,0:0:0:0:
349,9,176006,1,8,0:0:0:0:
264,138,176164,1,2,0:0:0:0:
467,93,176321,5,8,0:0:0:0:
377,277,176480,1,2,0:0:0:0:
376,85,176638,1,8,0:0:0:0:
243,272,176796,1,2,0:0:0:0:
467,93,176953,5,8,0:0:0:0:
492,322,177111,1,2,0:0:0:0:
317,23,177269,1,8,0:0:0:0:
243,272,177427,1,2,0:0:0:0:
48,159,177584,5,8,0:0:0:0:
386,99,177743,1,2,0:0:0:0:
202,384,177901,1,8,0:0:0:0:
163,34,178059,1,2,0:0:0:0:
356,258,178217,5,8,3:2:0:0:
349,204,178296,1,0,3:0:0:0:
314,164,178374,1,0,3:0:0:0:
262,151,178453,1,0,3:0:0:0:
212,169,178532,1,8,3:2:0:0:
181,212,178611,1,0,3:0:0:0:
179,265,178690,1,0,3:0:0:0:
208,310,178769,1,0,3:0:0:0:
258,331,178848,5,8,3:2:0:0:
273,276,178927,1,0,3:0:0:0:
259,220,179006,1,0,3:0:0:0:
219,179,179085,1,0,3:0:0:0:
163,164,179164,1,8,3:2:0:0:
108,180,179243,1,0,3:0:0:0:
68,221,179322,1,0,3:0:0:0:
54,277,179401,1,0,3:0:0:0:
70,332,179479,5,2,0:0:0:0:
68,221,179796,1,2,0:0:0:0:
163,164,180111,1,2,0:0:0:0:
259,220,180427,1,2,0:0:0:0:
42,375,180743,6,0,L|28:140,1,232.500008869171,4|8,0:0|0:0,0:0:0:0:
126,308,181217,1,0,0:0:0:0:
207,72,181374,1,2,0:0:0:0:
338,276,181532,1,2,0:0:0:0:
99,141,181690,1,8,0:0:0:0:
343,35,181848,1,0,3:0:0:0:
343,35,181927,1,0,3:0:0:0:
343,35,182006,6,0,P|364:90|336:168,1,116.250004434586,2|0,0:0|0:0,0:0:0:0:
275,339,182322,1,8,0:0:0:0:
239,132,182480,1,0,0:0:0:0:
136,303,182638,2,0,P|115:248|143:170,1,116.250004434586,2|2,0:0|0:0,0:0:0:0:
275,339,182953,1,8,0:0:0:0:
383,231,183111,1,2,0:0:0:0:
81,359,183269,6,0,P|42:257|93:114,1,232.500008869171,4|8,0:0|0:0,0:0:0:0:
303,25,183743,1,0,0:0:0:0:
197,172,183901,1,2,0:0:0:0:
148,17,184059,1,2,0:0:0:0:
304,220,184217,1,8,0:0:0:0:
71,140,184374,2,0,B|59:167|51:195,1,58.1250022172929,0|0,3:0|3:0,0:0:0:0:
288,328,184531,6,0,P|313:275|289:199,1,116.250004434586,2|2,0:0|0:0,0:0:0:0:
219,63,184848,2,0,P|194:116|207:195,1,116.250004434586,8|0,0:0|0:0,0:0:0:0:
344,69,185164,1,2,0:0:0:0:
73,141,185322,1,2,0:0:0:0:
288,328,185479,2,0,P|313:275|289:199,1,116.250004434586,8|2,0:0|0:0,0:0:0:0:
46,246,185796,6,0,B|227:261|227:261|169:233,1,232.500008869171,4|8,0:0|0:0,0:0:0:0:
73,141,186269,1,0,0:0:0:0:
212,354,186427,1,2,0:0:0:0:
305,131,186585,1,2,0:0:0:0:
46,246,186743,1,8,0:0:0:0:
368,28,186901,6,0,L|399:298,1,232.500008869171,4|2,0:0|0:0,0:0:0:0:
452,112,187374,1,8,0:0:0:0:
303,289,187532,2,0,P|415:345|488:284,1,232.500008869171,0|0,0:0|0:0,0:0:0:0:
232,165,188006,1,8,0:0:0:0:
222,320,188164,1,2,0:0:0:0:
376,110,188322,5,12,0:0:0:0:
75,214,188480,1,2,0:0:0:0:
386,218,188638,1,2,0:0:0:0:
207,27,188796,5,8,0:0:0:0:
151,362,188953,1,0,0:0:0:0:
168,140,189110,1,2,0:0:0:0:
352,326,189268,1,2,0:0:0:0:
16,273,189427,1,8,0:0:0:0:
295,68,189585,6,0,L|276:245,1,174.375006651879,0|0,0:0|0:0,0:0:0:0:
274,273,189901,1,8,3:2:0:0:
217,278,189980,1,0,3:0:0:0:
169,248,190059,1,0,3:0:0:0:
149,194,190138,1,0,3:0:0:0:
168,140,190217,1,8,3:2:0:0:
186,85,190296,1,0,3:0:0:0:
166,32,190374,1,0,3:0:0:0:
118,1,190453,1,0,3:0:0:0:
61,7,190532,5,8,3:2:0:0:
14,39,190611,1,0,3:0:0:0:
0,93,190690,1,0,3:0:0:0:
10,148,190769,1,0,3:0:0:0:
54,184,190847,6,0,L|99:68,1,116.250004434586,12|0,0:0|0:0,0:0:0:0:
211,356,191163,2,0,L|166:240,1,116.250004434586,12|0,0:0|0:0,0:0:0:0:
274,108,191480,1,8,0:0:0:0:
34,294,191638,1,0,0:0:0:0:
296,216,191796,1,8,0:0:0:0:
26,150,191953,1,2,0:0:0:0:
215,383,192110,6,0,P|240:327|236:254,1,116.250004434586,8|0,0:0|0:0,0:0:0:0:
134,93,192426,2,0,P|114:155|124:217,1,116.250004434586,8|2,0:0|0:0,0:0:0:0:
257,148,192743,1,8,0:0:0:0:
5,27,192901,1,2,0:0:0:0:
92,275,193059,1,8,3:2:0:0:
135,275,193138,1,0,3:0:0:0:
179,275,193217,1,0,3:0:0:0:
222,275,193296,1,0,3:0:0:0:
266,275,193374,6,0,L|103:304,1,116.250004434586,4|0,3:2|0:0,0:0:0:0:
453,358,193690,1,0,3:0:0:0:
410,358,193769,1,0,3:0:0:0:
366,358,193848,1,0,3:0:0:0:
323,358,193927,1,0,3:0:0:0:
279,358,194006,6,0,L|442:329,1,116.250004434586,4|0,3:2|0:0,0:0:0:0:
304,211,194322,2,0,L|310:154,1,58.1250022172929,0|0,3:0|3:0,0:0:0:0:
460,203,194480,2,0,L|466:261,1,58.1250022172929,0|0,3:0|3:0,0:0:0:0:
222,275,194638,6,0,B|203:191|203:191|230:122|230:122|220:39,1,232.500008869171,4|8,0:0|0:0,0:0:0:0:
117,121,195110,1,0,3:0:0:0:
117,121,195268,2,0,L|103:244,1,116.250004434586,2|0,0:0|0:0,0:0:0:0:
24,62,195585,1,0,3:0:0:0:
202,179,195743,1,0,3:0:0:0:
39,284,195901,6,0,P|96:317|159:299,1,116.250004434586,4|0,0:0|0:0,0:0:0:0:
275,101,196217,2,0,P|217:133|202:197,1,116.250004434586,8|0,0:0|0:0,0:0:0:0:
314,384,196532,2,0,P|314:318|266:272,1,116.250004434586,2|2,0:0|0:0,0:0:0:0:
103,236,196848,1,8,0:0:0:0:
165,375,197006,1,0,0:0:0:0:
184,60,197164,37,2,0:0:0:0:
202,249,197322,1,0,0:0:0:0:
293,9,197480,1,8,0:0:0:0:
305,278,197638,1,0,3:0:0:0:
305,278,197717,1,0,3:0:0:0:
305,278,197796,1,2,0:0:0:0:
398,60,197953,1,2,0:0:0:0:
386,331,198111,1,8,0:0:0:0:
480,126,198269,1,0,3:0:0:0:
480,126,198348,1,0,3:0:0:0:
480,126,198427,6,0,P|481:184|471:241,1,116.250004434586,4|2,0:0|0:0,0:0:0:0:
386,331,198743,1,8,0:0:0:0:
321,160,198901,1,2,0:0:0:0:
255,339,199059,5,2,0:0:0:0:
321,160,199217,1,2,0:0:0:0:
481,353,199374,1,8,0:0:0:0:
413,122,199532,1,0,0:0:0:0:
190,233,199690,5,8,0:0:0:0:
495,89,199848,1,0,0:0:0:0:
406,241,200006,1,2,0:0:0:0:
257,24,200164,5,8,0:0:0:0:
280,267,200322,1,0,0:0:0:0:
467,19,200480,1,2,0:0:0:0:
383,315,200638,5,8,0:0:0:0:
190,233,200796,1,0,0:0:0:0:
465,140,200953,5,8,0:0:0:0:
285,360,201111,1,0,0:0:0:0:
263,70,201269,1,2,0:0:0:0:
173,358,201426,5,0,3:0:0:0:
186,29,201584,1,0,3:0:0:0:
94,235,201742,1,0,3:0:0:0:
425,217,201901,5,8,0:0:0:0:
101,40,202059,1,0,0:0:0:0:
290,353,202217,5,8,0:0:0:0:
375,12,202374,1,8,0:0:0:0:
174,183,202532,1,0,0:0:0:0:
425,217,202690,1,8,0:0:0:0:
209,87,202847,2,0,L|139:98,1,62,8|0,3:2|0:0,0:0:0:0:
392,129,203005,2,0,L|462:140,1,62,8|0,3:2|0:0,0:0:0:0:
142,285,203163,6,0,L|72:296,1,62,8|0,3:2|0:0,0:0:0:0:
395,301,203321,2,0,L|465:312,1,62,8|0,3:2|0:0,0:0:0:0:
144,97,203479,5,12,0:0:0:0:
94,127,203558,1,0,3:0:0:0:
74,180,203637,1,0,3:0:0:0:
91,236,203716,1,0,3:0:0:0:
138,269,203795,1,8,0:0:0:0:
196,266,203874,1,0,3:0:0:0:
239,230,203952,5,4,0:0:0:0:
272,176,204031,1,0,3:0:0:0:
325,146,204110,1,8,0:0:0:0:
388,146,204189,1,0,3:0:0:0:
441,176,204268,1,0,3:0:0:0:
474,229,204346,1,0,3:0:0:0:
476,291,204426,1,8,0:0:0:0:
447,346,204505,1,0,3:0:0:0:
395,379,204584,1,0,3:0:0:0:
333,383,204663,1,0,3:0:0:0:
278,356,204742,5,12,0:0:0:0:
241,301,204821,1,0,3:0:0:0:
234,236,204900,1,0,3:0:0:0:
260,174,204979,1,0,3:0:0:0:
280,112,205058,1,8,0:0:0:0:
260,50,205137,1,0,3:0:0:0:
205,13,205216,5,4,0:0:0:0:
136,0,205295,1,0,3:0:0:0:
77,34,205374,1,8,0:0:0:0:
54,99,205452,1,0,3:0:0:0:
77,163,205531,1,0,3:0:0:0:
137,198,205610,1,0,3:0:0:0:
135,129,205689,1,8,0:0:0:0:
183,79,205768,1,0,3:0:0:0:
252,79,205847,1,0,3:0:0:0:
299,129,205926,1,0,3:0:0:0:
297,198,206005,5,12,0:0:0:0:
237,156,206083,1,0,3:0:0:0:
221,84,206163,1,0,3:0:0:0:
257,21,206242,1,0,3:0:0:0:
325,0,206321,1,8,0:0:0:0:
392,25,206400,1,0,3:0:0:0:
423,90,206479,5,4,0:0:0:0:
425,168,206558,1,0,3:0:0:0:
385,234,206637,1,8,0:0:0:0:
315,268,206715,1,0,3:0:0:0:
238,260,206795,1,0,3:0:0:0:
178,212,206874,1,0,3:0:0:0:
153,139,206952,1,8,0:0:0:0:
222,179,207031,1,0,3:0:0:0:
247,256,207110,1,0,3:0:0:0:
212,329,207189,1,0,3:0:0:0:
124,360,207268,5,8,0:0:0:0:
448,72,208374,6,0,L|457:147,4,40.6874987583161,0|0|0|0|0,3:0|0:0|0:0|0:0|3:0,0:0:0:0:
448,72,208847,6,0,P|386:45|301:87,1,124,4|0,0:0|0:0,0:0:0:0:
341,297,209164,1,2,0:0:0:0:
383,120,209322,1,2,0:0:0:0:
213,254,209480,1,8,0:0:0:0:
497,200,209638,1,0,3:0:0:0:
497,200,209717,1,0,3:0:0:0:
497,200,209796,6,0,P|473:294|335:288,1,248,2|8,0:0|0:0,0:0:0:0:
386,38,210269,2,0,B|404:215|404:215|409:167|427:137,1,248,0|2,0:0|0:0,0:0:0:0:
473,60,210742,1,8,2:0:0:0:
315,227,210900,1,0,0:0:0:0:
229,55,211058,6,0,P|163:47|114:75,1,124,2|0,0:0|0:0,0:0:0:0:
143,255,211374,2,0,P|182:201|183:145,1,124,8|0,0:0|0:0,0:0:0:0:
42,184,211690,1,2,0:0:0:0:
260,377,211848,1,2,0:0:0:0:
115,82,212006,1,8,0:0:0:0:
71,330,212164,5,0,3:0:0:0:
71,330,212243,1,0,3:0:0:0:
71,330,212322,2,0,B|134:366|192:322|192:322|258:276|326:318,1,248,2|8,0:0|0:0,0:0:0:0:
42,184,212796,2,0,B|73:258|131:268|131:268|164:236|158:146,1,248,0|2,0:0|0:0,0:0:0:0:
25,12,213269,1,8,0:0:0:0:
40,182,213427,1,2,0:0:0:0:
221,44,213585,6,0,L|353:47,1,124,4|0,0:0|0:0,0:0:0:0:
215,260,213901,2,0,L|151:143,1,124,8|0,0:0|0:0,0:0:0:0:
407,158,214217,2,0,L|347:267,1,124,2|2,0:0|0:0,0:0:0:0:
281,128,214532,1,8,0:0:0:0:
335,351,214690,6,0,P|276:374|192:327,1,124,4|0,0:0|0:0,0:0:0:0:
136,222,215005,1,2,0:0:0:0:
276,300,215163,1,2,0:0:0:0:
82,379,215321,6,0,P|59:320|106:236,1,124,8|2,0:0|0:0,0:0:0:0:
281,128,215638,1,0,0:0:0:0:
219,357,215796,1,0,0:0:0:0:
205,171,215953,1,0,3:0:0:0:
436,361,216110,5,8,2:0:0:0:
133,224,216269,1,0,0:0:0:0:
356,71,216427,1,0,0:0:0:0:
208,270,216585,5,8,0:0:0:0:
435,159,216743,1,0,0:0:0:0:
152,55,216901,1,0,0:0:0:0:
350,342,217059,5,0,0:0:0:0:
278,26,217217,2,0,L|292:214,1,186,8|0,0:0|0:0,0:0:0:0:
296,247,217532,1,0,0:0:0:0:
388,136,217690,5,8,3:2:0:0:
381,103,217769,1,0,3:0:0:0:
365,74,217848,1,0,3:2:0:0:
341,49,217927,1,0,3:0:0:0:
311,33,218005,5,8,3:2:0:0:
278,26,218084,1,0,3:0:0:0:
245,28,218164,1,0,3:2:0:0:
213,40,218243,1,0,3:0:0:0:
186,60,218321,5,8,3:2:0:0:
166,88,218400,1,0,3:0:0:0:
155,119,218480,1,0,3:2:0:0:
153,153,218559,1,0,3:0:0:0:
158,189,218638,5,4,0:0:0:0:
265,118,218796,1,0,0:0:0:0:
197,326,218952,5,8,0:0:0:0:
265,114,219111,1,0,0:0:0:0:
319,315,219268,5,2,0:0:0:0:
139,235,219426,1,2,0:0:0:0:
265,114,219585,5,8,0:0:0:0:
324,384,219743,1,2,0:0:0:0:
469,185,219901,6,0,L|481:61,1,124,4|0,0:0|0:0,0:0:0:0:
253,265,220217,2,0,L|241:141,1,124,8|0,0:0|0:0,0:0:0:0:
503,260,220532,2,0,L|491:384,1,124,8|2,0:0|0:0,0:0:0:0:
259,328,220848,1,8,0:0:0:0:
254,281,220927,1,2,0:0:0:0:
250,235,221006,1,8,0:0:0:0:
246,189,221085,1,0,0:0:0:0:
242,142,221163,6,0,L|223:302,1,124,8|0,2:0|0:0,0:0:0:0:
41,369,221480,1,0,3:0:0:0:
45,322,221559,1,0,3:0:0:0:
50,276,221638,1,0,3:0:0:0:
54,230,221717,1,0,3:0:0:0:
58,183,221795,6,0,L|77:342,1,124,8|0,2:0|0:0,0:0:0:0:
130,110,222111,2,0,L|137:182,1,62,0|0,3:0|3:0,0:0:0:0:
226,292,222269,2,0,L|220:230,1,62,0|0,3:0|3:0,0:0:0:0:
237,60,222427,6,0,B|287:34|287:34|326:67|326:67|393:19|480:77,1,248,4|0,0:0|0:0,0:0:0:0:
347,270,222901,1,0,0:0:0:0:
393,127,223059,1,2,0:0:0:0:
437,316,223217,1,2,0:0:0:0:
301,130,223374,1,8,0:0:0:0:
254,236,223532,1,0,0:0:0:0:
157,68,223690,6,0,P|104:55|37:85,1,124,2|0,0:0|0:0,0:0:0:0:
254,236,224006,2,0,P|294:190|301:130,1,124,8|0,0:0|0:0,0:0:0:0:
37,291,224322,2,0,P|56:349|106:385,1,124,2|2,0:0|0:0,0:0:0:0:
300,129,224638,1,8,0:0:0:0:
124,297,224796,5,2,0:0:0:0:
340,40,224953,1,4,0:0:0:0:
362,338,225111,1,0,0:0:0:0:
39,45,225269,1,8,0:0:0:0:
418,142,225427,5,2,0:0:0:0:
209,358,225585,1,8,0:0:0:0:
282,20,225743,1,8,0:0:0:0:
392,371,225901,1,8,0:0:0:0:
70,65,226059,1,8,0:0:0:0:
169,49,227479,6,0,B|166:13|135:-16|85:-15|41:8|20:60|45:145|88:161|162:167|222:128|222:128|312:68|414:136|454:237|340:310|267:277|258:242|255:205|255:205|350:145|350:145|363:52|363:52|488:100|507:230|462:362|334:379|252:352|196:298|196:298|154:255|89:222|31:257|-4:322|12:369|50:404|92:400|114:376|121:350,1,1890.9999220932,4|0,0:0|0:0,0:0:0:0:
