osu file format v14

[General]
AudioFilename: audio.mp3
AudioLeadIn: 0
PreviewTime: 30425
Countdown: 0
SampleSet: Normal
StackLeniency: 0.7
Mode: 1
LetterboxInBreaks: 0
EpilepsyWarning: 1
WidescreenStoryboard: 1

[Editor]
DistanceSpacing: 2
BeatDivisor: 4
GridSize: 32
TimelineZoom: 2.1

[Metadata]
Title:Dilemma feat. Hatsune Miku
TitleUnicode:ジレンマ feat. 初音ミク
Artist:DECO*27
ArtistUnicode:DECO*27
Creator:TKS
Version:Muzukashii
Source:
Tags:Jirenma vocaloid deco27 japanese electronic rock j-rock jrock MANNEQUIN Rockwell 二家本 亮介 Ryosuke ryousuke Nikamoto Chromoxx
BeatmapID:3525491
BeatmapSetID:1723776

[Difficulty]
HPDrainRate:6
CircleSize:6.9
OverallDifficulty:5
ApproachRate:6.9
SliderMultiplier:1.4
SliderTickRate:1

[Events]
//Background and Video events
0,0,"FNUbiXgUYAIjHYi.jpg",0,50
Video,-150,"video.mp4"
//Break Periods
//Storyboard Layer 0 (Background)
//Storyboard Layer 1 (Fail)
//Storyboard Layer 2 (Pass)
//Storyboard Layer 3 (Foreground)
//Storyboard Layer 4 (Overlay)
//Storyboard Sound Samples

[TimingPoints]
346,319.148936170213,4,1,0,60,1,0
346,-100,4,1,0,60,0,0
9255,-100,4,1,0,75,0,0
10532,-100,4,1,0,85,0,0
20744,-100,4,1,0,60,0,0
25798,-100,4,1,0,85,0,0
30984,-100,4,1,0,90,0,1
51409,-100,4,1,0,90,0,0
60346,-100,4,1,0,50,0,0
61596,-100,4,1,0,75,0,0
71808,-100,4,1,0,85,0,0
82048,-100,4,1,0,85,0,1
102473,-100,4,1,0,85,0,0
112739,-100,4,1,0,60,0,0
116808,-100,4,1,0,30,0,0
117766,-100,4,1,0,85,0,0
124175,319.148936170213,4,1,0,90,1,1
124175,-100,4,1,0,90,0,1
144600,-100,4,1,0,90,0,0
144680,-100,4,1,0,80,0,0
154813,-100,4,1,0,90,0,0
163749,-100,4,1,0,50,0,0

[HitObjects]
383,163,346,5,0,0:0:0:0:
235,156,665,1,0,0:0:0:0:
215,178,984,1,8,0:0:0:0:
198,199,1303,1,0,0:0:0:0:
198,199,1463,1,0,0:0:0:0:
198,199,1782,1,0,0:0:0:0:
198,199,1941,1,8,0:0:0:0:
198,199,2101,1,0,0:0:0:0:
265,220,2899,1,8,0:0:0:0:
265,220,3218,1,8,0:0:0:0:
221,239,3537,1,0,0:0:0:0:
221,239,3856,1,8,0:0:0:0:
221,239,4016,1,8,0:0:0:0:
212,241,4335,1,8,0:0:0:0:
212,241,4494,1,0,0:0:0:0:
212,241,4654,1,8,0:0:0:0:
211,224,5452,1,0,0:0:0:0:
211,224,5771,1,0,0:0:0:0:
211,224,6090,1,8,0:0:0:0:
211,224,6409,1,0,0:0:0:0:
211,224,6569,1,0,0:0:0:0:
211,224,6888,1,0,0:0:0:0:
211,224,7048,1,8,0:0:0:0:
211,224,7207,1,0,0:0:0:0:
220,205,8005,1,8,0:0:0:0:
220,205,8324,1,8,0:0:0:0:
220,205,8643,1,0,0:0:0:0:
153,219,8803,1,0,0:0:0:0:
153,219,8963,1,8,0:0:0:0:
244,211,9282,1,0,0:0:0:0:
221,215,9441,1,0,0:0:0:0:
221,215,9601,1,8,0:0:0:0:
221,215,9760,1,0,0:0:0:0:
221,215,9920,1,0,0:0:0:0:
221,215,10080,1,8,0:0:0:0:
282,271,10558,1,4,0:0:0:0:
166,258,10877,1,8,0:0:0:0:
166,258,11037,1,0,0:0:0:0:
166,258,11356,1,0,0:0:0:0:
166,258,11516,1,8,0:0:0:0:
159,265,11835,1,0,0:0:0:0:
159,265,11994,1,0,0:0:0:0:
260,242,12154,1,8,0:0:0:0:
260,242,12314,1,8,0:0:0:0:
260,242,12473,1,0,0:0:0:0:
307,283,12792,1,0,0:0:0:0:
214,227,13111,1,8,0:0:0:0:
204,250,13431,1,0,0:0:0:0:
196,263,13590,1,8,0:0:0:0:
196,263,13909,1,8,0:0:0:0:
196,263,14069,1,0,0:0:0:0:
254,276,14388,1,8,0:0:0:0:
254,276,14548,1,8,0:0:0:0:
254,276,14707,1,0,0:0:0:0:
254,276,14867,1,0,0:0:0:0:
254,276,15026,1,8,0:0:0:0:
192,246,15186,1,0,0:0:0:0:
282,271,15665,1,12,0:0:0:0:
166,258,15984,1,0,0:0:0:0:
166,258,16143,1,8,0:0:0:0:
166,258,16463,1,8,0:0:0:0:
166,258,16622,1,0,0:0:0:0:
159,265,16941,1,8,0:0:0:0:
159,265,17101,1,8,0:0:0:0:
260,242,17260,1,0,0:0:0:0:
260,242,17420,1,0,0:0:0:0:
260,242,17580,1,8,0:0:0:0:
112,195,17899,1,8,0:0:0:0:
199,120,18218,1,0,0:0:0:0:
199,120,18537,1,8,0:0:0:0:
199,120,18697,1,0,0:0:0:0:
166,184,19016,1,0,0:0:0:0:
166,184,19175,1,8,0:0:0:0:
304,246,19335,1,8,0:0:0:0:
215,248,19494,1,0,0:0:0:0:
215,248,19814,1,8,0:0:0:0:
199,237,19973,1,0,0:0:0:0:
215,248,20452,1,8,0:0:0:0:
352,204,20771,1,8,0:0:0:0:
352,204,21409,1,8,0:0:0:0:
352,204,22048,1,8,0:0:0:0:
352,204,22367,1,8,0:0:0:0:
352,204,22686,1,8,0:0:0:0:
231,222,23324,1,8,0:0:0:0:
231,222,23643,1,8,0:0:0:0:
231,222,23963,1,8,0:0:0:0:
231,222,24441,1,8,0:0:0:0:
219,161,24760,1,8,0:0:0:0:
219,161,25080,1,8,0:0:0:0:
219,161,25239,1,8,0:0:0:0:
251,192,25877,1,4,0:0:0:0:
113,205,26197,1,8,0:0:0:0:
216,296,26356,1,8,0:0:0:0:
113,205,26516,1,0,0:0:0:0:
113,205,26675,1,0,0:0:0:0:
113,205,26835,1,8,0:0:0:0:
164,196,27154,1,0,0:0:0:0:
164,196,27473,1,8,0:0:0:0:
296,234,27633,1,8,0:0:0:0:
164,196,27792,1,0,0:0:0:0:
164,196,27952,1,8,0:0:0:0:
85,140,28111,1,0,0:0:0:0:
146,200,28431,1,8,0:0:0:0:
146,200,28590,1,8,0:0:0:0:
146,200,28750,1,0,0:0:0:0:
239,87,28909,1,0,0:0:0:0:
172,272,29069,1,8,0:0:0:0:
172,272,29228,1,8,0:0:0:0:
169,265,29308,1,8,0:0:0:0:
172,272,29388,1,8,0:0:0:0:
293,237,29548,1,4,0:0:0:0:
261,120,29867,1,4,0:0:0:0:
212,117,30186,1,4,0:0:0:0:
212,117,30346,1,4,0:0:0:0:
345,93,30984,1,12,0:0:0:0:
315,189,31303,1,0,0:0:0:0:
246,101,31463,1,12,0:0:0:0:
250,172,31782,1,0,0:0:0:0:
129,116,31941,1,12,0:0:0:0:
129,116,32101,1,12,0:0:0:0:
313,283,32420,1,0,0:0:0:0:
313,283,32580,1,8,0:0:0:0:
313,283,32739,1,8,0:0:0:0:
313,283,32899,1,0,0:0:0:0:
313,283,33058,1,0,0:0:0:0:
313,283,33218,1,8,0:0:0:0:
192,242,33377,1,0,0:0:0:0:
188,270,33697,1,8,0:0:0:0:
188,270,33856,1,8,0:0:0:0:
217,180,34016,1,0,0:0:0:0:
217,180,34175,1,8,0:0:0:0:
259,159,34335,1,0,0:0:0:0:
259,159,34494,1,8,0:0:0:0:
259,159,34654,1,8,0:0:0:0:
259,159,34814,1,0,0:0:0:0:
136,128,34973,1,0,0:0:0:0:
136,128,35133,1,0,0:0:0:0:
136,128,35292,1,8,0:0:0:0:
221,175,35771,1,8,0:0:0:0:
289,207,36090,1,4,0:0:0:0:
197,241,36409,1,8,0:0:0:0:
197,241,36569,1,0,0:0:0:0:
197,241,36888,1,0,0:0:0:0:
197,241,37048,1,8,0:0:0:0:
197,241,37207,1,8,0:0:0:0:
43,143,37367,1,0,0:0:0:0:
221,259,37686,1,8,0:0:0:0:
221,259,37846,1,0,0:0:0:0:
187,154,38165,1,0,0:0:0:0:
187,154,38324,1,8,0:0:0:0:
187,154,38484,1,8,0:0:0:0:
187,154,38643,1,0,0:0:0:0:
274,203,38963,1,8,0:0:0:0:
274,203,39122,1,8,0:0:0:0:
274,203,39282,1,0,0:0:0:0:
274,203,39441,1,0,0:0:0:0:
274,203,39601,1,8,0:0:0:0:
274,203,39760,1,0,0:0:0:0:
362,259,39920,1,8,0:0:0:0:
166,189,40000,1,8,0:0:0:0:
362,259,40080,1,8,0:0:0:0:
158,189,40239,1,0,0:0:0:0:
137,134,40319,1,0,0:0:0:0:
215,271,40399,1,0,0:0:0:0:
180,274,40558,1,8,0:0:0:0:
345,93,41197,1,4,0:0:0:0:
315,189,41516,1,8,0:0:0:0:
246,101,41675,1,4,0:0:0:0:
250,172,41994,1,8,0:0:0:0:
129,116,42154,1,4,0:0:0:0:
129,116,42314,1,4,0:0:0:0:
313,283,42633,1,8,0:0:0:0:
313,283,42792,1,0,0:0:0:0:
313,283,42952,1,0,0:0:0:0:
313,283,43111,1,8,0:0:0:0:
313,283,43271,1,8,0:0:0:0:
313,283,43431,1,0,0:0:0:0:
192,242,43590,1,8,0:0:0:0:
188,270,43909,1,0,0:0:0:0:
188,270,44069,1,0,0:0:0:0:
217,180,44228,1,8,0:0:0:0:
217,180,44388,1,0,0:0:0:0:
259,159,44548,1,8,0:0:0:0:
259,159,44707,1,0,0:0:0:0:
259,159,44867,1,0,0:0:0:0:
259,159,45026,1,8,0:0:0:0:
136,128,45186,1,8,0:0:0:0:
136,128,45346,1,8,0:0:0:0:
136,128,45505,1,0,0:0:0:0:
221,175,45984,1,0,0:0:0:0:
289,207,46303,1,12,0:0:0:0:
197,241,46622,1,0,0:0:0:0:
197,241,46782,1,8,0:0:0:0:
197,241,47101,1,8,0:0:0:0:
197,241,47260,1,0,0:0:0:0:
197,241,47420,1,0,0:0:0:0:
43,143,47580,1,8,0:0:0:0:
221,259,47899,1,0,0:0:0:0:
221,259,48058,1,8,0:0:0:0:
187,154,48377,1,8,0:0:0:0:
187,154,48537,1,0,0:0:0:0:
187,154,48697,1,0,0:0:0:0:
187,154,48856,1,8,0:0:0:0:
274,203,49175,1,0,0:0:0:0:
274,203,49335,1,0,0:0:0:0:
274,203,49494,1,8,0:0:0:0:
274,203,49654,1,8,0:0:0:0:
274,203,49814,1,0,0:0:0:0:
356,137,49973,1,8,0:0:0:0:
318,141,50133,1,0,0:0:0:0:
318,141,50213,1,0,0:0:0:0:
318,141,50292,1,0,0:0:0:0:
318,141,50452,1,8,0:0:0:0:
318,141,50532,1,8,0:0:0:0:
318,141,50611,1,8,0:0:0:0:
180,274,50771,1,0,0:0:0:0:
110,152,51409,1,12,0:0:0:0:
225,250,51728,1,0,0:0:0:0:
232,155,51888,1,8,0:0:0:0:
215,253,52207,1,8,0:0:0:0:
215,253,52367,1,0,0:0:0:0:
228,228,52686,1,8,0:0:0:0:
249,199,53005,1,8,0:0:0:0:
228,228,53165,1,0,0:0:0:0:
191,159,53324,1,8,0:0:0:0:
191,159,53484,1,8,0:0:0:0:
191,159,53643,1,0,0:0:0:0:
111,125,53803,1,8,0:0:0:0:
111,125,53963,1,0,0:0:0:0:
111,125,54282,1,8,0:0:0:0:
111,125,54441,1,8,0:0:0:0:
329,152,54601,1,0,0:0:0:0:
288,161,54760,1,0,0:0:0:0:
280,163,54920,1,8,0:0:0:0:
183,245,55080,1,8,0:0:0:0:
219,232,55399,1,0,0:0:0:0:
149,107,55558,1,0,0:0:0:0:
153,115,55877,1,8,0:0:0:0:
110,152,56516,1,4,0:0:0:0:
225,250,56835,1,8,0:0:0:0:
232,155,56994,1,0,0:0:0:0:
215,253,57314,1,0,0:0:0:0:
215,253,57473,1,8,0:0:0:0:
228,228,57792,1,0,0:0:0:0:
249,199,58111,1,0,0:0:0:0:
228,228,58271,1,8,0:0:0:0:
191,159,58431,1,0,0:0:0:0:
191,159,58590,1,0,0:0:0:0:
191,159,58750,1,8,0:0:0:0:
111,125,58909,1,0,0:0:0:0:
111,125,59069,1,8,0:0:0:0:
111,125,59388,1,0,0:0:0:0:
111,125,59548,1,0,0:0:0:0:
329,152,59707,1,8,0:0:0:0:
288,161,59867,1,8,0:0:0:0:
280,163,60026,1,0,0:0:0:0:
183,245,60186,1,0,0:0:0:0:
219,232,60505,1,8,0:0:0:0:
149,107,60665,1,0,0:0:0:0:
153,115,60824,1,8,0:0:0:0:
321,239,61622,1,0,0:0:0:0:
68,178,61941,1,8,0:0:0:0:
79,179,62101,1,0,0:0:0:0:
245,189,62420,1,0,0:0:0:0:
245,189,62580,1,8,0:0:0:0:
181,238,62739,1,0,0:0:0:0:
152,270,63058,1,8,0:0:0:0:
129,253,63218,1,0,0:0:0:0:
152,270,63377,1,8,0:0:0:0:
132,240,63697,1,0,0:0:0:0:
321,239,64175,1,8,0:0:0:0:
68,178,64494,1,0,0:0:0:0:
79,179,64654,1,8,0:0:0:0:
245,189,64973,1,8,0:0:0:0:
245,189,65133,1,0,0:0:0:0:
181,238,65292,1,8,0:0:0:0:
152,270,65611,1,0,0:0:0:0:
129,253,65771,1,8,0:0:0:0:
152,270,65931,1,0,0:0:0:0:
132,240,66250,1,8,0:0:0:0:
285,276,66409,1,8,0:0:0:0:
321,239,66728,1,0,0:0:0:0:
68,178,67048,1,8,0:0:0:0:
79,179,67207,1,0,0:0:0:0:
245,189,67526,1,0,0:0:0:0:
245,189,67686,1,8,0:0:0:0:
181,238,67846,1,0,0:0:0:0:
152,270,68165,1,8,0:0:0:0:
129,253,68324,1,0,0:0:0:0:
152,270,68484,1,8,0:0:0:0:
132,240,68803,1,0,0:0:0:0:
321,239,69282,1,8,0:0:0:0:
68,178,69601,1,0,0:0:0:0:
79,179,69760,1,8,0:0:0:0:
245,189,70080,1,8,0:0:0:0:
245,189,70239,1,0,0:0:0:0:
152,270,70558,1,8,0:0:0:0:
129,253,70718,1,8,0:0:0:0:
152,270,70877,1,0,0:0:0:0:
132,240,71037,1,8,0:0:0:0:
285,276,71117,1,8,0:0:0:0:
101,143,71197,1,8,0:0:0:0:
199,183,71356,1,0,0:0:0:0:
199,183,71516,1,8,0:0:0:0:
282,271,71835,1,4,0:0:0:0:
166,258,72154,1,8,0:0:0:0:
166,258,72314,1,0,0:0:0:0:
166,258,72633,1,0,0:0:0:0:
166,258,72792,1,8,0:0:0:0:
159,265,73111,1,0,0:0:0:0:
159,265,73271,1,0,0:0:0:0:
260,242,73431,1,8,0:0:0:0:
260,242,73590,1,8,0:0:0:0:
260,242,73750,1,0,0:0:0:0:
307,283,74069,1,0,0:0:0:0:
214,227,74388,1,8,0:0:0:0:
204,250,74707,1,0,0:0:0:0:
196,263,74867,1,8,0:0:0:0:
196,263,75186,1,8,0:0:0:0:
196,263,75346,1,0,0:0:0:0:
254,276,75665,1,8,0:0:0:0:
254,276,75824,1,8,0:0:0:0:
254,276,75984,1,0,0:0:0:0:
254,276,76143,1,0,0:0:0:0:
254,276,76303,1,8,0:0:0:0:
192,246,76463,1,0,0:0:0:0:
282,271,76941,1,12,0:0:0:0:
166,258,77260,1,0,0:0:0:0:
166,258,77420,1,8,0:0:0:0:
166,258,77739,1,8,0:0:0:0:
166,258,77899,1,0,0:0:0:0:
159,265,78218,1,8,0:0:0:0:
159,265,78377,1,8,0:0:0:0:
260,242,78537,1,0,0:0:0:0:
260,242,78697,1,0,0:0:0:0:
260,242,78856,1,8,0:0:0:0:
112,195,79175,1,8,0:0:0:0:
199,120,79494,1,0,0:0:0:0:
369,197,79654,1,8,0:0:0:0:
369,197,79734,1,8,0:0:0:0:
150,204,79814,1,8,0:0:0:0:
187,180,79973,1,8,0:0:0:0:
296,267,80133,1,0,0:0:0:0:
336,188,80213,1,0,0:0:0:0:
233,172,80292,1,0,0:0:0:0:
296,267,80452,1,8,0:0:0:0:
244,260,80771,1,0,0:0:0:0:
137,237,80851,1,0,0:0:0:0:
244,260,80931,1,0,0:0:0:0:
321,224,81090,1,8,0:0:0:0:
227,237,81250,1,8,0:0:0:0:
227,237,81409,1,8,0:0:0:0:
117,145,81569,1,4,0:0:0:0:
117,145,81728,1,4,0:0:0:0:
287,179,82048,1,12,0:0:0:0:
246,168,82526,1,0,0:0:0:0:
246,168,82686,1,8,0:0:0:0:
246,168,83005,1,0,0:0:0:0:
246,168,83165,1,0,0:0:0:0:
276,233,83484,1,8,0:0:0:0:
276,233,83643,1,8,0:0:0:0:
110,126,83803,1,0,0:0:0:0:
110,126,83883,1,0,0:0:0:0:
110,126,83963,1,0,0:0:0:0:
211,243,84122,1,0,0:0:0:0:
211,243,84282,1,8,0:0:0:0:
192,219,84601,1,0,0:0:0:0:
192,219,84760,1,0,0:0:0:0:
360,203,85080,1,0,0:0:0:0:
360,203,85239,1,8,0:0:0:0:
238,179,85478,1,0,0:0:0:0:
145,167,85718,1,8,0:0:0:0:
189,251,85877,1,0,0:0:0:0:
233,252,86197,1,0,0:0:0:0:
156,251,86516,1,8,0:0:0:0:
368,263,86675,1,0,0:0:0:0:
368,263,86835,1,8,0:0:0:0:
175,138,87154,1,4,0:0:0:0:
276,272,87633,1,8,0:0:0:0:
178,200,87713,1,8,0:0:0:0:
153,165,87792,1,8,0:0:0:0:
153,165,88111,1,0,0:0:0:0:
175,155,88271,1,0,0:0:0:0:
246,266,88590,1,8,0:0:0:0:
246,266,88750,1,0,0:0:0:0:
246,266,88909,1,0,0:0:0:0:
217,246,89069,1,8,0:0:0:0:
174,199,89228,1,8,0:0:0:0:
274,244,89548,1,0,0:0:0:0:
274,244,89707,1,0,0:0:0:0:
274,244,90026,1,8,0:0:0:0:
244,222,90346,1,0,0:0:0:0:
146,193,90425,1,0,0:0:0:0:
125,179,90505,1,0,0:0:0:0:
261,178,90665,1,8,0:0:0:0:
261,178,90824,1,8,0:0:0:0:
229,164,90904,1,8,0:0:0:0:
171,147,90984,1,8,0:0:0:0:
176,146,91143,1,8,0:0:0:0:
180,143,91463,1,0,0:0:0:0:
180,143,91622,1,8,0:0:0:0:
215,144,91782,1,0,0:0:0:0:
215,144,91941,1,8,0:0:0:0:
287,179,92260,1,4,0:0:0:0:
246,168,92739,1,8,0:0:0:0:
246,168,92899,1,0,0:0:0:0:
246,168,93218,1,8,0:0:0:0:
246,168,93377,1,8,0:0:0:0:
276,233,93697,1,0,0:0:0:0:
276,233,93856,1,0,0:0:0:0:
110,126,94016,1,8,0:0:0:0:
110,126,94096,1,8,0:0:0:0:
110,126,94175,1,8,0:0:0:0:
211,243,94335,1,8,0:0:0:0:
211,243,94494,1,0,0:0:0:0:
192,219,94814,1,8,0:0:0:0:
192,219,94973,1,8,0:0:0:0:
360,203,95292,1,8,0:0:0:0:
360,203,95452,1,0,0:0:0:0:
238,179,95691,1,8,0:0:0:0:
145,167,95931,1,0,0:0:0:0:
189,251,96090,1,8,0:0:0:0:
233,252,96409,1,8,0:0:0:0:
156,251,96728,1,0,0:0:0:0:
368,263,96888,1,8,0:0:0:0:
368,263,97048,1,0,0:0:0:0:
175,138,97367,1,12,0:0:0:0:
276,272,97846,1,0,0:0:0:0:
178,200,97925,1,0,0:0:0:0:
153,165,98005,1,0,0:0:0:0:
153,165,98324,1,8,0:0:0:0:
175,155,98484,1,8,0:0:0:0:
246,266,98803,1,0,0:0:0:0:
246,266,98963,1,8,0:0:0:0:
246,266,99122,1,8,0:0:0:0:
217,246,99282,1,0,0:0:0:0:
174,199,99441,1,0,0:0:0:0:
274,244,99760,1,8,0:0:0:0:
274,244,99920,1,8,0:0:0:0:
274,244,100239,1,0,0:0:0:0:
214,157,100558,1,8,0:0:0:0:
214,157,100718,1,0,0:0:0:0:
349,215,101037,1,8,0:0:0:0:
342,214,101117,1,8,0:0:0:0:
341,213,101197,1,8,0:0:0:0:
205,233,101356,1,0,0:0:0:0:
212,220,101436,1,0,0:0:0:0:
182,211,101516,1,0,0:0:0:0:
242,140,101675,1,8,0:0:0:0:
242,140,101835,1,0,0:0:0:0:
366,219,102473,1,12,0:0:0:0:
224,245,102792,1,0,0:0:0:0:
224,245,102952,1,8,0:0:0:0:
186,224,103032,1,8,0:0:0:0:
226,210,103271,1,0,0:0:0:0:
226,210,103431,1,8,0:0:0:0:
311,136,103750,1,0,0:0:0:0:
140,177,103909,1,8,0:0:0:0:
200,139,104069,1,8,0:0:0:0:
200,139,104228,1,0,0:0:0:0:
140,177,104388,1,8,0:0:0:0:
123,151,104548,1,8,0:0:0:0:
123,151,104707,1,0,0:0:0:0:
232,221,104787,1,0,0:0:0:0:
173,240,104867,1,0,0:0:0:0:
191,245,105026,1,8,0:0:0:0:
191,245,105346,1,0,0:0:0:0:
268,211,105665,1,8,0:0:0:0:
268,211,105824,1,8,0:0:0:0:
268,211,105984,1,0,0:0:0:0:
268,211,106143,1,0,0:0:0:0:
233,181,106303,1,8,0:0:0:0:
233,181,106463,1,0,0:0:0:0:
233,181,106622,1,0,0:0:0:0:
233,181,106782,1,8,0:0:0:0:
236,172,107101,1,0,0:0:0:0:
236,172,107260,1,8,0:0:0:0:
197,170,107580,1,0,0:0:0:0:
113,160,108218,1,8,0:0:0:0:
280,142,108537,1,0,0:0:0:0:
205,202,108856,1,8,0:0:0:0:
205,202,109016,1,8,0:0:0:0:
205,202,109175,1,0,0:0:0:0:
213,246,109494,1,8,0:0:0:0:
213,246,109654,1,0,0:0:0:0:
213,246,109814,1,8,0:0:0:0:
253,241,110133,1,0,0:0:0:0:
351,217,110292,1,8,0:0:0:0:
351,217,110372,1,8,0:0:0:0:
351,217,110452,1,8,0:0:0:0:
280,205,110611,1,0,0:0:0:0:
277,202,110771,1,8,0:0:0:0:
277,202,110851,1,8,0:0:0:0:
277,202,110931,1,8,0:0:0:0:
277,200,111090,1,0,0:0:0:0:
304,261,111170,1,0,0:0:0:0:
304,261,111250,1,0,0:0:0:0:
195,213,111409,1,8,0:0:0:0:
195,213,111728,1,0,0:0:0:0:
195,213,111888,1,8,0:0:0:0:
195,213,112207,1,8,0:0:0:0:
189,263,112367,1,0,0:0:0:0:
189,263,112686,1,8,0:0:0:0:
189,263,113324,1,8,0:0:0:0:
189,263,113963,1,8,0:0:0:0:
189,263,114282,1,8,0:0:0:0:
189,263,114601,1,8,0:0:0:0:
189,263,115239,1,8,0:0:0:0:
189,263,115558,1,8,0:0:0:0:
189,263,115877,1,8,0:0:0:0:
189,263,116197,1,8,0:0:0:0:
189,263,116516,1,8,0:0:0:0:
264,208,117473,1,8,0:0:0:0:
251,192,117792,1,4,0:0:0:0:
113,205,118111,1,8,0:0:0:0:
216,296,118271,1,8,0:0:0:0:
113,205,118431,1,0,0:0:0:0:
113,205,118590,1,0,0:0:0:0:
113,205,118750,1,8,0:0:0:0:
164,196,119069,1,0,0:0:0:0:
164,196,119388,1,8,0:0:0:0:
296,234,119548,1,8,0:0:0:0:
164,196,119707,1,0,0:0:0:0:
164,196,119867,1,8,0:0:0:0:
85,140,120026,1,0,0:0:0:0:
146,200,120346,1,8,0:0:0:0:
146,200,120505,1,8,0:0:0:0:
146,200,120665,1,0,0:0:0:0:
239,87,120824,1,0,0:0:0:0:
172,272,120984,1,8,0:0:0:0:
172,272,121143,1,8,0:0:0:0:
169,265,121223,1,8,0:0:0:0:
172,272,121303,1,8,0:0:0:0:
293,237,121463,1,4,0:0:0:0:
261,120,121782,1,4,0:0:0:0:
212,117,122101,1,4,0:0:0:0:
212,117,122260,1,4,0:0:0:0:
127,186,122739,1,8,0:0:0:0:
146,183,123058,1,8,0:0:0:0:
144,178,123377,1,8,0:0:0:0:
144,178,123537,1,8,0:0:0:0:
326,252,123697,1,0,0:0:0:0:
27,124,123776,1,0,0:0:0:0:
326,252,123856,1,0,0:0:0:0:
345,93,124175,1,12,0:0:0:0:
315,189,124494,1,0,0:0:0:0:
246,101,124653,1,12,0:0:0:0:
250,172,124972,1,0,0:0:0:0:
129,116,125132,1,12,0:0:0:0:
129,116,125292,1,12,0:0:0:0:
313,283,125611,1,0,0:0:0:0:
313,283,125770,1,8,0:0:0:0:
313,283,125930,1,8,0:0:0:0:
313,283,126089,1,0,0:0:0:0:
313,283,126249,1,0,0:0:0:0:
313,283,126409,1,8,0:0:0:0:
192,242,126568,1,0,0:0:0:0:
165,121,126648,1,0,0:0:0:0:
165,121,126728,1,0,0:0:0:0:
188,270,127047,1,8,0:0:0:0:
217,180,127206,1,0,0:0:0:0:
217,180,127366,1,8,0:0:0:0:
259,159,127526,1,0,0:0:0:0:
259,159,127685,1,8,0:0:0:0:
259,159,127845,1,8,0:0:0:0:
259,159,128004,1,0,0:0:0:0:
136,128,128164,1,0,0:0:0:0:
136,128,128323,1,0,0:0:0:0:
136,128,128483,1,8,0:0:0:0:
221,175,128962,1,8,0:0:0:0:
22,131,129042,1,8,0:0:0:0:
22,131,129121,1,8,0:0:0:0:
289,207,129281,1,4,0:0:0:0:
197,241,129600,1,8,0:0:0:0:
197,241,129760,1,0,0:0:0:0:
197,241,130079,1,0,0:0:0:0:
197,241,130238,1,8,0:0:0:0:
197,241,130398,1,8,0:0:0:0:
43,143,130557,1,0,0:0:0:0:
221,259,130877,1,8,0:0:0:0:
221,259,131036,1,0,0:0:0:0:
187,154,131355,1,0,0:0:0:0:
187,154,131515,1,8,0:0:0:0:
187,154,131675,1,8,0:0:0:0:
187,154,131834,1,0,0:0:0:0:
274,203,132153,1,8,0:0:0:0:
274,203,132313,1,8,0:0:0:0:
274,203,132472,1,0,0:0:0:0:
274,203,132632,1,0,0:0:0:0:
274,203,132792,1,8,0:0:0:0:
315,235,132951,1,0,0:0:0:0:
362,259,133111,1,8,0:0:0:0:
166,189,133190,1,8,0:0:0:0:
362,259,133270,1,8,0:0:0:0:
158,189,133430,1,0,0:0:0:0:
211,200,133510,1,0,0:0:0:0:
215,271,133589,1,0,0:0:0:0:
180,274,133749,1,8,0:0:0:0:
345,93,134387,1,4,0:0:0:0:
315,189,134706,1,0,0:0:0:0:
246,101,134866,1,12,0:0:0:0:
250,172,135185,1,8,0:0:0:0:
129,116,135345,1,4,0:0:0:0:
129,116,135504,1,4,0:0:0:0:
313,283,135823,1,8,0:0:0:0:
313,283,135983,1,0,0:0:0:0:
313,283,136143,1,0,0:0:0:0:
313,283,136302,1,8,0:0:0:0:
313,283,136462,1,8,0:0:0:0:
313,283,136621,1,0,0:0:0:0:
192,242,136781,1,8,0:0:0:0:
188,270,136861,1,8,0:0:0:0:
37,141,136940,1,8,0:0:0:0:
188,270,137260,1,0,0:0:0:0:
217,180,137419,1,8,0:0:0:0:
217,180,137579,1,0,0:0:0:0:
259,159,137738,1,8,0:0:0:0:
259,159,137898,1,0,0:0:0:0:
259,159,138057,1,0,0:0:0:0:
259,159,138217,1,8,0:0:0:0:
136,128,138377,1,8,0:0:0:0:
136,128,138536,1,8,0:0:0:0:
136,128,138696,1,0,0:0:0:0:
221,175,139175,1,0,0:0:0:0:
345,312,139254,1,0,0:0:0:0:
345,312,139334,1,0,0:0:0:0:
289,207,139494,1,12,0:0:0:0:
197,241,139813,1,0,0:0:0:0:
197,241,139972,1,8,0:0:0:0:
197,241,140292,1,8,0:0:0:0:
197,241,140451,1,0,0:0:0:0:
197,241,140611,1,0,0:0:0:0:
43,143,140770,1,8,0:0:0:0:
221,259,141089,1,0,0:0:0:0:
221,259,141249,1,8,0:0:0:0:
187,154,141568,1,8,0:0:0:0:
187,154,141728,1,0,0:0:0:0:
187,154,141887,1,0,0:0:0:0:
187,154,142047,1,8,0:0:0:0:
274,203,142366,1,0,0:0:0:0:
274,203,142526,1,0,0:0:0:0:
274,203,142685,1,8,0:0:0:0:
274,203,142845,1,8,0:0:0:0:
274,203,143004,1,0,0:0:0:0:
437,302,143164,1,8,0:0:0:0:
437,302,143323,1,0,0:0:0:0:
437,302,143403,1,0,0:0:0:0:
437,302,143483,1,0,0:0:0:0:
437,302,143643,1,8,0:0:0:0:
437,302,143722,1,8,0:0:0:0:
215,271,143802,1,8,0:0:0:0:
180,274,143962,1,0,0:0:0:0:
110,152,144600,1,12,0:0:0:0:
327,266,145079,1,0,0:0:0:0:
327,266,145238,1,8,0:0:0:0:
327,266,145557,1,0,0:0:0:0:
327,266,145717,1,0,0:0:0:0:
199,204,146036,1,8,0:0:0:0:
194,204,146196,1,0,0:0:0:0:
194,204,146515,1,8,0:0:0:0:
194,204,146675,1,0,0:0:0:0:
194,204,146834,1,8,0:0:0:0:
194,204,146994,1,8,0:0:0:0:
173,253,147153,1,0,0:0:0:0:
206,243,147313,1,0,0:0:0:0:
206,243,147632,1,0,0:0:0:0:
206,243,147792,1,8,0:0:0:0:
206,243,147951,1,8,0:0:0:0:
205,230,148111,1,0,0:0:0:0:
205,230,148270,1,0,0:0:0:0:
172,217,148430,1,8,0:0:0:0:
163,165,148589,1,0,0:0:0:0:
163,165,148909,1,0,0:0:0:0:
285,130,149068,1,12,0:0:0:0:
285,130,149387,1,12,0:0:0:0:
285,130,149706,1,4,0:0:0:0:
327,266,150185,1,8,0:0:0:0:
327,266,150345,1,0,0:0:0:0:
327,266,150664,1,8,0:0:0:0:
327,266,150823,1,8,0:0:0:0:
199,204,151143,1,0,0:0:0:0:
194,204,151302,1,8,0:0:0:0:
194,204,151621,1,0,0:0:0:0:
194,204,151781,1,8,0:0:0:0:
194,204,151940,1,0,0:0:0:0:
194,204,152100,1,0,0:0:0:0:
173,253,152260,1,8,0:0:0:0:
206,243,152419,1,8,0:0:0:0:
206,243,152738,1,8,0:0:0:0:
206,243,152898,1,0,0:0:0:0:
206,243,153057,1,0,0:0:0:0:
205,230,153217,1,8,0:0:0:0:
205,230,153377,1,8,0:0:0:0:
172,217,153536,1,0,0:0:0:0:
163,165,154015,1,8,0:0:0:0:
85,118,154175,1,0,0:0:0:0:
91,111,154254,1,0,0:0:0:0:
91,111,154334,1,0,0:0:0:0:
110,108,154494,1,0,0:0:0:0:
110,108,154573,1,0,0:0:0:0:
110,108,154653,1,0,0:0:0:0:
285,130,154813,1,12,0:0:0:0:
225,250,155132,1,0,0:0:0:0:
232,155,155292,1,8,0:0:0:0:
215,253,155611,1,8,0:0:0:0:
215,253,155770,1,0,0:0:0:0:
228,228,156089,1,8,0:0:0:0:
249,199,156409,1,8,0:0:0:0:
228,228,156568,1,0,0:0:0:0:
191,159,156728,1,8,0:0:0:0:
191,159,156887,1,8,0:0:0:0:
191,159,157047,1,0,0:0:0:0:
111,125,157206,1,8,0:0:0:0:
111,125,157366,1,0,0:0:0:0:
111,125,157685,1,8,0:0:0:0:
111,125,157845,1,8,0:0:0:0:
329,152,158004,1,0,0:0:0:0:
288,161,158164,1,0,0:0:0:0:
280,163,158323,1,8,0:0:0:0:
183,245,158483,1,8,0:0:0:0:
30,76,158643,1,0,0:0:0:0:
219,232,158802,1,0,0:0:0:0:
149,107,159121,1,0,0:0:0:0:
153,115,159281,1,8,0:0:0:0:
110,152,159919,1,4,0:0:0:0:
225,250,160238,1,8,0:0:0:0:
232,155,160398,1,0,0:0:0:0:
215,253,160557,1,8,0:0:0:0:
215,253,160717,1,0,0:0:0:0:
366,159,160877,1,8,0:0:0:0:
228,228,161196,1,0,0:0:0:0:
249,199,161355,1,0,0:0:0:0:
319,262,161515,1,8,0:0:0:0:
401,217,161675,1,0,0:0:0:0:
367,216,161834,1,8,0:0:0:0:
191,159,161994,1,0,0:0:0:0:
191,159,162153,1,8,0:0:0:0:
111,125,162313,1,8,0:0:0:0:
111,125,162472,1,0,0:0:0:0:
111,125,162792,1,8,0:0:0:0:
111,125,162951,1,0,0:0:0:0:
329,152,163111,1,8,0:0:0:0:
288,161,163270,1,0,0:0:0:0:
280,163,163430,1,8,0:0:0:0:
183,245,163589,1,0,0:0:0:0:
219,232,163909,1,8,0:0:0:0:
149,107,164068,1,0,0:0:0:0:
153,115,164228,1,8,0:0:0:0:
