osu file format v14

[General]
AudioFilename: audio.mp3
AudioLeadIn: 0
PreviewTime: 30425
Countdown: 0
SampleSet: Normal
StackLeniency: 0.7
Mode: 1
LetterboxInBreaks: 0
EpilepsyWarning: 1
WidescreenStoryboard: 0

[Editor]
DistanceSpacing: 2
BeatDivisor: 4
GridSize: 32
TimelineZoom: 4.899997

[Metadata]
Title:Dilemma feat. Hatsune Miku
TitleUnicode:ジレンマ feat. 初音ミク
Artist:DECO*27
ArtistUnicode:DECO*27
Creator:TKS
Version:Inner Oni
Source:
Tags:Jirenma vocaloid deco27 japanese electronic rock j-rock jrock MANNEQUIN Rockwell 二家本 亮介 Ryosuke ryousuke Nikamoto Chromoxx
BeatmapID:3522924
BeatmapSetID:1723776

[Difficulty]
HPDrainRate:6
CircleSize:5
OverallDifficulty:6.5
ApproachRate:5
SliderMultiplier:1.4
SliderTickRate:1

[Events]
//Background and Video events
0,0,"FNUbiXgUYAIjHYi.jpg",0,50
Video,-150,"video.mp4"
//Break Periods
//Storyboard Layer 0 (Background)
//Storyboard Layer 1 (Fail)
//Storyboard Layer 2 (Pass)
//Storyboard Layer 3 (Foreground)
//Storyboard Layer 4 (Overlay)
//Storyboard Sound Samples

[TimingPoints]
346,319.148936170213,4,1,0,60,1,0
346,-133.333333333333,4,1,0,60,0,0
9255,-117.647058823529,4,1,0,75,0,0
10532,-100,4,1,0,85,0,0
20744,-133.333333333333,4,1,0,60,0,0
25798,-100,4,1,0,85,0,0
30984,-71.4285714285714,4,1,0,90,0,1
31064,-90.9090909090909,4,1,0,90,0,1
31383,-71.4285714285714,4,1,0,90,0,1
31542,-90.9090909090909,4,1,0,90,0,1
32021,-71.4285714285714,4,1,0,90,0,1
32260,-90.9090909090909,4,1,0,90,0,1
41197,-71.4285714285714,4,1,0,90,0,1
41276,-90.9090909090909,4,1,0,90,0,1
41596,-71.4285714285714,4,1,0,90,0,1
41755,-90.9090909090909,4,1,0,90,0,1
42234,-71.4285714285714,4,1,0,90,0,1
42473,-90.9090909090909,4,1,0,90,0,1
51409,-90.9090909090909,4,1,0,90,0,0
60346,-100,4,1,0,50,0,0
61596,-111.111111111111,4,1,0,75,0,0
71808,-100,4,1,0,85,0,0
82048,-153.846153846153,4,1,0,85,0,1
100857,-151.515151515152,4,1,0,85,0,1
101017,-147.528360967096,4,1,0,85,0,1
101097,-144.560132790101,4,1,0,85,0,1
101177,-141.708988708644,4,1,0,85,0,1
101256,-139.001741149158,4,1,0,85,0,1
101336,-136.363636363636,4,1,0,85,0,1
101416,-133.823803315329,4,1,0,85,0,1
101496,-131.376851343939,4,1,0,85,0,1
101576,-129.017776979709,4,1,0,85,0,1
101655,-126.769882228398,4,1,0,85,0,1
101735,-124.571973473191,4,1,0,85,0,1
101815,-122.448979591837,4,1,0,85,0,1
101974,-118.437319706585,4,1,0,85,0,1
102134,-114.657304715551,4,1,0,85,0,1
102187,-113.457818483281,4,1,0,85,0,1
102240,-112.283169245195,4,1,0,85,0,1
102294,-111.111111111111,4,1,0,85,0,1
102473,-100,4,1,0,85,0,0
112739,-133.333333333333,4,1,0,60,0,0
116808,-133.333333333333,4,1,0,30,0,0
117766,-100,4,1,0,85,0,0
124175,319.148936170213,4,1,0,90,1,1
124175,-71.4285714285714,4,1,0,90,0,1
124254,-90.9090909090909,4,1,0,90,0,1
124573,-71.4285714285714,4,1,0,90,0,1
124733,-90.9090909090909,4,1,0,90,0,1
125212,-71.4285714285714,4,1,0,90,0,1
125371,-90.9090909090909,4,1,0,90,0,1
134307,-71.4285714285714,4,1,0,90,0,1
134467,-90.9090909090909,4,1,0,90,0,1
134786,-71.4285714285714,4,1,0,90,0,1
134946,-90.9090909090909,4,1,0,90,0,1
135265,-71.4285714285714,4,1,0,90,0,1
135424,-90.9090909090909,4,1,0,90,0,1
144600,-95.2380952380952,4,1,0,90,0,0
144680,-104.166666666667,4,1,0,80,0,0
144839,-125,4,1,0,80,0,0
153516,-122.130833970926,4,1,0,80,0,0
153676,-119.390426327599,4,1,0,80,0,0
153755,-118.082204447732,4,1,0,80,0,0
153835,-116.786318533083,4,1,0,80,0,0
153915,-115.518567099371,4,1,0,80,0,0
153995,-114.278043760347,4,1,0,80,0,0
154154,-111.889950056953,4,1,0,80,0,0
154234,-110.725743518599,4,1,0,80,0,0
154314,-109.585514459796,4,1,0,80,0,0
154394,-108.468529686571,4,1,0,80,0,0
154473,-107.387629819619,4,1,0,80,0,0
154553,-106.314781667569,4,1,0,80,0,0
154633,-105.263157894737,4,1,0,80,0,0
154813,-90.9090909090909,4,1,0,90,0,0
163749,-100,4,1,0,50,0,0

[HitObjects]
256,192,346,5,0,0:0:0:0:
256,192,665,1,8,0:0:0:0:
256,192,984,1,8,0:0:0:0:
256,192,1303,1,0,0:0:0:0:
256,192,1463,1,8,0:0:0:0:
256,192,1782,1,0,0:0:0:0:
256,192,1941,1,8,0:0:0:0:
256,192,2101,1,0,0:0:0:0:
256,192,2420,1,0,0:0:0:0:
256,192,2580,1,8,0:0:0:0:
256,192,2739,1,8,0:0:0:0:
256,192,2899,1,0,0:0:0:0:
256,192,3218,1,8,0:0:0:0:
256,192,3537,1,8,0:0:0:0:
256,192,3856,1,0,0:0:0:0:
256,192,4016,1,8,0:0:0:0:
256,192,4335,1,8,0:0:0:0:
256,192,4494,1,0,0:0:0:0:
256,192,4654,1,8,0:0:0:0:
256,192,4973,1,0,0:0:0:0:
256,192,5133,1,8,0:0:0:0:
256,192,5292,1,8,0:0:0:0:
256,192,5452,1,0,0:0:0:0:
256,192,5771,1,8,0:0:0:0:
256,192,6090,1,8,0:0:0:0:
256,192,6409,1,0,0:0:0:0:
256,192,6569,1,8,0:0:0:0:
256,192,6888,1,0,0:0:0:0:
256,192,7048,1,8,0:0:0:0:
256,192,7207,1,0,0:0:0:0:
256,192,7526,1,0,0:0:0:0:
256,192,7686,1,0,0:0:0:0:
256,192,7846,1,8,0:0:0:0:
256,192,8005,1,0,0:0:0:0:
256,192,8324,1,8,0:0:0:0:
256,192,8484,1,0,0:0:0:0:
256,192,8803,1,0,0:0:0:0:
256,192,8963,1,8,0:0:0:0:
256,192,9122,1,8,0:0:0:0:
256,192,9282,1,0,0:0:0:0:
256,192,9441,1,0,0:0:0:0:
256,192,9521,1,0,0:0:0:0:
256,192,9601,1,8,0:0:0:0:
256,192,9760,1,0,0:0:0:0:
256,192,9840,1,8,0:0:0:0:
256,192,9920,1,0,0:0:0:0:
256,192,10080,1,8,0:0:0:0:
256,192,10159,1,8,0:0:0:0:
256,192,10239,1,0,0:0:0:0:
256,192,10319,1,0,0:0:0:0:
256,192,10399,1,8,0:0:0:0:
256,192,10558,1,4,0:0:0:0:
256,192,10798,1,0,0:0:0:0:
256,192,10877,1,8,0:0:0:0:
256,192,11037,1,0,0:0:0:0:
256,192,11117,1,0,0:0:0:0:
256,192,11197,1,8,0:0:0:0:
256,192,11276,1,0,0:0:0:0:
256,192,11436,1,0,0:0:0:0:
256,192,11516,1,8,0:0:0:0:
256,192,11675,1,8,0:0:0:0:
256,192,11835,1,0,0:0:0:0:
256,192,11915,1,0,0:0:0:0:
256,192,12074,1,0,0:0:0:0:
256,192,12154,1,8,0:0:0:0:
256,192,12314,1,8,0:0:0:0:
256,192,12473,1,0,0:0:0:0:
256,192,12633,1,0,0:0:0:0:
256,192,12792,1,8,0:0:0:0:
256,192,12952,1,8,0:0:0:0:
256,192,13032,1,8,0:0:0:0:
256,192,13111,1,0,0:0:0:0:
256,192,13351,1,0,0:0:0:0:
256,192,13431,1,8,0:0:0:0:
256,192,13590,1,0,0:0:0:0:
256,192,13670,1,0,0:0:0:0:
256,192,13750,1,8,0:0:0:0:
256,192,13830,1,8,0:0:0:0:
256,192,13989,1,0,0:0:0:0:
256,192,14069,1,8,0:0:0:0:
256,192,14228,1,8,0:0:0:0:
256,192,14388,1,0,0:0:0:0:
256,192,14548,1,0,0:0:0:0:
256,192,14627,1,0,0:0:0:0:
256,192,14707,1,8,0:0:0:0:
256,192,14867,1,8,0:0:0:0:
256,192,14947,1,8,0:0:0:0:
256,192,15026,1,0,0:0:0:0:
256,192,15186,1,0,0:0:0:0:
256,192,15346,1,8,0:0:0:0:
256,192,15505,1,8,0:0:0:0:
256,192,15665,1,4,0:0:0:0:
256,192,15904,1,0,0:0:0:0:
256,192,15984,1,8,0:0:0:0:
256,192,16143,1,0,0:0:0:0:
256,192,16223,1,0,0:0:0:0:
256,192,16303,1,8,0:0:0:0:
256,192,16383,1,0,0:0:0:0:
256,192,16542,1,0,0:0:0:0:
256,192,16622,1,8,0:0:0:0:
256,192,16782,1,8,0:0:0:0:
256,192,16941,1,0,0:0:0:0:
256,192,17021,1,0,0:0:0:0:
256,192,17181,1,0,0:0:0:0:
256,192,17260,1,8,0:0:0:0:
256,192,17420,1,8,0:0:0:0:
256,192,17580,1,0,0:0:0:0:
256,192,17739,1,0,0:0:0:0:
256,192,17899,1,8,0:0:0:0:
256,192,18218,1,0,0:0:0:0:
256,192,18377,1,0,0:0:0:0:
256,192,18537,1,8,0:0:0:0:
256,192,18617,1,0,0:0:0:0:
256,192,18697,1,8,0:0:0:0:
256,192,18856,1,0,0:0:0:0:
256,192,18936,1,8,0:0:0:0:
256,192,19016,1,0,0:0:0:0:
256,192,19175,1,8,0:0:0:0:
256,192,19335,1,8,0:0:0:0:
256,192,19415,1,8,0:0:0:0:
256,192,19494,1,0,0:0:0:0:
256,192,19654,1,0,0:0:0:0:
256,192,19814,1,8,0:0:0:0:
256,192,19973,1,8,0:0:0:0:
256,192,20053,1,8,0:0:0:0:
256,192,20133,1,0,0:0:0:0:
256,192,20213,1,8,0:0:0:0:
256,192,20292,1,0,0:0:0:0:
256,192,20452,1,8,0:0:0:0:
256,192,20771,1,0,0:0:0:0:
256,192,21090,1,0,0:0:0:0:
256,192,21409,1,8,0:0:0:0:
256,192,21888,1,0,0:0:0:0:
256,192,22207,1,0,0:0:0:0:
256,192,22526,1,0,0:0:0:0:
256,192,22686,1,8,0:0:0:0:
256,192,23005,1,8,0:0:0:0:
256,192,23324,1,0,0:0:0:0:
256,192,23643,1,0,0:0:0:0:
256,192,23963,1,8,0:0:0:0:
256,192,24441,1,0,0:0:0:0:
256,192,24760,1,0,0:0:0:0:
256,192,25080,1,0,0:0:0:0:
192,160,25239,2,0,L|192:192,6,26.2500010013581
256,192,25877,1,4,0:0:0:0:
256,192,26117,1,0,0:0:0:0:
256,192,26197,1,8,0:0:0:0:
256,192,26356,1,0,0:0:0:0:
256,192,26436,1,0,0:0:0:0:
256,192,26516,1,0,0:0:0:0:
256,192,26675,1,0,0:0:0:0:
256,192,26835,1,8,0:0:0:0:
256,192,26994,1,8,0:0:0:0:
256,192,27074,1,8,0:0:0:0:
256,192,27154,1,0,0:0:0:0:
256,192,27314,1,0,0:0:0:0:
256,192,27393,1,0,0:0:0:0:
256,192,27473,1,8,0:0:0:0:
256,192,27633,1,0,0:0:0:0:
256,192,27713,1,0,0:0:0:0:
256,192,27792,1,0,0:0:0:0:
256,192,27952,1,0,0:0:0:0:
256,192,28111,1,8,0:0:0:0:
256,192,28271,1,8,0:0:0:0:
256,192,28351,1,8,0:0:0:0:
256,192,28431,1,0,0:0:0:0:
256,192,28510,1,8,0:0:0:0:
256,192,28590,1,0,0:0:0:0:
256,192,28670,1,0,0:0:0:0:
256,192,28750,1,8,0:0:0:0:
256,192,28909,1,0,0:0:0:0:
256,192,28989,1,0,0:0:0:0:
256,192,29069,1,8,0:0:0:0:
256,192,29149,1,0,0:0:0:0:
256,192,29228,1,8,0:0:0:0:
256,192,29308,1,8,0:0:0:0:
256,192,29388,1,0,0:0:0:0:
256,192,29468,1,8,0:0:0:0:
256,192,29548,1,0,0:0:0:0:
256,192,29867,1,0,0:0:0:0:
256,192,30186,1,0,0:0:0:0:
256,192,30346,1,8,0:0:0:0:
256,192,30984,1,4,0:0:0:0:
256,192,31143,1,8,0:0:0:0:
256,192,31223,1,8,0:0:0:0:
256,192,31303,1,8,0:0:0:0:
256,192,31463,1,4,0:0:0:0:
256,192,31622,1,8,0:0:0:0:
256,192,31702,1,8,0:0:0:0:
256,192,31782,1,8,0:0:0:0:
256,192,31941,1,0,0:0:0:0:
256,192,32101,1,12,0:0:0:0:
256,192,32420,1,0,0:0:0:0:
256,192,32500,1,0,0:0:0:0:
256,192,32580,1,8,0:0:0:0:
256,192,32739,1,0,0:0:0:0:
256,192,32819,1,8,0:0:0:0:
256,192,32899,1,0,0:0:0:0:
256,192,33058,1,0,0:0:0:0:
256,192,33218,1,8,0:0:0:0:
256,192,33377,1,8,0:0:0:0:
256,192,33457,1,8,0:0:0:0:
256,192,33537,1,0,0:0:0:0:
256,192,33617,1,0,0:0:0:0:
256,192,33697,1,0,0:0:0:0:
256,192,33856,1,8,0:0:0:0:
256,192,34016,1,0,0:0:0:0:
256,192,34096,1,8,0:0:0:0:
256,192,34175,1,0,0:0:0:0:
256,192,34255,1,0,0:0:0:0:
256,192,34335,1,0,0:0:0:0:
256,192,34494,1,8,0:0:0:0:
256,192,34654,1,8,0:0:0:0:
256,192,34734,1,8,0:0:0:0:
256,192,34814,1,0,0:0:0:0:
256,192,34893,1,0,0:0:0:0:
256,192,34973,1,8,0:0:0:0:
256,192,35053,1,0,0:0:0:0:
256,192,35133,1,8,0:0:0:0:
256,192,35292,1,8,0:0:0:0:
256,192,35372,1,8,0:0:0:0:
256,192,35452,1,0,0:0:0:0:
256,192,35611,1,0,0:0:0:0:
256,192,35771,1,8,0:0:0:0:
256,192,35931,1,8,0:0:0:0:
256,192,36090,1,4,0:0:0:0:
256,192,36330,1,0,0:0:0:0:
256,192,36409,1,8,0:0:0:0:
256,192,36569,1,0,0:0:0:0:
256,192,36649,1,0,0:0:0:0:
256,192,36728,1,8,0:0:0:0:
256,192,36808,1,8,0:0:0:0:
256,192,36968,1,0,0:0:0:0:
256,192,37048,1,8,0:0:0:0:
256,192,37207,1,8,0:0:0:0:
256,192,37287,1,8,0:0:0:0:
256,192,37367,1,0,0:0:0:0:
256,192,37526,1,0,0:0:0:0:
256,192,37686,1,8,0:0:0:0:
256,192,37846,1,0,0:0:0:0:
256,192,37925,1,0,0:0:0:0:
256,192,38005,1,8,0:0:0:0:
256,192,38085,1,8,0:0:0:0:
256,192,38244,1,0,0:0:0:0:
256,192,38324,1,8,0:0:0:0:
256,192,38404,1,0,0:0:0:0:
256,192,38484,1,8,0:0:0:0:
256,192,38564,1,8,0:0:0:0:
256,192,38643,1,0,0:0:0:0:
256,192,38803,1,8,0:0:0:0:
256,192,38883,1,0,0:0:0:0:
256,192,38963,1,8,0:0:0:0:
256,192,39122,1,0,0:0:0:0:
256,192,39202,1,8,0:0:0:0:
256,192,39282,1,0,0:0:0:0:
256,192,39441,1,0,0:0:0:0:
256,192,39601,1,8,0:0:0:0:
256,192,39760,1,0,0:0:0:0:
256,192,39840,1,8,0:0:0:0:
256,192,39920,1,0,0:0:0:0:
256,192,40000,1,0,0:0:0:0:
256,192,40080,1,0,0:0:0:0:
256,192,40159,1,0,0:0:0:0:
256,192,40239,1,8,0:0:0:0:
256,192,40319,1,0,0:0:0:0:
256,192,40399,1,8,0:0:0:0:
256,192,40478,1,8,0:0:0:0:
256,192,40558,1,0,0:0:0:0:
256,192,40718,1,0,0:0:0:0:
256,192,40877,1,8,0:0:0:0:
256,192,41197,1,4,0:0:0:0:
256,192,41356,1,8,0:0:0:0:
256,192,41436,1,8,0:0:0:0:
256,192,41516,1,8,0:0:0:0:
256,192,41675,1,4,0:0:0:0:
256,192,41835,1,8,0:0:0:0:
256,192,41915,1,8,0:0:0:0:
256,192,41994,1,8,0:0:0:0:
256,192,42154,1,0,0:0:0:0:
256,192,42314,1,12,0:0:0:0:
256,192,42633,1,0,0:0:0:0:
256,192,42713,1,0,0:0:0:0:
256,192,42792,1,8,0:0:0:0:
256,192,42952,1,8,0:0:0:0:
256,192,43032,1,0,0:0:0:0:
256,192,43111,1,8,0:0:0:0:
256,192,43271,1,0,0:0:0:0:
256,192,43431,1,8,0:0:0:0:
256,192,43590,1,8,0:0:0:0:
256,192,43670,1,8,0:0:0:0:
256,192,43750,1,0,0:0:0:0:
256,192,43830,1,0,0:0:0:0:
256,192,43909,1,8,0:0:0:0:
256,192,44069,1,8,0:0:0:0:
256,192,44228,1,0,0:0:0:0:
256,192,44308,1,8,0:0:0:0:
256,192,44388,1,0,0:0:0:0:
256,192,44468,1,0,0:0:0:0:
256,192,44548,1,8,0:0:0:0:
256,192,44707,1,8,0:0:0:0:
256,192,44867,1,8,0:0:0:0:
256,192,44947,1,8,0:0:0:0:
256,192,45026,1,0,0:0:0:0:
256,192,45106,1,0,0:0:0:0:
256,192,45186,1,8,0:0:0:0:
256,192,45266,1,0,0:0:0:0:
256,192,45346,1,8,0:0:0:0:
256,192,45505,1,8,0:0:0:0:
256,192,45585,1,8,0:0:0:0:
256,192,45665,1,0,0:0:0:0:
256,192,45824,1,8,0:0:0:0:
256,192,45984,1,8,0:0:0:0:
256,192,46143,1,8,0:0:0:0:
256,192,46303,1,4,0:0:0:0:
256,192,46542,1,0,0:0:0:0:
256,192,46622,1,8,0:0:0:0:
256,192,46782,1,0,0:0:0:0:
256,192,46861,1,0,0:0:0:0:
256,192,46941,1,8,0:0:0:0:
256,192,47021,1,8,0:0:0:0:
256,192,47181,1,0,0:0:0:0:
256,192,47260,1,8,0:0:0:0:
256,192,47420,1,8,0:0:0:0:
256,192,47500,1,8,0:0:0:0:
256,192,47580,1,0,0:0:0:0:
256,192,47739,1,0,0:0:0:0:
256,192,47899,1,8,0:0:0:0:
256,192,48058,1,0,0:0:0:0:
256,192,48138,1,0,0:0:0:0:
256,192,48218,1,8,0:0:0:0:
256,192,48298,1,8,0:0:0:0:
256,192,48457,1,0,0:0:0:0:
256,192,48537,1,8,0:0:0:0:
256,192,48617,1,0,0:0:0:0:
256,192,48697,1,8,0:0:0:0:
256,192,48776,1,8,0:0:0:0:
256,192,48856,1,0,0:0:0:0:
256,192,49016,1,8,0:0:0:0:
256,192,49096,1,0,0:0:0:0:
256,192,49175,1,8,0:0:0:0:
256,192,49335,1,0,0:0:0:0:
256,192,49415,1,8,0:0:0:0:
256,192,49494,1,0,0:0:0:0:
256,192,49654,1,0,0:0:0:0:
256,192,49814,1,8,0:0:0:0:
256,192,49973,1,0,0:0:0:0:
256,192,50053,1,8,0:0:0:0:
256,192,50133,1,0,0:0:0:0:
256,192,50213,1,8,0:0:0:0:
256,192,50292,1,8,0:0:0:0:
256,192,50372,1,0,0:0:0:0:
256,192,50452,1,8,0:0:0:0:
256,192,50532,1,0,0:0:0:0:
256,192,50611,1,8,0:0:0:0:
256,192,50691,1,8,0:0:0:0:
256,192,50771,1,0,0:0:0:0:
256,192,50931,1,0,0:0:0:0:
256,192,51010,1,8,0:0:0:0:
256,192,51170,1,0,0:0:0:0:
256,192,51250,1,8,0:0:0:0:
256,192,51409,1,4,0:0:0:0:
256,192,51728,1,8,0:0:0:0:
256,192,51888,1,0,0:0:0:0:
256,192,51968,1,8,0:0:0:0:
256,192,52048,1,0,0:0:0:0:
256,192,52207,1,0,0:0:0:0:
256,192,52287,1,0,0:0:0:0:
256,192,52367,1,8,0:0:0:0:
256,192,52526,1,8,0:0:0:0:
256,192,52686,1,0,0:0:0:0:
256,192,52766,1,8,0:0:0:0:
256,192,52846,1,0,0:0:0:0:
256,192,52925,1,0,0:0:0:0:
256,192,53005,1,8,0:0:0:0:
256,192,53165,1,8,0:0:0:0:
256,192,53244,1,8,0:0:0:0:
256,192,53324,1,0,0:0:0:0:
256,192,53484,1,0,0:0:0:0:
256,192,53643,1,8,0:0:0:0:
256,192,53723,1,0,0:0:0:0:
256,192,53803,1,8,0:0:0:0:
256,192,53883,1,8,0:0:0:0:
256,192,53963,1,0,0:0:0:0:
256,192,54122,1,0,0:0:0:0:
256,192,54202,1,0,0:0:0:0:
256,192,54282,1,8,0:0:0:0:
256,192,54441,1,0,0:0:0:0:
256,192,54601,1,8,0:0:0:0:
256,192,54681,1,8,0:0:0:0:
256,192,54760,1,0,0:0:0:0:
256,192,54840,1,0,0:0:0:0:
256,192,54920,1,8,0:0:0:0:
256,192,55080,1,8,0:0:0:0:
256,192,55239,1,0,0:0:0:0:
256,192,55319,1,0,0:0:0:0:
256,192,55399,1,0,0:0:0:0:
256,192,55478,1,0,0:0:0:0:
256,192,55558,1,8,0:0:0:0:
256,192,55718,1,8,0:0:0:0:
256,192,55798,1,8,0:0:0:0:
256,192,55877,1,0,0:0:0:0:
256,192,56037,1,0,0:0:0:0:
256,192,56117,1,8,0:0:0:0:
256,192,56276,1,0,0:0:0:0:
256,192,56356,1,8,0:0:0:0:
256,192,56516,1,4,0:0:0:0:
256,192,56835,1,8,0:0:0:0:
256,192,56994,1,0,0:0:0:0:
256,192,57074,1,8,0:0:0:0:
256,192,57154,1,0,0:0:0:0:
256,192,57314,1,0,0:0:0:0:
256,192,57393,1,0,0:0:0:0:
256,192,57473,1,8,0:0:0:0:
256,192,57633,1,8,0:0:0:0:
256,192,57792,1,0,0:0:0:0:
256,192,57872,1,8,0:0:0:0:
256,192,57952,1,0,0:0:0:0:
256,192,58032,1,0,0:0:0:0:
256,192,58111,1,8,0:0:0:0:
256,192,58271,1,8,0:0:0:0:
256,192,58351,1,8,0:0:0:0:
256,192,58431,1,0,0:0:0:0:
256,192,58590,1,0,0:0:0:0:
256,192,58750,1,8,0:0:0:0:
256,192,58830,1,0,0:0:0:0:
256,192,58909,1,8,0:0:0:0:
256,192,58989,1,8,0:0:0:0:
256,192,59069,1,0,0:0:0:0:
256,192,59228,1,0,0:0:0:0:
256,192,59308,1,0,0:0:0:0:
256,192,59388,1,8,0:0:0:0:
256,192,59468,1,8,0:0:0:0:
256,192,59548,1,0,0:0:0:0:
256,192,59707,1,8,0:0:0:0:
256,192,59867,1,0,0:0:0:0:
256,192,59947,1,0,0:0:0:0:
256,192,60026,1,8,0:0:0:0:
256,192,60186,1,8,0:0:0:0:
256,192,60505,1,0,0:0:0:0:
256,192,60665,1,0,0:0:0:0:
256,192,60824,1,8,0:0:0:0:
256,192,61622,1,0,0:0:0:0:
256,192,61941,1,8,0:0:0:0:
256,192,62101,1,8,0:0:0:0:
256,192,62260,1,0,0:0:0:0:
256,192,62420,1,0,0:0:0:0:
256,192,62500,1,0,0:0:0:0:
256,192,62580,1,8,0:0:0:0:
256,192,62739,1,0,0:0:0:0:
256,192,63058,1,0,0:0:0:0:
256,192,63218,1,8,0:0:0:0:
256,192,63377,1,8,0:0:0:0:
256,192,63457,1,8,0:0:0:0:
256,192,63537,1,0,0:0:0:0:
256,192,63697,1,8,0:0:0:0:
256,192,63856,1,0,0:0:0:0:
256,192,64016,1,0,0:0:0:0:
256,192,64096,1,8,0:0:0:0:
256,192,64175,1,0,0:0:0:0:
256,192,64494,1,8,0:0:0:0:
256,192,64654,1,8,0:0:0:0:
256,192,64814,1,0,0:0:0:0:
256,192,64973,1,0,0:0:0:0:
256,192,65053,1,0,0:0:0:0:
256,192,65133,1,8,0:0:0:0:
256,192,65292,1,0,0:0:0:0:
256,192,65611,1,0,0:0:0:0:
256,192,65771,1,8,0:0:0:0:
256,192,65931,1,8,0:0:0:0:
256,192,66010,1,8,0:0:0:0:
256,192,66090,1,0,0:0:0:0:
256,192,66250,1,8,0:0:0:0:
256,192,66409,1,8,0:0:0:0:
256,192,66569,1,0,0:0:0:0:
256,192,66649,1,0,0:0:0:0:
256,192,66728,1,0,0:0:0:0:
256,192,67048,1,8,0:0:0:0:
256,192,67207,1,8,0:0:0:0:
256,192,67367,1,0,0:0:0:0:
256,192,67526,1,0,0:0:0:0:
256,192,67606,1,0,0:0:0:0:
256,192,67686,1,8,0:0:0:0:
256,192,67846,1,0,0:0:0:0:
256,192,68165,1,0,0:0:0:0:
256,192,68324,1,8,0:0:0:0:
256,192,68484,1,8,0:0:0:0:
256,192,68564,1,8,0:0:0:0:
256,192,68643,1,0,0:0:0:0:
256,192,68803,1,8,0:0:0:0:
256,192,68963,1,0,0:0:0:0:
256,192,69122,1,0,0:0:0:0:
256,192,69202,1,8,0:0:0:0:
256,192,69282,1,0,0:0:0:0:
256,192,69441,1,0,0:0:0:0:
256,192,69521,1,0,0:0:0:0:
256,192,69601,1,8,0:0:0:0:
256,192,69760,1,0,0:0:0:0:
256,192,70080,1,0,0:0:0:0:
256,192,70239,1,8,0:0:0:0:
256,192,70399,1,8,0:0:0:0:
256,192,70558,1,0,0:0:0:0:
256,192,70638,1,0,0:0:0:0:
256,192,70718,1,8,0:0:0:0:
256,192,70798,1,0,0:0:0:0:
256,192,70877,1,8,0:0:0:0:
256,192,71037,1,0,0:0:0:0:
256,192,71117,1,8,0:0:0:0:
256,192,71197,1,0,0:0:0:0:
256,192,71276,1,8,0:0:0:0:
256,192,71356,1,0,0:0:0:0:
256,192,71436,1,0,0:0:0:0:
256,192,71516,1,8,0:0:0:0:
256,192,71675,1,0,0:0:0:0:
256,192,71835,1,4,0:0:0:0:
256,192,72074,1,0,0:0:0:0:
256,192,72154,1,8,0:0:0:0:
256,192,72314,1,0,0:0:0:0:
256,192,72473,1,8,0:0:0:0:
256,192,72553,1,0,0:0:0:0:
256,192,72633,1,0,0:0:0:0:
256,192,72713,1,0,0:0:0:0:
256,192,72792,1,8,0:0:0:0:
256,192,72952,1,8,0:0:0:0:
256,192,73111,1,0,0:0:0:0:
256,192,73191,1,0,0:0:0:0:
256,192,73351,1,0,0:0:0:0:
256,192,73431,1,8,0:0:0:0:
256,192,73590,1,8,0:0:0:0:
256,192,73750,1,0,0:0:0:0:
256,192,73909,1,0,0:0:0:0:
256,192,74069,1,8,0:0:0:0:
256,192,74228,1,8,0:0:0:0:
256,192,74308,1,8,0:0:0:0:
256,192,74388,1,0,0:0:0:0:
256,192,74627,1,0,0:0:0:0:
256,192,74707,1,8,0:0:0:0:
256,192,74867,1,0,0:0:0:0:
256,192,75026,1,8,0:0:0:0:
256,192,75106,1,8,0:0:0:0:
256,192,75186,1,0,0:0:0:0:
256,192,75266,1,0,0:0:0:0:
256,192,75346,1,8,0:0:0:0:
256,192,75505,1,8,0:0:0:0:
256,192,75665,1,0,0:0:0:0:
256,192,75824,1,0,0:0:0:0:
256,192,75904,1,0,0:0:0:0:
256,192,75984,1,8,0:0:0:0:
256,192,76143,1,8,0:0:0:0:
256,192,76223,1,8,0:0:0:0:
256,192,76303,1,0,0:0:0:0:
256,192,76463,1,0,0:0:0:0:
256,192,76622,1,8,0:0:0:0:
256,192,76782,1,8,0:0:0:0:
256,192,76941,1,4,0:0:0:0:
256,192,77181,1,0,0:0:0:0:
256,192,77260,1,8,0:0:0:0:
256,192,77420,1,0,0:0:0:0:
256,192,77580,1,8,0:0:0:0:
256,192,77659,1,0,0:0:0:0:
256,192,77739,1,0,0:0:0:0:
256,192,77819,1,0,0:0:0:0:
256,192,77899,1,8,0:0:0:0:
256,192,78058,1,8,0:0:0:0:
256,192,78218,1,0,0:0:0:0:
256,192,78298,1,0,0:0:0:0:
256,192,78457,1,0,0:0:0:0:
256,192,78537,1,8,0:0:0:0:
256,192,78697,1,8,0:0:0:0:
256,192,78856,1,0,0:0:0:0:
256,192,79016,1,0,0:0:0:0:
256,192,79175,1,8,0:0:0:0:
256,192,79494,1,0,0:0:0:0:
256,192,79654,1,8,0:0:0:0:
256,192,79734,1,0,0:0:0:0:
256,192,79814,1,8,0:0:0:0:
256,192,79973,1,0,0:0:0:0:
256,192,80053,1,8,0:0:0:0:
256,192,80133,1,0,0:0:0:0:
256,192,80213,1,0,0:0:0:0:
256,192,80292,1,8,0:0:0:0:
256,192,80452,1,8,0:0:0:0:
256,192,80532,1,8,0:0:0:0:
256,192,80611,1,0,0:0:0:0:
256,192,80691,1,0,0:0:0:0:
256,192,80771,1,8,0:0:0:0:
256,192,80851,1,8,0:0:0:0:
256,192,80931,1,0,0:0:0:0:
256,192,80984,1,0,0:0:0:0:
256,192,81037,1,0,0:0:0:0:
256,192,81090,1,8,0:0:0:0:
256,192,81250,1,8,0:0:0:0:
256,192,81330,1,8,0:0:0:0:
256,192,81409,1,0,0:0:0:0:
256,192,81489,1,8,0:0:0:0:
256,192,81569,1,0,0:0:0:0:
256,192,81728,1,8,0:0:0:0:
256,192,82048,1,4,0:0:0:0:
256,192,82526,1,0,0:0:0:0:
256,192,82686,1,8,0:0:0:0:
256,192,82846,1,0,0:0:0:0:
256,192,83005,1,0,0:0:0:0:
256,192,83165,1,8,0:0:0:0:
256,192,83484,1,0,0:0:0:0:
256,192,83643,1,8,0:0:0:0:
256,192,83803,1,0,0:0:0:0:
256,192,83883,1,0,0:0:0:0:
256,192,83963,1,8,0:0:0:0:
256,192,84122,1,0,0:0:0:0:
256,192,84282,1,8,0:0:0:0:
256,192,84441,1,8,0:0:0:0:
256,192,84601,1,0,0:0:0:0:
256,192,84760,1,0,0:0:0:0:
256,192,85080,1,0,0:0:0:0:
256,192,85239,1,8,0:0:0:0:
256,192,85478,1,0,0:0:0:0:
256,192,85718,1,8,0:0:0:0:
256,192,85877,1,0,0:0:0:0:
256,192,86037,1,8,0:0:0:0:
256,192,86197,1,0,0:0:0:0:
256,192,86356,1,0,0:0:0:0:
256,192,86516,1,8,0:0:0:0:
256,192,86675,1,0,0:0:0:0:
256,192,86835,1,8,0:0:0:0:
256,192,86994,1,8,0:0:0:0:
256,192,87154,1,4,0:0:0:0:
256,192,87393,1,0,0:0:0:0:
256,192,87633,1,0,0:0:0:0:
256,192,87713,1,0,0:0:0:0:
256,192,87792,1,8,0:0:0:0:
256,192,88032,1,0,0:0:0:0:
256,192,88271,1,8,0:0:0:0:
256,192,88431,1,0,0:0:0:0:
256,192,88590,1,0,0:0:0:0:
256,192,88909,1,0,0:0:0:0:
256,192,89069,1,8,0:0:0:0:
256,192,89308,1,0,0:0:0:0:
256,192,89548,1,8,0:0:0:0:
256,192,89707,1,0,0:0:0:0:
256,192,89867,1,0,0:0:0:0:
256,192,90026,1,0,0:0:0:0:
256,192,90186,1,0,0:0:0:0:
256,192,90346,1,8,0:0:0:0:
256,192,90505,1,0,0:0:0:0:
256,192,90665,1,0,0:0:0:0:
256,192,90824,1,8,0:0:0:0:
256,192,90904,1,8,0:0:0:0:
256,192,90984,1,0,0:0:0:0:
256,192,91143,1,0,0:0:0:0:
256,192,91463,1,0,0:0:0:0:
256,192,91622,1,12,0:0:0:0:
256,192,91941,1,12,0:0:0:0:
256,192,92260,1,4,0:0:0:0:
256,192,92739,1,0,0:0:0:0:
256,192,92899,1,8,0:0:0:0:
256,192,93058,1,0,0:0:0:0:
256,192,93218,1,0,0:0:0:0:
256,192,93377,1,8,0:0:0:0:
256,192,93697,1,0,0:0:0:0:
256,192,93856,1,8,0:0:0:0:
256,192,94016,1,0,0:0:0:0:
256,192,94096,1,0,0:0:0:0:
256,192,94175,1,8,0:0:0:0:
256,192,94335,1,8,0:0:0:0:
256,192,94494,1,0,0:0:0:0:
256,192,94654,1,8,0:0:0:0:
256,192,94814,1,0,0:0:0:0:
256,192,94973,1,0,0:0:0:0:
256,192,95292,1,0,0:0:0:0:
256,192,95452,1,8,0:0:0:0:
256,192,95691,1,0,0:0:0:0:
256,192,95931,1,8,0:0:0:0:
256,192,96090,1,0,0:0:0:0:
256,192,96250,1,8,0:0:0:0:
256,192,96409,1,8,0:0:0:0:
256,192,96569,1,0,0:0:0:0:
256,192,96728,1,8,0:0:0:0:
256,192,96888,1,0,0:0:0:0:
256,192,97048,1,8,0:0:0:0:
256,192,97207,1,8,0:0:0:0:
256,192,97367,1,4,0:0:0:0:
256,192,97606,1,0,0:0:0:0:
256,192,97846,1,0,0:0:0:0:
256,192,97925,1,0,0:0:0:0:
256,192,98005,1,8,0:0:0:0:
256,192,98244,1,0,0:0:0:0:
256,192,98484,1,8,0:0:0:0:
256,192,98643,1,0,0:0:0:0:
256,192,98803,1,0,0:0:0:0:
256,192,99122,1,0,0:0:0:0:
256,192,99282,1,8,0:0:0:0:
256,192,99521,1,0,0:0:0:0:
256,192,99760,1,8,0:0:0:0:
256,192,99920,1,0,0:0:0:0:
256,192,100080,1,0,0:0:0:0:
256,192,100239,1,0,0:0:0:0:
256,192,100399,1,0,0:0:0:0:
256,192,100558,1,8,0:0:0:0:
256,192,100718,1,0,0:0:0:0:
256,192,100877,1,0,0:0:0:0:
256,192,101037,1,0,0:0:0:0:
256,192,101117,1,0,0:0:0:0:
256,192,101197,1,8,0:0:0:0:
256,192,101276,1,8,0:0:0:0:
256,192,101356,1,0,0:0:0:0:
256,192,101436,1,8,0:0:0:0:
256,192,101516,1,0,0:0:0:0:
256,192,101596,1,0,0:0:0:0:
256,192,101675,1,8,0:0:0:0:
256,192,101755,1,8,0:0:0:0:
256,192,101835,1,0,0:0:0:0:
256,192,101994,1,0,0:0:0:0:
256,192,102154,1,0,0:0:0:0:
256,192,102207,1,0,0:0:0:0:
256,192,102260,1,0,0:0:0:0:
256,192,102314,1,8,0:0:0:0:
256,192,102473,1,4,0:0:0:0:
256,192,102792,1,8,0:0:0:0:
256,192,102872,1,8,0:0:0:0:
256,192,102952,1,0,0:0:0:0:
256,192,103032,1,0,0:0:0:0:
256,192,103111,1,0,0:0:0:0:
256,192,103271,1,0,0:0:0:0:
256,192,103431,1,8,0:0:0:0:
256,192,103590,1,8,0:0:0:0:
256,192,103670,1,8,0:0:0:0:
256,192,103750,1,0,0:0:0:0:
256,192,103909,1,0,0:0:0:0:
256,192,103989,1,0,0:0:0:0:
256,192,104069,1,8,0:0:0:0:
256,192,104228,1,0,0:0:0:0:
256,192,104308,1,0,0:0:0:0:
256,192,104388,1,8,0:0:0:0:
256,192,104468,1,8,0:0:0:0:
256,192,104548,1,0,0:0:0:0:
256,192,104707,1,8,0:0:0:0:
256,192,104787,1,0,0:0:0:0:
256,192,104867,1,8,0:0:0:0:
256,192,104947,1,8,0:0:0:0:
256,192,105026,1,0,0:0:0:0:
256,192,105186,1,0,0:0:0:0:
256,192,105266,1,0,0:0:0:0:
256,192,105346,1,8,0:0:0:0:
256,192,105505,1,0,0:0:0:0:
256,192,105665,1,8,0:0:0:0:
256,192,105744,1,0,0:0:0:0:
256,192,105824,1,0,0:0:0:0:
256,192,105904,1,0,0:0:0:0:
256,192,105984,1,8,0:0:0:0:
256,192,106143,1,0,0:0:0:0:
256,192,106303,1,8,0:0:0:0:
256,192,106383,1,8,0:0:0:0:
256,192,106463,1,0,0:0:0:0:
256,192,106542,1,0,0:0:0:0:
256,192,106622,1,8,0:0:0:0:
256,192,106702,1,0,0:0:0:0:
256,192,106782,1,8,0:0:0:0:
256,192,106861,1,8,0:0:0:0:
256,192,106941,1,0,0:0:0:0:
256,192,107101,1,0,0:0:0:0:
256,192,107181,1,0,0:0:0:0:
256,192,107260,1,8,0:0:0:0:
256,192,107420,1,8,0:0:0:0:
256,192,107580,1,0,0:0:0:0:
256,192,107739,1,8,0:0:0:0:
256,192,107819,1,0,0:0:0:0:
256,192,107899,1,8,0:0:0:0:
256,192,107978,1,8,0:0:0:0:
256,192,108058,1,0,0:0:0:0:
256,192,108138,1,8,0:0:0:0:
256,192,108218,1,0,0:0:0:0:
256,192,108298,1,8,0:0:0:0:
256,192,108377,1,0,0:0:0:0:
256,192,108457,1,0,0:0:0:0:
256,192,108537,1,8,0:0:0:0:
256,192,108590,1,8,0:0:0:0:
256,192,108643,1,8,0:0:0:0:
256,192,108697,1,0,0:0:0:0:
256,192,108856,1,0,0:0:0:0:
256,192,109016,1,0,0:0:0:0:
256,192,109096,1,0,0:0:0:0:
256,192,109175,1,8,0:0:0:0:
256,192,109335,1,0,0:0:0:0:
256,192,109494,1,8,0:0:0:0:
256,192,109574,1,8,0:0:0:0:
256,192,109654,1,0,0:0:0:0:
256,192,109734,1,0,0:0:0:0:
256,192,109814,1,8,0:0:0:0:
256,192,109973,1,8,0:0:0:0:
256,192,110133,1,0,0:0:0:0:
256,192,110213,1,0,0:0:0:0:
256,192,110292,1,8,0:0:0:0:
256,192,110372,1,8,0:0:0:0:
256,192,110452,1,8,0:0:0:0:
256,192,110532,1,0,0:0:0:0:
256,192,110611,1,8,0:0:0:0:
256,192,110771,1,8,0:0:0:0:
256,192,110851,1,8,0:0:0:0:
256,192,110931,1,0,0:0:0:0:
256,192,111010,1,0,0:0:0:0:
256,192,111090,1,8,0:0:0:0:
256,192,111170,1,0,0:0:0:0:
256,192,111250,1,8,0:0:0:0:
256,192,111330,1,8,0:0:0:0:
256,192,111409,1,0,0:0:0:0:
256,192,111649,1,0,0:0:0:0:
256,192,111728,1,8,0:0:0:0:
256,192,111888,1,0,0:0:0:0:
256,192,112207,1,0,0:0:0:0:
256,192,112367,1,8,0:0:0:0:
256,192,112526,1,0,0:0:0:0:
256,192,112686,1,0,0:0:0:0:
256,192,113324,1,8,0:0:0:0:
256,192,113803,1,8,0:0:0:0:
256,192,113963,1,8,0:0:0:0:
256,192,114282,1,8,0:0:0:0:
256,192,114601,1,8,0:0:0:0:
256,192,114760,1,8,0:0:0:0:
256,192,114920,1,8,0:0:0:0:
256,192,115239,1,8,0:0:0:0:
256,224,115558,1,8,0:0:0:0:
256,224,115877,1,8,0:0:0:0:
256,224,116197,1,8,0:0:0:0:
256,224,116516,1,8,0:0:0:0:
256,192,116835,12,8,117633,0:0:0:0:
256,192,117792,5,4,0:0:0:0:
256,192,118032,1,0,0:0:0:0:
256,192,118111,1,8,0:0:0:0:
256,192,118271,1,0,0:0:0:0:
256,192,118351,1,0,0:0:0:0:
256,192,118431,1,0,0:0:0:0:
256,192,118590,1,0,0:0:0:0:
256,192,118750,1,8,0:0:0:0:
256,192,118909,1,8,0:0:0:0:
256,192,118989,1,8,0:0:0:0:
256,192,119069,1,0,0:0:0:0:
256,192,119228,1,0,0:0:0:0:
256,192,119308,1,0,0:0:0:0:
256,192,119388,1,8,0:0:0:0:
256,192,119548,1,0,0:0:0:0:
256,192,119627,1,0,0:0:0:0:
256,192,119707,1,0,0:0:0:0:
256,192,119867,1,0,0:0:0:0:
256,192,120026,1,8,0:0:0:0:
256,192,120186,1,8,0:0:0:0:
256,192,120266,1,8,0:0:0:0:
256,192,120346,1,0,0:0:0:0:
256,192,120425,1,8,0:0:0:0:
256,192,120505,1,0,0:0:0:0:
256,192,120585,1,0,0:0:0:0:
256,192,120665,1,8,0:0:0:0:
256,192,120824,1,0,0:0:0:0:
256,192,120904,1,0,0:0:0:0:
256,192,120984,1,8,0:0:0:0:
256,192,121064,1,0,0:0:0:0:
256,192,121143,1,8,0:0:0:0:
256,192,121223,1,8,0:0:0:0:
256,192,121303,1,0,0:0:0:0:
256,192,121383,1,8,0:0:0:0:
256,192,121463,1,0,0:0:0:0:
256,192,121782,1,0,0:0:0:0:
256,192,121941,1,8,0:0:0:0:
256,192,122101,1,8,0:0:0:0:
256,192,122260,1,0,0:0:0:0:
256,192,122420,1,0,0:0:0:0:
256,192,122500,1,0,0:0:0:0:
256,192,122580,1,8,0:0:0:0:
256,192,122659,1,8,0:0:0:0:
256,192,122739,1,0,0:0:0:0:
256,192,123058,1,0,0:0:0:0:
256,192,123377,1,0,0:0:0:0:
256,192,123537,1,0,0:0:0:0:
256,192,123697,1,0,0:0:0:0:
256,192,123776,1,0,0:0:0:0:
256,192,123856,1,8,0:0:0:0:
256,192,124175,1,4,0:0:0:0:
256,192,124334,1,8,0:0:0:0:
256,192,124414,1,8,0:0:0:0:
256,192,124494,1,8,0:0:0:0:
256,192,124653,1,4,0:0:0:0:
256,192,124813,1,8,0:0:0:0:
256,192,124893,1,8,0:0:0:0:
256,192,124972,1,8,0:0:0:0:
256,192,125132,1,0,0:0:0:0:
256,192,125292,1,12,0:0:0:0:
256,192,125611,1,0,0:0:0:0:
256,192,125690,1,0,0:0:0:0:
256,192,125770,1,8,0:0:0:0:
256,192,125930,1,0,0:0:0:0:
256,192,126010,1,8,0:0:0:0:
256,192,126089,1,0,0:0:0:0:
256,192,126169,1,8,0:0:0:0:
256,192,126249,1,0,0:0:0:0:
256,192,126409,1,8,0:0:0:0:
256,192,126568,1,8,0:0:0:0:
256,192,126648,1,8,0:0:0:0:
256,192,126728,1,0,0:0:0:0:
256,192,126807,1,0,0:0:0:0:
256,192,126887,1,0,0:0:0:0:
256,192,127047,1,8,0:0:0:0:
256,192,127206,1,0,0:0:0:0:
256,192,127286,1,8,0:0:0:0:
256,192,127366,1,0,0:0:0:0:
256,192,127446,1,0,0:0:0:0:
256,192,127526,1,0,0:0:0:0:
256,192,127685,1,8,0:0:0:0:
256,192,127845,1,8,0:0:0:0:
256,192,128004,1,4,0:0:0:0:
256,192,128164,1,8,0:0:0:0:
256,192,128244,1,0,0:0:0:0:
256,192,128323,1,8,0:0:0:0:
256,192,128483,1,12,0:0:0:0:
256,192,128643,1,0,0:0:0:0:
256,192,128802,1,0,0:0:0:0:
256,192,128882,1,0,0:0:0:0:
256,192,128962,1,8,0:0:0:0:
256,192,129042,1,8,0:0:0:0:
256,192,129121,1,8,0:0:0:0:
256,192,129281,1,4,0:0:0:0:
256,192,129520,1,0,0:0:0:0:
256,192,129600,1,8,0:0:0:0:
256,192,129760,1,0,0:0:0:0:
256,192,129839,1,0,0:0:0:0:
256,192,129919,1,8,0:0:0:0:
256,192,129999,1,8,0:0:0:0:
256,192,130159,1,0,0:0:0:0:
256,192,130238,1,8,0:0:0:0:
256,192,130398,1,8,0:0:0:0:
256,192,130478,1,8,0:0:0:0:
256,192,130557,1,0,0:0:0:0:
256,192,130717,1,0,0:0:0:0:
256,192,130877,1,8,0:0:0:0:
256,192,131036,1,0,0:0:0:0:
256,192,131116,1,0,0:0:0:0:
256,192,131196,1,8,0:0:0:0:
256,192,131276,1,8,0:0:0:0:
256,192,131435,1,0,0:0:0:0:
256,192,131515,1,8,0:0:0:0:
256,192,131595,1,0,0:0:0:0:
256,192,131675,1,8,0:0:0:0:
256,192,131754,1,8,0:0:0:0:
256,192,131834,1,0,0:0:0:0:
256,192,131994,1,0,0:0:0:0:
256,192,132073,1,0,0:0:0:0:
256,192,132153,1,8,0:0:0:0:
256,192,132313,1,0,0:0:0:0:
256,192,132393,1,0,0:0:0:0:
256,192,132472,1,8,0:0:0:0:
256,192,132632,1,0,0:0:0:0:
256,192,132712,1,0,0:0:0:0:
256,192,132792,1,8,0:0:0:0:
256,192,132951,1,0,0:0:0:0:
256,192,133031,1,0,0:0:0:0:
256,192,133111,1,8,0:0:0:0:
256,192,133190,1,0,0:0:0:0:
256,192,133270,1,8,0:0:0:0:
256,192,133350,1,8,0:0:0:0:
256,192,133430,1,0,0:0:0:0:
256,192,133510,1,8,0:0:0:0:
256,192,133589,1,8,0:0:0:0:
256,192,133669,1,8,0:0:0:0:
256,192,133749,1,0,0:0:0:0:
256,192,133909,1,0,0:0:0:0:
256,192,134068,1,8,0:0:0:0:
256,192,134387,1,4,0:0:0:0:
256,192,134547,1,8,0:0:0:0:
256,192,134627,1,8,0:0:0:0:
256,192,134706,1,0,0:0:0:0:
256,192,134866,1,12,0:0:0:0:
256,192,135026,1,8,0:0:0:0:
256,192,135105,1,8,0:0:0:0:
256,192,135185,1,0,0:0:0:0:
256,192,135345,1,12,0:0:0:0:
256,192,135664,1,0,0:0:0:0:
256,192,135823,1,0,0:0:0:0:
256,192,135903,1,0,0:0:0:0:
256,192,135983,1,8,0:0:0:0:
256,192,136143,1,8,0:0:0:0:
256,192,136222,1,0,0:0:0:0:
256,192,136302,1,8,0:0:0:0:
256,192,136382,1,8,0:0:0:0:
256,192,136462,1,0,0:0:0:0:
256,192,136621,1,8,0:0:0:0:
256,192,136781,1,8,0:0:0:0:
256,192,136861,1,8,0:0:0:0:
256,192,136940,1,0,0:0:0:0:
256,192,137020,1,0,0:0:0:0:
256,192,137100,1,8,0:0:0:0:
256,192,137260,1,8,0:0:0:0:
256,192,137419,1,0,0:0:0:0:
256,192,137499,1,8,0:0:0:0:
256,192,137579,1,0,0:0:0:0:
256,192,137659,1,0,0:0:0:0:
256,192,137738,1,8,0:0:0:0:
256,192,137898,1,8,0:0:0:0:
256,192,138057,1,8,0:0:0:0:
256,192,138137,1,8,0:0:0:0:
256,192,138217,1,0,0:0:0:0:
256,192,138297,1,0,0:0:0:0:
256,192,138377,1,8,0:0:0:0:
256,192,138456,1,0,0:0:0:0:
256,192,138536,1,8,0:0:0:0:
256,192,138696,1,8,0:0:0:0:
256,192,138776,1,8,0:0:0:0:
256,192,138855,1,0,0:0:0:0:
256,192,139015,1,8,0:0:0:0:
256,192,139095,1,0,0:0:0:0:
256,192,139175,1,0,0:0:0:0:
256,192,139254,1,8,0:0:0:0:
256,192,139334,1,8,0:0:0:0:
256,192,139494,1,4,0:0:0:0:
256,192,139733,1,0,0:0:0:0:
256,192,139813,1,8,0:0:0:0:
256,192,139972,1,0,0:0:0:0:
256,192,140052,1,0,0:0:0:0:
256,192,140132,1,8,0:0:0:0:
256,192,140212,1,8,0:0:0:0:
256,192,140371,1,0,0:0:0:0:
256,192,140451,1,8,0:0:0:0:
256,192,140611,1,8,0:0:0:0:
256,192,140690,1,8,0:0:0:0:
256,192,140770,1,0,0:0:0:0:
256,192,140930,1,0,0:0:0:0:
256,192,141089,1,8,0:0:0:0:
256,192,141249,1,0,0:0:0:0:
256,192,141329,1,0,0:0:0:0:
256,192,141409,1,8,0:0:0:0:
256,192,141488,1,8,0:0:0:0:
256,192,141648,1,0,0:0:0:0:
256,192,141728,1,8,0:0:0:0:
256,192,141807,1,0,0:0:0:0:
256,192,141887,1,8,0:0:0:0:
256,192,141967,1,8,0:0:0:0:
256,192,142047,1,0,0:0:0:0:
256,192,142206,1,8,0:0:0:0:
256,192,142286,1,0,0:0:0:0:
256,192,142366,1,8,0:0:0:0:
256,192,142526,1,0,0:0:0:0:
256,192,142605,1,8,0:0:0:0:
256,192,142685,1,0,0:0:0:0:
256,192,142845,1,8,0:0:0:0:
256,192,142925,1,0,0:0:0:0:
256,192,143004,1,8,0:0:0:0:
256,192,143084,1,8,0:0:0:0:
256,192,143164,1,0,0:0:0:0:
256,192,143244,1,8,0:0:0:0:
256,192,143323,1,0,0:0:0:0:
256,192,143403,1,0,0:0:0:0:
256,192,143483,1,0,0:0:0:0:
224,192,143563,1,0,0:0:0:0:
256,192,143643,1,8,0:0:0:0:
256,192,143802,1,8,0:0:0:0:
256,192,143882,1,8,0:0:0:0:
256,192,143962,1,0,0:0:0:0:
256,192,144121,1,0,0:0:0:0:
256,192,144201,1,8,0:0:0:0:
256,192,144281,1,8,0:0:0:0:
256,192,144440,1,8,0:0:0:0:
256,192,144600,1,4,0:0:0:0:
256,192,144760,1,0,0:0:0:0:
256,192,145079,1,0,0:0:0:0:
256,192,145238,1,8,0:0:0:0:
256,192,145398,1,0,0:0:0:0:
256,192,145557,1,8,0:0:0:0:
256,192,145717,1,8,0:0:0:0:
288,192,145877,1,0,0:0:0:0:
256,192,146196,1,0,0:0:0:0:
256,192,146355,1,0,0:0:0:0:
256,192,146515,1,8,0:0:0:0:
256,192,146834,1,8,0:0:0:0:
256,192,146994,1,8,0:0:0:0:
256,192,147153,1,4,0:0:0:0:
256,192,147313,1,0,0:0:0:0:
256,192,147632,1,0,0:0:0:0:
256,192,147792,1,8,0:0:0:0:
256,192,147951,1,8,0:0:0:0:
256,192,148111,1,0,0:0:0:0:
256,192,148270,1,8,0:0:0:0:
256,192,148430,1,0,0:0:0:0:
256,192,148749,1,0,0:0:0:0:
256,192,148909,1,0,0:0:0:0:
256,192,149068,1,8,0:0:0:0:
256,192,149228,1,0,0:0:0:0:
256,192,149307,1,8,0:0:0:0:
256,192,149387,1,0,0:0:0:0:
256,192,149547,1,8,0:0:0:0:
256,192,149706,1,4,0:0:0:0:
256,192,149866,1,0,0:0:0:0:
256,192,150185,1,0,0:0:0:0:
256,192,150345,1,8,0:0:0:0:
256,192,150504,1,0,0:0:0:0:
256,192,150664,1,8,0:0:0:0:
256,192,150823,1,8,0:0:0:0:
256,192,150983,1,0,0:0:0:0:
256,192,151302,1,0,0:0:0:0:
256,192,151462,1,0,0:0:0:0:
256,192,151621,1,8,0:0:0:0:
256,192,151940,1,8,0:0:0:0:
256,192,152100,1,8,0:0:0:0:
256,192,152260,1,4,0:0:0:0:
256,192,152419,1,0,0:0:0:0:
256,192,152738,1,0,0:0:0:0:
256,192,152898,1,8,0:0:0:0:
256,192,153057,1,0,0:0:0:0:
256,192,153217,1,8,0:0:0:0:
256,192,153377,1,8,0:0:0:0:
256,192,153536,1,0,0:0:0:0:
256,192,153696,1,0,0:0:0:0:
256,192,153776,1,8,0:0:0:0:
256,192,153855,1,0,0:0:0:0:
256,192,153935,1,0,0:0:0:0:
256,192,154015,1,8,0:0:0:0:
256,192,154175,1,8,0:0:0:0:
256,192,154254,1,8,0:0:0:0:
256,192,154334,1,0,0:0:0:0:
256,192,154414,1,8,0:0:0:0:
256,192,154494,1,0,0:0:0:0:
256,192,154573,1,0,0:0:0:0:
256,192,154653,1,8,0:0:0:0:
256,192,154813,1,4,0:0:0:0:
256,192,155132,1,8,0:0:0:0:
256,192,155292,1,0,0:0:0:0:
256,192,155371,1,8,0:0:0:0:
256,192,155451,1,0,0:0:0:0:
256,192,155611,1,0,0:0:0:0:
256,192,155690,1,0,0:0:0:0:
256,192,155770,1,8,0:0:0:0:
256,192,155930,1,8,0:0:0:0:
256,192,156089,1,0,0:0:0:0:
256,192,156169,1,8,0:0:0:0:
256,192,156249,1,0,0:0:0:0:
256,192,156329,1,0,0:0:0:0:
256,192,156409,1,8,0:0:0:0:
256,192,156568,1,8,0:0:0:0:
256,192,156648,1,8,0:0:0:0:
256,192,156728,1,0,0:0:0:0:
256,192,156887,1,0,0:0:0:0:
256,192,157047,1,8,0:0:0:0:
256,192,157127,1,0,0:0:0:0:
256,192,157206,1,8,0:0:0:0:
256,192,157286,1,8,0:0:0:0:
256,192,157366,1,0,0:0:0:0:
256,192,157526,1,0,0:0:0:0:
256,192,157605,1,0,0:0:0:0:
256,192,157685,1,8,0:0:0:0:
256,192,157845,1,0,0:0:0:0:
256,192,158004,1,8,0:0:0:0:
256,192,158084,1,8,0:0:0:0:
256,192,158164,1,0,0:0:0:0:
256,192,158244,1,0,0:0:0:0:
256,192,158323,1,8,0:0:0:0:
256,192,158483,1,8,0:0:0:0:
256,192,158643,1,0,0:0:0:0:
256,192,158722,1,0,0:0:0:0:
256,192,158802,1,8,0:0:0:0:
256,192,158882,1,0,0:0:0:0:
256,192,158962,1,8,0:0:0:0:
256,192,159042,1,8,0:0:0:0:
256,192,159121,1,0,0:0:0:0:
256,192,159201,1,0,0:0:0:0:
256,192,159281,1,8,0:0:0:0:
256,192,159440,1,0,0:0:0:0:
256,192,159520,1,8,0:0:0:0:
256,192,159680,1,0,0:0:0:0:
256,192,159760,1,8,0:0:0:0:
256,192,159919,1,4,0:0:0:0:
256,192,160238,1,8,0:0:0:0:
256,192,160398,1,0,0:0:0:0:
256,192,160478,1,0,0:0:0:0:
256,192,160557,1,8,0:0:0:0:
256,192,160717,1,0,0:0:0:0:
256,192,160797,1,0,0:0:0:0:
256,192,160877,1,8,0:0:0:0:
256,192,160956,1,0,0:0:0:0:
256,192,161036,1,8,0:0:0:0:
256,192,161196,1,0,0:0:0:0:
256,192,161276,1,8,0:0:0:0:
256,192,161355,1,0,0:0:0:0:
256,192,161435,1,0,0:0:0:0:
256,192,161515,1,8,0:0:0:0:
256,192,161675,1,0,0:0:0:0:
256,192,161754,1,0,0:0:0:0:
256,192,161834,1,8,0:0:0:0:
256,192,161994,1,0,0:0:0:0:
256,192,162073,1,0,0:0:0:0:
256,192,162153,1,8,0:0:0:0:
256,192,162233,1,0,0:0:0:0:
256,192,162313,1,8,0:0:0:0:
256,192,162393,1,8,0:0:0:0:
256,192,162472,1,0,0:0:0:0:
256,192,162632,1,0,0:0:0:0:
256,192,162712,1,0,0:0:0:0:
256,192,162792,1,8,0:0:0:0:
256,192,162871,1,8,0:0:0:0:
256,192,162951,1,0,0:0:0:0:
256,192,163111,1,8,0:0:0:0:
256,192,163270,1,0,0:0:0:0:
256,192,163350,1,0,0:0:0:0:
256,192,163430,1,8,0:0:0:0:
256,192,163589,1,8,0:0:0:0:
256,192,163909,1,0,0:0:0:0:
256,192,164068,1,0,0:0:0:0:
256,192,164228,1,8,0:0:0:0:
