osu file format v14

[General]
AudioFilename: audio.mp3
AudioLeadIn: 0
PreviewTime: 58239
Countdown: 0
SampleSet: Normal
StackLeniency: 0.3
Mode: 0
LetterboxInBreaks: 0
EpilepsyWarning: 1
WidescreenStoryboard: 1

[Editor]
Bookmarks: 213966
DistanceSpacing: 0.8
BeatDivisor: 4
GridSize: 4
TimelineZoom: 3.099999

[Metadata]
Title:DSCF
TitleUnicode:DSCF
Artist:DECO*27
ArtistUnicode:DECO*27
Creator:eLzL
Version:Normal
Source:
Tags:Deco*27, Ghost, Hatsune Miku, Vocaloid, Delusion Sentiment Compensation Federation, DSCF, MKDR
BeatmapID:2042489
BeatmapSetID:961270

[Difficulty]
HPDrainRate:4
CircleSize:3.6
OverallDifficulty:7
ApproachRate:5
SliderMultiplier:1.4
SliderTickRate:1

[Events]
//Background and Video events
0,0,"bg.jpg",0,0
//Break Periods
2,26529,29221
2,30893,33039
2,94166,108039
2,170530,186585
//Storyboard Layer 0 (Background)
//Storyboard Layer 1 (Fail)
//Storyboard Layer 2 (Pass)
//Storyboard Layer 3 (Foreground)
Sprite,Foreground,Centre,"sb/haireitsu.png",500,296 S,2,227331,227531,0.8,0.16 F,2,227331,227531,1,0 P,0,227331,227531,A C,0,227331,,18,124,255
Sprite,Foreground,Centre,"sb/haireitsu.png",504,384 S,2,227603,227803,0.8,0.16 F,2,227603,227803,1,0 P,0,227603,227803,A C,0,227603,,18,124,255
Sprite,Foreground,Centre,"sb/haireitsu.png",0,0 S,2,227876,228348,0.8,0.16 F,2,227876,228348,1,0 P,0,227876,228348,A C,0,227876,,18,124,255 M,0,227876,227910,416,408,411.3043,398.6085 M,0,227910,227944,411.3043,398.6085,406.6085,389.217 M,0,227944,227978,406.6085,389.217,401.9128,379.8255 M,0,227978,228012,401.9128,379.8255,397.217,370.4341 M,0,228012,228046,397.217,370.4341,392.5213,361.0426 M,0,228046,228080,392.5213,361.0426,387.8255,351.6511 M,0,228080,228114,387.8255,351.6511,383.1298,342.2596 M,0,228114,228148,383.1298,342.2596,378.4341,332.8681
Sprite,Foreground,Centre,"sb/haireitsu.png",340,256 S,2,228421,228621,0.8,0.16 F,2,228421,228621,1,0 P,0,228421,228621,A C,0,228421,,18,124,255
Sprite,Foreground,Centre,"sb/haireitsu.png",416,208 S,2,228694,228894,0.8,0.16 F,2,228694,228894,1,0 P,0,228694,228894,A C,0,228694,,18,124,255
Sprite,Foreground,Centre,"sb/haireitsu.png",0,0 S,2,228967,229439,0.8,0.16 F,2,228967,229439,1,0 P,0,228967,229439,A C,0,228967,,18,124,255 M,0,228967,229001,468,276,468,286.5 M,0,229001,229035,468,286.5,468,297 M,0,229035,229069,468,297,468,307.5 M,0,229069,229103,468,307.5,468,318 M,0,229103,229137,468,318,468,328.5 M,0,229137,229171,468,328.5,468,339 M,0,229171,229205,468,339,468,349.5 M,0,229205,229239,468,349.5,468,360
Sprite,Foreground,Centre,"sb/haireitsu.png",0,0 S,2,229512,229984,0.8,0.16 F,2,229512,229984,1,0 P,0,229512,229984,A C,0,229512,,242,24,57 M,0,229512,229546,360,388,370.4506,388.5876 M,0,229546,229580,370.4506,388.5876,380.8711,387.7817 M,0,229580,229614,380.8711,387.7817,391.0829,385.5989 M,0,229614,229648,391.0829,385.5989,401.0274,382.3735 M,0,229648,229682,401.0274,382.3735,410.1982,377.3457 M,0,229682,229716,410.1982,377.3457,418.6089,371.1503 M,0,229716,229750,418.6089,371.1503,426.4454,364.1934 M,0,229750,229784,426.4454,364.1934,432.8488,355.8922
Sprite,Foreground,Centre,"sb/haireitsu.png",320,248 S,2,230058,231621,0.8,0.16 F,2,230058,231621,1,0 P,0,230058,231621,A C,0,230058,,242,24,57
Sprite,Foreground,Centre,"sb/haireitsu.png",0,0 S,2,222694,223166,0.8,0.16 F,2,222694,223166,1,0 P,0,222694,223166,A C,0,222694,,0,202,0 M,0,222694,222728,160,372,150.0806,375.0844 M,0,222728,222762,150.0806,375.0844,139.7605,375.5802 M,0,222762,222796,139.7605,375.5802,129.6852,373.4764 M,0,222796,222830,129.6852,373.4764,120.4825,368.9177 M,0,222830,222864,120.4825,368.9177,112.2745,362.6596 M,0,222864,222898,112.2745,362.6596,106.74,353.9131 M,0,222898,222932,106.74,353.9131,103.592,344.1007 M,0,222932,222966,103.592,344.1007,103.0125,333.8408
Sprite,Foreground,Centre,"sb/haireitsu.png",152,248 S,2,223240,223440,0.8,0.16 F,2,223240,223440,1,0 P,0,223240,223440,A C,0,223240,,0,202,0
Sprite,Foreground,Centre,"sb/haireitsu.png",228,200 S,2,223512,223712,0.8,0.16 F,2,223512,223712,1,0 P,0,223512,223712,A C,0,223512,,0,202,0
Sprite,Foreground,Centre,"sb/haireitsu.png",0,0 S,2,223785,224257,0.8,0.16 F,2,223785,224257,1,0 P,0,223785,224257,A C,0,223785,,0,202,0 M,0,223785,223819,324,228,323.5336,238.4845 M,0,223819,223853,323.5336,238.4845,323.6397,248.9762 M,0,223853,223887,323.6397,248.9762,324.3179,259.4446 M,0,223887,223921,324.3179,259.4446,325.566,269.8593 M,0,223921,223955,325.566,269.8593,327.2234,280.2205 M,0,223955,223989,327.2234,280.2205,329.6846,290.4214 M,0,223989,224023,329.6846,290.4214,332.6979,300.4707 M,0,224023,224057,332.6979,300.4707,336.2544,310.3392
Sprite,Foreground,Centre,"sb/haireitsu.png",432,336 S,2,224331,224531,0.8,0.16 F,2,224331,224531,1,0 P,0,224331,224531,A C,0,224331,,0,202,0
Sprite,Foreground,Centre,"sb/haireitsu.png",528,360 S,2,224603,224803,0.8,0.16 F,2,224603,224803,1,0 P,0,224603,224803,A C,0,224603,,0,202,0
Sprite,Foreground,Centre,"sb/haireitsu.png",0,0 S,2,224876,225348,0.8,0.16 F,2,224876,225348,1,0 P,0,224876,225348,A C,0,224876,,0,202,0 M,0,224876,224910,524,256,513.5,256 M,0,224910,224944,513.5,256,503,256 M,0,224944,224978,503,256,492.5,256 M,0,224978,225012,492.5,256,482,256 M,0,225012,225046,482,256,471.5,256 M,0,225046,225080,471.5,256,461,256 M,0,225080,225114,461,256,450.5,256 M,0,225114,225148,450.5,256,440,256
Sprite,Foreground,Centre,"sb/haireitsu.png",0,0 S,2,218330,218802,0.8,0.16 F,2,218330,218802,1,0 P,0,218330,218802,A C,0,218330,,242,24,57 M,0,218330,218364,480,360,470.6152,364.6828 M,0,218364,218398,470.6152,364.6828,460.8811,368.5718 M,0,218398,218432,460.8811,368.5718,450.8629,371.6418 M,0,218432,218466,450.8629,371.6418,440.6279,373.8724 M,0,218466,218500,440.6279,373.8724,430.2708,375.5093 M,0,218500,218534,430.2708,375.5093,419.7917,375.8942 M,0,218534,218568,419.7917,375.8942,409.3221,375.412 M,0,218568,218602,409.3221,375.412,398.932,374.0666
Sprite,Foreground,Centre,"sb/haireitsu.png",296,364 S,2,218876,219076,0.8,0.16 F,2,218876,219076,1,0 P,0,218876,219076,A C,0,218876,,242,24,57
Sprite,Foreground,Centre,"sb/haireitsu.png",220,408 S,2,219149,219349,0.8,0.16 F,2,219149,219349,1,0 P,0,219149,219349,A C,0,219149,,242,24,57
Sprite,Foreground,Centre,"sb/haireitsu.png",0,0 S,2,219421,219893,0.8,0.16 F,2,219421,219893,1,0 P,0,219421,219893,A C,0,219421,,242,24,57 M,0,219421,219455,224,320,223.856,309.5564 M,0,219455,219489,223.856,309.5564,221.8827,299.3276 M,0,219489,219523,221.8827,299.3276,218.1468,289.6232 M,0,219523,219557,218.1468,289.6232,212.766,280.7369 M,0,219557,219591,212.766,280.7369,206.1897,272.6788 M,0,219591,219625,206.1897,272.6788,197.8571,266.4194 M,0,219625,219659,197.8571,266.4194,188.5712,261.733 M,0,219659,219693,188.5712,261.733,178.7251,258.1971
Sprite,Foreground,Centre,"sb/haireitsu.png",108,320 S,2,219966,220166,0.8,0.16 F,2,219966,220166,1,0 P,0,219966,220166,A C,0,219966,,242,24,57
Sprite,Foreground,Centre,"sb/haireitsu.png",104,240 S,2,220240,220440,0.8,0.16 F,2,220240,220440,1,0 P,0,220240,220440,A C,0,220240,,242,24,57
Sprite,Foreground,Centre,"sb/haireitsu.png",0,0 S,2,220512,220984,0.8,0.16 F,2,220512,220984,1,0 P,0,220512,220984,A C,0,220512,,242,24,57 M,0,220512,220546,112,152,117.217,142.9469 M,0,220546,220580,117.217,142.9469,123.8525,134.9072 M,0,220580,220614,123.8525,134.9072,131.7229,128.0947 M,0,220614,220648,131.7229,128.0947,140.4019,122.2968 M,0,220648,220682,140.4019,122.2968,150.2098,118.724 M,0,220682,220716,150.2098,118.724,160.4553,116.8378 M,0,220716,220750,160.4553,116.8378,170.8601,116.6848 M,0,220750,220784,170.8601,116.6848,181.1974,117.9402
Sprite,Foreground,Centre,"sb/haireitsu.png",0,0 S,2,213966,214438,0.8,0.16 F,2,213966,214438,1,0 P,0,213966,214438,A C,0,213966,,0,202,0 M,0,213966,214000,492,344,482.4776,348.2725 M,0,214000,214034,482.4776,348.2725,472.3576,350.6978 M,0,214034,214068,472.3576,350.6978,461.9829,351.2014 M,0,214068,214102,461.9829,351.2014,451.5778,350.3398 M,0,214102,214136,451.5778,350.3398,441.8034,346.698 M,0,214136,214170,441.8034,346.698,432.8986,341.321 M,0,214170,214204,432.8986,341.321,425.1599,334.3963 M,0,214204,214238,425.1599,334.3963,418.4111,326.4514
Sprite,Foreground,Centre,"sb/haireitsu.png",364,260 S,2,214512,214712,0.8,0.16 F,2,214512,214712,1,0 P,0,214512,214712,A C,0,214512,,0,202,0
Sprite,Foreground,Centre,"sb/haireitsu.png",320,192 S,2,214785,214985,0.8,0.16 F,2,214785,214985,1,0 P,0,214785,214985,A C,0,214785,,0,202,0
Sprite,Foreground,Centre,"sb/haireitsu.png",0,0 S,2,215058,215530,0.8,0.16 F,2,215058,215530,1,0 P,0,215058,215530,A C,0,215058,,0,202,0 M,0,215058,215092,280,108,279.1861,118.3929 M,0,215092,215126,279.1861,118.3929,280.5429,128.6908 M,0,215126,215160,280.5429,128.6908,284.001,138.456 M,0,215160,215194,284.001,138.456,289.4054,147.274 M,0,215194,215228,289.4054,147.274,296.0923,155.2436 M,0,215228,215262,296.0923,155.2436,304.8501,160.8694 M,0,215262,215296,304.8501,160.8694,314.5538,164.5413 M,0,215296,215330,314.5538,164.5413,324.7855,166.1122
Sprite,Foreground,Centre,"sb/haireitsu.png",404,144 S,2,215603,215803,0.8,0.16 F,2,215603,215803,1,0 P,0,215603,215803,A C,0,215603,,0,202,0
Sprite,Foreground,Centre,"sb/haireitsu.png",496,164 S,2,215876,216076,0.8,0.16 F,2,215876,216076,1,0 P,0,215876,216076,A C,0,215876,,0,202,0
Sprite,Foreground,Centre,"sb/haireitsu.png",0,0 S,2,216149,216621,0.8,0.16 F,2,216149,216621,1,0 P,0,216149,216621,A C,0,216149,,0,202,0 M,0,216149,216183,540,244,540,254.5 M,0,216183,216217,540,254.5,540,265 M,0,216217,216251,540,265,540,275.5 M,0,216251,216285,540,275.5,540,286 M,0,216285,216319,540,286,540,296.5 M,0,216319,216353,540,296.5,540,307 M,0,216353,216387,540,307,540,317.5 M,0,216387,216421,540,317.5,540,328
Sprite,Foreground,Centre,"sb/haireitsu.png",436,320 S,2,187785,187985,0.8,0.16 F,2,187785,187985,1,0 P,0,187785,187985,A C,0,187785,,18,124,255
Sprite,Foreground,Centre,"sb/haireitsu.png",436,320 S,2,188330,188530,0.8,0.16 F,2,188330,188530,1,0 P,0,188330,188530,A C,0,188330,,18,124,255
Sprite,Foreground,Centre,"sb/haireitsu.png",436,320 S,2,188876,189076,0.8,0.16 F,2,188876,189076,1,0 P,0,188876,189076,A C,0,188876,,18,124,255
Sprite,Foreground,Centre,"sb/haireitsu.png",436,320 S,2,189421,189621,0.8,0.16 F,2,189421,189621,1,0 P,0,189421,189621,A C,0,189421,,18,124,255
Sprite,Foreground,Centre,"sb/haireitsu.png",436,320 S,2,189966,190166,0.8,0.16 F,2,189966,190166,1,0 P,0,189966,190166,A C,0,189966,,18,124,255
Sprite,Foreground,Centre,"sb/haireitsu.png",436,320 S,2,190512,190712,0.8,0.16 F,2,190512,190712,1,0 P,0,190512,190712,A C,0,190512,,18,124,255
Sprite,Foreground,Centre,"sb/haireitsu.png",436,320 S,2,191057,191257,0.8,0.16 F,2,191057,191257,1,0 P,0,191057,191257,A C,0,191057,,18,124,255
Sprite,Foreground,Centre,"sb/haireitsu.png",436,320 S,2,191603,191803,0.8,0.16 F,2,191603,191803,1,0 P,0,191603,191803,A C,0,191603,,18,124,255
Sprite,Foreground,Centre,"sb/haireitsu.png",0,0 S,2,192148,192620,0.8,0.16 F,2,192148,192620,1,0 P,0,192148,192620,A C,0,192148,,242,24,57 M,0,192148,192182,436,228,433.0913,217.9494 M,0,192182,192216,433.0913,217.9494,428.7816,208.4349 M,0,192216,192250,428.7816,208.4349,423.1604,199.6458 M,0,192250,192284,423.1604,199.6458,416.3424,191.757 M,0,192284,192318,416.3424,191.757,408.6387,184.7283 M,0,192318,192352,408.6387,184.7283,399.7178,179.2943 M,0,192352,192386,399.7178,179.2943,390.1222,175.1985 M,0,192386,192420,390.1222,175.1985,380.1366,172.0343
Sprite,Foreground,Centre,"sb/haireitsu.png",0,0 S,2,192694,193166,0.8,0.16 F,2,192694,193166,1,0 P,0,192694,193166,A C,0,192694,,242,24,57 M,0,192694,192728,328,288,329.1174,298.4239 M,0,192728,192762,329.1174,298.4239,331.2211,308.6861 M,0,192762,192796,331.2211,308.6861,334.2913,318.6962 M,0,192796,192830,334.2913,318.6962,338.0087,328.5027 M,0,192830,192864,338.0087,328.5027,343.0755,337.68 M,0,192864,192898,343.0755,337.68,348.989,346.3264 M,0,192898,192932,348.989,346.3264,355.6961,354.3662 M,0,192932,192966,355.6961,354.3662,362.9272,361.9601
Sprite,Foreground,Centre,"sb/haireitsu.png",0,0 S,2,193239,193711,0.8,0.16 F,2,193239,193711,1,0 P,0,193239,193711,A C,0,193239,,242,24,57 M,0,193239,193273,448,400,457.5628,395.7429 M,0,193273,193307,457.5628,395.7429,467.603,392.8409 M,0,193307,193341,467.603,392.8409,477.9345,391.3445 M,0,193341,193375,477.9345,391.3445,488.3661,391.279 M,0,193375,193409,488.3661,391.279,498.7867,392.2094 M,0,193409,193443,498.7867,392.2094,508.8145,395.1931 M,0,193443,193477,508.8145,395.1931,518.3251,399.5168 M,0,193477,193511,518.3251,399.5168,527.144,405.098
Sprite,Foreground,Centre,"sb/haireitsu.png",0,0 S,2,193785,194257,0.8,0.16 F,2,193785,194257,1,0 P,0,193785,194257,A C,0,193785,,242,24,57 M,0,193785,193819,536,316,540.0452,306.3214 M,0,193819,193853,540.0452,306.3214,543.3656,296.3757 M,0,193853,193887,543.3656,296.3757,545.9442,286.2155 M,0,193887,193921,545.9442,286.2155,547.9551,275.9229 M,0,193921,193955,547.9551,275.9229,548.877,265.4757 M,0,193955,193989,548.877,265.4757,549.0274,254.9929 M,0,193989,194023,549.0274,254.9929,548.4059,244.5297 M,0,194023,194057,548.4059,244.5297,547.1459,234.1236
Sprite,Foreground,Centre,"sb/haireitsu.png",0,0 S,2,194330,194802,0.8,0.16 F,2,194330,194802,1,0 P,0,194330,194802,A C,0,194330,,242,24,57 M,0,194330,194364,528,152,525.1835,141.9073 M,0,194364,194398,525.1835,141.9073,521.2593,132.2033 M,0,194398,194432,521.2593,132.2033,516.2773,123.0065 M,0,194432,194466,516.2773,123.0065,510.2999,114.4293 M,0,194466,194500,510.2999,114.4293,503.6503,106.3391 M,0,194500,194534,503.6503,106.3391,495.7824,99.42535 M,0,194534,194568,495.7824,99.42535,487.1983,93.44122 M,0,194568,194602,487.1983,93.44122,478.0042,88.45888
Sprite,Foreground,Centre,"sb/haireitsu.png",0,0 S,2,194876,195348,0.8,0.16 F,2,194876,195348,1,0 P,0,194876,195348,A C,0,194876,,242,24,57 M,0,194876,194910,392,88,381.6601,87.70809 M,0,194910,194944,381.6601,87.70809,371.7736,90.47263 M,0,194944,194978,371.7736,90.47263,363.2013,96.01759 M,0,194978,195012,363.2013,96.01759,356.6873,103.8344 M,0,195012,195046,356.6873,103.8344,351.9726,112.971 M,0,195046,195080,351.9726,112.971,351.4911,123.2636 M,0,195080,195114,351.4911,123.2636,354.0675,133.17 M,0,195114,195148,354.0675,133.17,358.8368,142.4002
Sprite,Foreground,Centre,"sb/haireitsu.png",0,0 S,2,195421,195893,0.8,0.16 F,2,195421,195893,1,0 P,0,195421,195893,A C,0,195421,,242,24,57 M,0,195421,195455,436,196,437.7971,206.3401 M,0,195455,195489,437.7971,206.3401,439.0648,216.7562 M,0,195489,195523,439.0648,216.7562,439.8001,227.222 M,0,195523,195557,439.8001,227.222,440.1047,237.71 M,0,195557,195591,440.1047,237.71,439.6715,248.1947 M,0,195591,195625,439.6715,248.1947,438.7048,258.642 M,0,195625,195659,438.7048,258.642,437.3445,269.0482 M,0,195659,195693,437.3445,269.0482,435.2215,279.3257
Sprite,Foreground,Centre,"sb/haireitsu.png",0,0 S,2,195966,196438,0.8,0.16 F,2,195966,196438,1,0 P,0,195966,196438,A C,0,195966,,242,24,57 M,0,195966,196000,420,372,430.5,372 M,0,196000,196034,430.5,372,441,372 M,0,196034,196068,441,372,451.5,372 M,0,196068,196102,451.5,372,462,372 M,0,196102,196136,462,372,472.5,372 M,0,196136,196170,472.5,372,483,372 M,0,196170,196204,483,372,493.5,372 M,0,196204,196238,493.5,372,504,372
Sprite,Foreground,Centre,"sb/haireitsu.png",0,0 S,2,168148,169166,0.8,0.16 F,2,168148,169166,1,0 P,0,168148,169166,A C,0,168148,,0,202,0 M,0,168148,168182,156,392,151.4231,382.5547 M,0,168182,168216,151.4231,382.5547,147.3041,372.9031 M,0,168216,168250,147.3041,372.9031,143.6518,363.0667 M,0,168250,168284,143.6518,363.0667,140.3487,353.105 M,0,168284,168318,140.3487,353.105,137.7384,342.9398 M,0,168318,168352,137.7384,342.9398,135.6176,332.6631 M,0,168352,168386,135.6176,332.6631,133.991,322.2976 M,0,168386,168420,133.991,322.2976,132.7624,311.8767 M,0,168420,168454,132.7624,311.8767,132.2222,301.3963 M,0,168454,168488,132.2222,301.3963,132.184,290.9035 M,0,168488,168523,132.184,290.9035,132.49,280.411 M,0,168523,168557,132.49,280.411,133.5433,269.9683 M,0,168557,168591,133.5433,269.9683,135.0945,259.5898 M,0,168591,168625,135.0945,259.5898,137.1401,249.2987 M,0,168625,168659,137.1401,249.2987,139.5529,239.0851 M,0,168659,168693,139.5529,239.0851,142.6582,229.0601 M,0,168693,168727,142.6582,229.0601,146.2388,219.1967 M,0,168727,168761,146.2388,219.1967,150.2868,209.5168 M,0,168761,168795,150.2868,209.5168,154.7067,200.0002 M,0,168795,168829,154.7067,200.0002,159.7402,190.7918 M,0,168829,168863,159.7402,190.7918,165.2076,181.836 M,0,168863,168898,165.2076,181.836,170.9715,173.0635 M,0,168898,168932,170.9715,173.0635,177.3421,164.7226 M,0,168932,168966,177.3421,164.7226,184.1031,156.6973
Sprite,Foreground,Centre,"sb/haireitsu.png",0,0 S,2,169239,170257,0.8,0.16 F,2,169239,170257,1,0 P,0,169239,170257,A C,0,169239,,0,202,0 M,0,169239,169273,184,156,191.9892,149.1945 M,0,169273,169307,191.9892,149.1945,200.3246,142.8217 M,0,169307,169341,200.3246,142.8217,208.9836,136.8988 M,0,169341,169375,208.9836,136.8988,217.8699,131.3171 M,0,169375,169409,217.8699,131.3171,227.1539,126.4253 M,0,169409,169443,227.1539,126.4253,236.6813,122.0313 M,0,169443,169477,236.6813,122.0313,246.4263,118.1469 M,0,169477,169511,246.4263,118.1469,256.328,114.6787 M,0,169511,169545,256.328,114.6787,266.4566,111.9374 M,0,169545,169579,266.4566,111.9374,276.7141,109.7349 M,0,169579,169614,276.7141,109.7349,287.0497,107.9061 M,0,169614,169648,287.0497,107.9061,297.4955,106.8947 M,0,169648,169682,297.4955,106.8947,307.9779,106.4363 M,0,169682,169716,307.9779,106.4363,318.4683,106.532 M,0,169716,169750,318.4683,106.532,328.9492,107.0439 M,0,169750,169784,328.9492,107.0439,339.3623,108.3428 M,0,169784,169818,339.3623,108.3428,349.6902,110.1893 M,0,169818,169852,349.6902,110.1893,359.9052,112.5781 M,0,169852,169886,359.9052,112.5781,370.0086,115.4042 M,0,169886,169920,370.0086,115.4042,379.8842,118.95 M,0,169920,169954,379.8842,118.95,389.5573,123.0117 M,0,169954,169989,389.5573,123.0117,399.0775,127.43 M,0,169989,170023,399.0775,127.43,408.2237,132.5762 M,0,170023,170057,408.2237,132.5762,417.1429,138.1109
Sprite,Foreground,Centre,"sb/haireitsu.png",417,138 S,2,170330,170530,0.8,0.16 F,2,170330,170530,1,0 P,0,170330,170530,A C,0,170330,,0,202,0
Sprite,Foreground,Centre,"sb/haireitsu.png",0,0 S,2,128876,129348,0.8,0.16 F,2,128876,129348,1,0 P,0,128876,129348,A C,0,128876,,18,124,255 M,0,128876,128910,444,272,441.9815,282.2992 M,0,128910,128944,441.9815,282.2992,440.5019,292.687 M,0,128944,128978,440.5019,292.687,439.5649,303.1363 M,0,128978,129012,439.5649,303.1363,438.9995,313.6172 M,0,129012,129046,438.9995,313.6172,439.2458,324.1092 M,0,129046,129080,439.2458,324.1092,440.0375,334.5718 M,0,129080,129114,440.0375,334.5718,441.3723,344.9776 M,0,129114,129148,441.3723,344.9776,443,355
Sprite,Foreground,Centre,"sb/haireitsu.png",0,0 S,2,129421,129893,0.8,0.16 F,2,129421,129893,1,0 P,0,129421,129893,A C,0,129421,,18,124,255 M,0,129421,129455,348,308,348.536,318.4724 M,0,129455,129489,348.536,318.4724,349.9835,328.8513 M,0,129489,129523,349.9835,328.8513,352.331,339.06 M,0,129523,129557,352.331,339.06,355.3073,349.1153 M,0,129557,129591,355.3073,349.1153,359.5438,358.7059 M,0,129591,129625,359.5438,358.7059,364.5986,367.8844 M,0,129625,129659,364.5986,367.8844,370.4337,376.5831 M,0,129659,129693,370.4337,376.5831,376.8238,384.8929
Sprite,Foreground,Centre,"sb/haireitsu.png",0,0 S,2,129966,130438,0.8,0.16 F,2,129966,130438,1,0 P,0,129966,130438,A C,0,129966,,18,124,255 M,0,129966,130000,288,392,296.2539,398.4354 M,0,130000,130034,296.2539,398.4354,305.2876,403.689 M,0,130034,130068,305.2876,403.689,314.9393,407.67 M,0,130068,130102,314.9393,407.67,324.9615,410.6567 M,0,130102,130136,324.9615,410.6567,335.3724,411.66 M,0,130136,130170,335.3724,411.66,345.8098,411.2482 M,0,130170,130204,345.8098,411.2482,356.0887,409.4309 M,0,130204,130238,356.0887,409.4309,366.1512,406.5742
Sprite,Foreground,Centre,"sb/haireitsu.png",0,0 S,2,130512,130984,0.8,0.16 F,2,130512,130984,1,0 P,0,130512,130984,A C,0,130512,,18,124,255 M,0,130512,130546,452,380,446.8071,370.9105 M,0,130546,130580,446.8071,370.9105,442.8747,361.2257 M,0,130580,130614,442.8747,361.2257,440.2681,351.114 M,0,130614,130648,440.2681,351.114,439.0307,340.751 M,0,130648,130682,439.0307,340.751,438.919,330.3112 M,0,130682,130716,438.919,330.3112,440.6844,320.0073 M,0,130716,130750,440.6844,320.0073,443.8014,310.0403 M,0,130750,130784,443.8014,310.0403,447.8231,300.3645
Sprite,Foreground,Centre,"sb/haireitsu.png",0,0 S,2,131057,131529,0.8,0.16 F,2,131057,131529,1,0 P,0,131057,131529,A C,0,131057,,18,124,255 M,0,131057,131091,464,228,466.5221,217.8479 M,0,131091,131125,466.5221,217.8479,470.513,208.1993 M,0,131125,131159,470.513,208.1993,475.8831,199.2601 M,0,131159,131193,475.8831,199.2601,482.5146,191.2213 M,0,131193,131227,482.5146,191.2213,490.0606,184.0243 M,0,131227,131261,490.0606,184.0243,498.9119,178.4814 M,0,131261,131295,498.9119,178.4814,508.4741,174.317 M,0,131295,131329,508.4741,174.317,518.4522,171.1358
Sprite,Foreground,Centre,"sb/haireitsu.png",0,0 S,2,131603,132075,0.8,0.16 F,2,131603,132075,1,0 P,0,131603,132075,A C,0,131603,,18,124,255 M,0,131603,131637,548,276,554.3263,284.2313 M,0,131637,131671,554.3263,284.2313,558.3405,293.7436 M,0,131671,131705,558.3405,293.7436,559.8063,303.9262 M,0,131705,131739,559.8063,303.9262,559.4125,314.3046 M,0,131739,131773,559.4125,314.3046,555.2498,323.8014 M,0,131773,131807,555.2498,323.8014,548.8507,331.8926 M,0,131807,131841,548.8507,331.8926,540.6353,338.0766 M,0,131841,131875,540.6353,338.0766,531.3469,342.7268
Sprite,Foreground,Centre,"sb/haireitsu.png",0,0 S,2,132148,132620,0.8,0.16 F,2,132148,132620,1,0 P,0,132148,132620,A C,0,132148,,18,124,255 M,0,132148,132182,440,324,431.8016,317.4418 M,0,132182,132216,431.8016,317.4418,423.4319,311.1046 M,0,132216,132250,423.4319,311.1046,414.8969,304.9926 M,0,132250,132284,414.8969,304.9926,406.2025,299.1102 M,0,132284,132318,406.2025,299.1102,397.399,293.3902 M,0,132318,132352,397.399,293.3902,388.3813,288.0143 M,0,132352,132386,388.3813,288.0143,379.2242,282.8805 M,0,132386,132420,379.2242,282.8805,369.9341,277.9926
Sprite,Foreground,Centre,"sb/haireitsu.png",0,0 S,2,132694,133166,0.8,0.16 F,2,132694,133166,1,0 P,0,132694,133166,A C,0,132694,,18,124,255 M,0,132694,132728,276,260,267.3343,254.0708 M,0,132728,132762,267.3343,254.0708,258.6685,248.1416 M,0,132762,132796,258.6685,248.1416,250.0028,242.2125 M,0,132796,132830,250.0028,242.2125,241.3371,236.2833 M,0,132830,132864,241.3371,236.2833,232.6714,230.3541 M,0,132864,132898,232.6714,230.3541,224.0056,224.4249 M,0,132898,132932,224.0056,224.4249,215.3399,218.4957 M,0,132932,132966,215.3399,218.4957,206.6742,212.5666
Sprite,Foreground,Centre,"sb/haireitsu.png",148,144 S,2,133239,133439,0.8,0.16 F,2,133239,133439,1,0 P,0,133239,133439,A C,0,133239,,242,24,57
Sprite,Foreground,Centre,"sb/haireitsu.png",0,0 S,2,133512,133984,0.8,0.16 F,2,133512,133984,1,0 P,0,133512,133984,A C,0,133512,,242,24,57 M,0,133512,133546,232,120,242.5,120 M,0,133546,133580,242.5,120,253,120 M,0,133580,133614,253,120,263.5,120 M,0,133614,133648,263.5,120,274,120 M,0,133648,133682,274,120,263.5,120 M,0,133682,133716,263.5,120,253,120 M,0,133716,133750,253,120,242.5,120 M,0,133750,133784,242.5,120,232,120
Sprite,Foreground,Centre,"sb/haireitsu.png",0,0 S,2,134057,134529,0.8,0.16 F,2,134057,134529,1,0 P,0,134057,134529,A C,0,134057,,242,24,57 M,0,134057,134091,116,224,112.9828,234.0572 M,0,134091,134125,112.9828,234.0572,109.9657,244.1143 M,0,134125,134159,109.9657,244.1143,106.9485,254.1715 M,0,134159,134193,106.9485,254.1715,104,264 M,0,134193,134227,104,264,106.9485,254.1715 M,0,134227,134261,106.9485,254.1715,109.9657,244.1143 M,0,134261,134295,109.9657,244.1143,112.9828,234.0572 M,0,134295,134329,112.9828,234.0572,116,224
Sprite,Foreground,Centre,"sb/haireitsu.png",0,0 S,2,134603,135348,0.8,0.16 F,2,134603,135348,1,0 P,0,134603,135348,A C,0,134603,,242,24,57 M,0,134603,134637,200,208,201.3166,197.615 M,0,134637,134671,201.3166,197.615,203.9664,187.5028 M,0,134671,134705,203.9664,187.5028,207.9039,177.8276 M,0,134705,134739,207.9039,177.8276,212.8769,168.6421 M,0,134739,134773,212.8769,168.6421,219.3845,160.4578 M,0,134773,134807,219.3845,160.4578,226.893,153.1943 M,0,134807,134841,226.893,153.1943,235.1231,146.7497 M,0,134841,134875,235.1231,146.7497,244.3066,141.6948 M,0,134875,134909,244.3066,141.6948,235.1231,146.7497 M,0,134909,134943,235.1231,146.7497,226.893,153.1943 M,0,134943,134978,226.893,153.1943,219.3844,160.4578 M,0,134978,135012,219.3844,160.4578,212.8769,168.6421 M,0,135012,135046,212.8769,168.6421,207.9039,177.8276 M,0,135046,135080,207.9039,177.8276,203.9664,187.5028 M,0,135080,135114,203.9664,187.5028,201.3166,197.615 M,0,135114,135148,201.3166,197.615,200,208
Sprite,Foreground,Centre,"sb/haireitsu.png",0,0 S,2,76512,76984,0.8,0.16 F,2,76512,76984,1,0 P,0,76512,76984,A C,0,76512,,18,124,255 M,0,76512,76546,288,168,298.377,166.5133 M,0,76546,76580,298.377,166.5133,308.5581,164.0484 M,0,76580,76614,308.5581,164.0484,318.4545,160.628 M,0,76614,76648,318.4545,160.628,328.0557,156.4457 M,0,76648,76682,328.0557,156.4457,337.0358,151.0484 M,0,76682,76716,337.0358,151.0484,345.4576,144.8249 M,0,76716,76750,345.4576,144.8249,353.4113,138.002 M,0,76750,76784,353.4113,138.002,360.3683,130.1649
Sprite,Foreground,Centre,"sb/haireitsu.png",464,124 S,2,77057,77257,0.8,0.16 F,2,77057,77257,1,0 P,0,77057,77257,A C,0,77057,,18,124,255
Sprite,Foreground,Centre,"sb/haireitsu.png",528,189 S,2,77330,77530,0.8,0.16 F,2,77330,77530,1,0 P,0,77330,77530,A C,0,77330,,18,124,255
Sprite,Foreground,Centre,"sb/haireitsu.png",0,0 S,2,77603,78075,0.8,0.16 F,2,77603,78075,1,0 P,0,77603,78075,A C,0,77603,,18,124,255 M,0,77603,77637,456,252,455.1861,262.3929 M,0,77637,77671,455.1861,262.3929,456.5429,272.6908 M,0,77671,77705,456.5429,272.6908,460.001,282.456 M,0,77705,77739,460.001,282.456,465.4054,291.274 M,0,77739,77773,465.4054,291.274,472.0923,299.2437 M,0,77773,77807,472.0923,299.2437,480.8501,304.8694 M,0,77807,77841,480.8501,304.8694,490.5537,308.5413 M,0,77841,77875,490.5537,308.5413,500.7855,310.1122
Sprite,Foreground,Centre,"sb/haireitsu.png",454,383 S,2,78148,78348,0.8,0.16 F,2,78148,78348,1,0 P,0,78148,78348,A C,0,78148,,18,124,255
Sprite,Foreground,Centre,"sb/haireitsu.png",359,384 S,2,78421,78621,0.8,0.16 F,2,78421,78621,1,0 P,0,78421,78621,A C,0,78421,,18,124,255
Sprite,Foreground,Centre,"sb/haireitsu.png",0,0 S,2,78694,79166,0.8,0.16 F,2,78694,79166,1,0 P,0,78694,79166,A C,0,78694,,18,124,255 M,0,78694,78728,256,344,256,354.5 M,0,78728,78762,256,354.5,256,365 M,0,78762,78796,256,365,256,375.5 M,0,78796,78830,256,375.5,256,386 M,0,78830,78864,256,386,256,396.5 M,0,78864,78898,256,396.5,256,407 M,0,78898,78932,256,407,256,417.5 M,0,78932,78966,256,417.5,256,428
Sprite,Foreground,Centre,"sb/haireitsu.png",160,380 S,2,79239,79439,0.8,0.16 F,2,79239,79439,1,0 P,0,79239,79439,A C,0,79239,,242,24,57
Sprite,Foreground,Centre,"sb/haireitsu.png",116,288 S,2,79513,79713,0.8,0.16 F,2,79513,79713,1,0 P,0,79513,79713,A C,0,79513,,242,24,57
Sprite,Foreground,Centre,"sb/haireitsu.png",116,288 S,2,79649,79849,0.8,0.16 F,2,79649,79849,1,0 P,0,79649,79849,A C,0,79649,,242,24,57
Sprite,Foreground,Centre,"sb/haireitsu.png",0,0 S,2,79785,80530,0.8,0.16 F,2,79785,80530,1,0 P,0,79785,80530,A C,0,79785,,242,24,57 M,0,79785,79819,116,288,109.5159,279.7724 M,0,79819,79853,109.5159,279.7724,104.0163,270.8696 M,0,79853,79887,104.0163,270.8696,99.56891,261.4042 M,0,79887,79921,99.56891,261.4042,96.03188,251.5606 M,0,79921,79955,96.03188,251.5606,94.06024,241.281 M,0,79955,79989,94.06024,241.281,93.27243,230.8513 M,0,79989,80023,93.27243,230.8513,93.40839,220.384 M,0,80023,80057,93.40839,220.384,95.22476,210.0728 M,0,80057,80091,95.22476,210.0728,98.20068,200.044 M,0,80091,80125,98.20068,200.044,101.999,190.2787 M,0,80125,80160,101.999,190.2787,107.3678,181.2862 M,0,80160,80194,107.3678,181.2862,113.7192,172.9716 M,0,80194,80228,113.7192,172.9716,120.9723,165.4381 M,0,80228,80262,120.9723,165.4381,128.9264,158.6525 M,0,80262,80296,128.9264,158.6525,137.823,153.1413 M,0,80296,80330,137.823,153.1413,147.1625,148.3756
Sprite,Foreground,Centre,"sb/haireitsu.png",252,112 S,2,80603,80803,0.8,0.16 F,2,80603,80803,1,0 P,0,80603,80803,A C,0,80603,,242,24,57
Sprite,Foreground,Centre,"sb/haireitsu.png",0,0 S,2,80876,81348,0.8,0.16 F,2,80876,81348,1,0 P,0,80876,81348,A C,0,80876,,255,192,0 M,0,80876,80910,424,120,428.645,129.416 M,0,80910,80944,428.645,129.416,433.1164,138.9154 M,0,80944,80978,433.1164,138.9154,437.4126,148.4951 M,0,80978,81012,437.4126,148.4951,441.5323,158.1518 M,0,81012,81046,441.5323,158.1518,445.5249,167.8623 M,0,81046,81080,445.5249,167.8623,449.2605,177.6745 M,0,81080,81114,449.2605,177.6745,452.8153,187.5534 M,0,81114,81148,452.8153,187.5534,456.1882,197.4957
Sprite,Foreground,Centre,"sb/haireitsu.png",496,296 S,2,81421,81621,0.8,0.16 F,2,81421,81621,1,0 P,0,81421,81621,A C,0,81421,,255,192,0
Sprite,Foreground,Centre,"sb/haireitsu.png",532,388 S,2,81694,81894,0.8,0.16 F,2,81694,81894,1,0 P,0,81694,81894,A C,0,81694,,255,192,0
Sprite,Foreground,Centre,"sb/haireitsu.png",0,0 S,2,81966,82438,0.8,0.16 F,2,81966,82438,1,0 P,0,81966,82438,A C,0,81966,,255,192,0 M,0,81966,82000,428,392,417.5,392 M,0,82000,82034,417.5,392,407,392 M,0,82034,82068,407,392,396.5,392 M,0,82068,82102,396.5,392,386,392 M,0,82102,82136,386,392,375.5,392 M,0,82136,82170,375.5,392,365,392 M,0,82170,82204,365,392,354.5,392 M,0,82204,82238,354.5,392,344,392
Sprite,Foreground,Centre,"sb/haireitsu.png",256,392 S,2,82512,82712,0.8,0.16 F,2,82512,82712,1,0 P,0,82512,82712,A C,0,82512,,255,192,0
Sprite,Foreground,Centre,"sb/haireitsu.png",156,392 S,2,82785,82985,0.8,0.16 F,2,82785,82985,1,0 P,0,82785,82985,A C,0,82785,,255,192,0
Sprite,Foreground,Centre,"sb/haireitsu.png",0,0 S,2,83057,83529,0.8,0.16 F,2,83057,83529,1,0 P,0,83057,83529,A C,0,83057,,255,192,0 M,0,83057,83091,88,320,85.18221,309.92 M,0,83091,83125,85.18221,309.92,83.81682,299.5602 M,0,83125,83159,83.81682,299.5602,83.927,289.1243 M,0,83159,83193,83.927,289.1243,85.50795,278.8172 M,0,83193,83227,85.50795,278.8172,88.52702,268.8409 M,0,83227,83261,88.52702,268.8409,92.61469,259.2397 M,0,83261,83295,92.61469,259.2397,98.4886,250.5958 M,0,83295,83329,98.4886,250.5958,105.3147,242.6483
Sprite,Foreground,Centre,"sb/haireitsu.png",200,144 S,2,83603,83803,0.8,0.16 F,2,83603,83803,1,0 P,0,83603,83803,A C,0,83603,,0,202,0
Sprite,Foreground,Centre,"sb/haireitsu.png",372,152 S,2,83876,84076,0.8,0.16 F,2,83876,84076,1,0 P,0,83876,84076,A C,0,83876,,0,202,0
Sprite,Foreground,Centre,"sb/haireitsu.png",372,152 S,2,84012,84212,0.8,0.16 F,2,84012,84212,1,0 P,0,84012,84212,A C,0,84012,,0,202,0
Sprite,Foreground,Centre,"sb/haireitsu.png",0,0 S,2,84148,84893,0.8,0.16 F,2,84148,84893,1,0 P,0,84148,84893,A C,0,84148,,0,202,0 M,0,84148,84182,372,152,375.3724,161.9269 M,0,84182,84216,375.3724,161.9269,377.811,172.1158 M,0,84216,84250,377.811,172.1158,379.2964,182.4821 M,0,84250,84284,379.2964,182.4821,380.0287,192.9338 M,0,84284,84318,380.0287,192.9338,379.4027,203.3948 M,0,84318,84352,379.4027,203.3948,377.8131,213.7473 M,0,84352,84386,377.8131,213.7473,375.5554,223.9894 M,0,84386,84420,375.5554,223.9894,371.9168,233.8211 M,0,84420,84454,371.9168,233.8211,367.3879,243.2678 M,0,84454,84488,367.3879,243.2678,362.0071,252.2517 M,0,84488,84523,362.0071,252.2517,355.9774,260.818 M,0,84523,84557,355.9774,260.818,348.898,268.5443 M,0,84557,84591,348.898,268.5443,341.1388,275.5792 M,0,84591,84625,341.1388,275.5792,332.9233,282.0954 M,0,84625,84659,332.9233,282.0954,323.902,287.4343 M,0,84659,84693,323.902,287.4343,314.4321,291.9133
Sprite,Foreground,Centre,"sb/haireitsu.png",200,360 S,2,84966,85166,0.8,0.16 F,2,84966,85166,1,0 P,0,84966,85166,A C,0,84966,,0,202,0
Sprite,Foreground,Centre,"sb/haireitsu.png",0,0 S,2,85239,85711,0.8,0.16 F,2,85239,85711,1,0 P,0,85239,85711,A C,0,85239,,18,124,255 M,0,85239,85273,120,264,115.7543,254.4964 M,0,85273,85307,115.7543,254.4964,113.767,244.3248 M,0,85307,85341,113.767,244.3248,114.1236,233.9981 M,0,85341,85375,114.1236,233.9981,116.7971,224.0347 M,0,85375,85409,116.7971,224.0347,121.2101,214.6848 M,0,85409,85443,121.2101,214.6848,128.3028,207.117 M,0,85443,85477,128.3028,207.117,136.8909,201.362 M,0,85477,85511,136.8909,201.362,146.5376,197.7005
Sprite,Foreground,Centre,"sb/haireitsu.png",232,156 S,2,85785,85985,0.8,0.16 F,2,85785,85985,1,0 P,0,85785,85985,A C,0,85785,,18,124,255
Sprite,Foreground,Centre,"sb/haireitsu.png",140,104 S,2,86057,86257,0.8,0.16 F,2,86057,86257,1,0 P,0,86057,86257,A C,0,86057,,18,124,255
Sprite,Foreground,Centre,"sb/haireitsu.png",0,0 S,2,86330,86802,0.8,0.16 F,2,86330,86802,1,0 P,0,86330,86802,A C,0,86330,,18,124,255 M,0,86330,86364,146,196,143.6953,206.1764 M,0,86364,86398,143.6953,206.1764,143.4211,216.5737 M,0,86398,86432,143.4211,216.5737,145.1783,226.8002 M,0,86432,86466,145.1783,226.8002,148.894,236.472 M,0,86466,86500,148.894,236.472,153.9088,245.6127 M,0,86500,86534,153.9088,245.6127,161.3048,252.9593 M,0,86534,86568,161.3048,252.9593,169.9666,258.7041 M,0,86568,86602,169.9666,258.7041,179.4412,263.1209
Sprite,Foreground,Centre,"sb/haireitsu.png",272,320 S,2,86876,87076,0.8,0.16 F,2,86876,87076,1,0 P,0,86876,87076,A C,0,86876,,18,124,255
Sprite,Foreground,Centre,"sb/haireitsu.png",356,368 S,2,87148,87348,0.8,0.16 F,2,87148,87348,1,0 P,0,87148,87348,A C,0,87148,,18,124,255
Sprite,Foreground,Centre,"sb/haireitsu.png",0,0 S,2,87421,87893,0.8,0.16 F,2,87421,87893,1,0 P,0,87421,87893,A C,0,87421,,18,124,255 M,0,87421,87455,432,416,421.5,416 M,0,87455,87489,421.5,416,411,416 M,0,87489,87523,411,416,400.5,416 M,0,87523,87557,400.5,416,390,416 M,0,87557,87591,390,416,379.5,416 M,0,87591,87625,379.5,416,369,416 M,0,87625,87659,369,416,358.5,416 M,0,87659,87693,358.5,416,348,416
Sprite,Foreground,Centre,"sb/haireitsu.png",224,404 S,2,87966,88166,0.8,0.16 F,2,87966,88166,1,0 P,0,87966,88166,A C,0,87966,,242,24,57
Sprite,Foreground,Centre,"sb/haireitsu.png",132,400 S,2,88239,88439,0.8,0.16 F,2,88239,88439,1,0 P,0,88239,88439,A C,0,88239,,242,24,57
Sprite,Foreground,Centre,"sb/haireitsu.png",132,400 S,2,88376,88576,0.8,0.16 F,2,88376,88576,1,0 P,0,88376,88576,A C,0,88376,,242,24,57
Sprite,Foreground,Centre,"sb/haireitsu.png",0,0 S,2,88512,89257,0.8,0.16 F,2,88512,89257,1,0 P,0,88512,89257,A C,0,88512,,242,24,57 M,0,88512,88546,132,400,123.7315,393.5526 M,0,88546,88580,123.7315,393.5526,116.0832,386.3907 M,0,88580,88614,116.0832,386.3907,109.115,378.5716 M,0,88614,88648,109.115,378.5716,102.6564,370.3119 M,0,88648,88682,102.6564,370.3119,97.34139,361.2758 M,0,88682,88716,97.34139,361.2758,92.8656,351.8032 M,0,88716,88750,92.8656,351.8032,89.26375,341.9693 M,0,88750,88784,89.26375,341.9693,86.33417,331.9068 M,0,88784,88818,86.33417,331.9068,84.71725,321.5506 M,0,88818,88852,84.71725,321.5506,84.0412,311.0968 M,0,88852,88887,84.0412,311.0968,84.31067,300.628 M,0,88887,88921,84.31067,300.628,85.32542,290.2012 M,0,88921,88955,85.32542,290.2012,87.63234,279.9782 M,0,88955,88989,87.63234,279.9782,90.85013,270.01 M,0,88989,89023,90.85013,270.01,94.95276,260.3753 M,0,89023,89057,94.95276,260.3753,99.76401,251.0735
Sprite,Foreground,Centre,"sb/haireitsu.png",0,0 S,2,89330,89802,0.8,0.16 F,2,89330,89802,1,0 P,0,89330,89802,A C,0,89330,,242,24,57 M,0,89330,89364,176,316,182.3782,307.6592 M,0,89364,89398,182.3782,307.6592,188.7565,299.3185 M,0,89398,89432,188.7565,299.3185,195.1347,290.9777 M,0,89432,89466,195.1347,290.9777,201.5129,282.637 M,0,89466,89500,201.5129,282.637,207.8911,274.2962 M,0,89500,89534,207.8911,274.2962,214.2693,265.9554 M,0,89534,89568,214.2693,265.9554,220.6476,257.6147 M,0,89568,89602,220.6476,257.6147,227.0258,249.2739
Sprite,Foreground,Centre,"sb/haireitsu.png",168,180 S,2,89876,90076,0.8,0.16 F,2,89876,90076,1,0 P,0,89876,90076,A C,0,89876,,242,24,57
Sprite,Foreground,Centre,"sb/haireitsu.png",240,108 S,2,90148,90348,0.8,0.16 F,2,90148,90348,1,0 P,0,90148,90348,A C,0,90148,,242,24,57
Sprite,Foreground,Centre,"sb/haireitsu.png",0,0 S,2,90421,90893,0.8,0.16 F,2,90421,90893,1,0 P,0,90421,90893,A C,0,90421,,242,24,57 M,0,90421,90455,372,204,365.0242,196.1522 M,0,90455,90489,365.0242,196.1522,358.0484,188.3044 M,0,90489,90523,358.0484,188.3044,351.0725,180.4566 M,0,90523,90557,351.0725,180.4566,344.0967,172.6088 M,0,90557,90591,344.0967,172.6088,337.1209,164.761 M,0,90591,90625,337.1209,164.761,330.1451,156.9132 M,0,90625,90659,330.1451,156.9132,323.1693,149.0654 M,0,90659,90693,323.1693,149.0654,316.1934,141.2176
Sprite,Foreground,Centre,"sb/haireitsu.png",268,232 S,2,90966,91166,0.8,0.16 F,2,90966,91166,1,0 P,0,90966,91166,A C,0,90966,,242,24,57
Sprite,Foreground,Centre,"sb/haireitsu.png",216,160 S,2,91239,91439,0.8,0.16 F,2,91239,91439,1,0 P,0,91239,91439,A C,0,91239,,242,24,57
Sprite,Foreground,Centre,"sb/haireitsu.png",0,0 S,2,91512,91984,0.8,0.16 F,2,91512,91984,1,0 P,0,91512,91984,A C,0,91512,,242,24,57 M,0,91512,91546,164,84,164,94.5 M,0,91546,91580,164,94.5,164,105 M,0,91580,91614,164,105,164,115.5 M,0,91614,91648,164,115.5,164,126 M,0,91648,91682,164,126,164,136.5 M,0,91682,91716,164,136.5,164,147 M,0,91716,91750,164,147,164,157.5 M,0,91750,91784,164,157.5,164,168
Sprite,Foreground,Centre,"sb/haireitsu.png",0,0 S,2,92057,92529,0.8,0.16 F,2,92057,92529,1,0 P,0,92057,92529,A C,0,92057,,255,192,0 M,0,92057,92091,176,272,177.3148,282.339 M,0,92091,92125,177.3148,282.339,180.685,292.1635 M,0,92125,92159,180.685,292.1635,185.9672,301.0833 M,0,92159,92193,185.9672,301.0833,192.6689,309.0011 M,0,92193,92227,192.6689,309.0011,201.308,314.7827 M,0,92227,92261,201.308,314.7827,210.9169,318.6837 M,0,92261,92295,210.9169,318.6837,221.0472,321.0424 M,0,92295,92329,221.0472,321.0424,231.5003,320.6907
Sprite,Foreground,Centre,"sb/haireitsu.png",320,248 S,2,92603,94166,0.8,0.16 F,2,92603,94166,1,0 P,0,92603,94166,A C,0,92603,,255,192,0
Sprite,Foreground,Centre,"sb/haireitsu.png",0,0 S,2,52512,53530,0.8,0.16 F,2,52512,53530,1,0 P,0,52512,53530,A C,0,52512,,242,24,57 M,0,52512,52546,284,96,273.5345,95.40249 M,0,52546,52580,273.5345,95.40249,263.0684,95.8188 M,0,52580,52614,263.0684,95.8188,252.6961,97.24419 M,0,52614,52648,252.6961,97.24419,242.4621,99.46983 M,0,52648,52682,242.4621,99.46983,232.6135,103.044 M,0,52682,52716,232.6135,103.044,223.1618,107.5507 M,0,52716,52750,223.1618,107.5507,214.043,112.7204 M,0,52750,52784,214.043,112.7204,205.7413,119.117 M,0,52784,52818,205.7413,119.117,198.102,126.2811 M,0,52818,52852,198.102,126.2811,191.1935,134.1471 M,0,52852,52887,191.1935,134.1471,184.9526,142.5519 M,0,52887,52921,184.9526,142.5519,179.8468,151.6986 M,0,52921,52955,179.8468,151.6986,175.6511,161.2914 M,0,52955,52989,175.6511,161.2914,172.1859,171.1779 M,0,52989,53023,172.1859,171.1779,170.0965,181.4456 M,0,53023,53057,170.0965,181.4456,169.0099,191.8608 M,0,53057,53091,169.0099,191.8608,168.6378,202.34 M,0,53091,53125,168.6378,202.34,169.7637,212.7608 M,0,53125,53159,169.7637,212.7608,171.8898,223.0165 M,0,53159,53193,171.8898,223.0165,174.9961,233.0145 M,0,53193,53227,174.9961,233.0145,178.8881,242.7353 M,0,53227,53262,178.8881,242.7353,184.0278,251.864 M,0,53262,53296,184.0278,251.864,190.0227,260.4487 M,0,53296,53330,190.0227,260.4487,196,268
Sprite,Foreground,Centre,"sb/haireitsu.png",0,0 S,2,53603,54689,0.8,0.16 F,2,53603,54689,1,0 P,0,53603,54689,A C,0,53603,,242,24,57 M,0,53603,53637,304,360,314.2349,362.1586 M,0,53637,53671,314.2349,362.1586,324.6567,362.8003 M,0,53671,53705,324.6567,362.8003,335.05,361.9153 M,0,53705,53739,335.05,361.9153,345.2735,359.8107 M,0,53739,53773,345.2735,359.8107,354.8757,355.6948 M,0,53773,53807,354.8757,355.6948,363.7633,350.229 M,0,53807,53841,363.7633,350.229,372.0247,343.8188 M,0,53841,53875,372.0247,343.8188,378.7543,335.8191 M,0,53875,53909,378.7543,335.8191,384.2365,326.9371 M,0,53909,53943,384.2365,326.9371,388.3607,317.3579 M,0,53943,53978,388.3607,317.3579,391.2468,307.3402 M,0,53978,54012,391.2468,307.3402,392.1494,296.9368 M,0,54012,54046,392.1494,296.9368,391.5252,286.5241 M,0,54046,54080,391.5252,286.5241,389.6939,276.2452 M,0,54080,54114,389.6939,276.2452,385.8194,266.5419 M,0,54114,54148,385.8194,266.5419,380.5778,257.5196 M,0,54148,54182,380.5778,257.5196,374.3882,249.087 M,0,54182,54216,374.3882,249.087,366.5587,242.1583 M,0,54216,54250,366.5587,242.1583,357.8163,236.4548 M,0,54250,54284,357.8163,236.4548,348.3431,232.0918 M,0,54284,54318,348.3431,232.0918,338.4038,228.9383 M,0,54318,54353,338.4038,228.9383,328.0254,227.7751 M,0,54353,54387,328.0254,227.7751,317.5999,228.1383 M,0,54387,54421,317.5999,228.1383,307.2726,229.6948 M,0,54421,54455,307.2726,229.6948,297.4742,233.3253 M,0,54455,54489,297.4742,233.3253,288.3229,238.3396
Sprite,Foreground,Centre,"sb/haireitsu.png",0,0 S,2,54694,55712,0.8,0.16 F,2,54694,55712,1,0 P,0,54694,55712,A C,0,54694,,242,24,57 M,0,54694,54728,212,316,221.6399,320.1358 M,0,54728,54762,221.6399,320.1358,231.5561,323.5418 M,0,54762,54796,231.5561,323.5418,241.6956,326.2001 M,0,54796,54830,241.6956,326.2001,251.9779,328.2462 M,0,54830,54864,251.9779,328.2462,262.4183,329.2269 M,0,54864,54898,262.4183,329.2269,272.8993,329.4283 M,0,54898,54932,272.8993,329.4283,283.3815,329.0531 M,0,54932,54966,283.3815,329.0531,293.7617,327.5529 M,0,54966,55000,293.7617,327.5529,303.9976,325.2857 M,0,55000,55034,303.9976,325.2857,314.0343,322.2642 M,0,55034,55069,314.0343,322.2642,323.8569,318.6086 M,0,55069,55103,323.8569,318.6086,333.2746,313.9992 M,0,55103,55137,333.2746,313.9992,342.3208,308.7036 M,0,55137,55171,342.3208,308.7036,351.0421,302.8834 M,0,55171,55205,351.0421,302.8834,359.1142,296.1892 M,0,55205,55239,359.1142,296.1892,366.6635,288.9158 M,0,55239,55273,366.6635,288.9158,373.8148,281.241 M,0,55273,55307,373.8148,281.241,380.0891,272.836 M,0,55307,55341,380.0891,272.836,385.7185,263.9914 M,0,55341,55375,385.7185,263.9914,390.6734,254.7547 M,0,55375,55409,390.6734,254.7547,395.0391,245.2255 M,0,55409,55444,395.0391,245.2255,398.4331,235.3046 M,0,55444,55478,398.4331,235.3046,401.0791,225.1616 M,0,55478,55512,401.0791,225.1616,403.1707,214.8823
Sprite,Foreground,Centre,"sb/haireitsu.png",0,0 S,2,55785,56803,0.8,0.16 F,2,55785,56803,1,0 P,0,55785,56803,A C,0,55785,,242,24,57 M,0,55785,55819,300,180,300.5283,190.4799 M,0,55819,55853,300.5283,190.4799,300.4254,200.9695 M,0,55853,55887,300.4254,200.9695,299.692,211.4321 M,0,55887,55921,299.692,211.4321,298.4441,221.8467 M,0,55921,55955,298.4441,221.8467,296.3427,232.125 M,0,55955,55989,296.3427,232.125,293.6274,242.2562 M,0,55989,56023,293.6274,242.2562,290.4504,252.2554 M,0,56023,56057,290.4504,252.2554,286.4272,261.9452 M,0,56057,56091,286.4272,261.9452,281.8295,271.3732 M,0,56091,56125,281.8295,271.3732,276.8347,280.6033 M,0,56125,56160,276.8347,280.6033,271.0369,289.349 M,0,56160,56194,271.0369,289.349,264.7254,297.7277 M,0,56194,56228,264.7254,297.7277,257.9224,305.7104 M,0,56228,56262,257.9224,305.7104,250.728,313.3425 M,0,56262,56296,250.728,313.3425,242.9339,320.3644 M,0,56296,56330,242.9339,320.3644,234.7333,326.9036 M,0,56330,56364,234.7333,326.9036,226.2348,333.0548 M,0,56364,56398,226.2348,333.0548,217.2439,338.4621 M,0,56398,56432,217.2439,338.4621,207.9463,343.3177 M,0,56432,56466,207.9463,343.3177,198.4435,347.7699 M,0,56466,56500,198.4435,347.7699,188.5855,351.3638 M,0,56500,56535,188.5855,351.3638,178.532,354.3574 M,0,56535,56569,178.532,354.3574,168.3181,356.7406 M,0,56569,56603,168.3181,356.7406,157.9964,358.6003
Sprite,Foreground,Centre,"sb/haireitsu.png",156,268 S,2,56876,57076,0.8,0.16 F,2,56876,57076,1,0 P,0,56876,57076,A C,0,56876,,242,24,57
Sprite,Foreground,Centre,"sb/haireitsu.png",156,184 S,2,57148,57348,0.8,0.16 F,2,57148,57348,1,0 P,0,57148,57348,A C,0,57148,,242,24,57
Sprite,Foreground,Centre,"sb/haireitsu.png",0,0 S,2,57421,57893,0.8,0.16 F,2,57421,57893,1,0 P,0,57421,57893,A C,0,57421,,242,24,57 M,0,57421,57455,160,96,169.7448,99.85541 M,0,57455,57489,169.7448,99.85541,179.0274,104.6994 M,0,57489,57523,179.0274,104.6994,187.7508,110.4799 M,0,57523,57557,187.7508,110.4799,195.9744,116.9608 M,0,57557,57591,195.9744,116.9608,203.1746,124.5674 M,0,57591,57625,203.1746,124.5674,209.5398,132.8763 M,0,57625,57659,209.5398,132.8763,215.282,141.6464 M,0,57659,57693,215.282,141.6464,219.6125,151.1879
Sprite,Foreground,Centre,"sb/haireitsu.png",256,228 S,2,57966,58166,0.8,0.16 F,2,57966,58166,1,0 P,0,57966,58166,A C,0,57966,,242,24,57
Sprite,Foreground,Centre,"sb/haireitsu.png",0,0 S,2,58239,58984,0.8,0.16 F,2,58239,58984,1,0 P,0,58239,58984,A C,0,58239,,242,24,57 M,0,58239,58273,304,312,312.2104,318.527 M,0,58273,58307,312.2104,318.527,320.9056,324.3831 M,0,58307,58341,320.9056,324.3831,330.0326,329.533 M,0,58341,58375,330.0326,329.533,339.4359,334.1836 M,0,58375,58409,339.4359,334.1836,349.3151,337.7046 M,0,58409,58443,349.3151,337.7046,359.4364,340.4339 M,0,58443,58477,359.4364,340.4339,369.7381,342.3556 M,0,58477,58511,369.7381,342.3556,380.1401,343.7154 M,0,58511,58545,380.1401,343.7154,369.7381,342.3556 M,0,58545,58579,369.7381,342.3556,359.4363,340.4339 M,0,58579,58614,359.4363,340.4339,349.3151,337.7046 M,0,58614,58648,349.3151,337.7046,339.4359,334.1836 M,0,58648,58682,339.4359,334.1836,330.0326,329.533 M,0,58682,58716,330.0326,329.533,320.9056,324.3831 M,0,58716,58750,320.9056,324.3831,312.2104,318.527 M,0,58750,58784,312.2104,318.527,304,312
//Storyboard Sound Samples

[TimingPoints]
8876,272.727272727273,4,1,1,100,1,0
8876,-166.666666666667,4,1,1,100,0,0
25989,-500.000000000003,4,1,1,100,0,0
26468,-166.666666666667,4,1,1,100,0,0
26603,-166.666666666667,4,1,1,100,0,0
26703,-166.666666666667,4,1,1,100,0,0
33966,-166.666666666667,4,1,1,100,0,0
45421,-166.666666666667,4,1,1,100,0,0
45694,-166.666666666667,4,1,1,100,0,0
47330,-100,4,1,1,100,0,0
47603,-166.666666666667,4,1,1,100,0,0
52376,-166.666666666667,4,1,1,100,0,0
59057,-166.666666666667,4,1,1,100,0,1
60898,-166.666666666667,4,1,1,5,0,1
60932,-166.666666666667,4,1,1,100,0,1
61171,-166.666666666667,4,1,1,5,0,1
61239,-166.666666666667,4,1,1,100,0,1
93966,-166.666666666667,4,1,1,100,0,0
128876,-166.666666666667,4,1,1,100,0,0
133239,-166.666666666667,4,1,1,100,0,0
135148,-166.666666666667,4,1,1,100,0,0
135421,-166.666666666667,4,1,1,100,0,1
153148,-166.666666666667,4,1,1,100,0,0
193989,-166.666666666667,4,1,1,100,0,0
196512,-166.666666666667,4,1,1,100,0,1
231694,-166.666666666667,4,1,1,100,0,0

[HitObjects]
401,142,8876,6,0,L|328:209,1,83.9999974365235
268,260,9421,1,0,0:0:0:0:
168,260,9694,1,0,0:0:0:0:
84,204,9966,2,0,L|126:120,1,83.9999974365235
224,104,10512,2,0,L|282:184,1,83.9999974365235
276,296,11057,6,0,L|354:246,1,83.9999974365235
412,180,11603,1,0,0:0:0:0:
364,92,11876,1,0,0:0:0:0:
260,60,12148,2,0,L|172:60,1,83.9999974365235
200,184,12694,2,0,L|292:184,1,83.9999974365235
437,184,13239,5,0,0:0:0:0:
429,276,13512,2,0,B|373:304|373:304|333:304,2,83.9999974365235
453,184,14330,1,0,0:0:0:0:
393,112,14603,2,0,B|345:80|345:80|301:88,2,83.9999974365235
401,251,15421,6,0,P|401:291|401:347,1,83.9999974365235
296,336,15966,1,0,0:0:0:0:
204,336,16239,1,0,0:0:0:0:
112,332,16512,2,0,L|40:260,1,83.9999974365235
84,168,17057,2,0,L|156:236,1,83.9999974365235
232,292,17603,6,0,L|316:248,1,83.9999974365235
392,188,18148,1,0,0:0:0:0:
392,96,18421,1,0,0:0:0:0:
308,44,18694,2,0,B|256:20|256:20|212:24,1,83.9999974365235
112,56,19239,2,0,B|112:116|112:116|128:140,1,83.9999974365235
180,216,19785,6,0,B|216:260|216:260|252:260,1,83.9999974365235
348,260,20330,1,0,0:0:0:0:
448,260,20603,1,0,0:0:0:0:
444,164,20876,2,0,L|388:92,1,83.9999974365235
300,168,21421,2,0,L|232:216,1,83.9999974365235
128,304,21966,5,0,0:0:0:0:
228,312,22239,2,0,L|312:312,2,83.9999974365235
136,304,23057,1,0,0:0:0:0:
112,224,23330,2,0,B|108:176|108:176|140:152,2,83.9999974365235
176,332,24148,6,0,L|260:332,1,83.9999974365235
344,332,24694,1,0,0:0:0:0:
408,272,24966,1,0,0:0:0:0:
404,188,25239,2,0,L|460:112,2,83.9999974365235
352,268,26057,6,0,L|352:296,1,28
360,220,30421,6,0,L|360:308,1,83.9999974365235
256,288,34239,6,0,P|204:288|176:264,2,83.9999974365235
336,256,35057,2,0,P|348:200|348:156,1,83.9999974365235
320,92,35603,1,0,0:0:0:0:
232,92,35876,1,0,0:0:0:0:
124,92,36148,2,0,P|84:120|64:152,1,83.9999974365235
64,244,36694,2,0,P|68:288|104:308,1,83.9999974365235
256,332,37239,6,0,L|292:236,1,83.9999974365235
320,164,37785,1,0,0:0:0:0:
356,84,38057,1,0,0:0:0:0:
444,120,38330,2,0,P|444:172|432:200,1,83.9999974365235
328,196,38876,2,0,P|296:220|292:264,1,83.9999974365235
352,328,39421,5,0,0:0:0:0:
416,256,39694,2,0,P|444:208|444:168,2,83.9999974365235
352,200,40512,1,0,0:0:0:0:
280,144,40785,2,0,P|228:116|192:116,2,83.9999974365235
324,216,41603,6,0,L|236:216,1,83.9999974365235
152,216,42148,1,0,0:0:0:0:
96,152,42421,1,0,0:0:0:0:
32,68,42694,2,0,L|120:68,2,83.9999974365235
192,68,43512,1,0,0:0:0:0:
304,96,43785,6,0,P|324:148|320:180,1,83.9999974365235
216,172,44330,1,0,0:0:0:0:
216,268,44603,1,0,0:0:0:0:
216,360,44876,2,0,P|264:336|276:304,1,83.9999974365235
276,192,45421,2,0,P|304:160|348:140,1,83.9999974365235
452,140,45966,6,0,L|452:232,1,83.9999974365235
392,296,46512,1,0,0:0:0:0:
328,344,46785,1,0,0:0:0:0:
224,348,47057,2,0,L|172:348,2,41.9999987182618
328,344,47603,2,0,L|376:344,2,41.9999987182618
208,224,48148,5,0,0:0:0:0:
140,164,48421,2,0,P|128:120|140:76,2,83.9999974365235
224,120,49239,1,0,0:0:0:0:
304,64,49512,2,0,P|316:108|304:152,2,83.9999974365235
172,80,50330,6,0,P|124:116|124:144,1,83.9999974365235
212,160,50876,1,0,0:0:0:0:
296,192,51148,1,0,0:0:0:0:
380,224,51421,2,0,P|384:264|384:276,2,41.9999987182618
376,120,51966,1,0,0:0:0:0:
336,40,52239,1,0,0:0:0:0:
220,40,52512,6,0,P|136:68|132:212,1,251.999992309571
240,304,53603,2,0,P|328:248|216:188,1,272.999991668701
148,260,54694,2,0,P|228:272|340:152,1,251.999992309571
236,124,55785,2,0,P|228:192|80:304,1,251.999992309571
92,212,56876,1,0,0:0:0:0:
92,128,57148,1,0,0:0:0:0:
96,40,57421,2,0,P|148:80|160:108,1,83.9999974365235
192,172,57966,1,0,0:0:0:0:
240,256,58239,2,0,P|280:280|324:288,2,83.9999974365235
144,112,59057,6,0,P|120:164|120:200,1,83.9999974365235
152,300,59603,1,0,0:0:0:0:
232,240,59876,1,0,0:0:0:0:
312,184,60148,2,0,P|352:204|392:220,1,83.9999974365235
452,144,60694,1,0,0:0:0:0:
452,48,60966,1,0,0:0:0:0:
328,36,61239,6,0,L|236:36,1,83.9999974365235
152,36,61785,1,0,0:0:0:0:
40,40,62057,1,0,0:0:0:0:
40,40,62194,1,0,0:0:0:0:
40,40,62330,2,0,P|41:102|87:204,1,167.999994873047
208,196,63148,2,0,L|120:196,1,83.9999974365235
69,271,63694,6,0,P|74:316|114:350,1,83.9999974365235
200,280,64239,2,0,P|208:244|196:196,1,83.9999974365235
124,128,64785,2,0,P|124:93|175:64,1,83.9999974365235
328,64,65330,2,0,P|385:86|396:114,1,83.9999974365235
452,212,65876,2,0,P|461:254|439:293,1,83.9999974365235
356,344,66421,1,0,0:0:0:0:
256,352,66694,2,0,P|187:353|173:338,1,83.9999974365235
120,252,67239,2,0,P|104:208|116:172,1,83.9999974365235
260,64,67785,6,0,P|300:95|318:137,1,83.9999974365235
352,224,68330,1,0,0:0:0:0:
348,328,68603,2,0,L|259:328,1,83.9999974365235
148,324,69148,1,0,0:0:0:0:
36,324,69421,2,0,P|25:272|36:236,1,83.9999974365235
100,152,69966,5,0,0:0:0:0:
176,72,70239,2,0,P|223:77|276:68,1,83.9999974365235
372,52,70785,1,0,0:0:0:0:
372,52,70921,1,0,0:0:0:0:
372,52,71057,2,0,P|371:97|259:159,1,167.999994873047
160,164,71876,2,0,L|160:256,1,83.9999974365235
112,312,72421,6,0,P|64:284|40:252,1,83.9999974365235
44,160,72966,1,0,0:0:0:0:
44,56,73239,2,0,P|112:72|124:88,1,83.9999974365235
172,176,73785,2,0,P|184:212|236:244,1,83.9999974365235
320,208,74330,1,0,0:0:0:0:
360,288,74603,2,0,P|360:316|324:368,1,83.9999974365235
236,360,75149,1,0,0:0:0:0:
236,360,75285,1,0,0:0:0:0:
236,360,75421,2,0,P|164:352|152:336,1,83.9999974365235
124,244,75966,2,0,P|116:188|128:152,1,83.9999974365235
224,112,76512,6,0,P|272:96|304:64,1,83.9999974365235
400,68,77057,1,0,0:0:0:0:
464,133,77330,1,0,0:0:0:0:
392,196,77603,2,0,P|396:228|456:252,1,83.9999974365235
390,327,78148,1,0,0:0:0:0:
295,328,78421,1,0,0:0:0:0:
192,288,78694,2,0,L|192:376,1,83.9999974365235
96,324,79239,5,0,0:0:0:0:
52,232,79513,1,0,0:0:0:0:
52,232,79649,1,0,0:0:0:0:
52,232,79785,2,0,P|32:196|84:92,1,167.999994873047
188,56,80603,1,0,0:0:0:0:
360,64,80876,6,0,P|375:96|398:160,1,83.9999974365235
432,240,81421,1,0,0:0:0:0:
468,332,81694,1,0,0:0:0:0:
364,336,81966,2,0,L|280:336,1,83.9999974365235
192,336,82512,1,0,0:0:0:0:
92,336,82785,1,0,0:0:0:0:
24,264,83057,2,0,P|28:204|44:184,1,83.9999974365235
136,88,83603,5,0,0:0:0:0:
308,96,83876,1,0,0:0:0:0:
308,96,84012,1,0,0:0:0:0:
308,96,84148,2,0,P|316:132|240:240,1,167.999994873047
136,304,84966,1,0,0:0:0:0:
56,208,85239,6,0,P|56:160|100:140,1,83.9999974365235
168,100,85785,1,0,0:0:0:0:
76,48,86057,1,0,0:0:0:0:
82,140,86330,2,0,P|86:184|118:208,1,83.9999974365235
208,264,86876,1,0,0:0:0:0:
292,312,87148,1,0,0:0:0:0:
368,360,87421,2,0,L|284:360,1,83.9999974365235
160,348,87966,5,0,0:0:0:0:
68,344,88239,1,0,0:0:0:0:
68,344,88376,1,0,0:0:0:0:
68,344,88512,2,0,P|20:260|44:183,1,167.999994873047
112,260,89330,2,0,L|164:192,1,83.9999974365235
104,124,89876,1,0,0:0:0:0:
176,52,90148,1,0,0:0:0:0:
308,148,90421,2,0,L|244:76,1,83.9999974365235
204,176,90966,1,0,0:0:0:0:
152,104,91239,1,0,0:0:0:0:
100,28,91512,2,0,L|100:116,1,83.9999974365235
112,216,92057,6,0,P|132:256|172:264,1,83.9999974365235
256,192,92603,12,2,93966,0:0:0:0:
120,72,109239,5,0,0:0:0:0:
176,164,110330,1,0,0:0:0:0:
108,37,111421,6,0,L|208:37,1,83.9999974365235
207,115,111966,1,0,0:0:0:0:
271,29,112239,1,0,0:0:0:0:
302,114,112512,2,0,L|254:186,1,83.9999974365235
172,184,113057,2,0,L|268:184,1,83.9999974365235
408,180,113603,6,0,L|404:84,1,83.9999974365235
312,80,114148,1,0,0:0:0:0:
208,80,114421,1,0,0:0:0:0:
100,80,114694,2,0,L|124:160,1,83.9999974365235
68,248,115239,2,0,L|164:248,1,83.9999974365235
272,260,115785,5,0,0:0:0:0:
396,260,116057,2,0,B|356:204|388:220|388:220|416:192,2,83.9999974365235
464,344,116876,1,0,0:0:0:0:
368,360,117148,2,0,B|304:356|304:356|272:352,2,83.9999974365235
444,312,117966,6,0,P|476:284|468:236,1,83.9999974365235
468,156,118512,1,0,0:0:0:0:
428,88,118785,1,0,0:0:0:0:
360,36,119057,2,0,P|360:116|352:124,1,83.9999974365235
288,100,119603,2,0,P|259:130|242:168,1,83.9999974365235
176,252,120148,6,0,P|216:256|244:212,1,83.9999974365235
176,152,120694,1,0,0:0:0:0:
176,72,120966,1,0,0:0:0:0:
108,20,121239,2,0,P|76:40|40:92,1,83.9999974365235
32,168,121785,2,0,P|44:216|56:256,1,83.9999974365235
48,320,122330,6,0,P|56:356|104:376,1,83.9999974365235
184,348,122876,1,0,0:0:0:0:
264,312,123148,1,0,0:0:0:0:
344,272,123421,2,0,P|320:216|300:192,1,83.9999974365235
240,144,123966,2,0,P|192:152|164:180,1,83.9999974365235
144,256,124512,5,0,0:0:0:0:
60,288,124785,2,0,B|52:340|52:340|72:368,2,83.9999974365235
100,208,125603,1,0,0:0:0:0:
116,124,125876,2,0,B|164:132|164:132|192:164,2,83.9999974365235
132,44,126694,6,0,L|232:44,1,83.9999974365235
304,40,127239,1,0,0:0:0:0:
384,40,127512,1,0,0:0:0:0:
468,40,127785,2,0,L|476:88,2,41.9999987182618
376,120,128330,1,0,0:0:0:0:
464,172,128603,1,0,0:0:0:0:
380,216,128876,6,0,P|375:257|379:299,1,83.9999974365235
284,252,129421,2,0,P|296:304|324:340,1,83.9999974365235
224,336,129966,2,0,P|276:356|308:348,1,83.9999974365235
388,324,130512,2,0,P|376:296|384:244,1,83.9999974365235
400,172,131057,2,0,P|418:135|455:115,1,83.9999974365235
484,220,131603,2,0,P|496:256|460:288,1,83.9999974365235
376,268,132148,2,0,P|336:239|296:217,1,83.9999974365235
212,204,132694,2,0,L|136:152,1,83.9999974365235
84,88,133239,5,0,0:0:0:0:
168,64,133512,2,0,L|216:64,2,41.9999987182618
52,168,134057,2,0,L|40:208,2,41.9999987182618
136,152,134603,2,0,P|152:108|184:84,2,83.9999974365235
136,256,135421,6,0,P|176:252|224:272,1,83.9999974365235
296,316,135966,1,0,0:0:0:0:
364,268,136239,1,0,0:0:0:0:
436,220,136512,2,0,P|436:276|404:304,1,83.9999974365235
344,340,137057,1,0,0:0:0:0:
292,264,137330,1,0,0:0:0:0:
224,192,137603,6,0,P|184:160|152:152,1,83.9999974365235
28,152,138148,1,0,0:0:0:0:
104,92,138421,1,0,0:0:0:0:
104,92,138557,1,0,0:0:0:0:
104,92,138694,2,0,P|100:148|200:180,1,167.999994873047
248,164,139512,2,0,L|156:164,1,83.9999974365235
88,128,140057,6,0,P|136:96|172:88,1,83.9999974365235
252,96,140603,2,0,P|284:116|304:172,1,83.9999974365235
336,232,141148,2,0,P|384:232|416:196,1,83.9999974365235
428,128,141694,2,0,P|468:56|468:44,1,83.9999974365235
384,24,142239,2,0,P|320:76|304:88,1,83.9999974365235
256,132,142785,1,0,0:0:0:0:
192,192,143057,2,0,P|176:220|128:244,1,83.9999974365235
72,184,143603,2,0,P|64:148|116:144,1,83.9999974365235
192,136,144148,6,0,L|188:220,1,83.9999974365235
176,312,144694,1,0,0:0:0:0:
124,232,144966,2,0,L|112:144,1,83.9999974365235
160,80,145512,1,0,0:0:0:0:
248,56,145785,2,0,L|308:120,1,83.9999974365235
388,120,146330,1,0,0:0:0:0:
400,200,146603,2,0,L|482:184,1,83.9999974365235
468,112,147148,1,0,0:0:0:0:
468,112,147285,1,0,0:0:0:0:
468,112,147421,2,0,P|470:92|346:46,1,188.999994232178
384,124,148239,2,0,L|388:212,1,83.9999974365235
376,288,148785,6,0,P|308:260|296:248,1,83.9999974365235
300,168,149330,2,0,P|304:100|312:80,1,83.9999974365235
396,120,149876,1,0,0:0:0:0:
456,180,150148,2,0,L|480:224,2,41.9999987182618
396,120,150694,2,0,P|360:92|320:84,1,83.9999974365235
244,124,151239,2,0,P|204:156|184:200,1,83.9999974365235
200,264,151785,2,0,P|252:272|372:252,2,167.999994873047
104,212,153148,6,0,P|112:168|148:140,2,83.9999974365235
132,304,153966,1,0,0:0:0:0:
224,268,154239,2,0,P|232:300|224:356,1,83.9999974365235
132,360,154785,2,0,P|96:352|52:308,1,83.9999974365235
136,232,155330,2,0,P|100:216|52:224,1,83.9999974365235
96,112,155876,1,0,0:0:0:0:
96,112,156012,1,0,0:0:0:0:
96,112,156148,2,0,P|192:120|232:68,1,167.999994873047
152,36,156966,6,0,P|152:92|152:128,1,83.9999974365235
156,208,157512,1,0,0:0:0:0:
216,292,157785,1,0,0:0:0:0:
280,368,158057,1,0,0:0:0:0:
280,368,158194,1,0,0:0:0:0:
280,368,158330,2,0,P|328:372|353:341,2,83.9999974365235
420,288,159148,1,0,0:0:0:0:
420,288,159285,1,0,0:0:0:0:
420,288,159421,2,0,P|364:316|356:336,1,83.9999974365235
302,210,159966,1,0,0:0:0:0:
204,156,160239,6,0,P|192:200|156:232,1,83.9999974365235
108,124,160785,1,0,0:0:0:0:
108,124,160921,1,0,0:0:0:0:
108,124,161057,2,0,P|128:80|240:40,1,167.999994873047
360,96,161876,2,0,L|388:60,2,41.9999987182618
296,200,162285,2,0,L|276:236,2,41.9999987182618
256,104,162694,2,0,L|204:84,2,41.9999987182618
392,188,163103,2,0,L|440:220,4,41.9999987182618
100,304,164057,6,0,L|52:304,2,41.9999987182618
156,244,164466,2,0,L|156:192,2,41.9999987182618
180,320,164876,2,0,P|200:348|256:372,2,83.9999974365235
280,296,165694,1,0,0:0:0:0:
372,280,165966,6,0,P|396:300|408:360,2,83.9999974365235
256,248,166785,1,0,0:0:0:0:
256,248,167057,2,0,P|264:308|240:328,2,83.9999974365235
92,336,167876,1,0,0:0:0:0:
92,336,168012,1,0,0:0:0:0:
92,336,168148,2,0,P|76:296|128:92,1,251.999992309571
120,100,169239,2,0,P|188:60|356:84,1,251.999992309571
353,82,170330,1,0,0:0:0:0:
372,264,187785,5,0,0:0:0:0:
372,264,188330,1,0,0:0:0:0:
372,264,188876,1,0,0:0:0:0:
372,264,189421,1,0,0:0:0:0:
372,264,189966,1,0,0:0:0:0:
372,264,190512,1,0,0:0:0:0:
372,264,191057,1,0,0:0:0:0:
372,264,191603,1,0,0:0:0:0:
372,172,192148,6,0,P|344:128|316:116,1,83.9999974365235
264,232,192694,2,0,P|272:268|312:316,1,83.9999974365235
384,344,193239,2,0,P|456:344|472:356,1,83.9999974365235
472,260,193785,2,0,P|484:220|480:164,1,83.9999974365235
464,96,194330,2,0,P|448:60|404:28,1,83.9999974365235
328,32,194876,2,0,P|288:56|296:88,1,83.9999974365235
372,140,195421,2,0,P|376:172|368:236,1,83.9999974365235
356,316,195966,2,0,L|456:316,1,83.9999974365235
488,220,196512,6,0,L|436:144,1,83.9999974365235
344,144,197057,1,0,0:0:0:0:
256,140,197330,1,0,0:0:0:0:
184,208,197603,2,0,L|224:292,1,83.9999974365235
280,352,198148,1,0,0:0:0:0:
372,348,198421,1,0,0:0:0:0:
436,280,198694,2,0,L|384:208,1,83.9999974365235
320,136,199239,1,0,0:0:0:0:
280,240,199512,1,0,0:0:0:0:
280,240,199649,1,0,0:0:0:0:
280,240,199785,2,0,P|304:288|220:328,1,167.999994873047
148,248,200603,2,0,P|144:212|156:156,1,83.9999974365235
252,80,201148,6,0,P|280:116|288:160,1,83.9999974365235
284,244,201694,2,0,P|268:280|216:292,1,83.9999974365235
168,200,202239,2,0,P|168:152|196:120,2,83.9999974365235
216,292,203057,2,0,P|272:308|292:296,1,83.9999974365235
372,232,203603,2,0,P|324:208|292:224,1,83.9999974365235
184,296,204148,2,0,P|152:240|180:144,1,167.999994873047
288,56,204966,6,0,L|344:120,1,83.9999974365235
420,180,205512,1,0,0:0:0:0:
348,252,205785,2,0,L|284:316,1,83.9999974365235
188,356,206330,1,0,0:0:0:0:
76,320,206603,2,0,L|144:248,1,83.9999974365235
196,192,207148,1,0,0:0:0:0:
264,128,207421,5,0,0:0:0:0:
328,216,207694,2,0,P|324:260|296:292,1,83.9999974365235
228,364,208239,1,0,0:0:0:0:
228,364,208376,1,0,0:0:0:0:
228,364,208512,2,0,P|192:312|220:208,1,167.999994873047
288,128,209330,2,0,L|368:92,1,83.9999974365235
456,44,209876,6,0,P|416:16|372:16,1,83.9999974365235
288,68,210421,1,0,0:0:0:0:
184,144,210694,2,0,P|176:104|184:52,1,83.9999974365235
296,60,211239,2,0,P|312:48|380:28,1,83.9999974365235
372,120,211785,1,0,0:0:0:0:
428,176,212057,2,0,P|452:148|484:96,1,83.9999974365235
400,32,212604,1,0,0:0:0:0:
400,32,212740,1,0,0:0:0:0:
400,32,212876,2,0,P|360:32|324:64,1,83.9999974365235
384,144,213421,2,0,P|432:176|424:208,1,83.9999974365235
428,288,213966,6,0,P|372:288|348:256,1,83.9999974365235
300,204,214512,1,0,0:0:0:0:
256,136,214785,1,0,0:0:0:0:
216,52,215058,2,0,P|220:84|280:108,1,83.9999974365235
340,88,215603,1,0,0:0:0:0:
432,108,215876,1,0,0:0:0:0:
476,188,216149,2,0,L|476:276,1,83.9999974365235
412,344,216694,5,0,0:0:0:0:
316,352,216966,1,0,0:0:0:0:
316,352,217104,1,0,0:0:0:0:
316,352,217240,2,0,P|296:316|348:212,1,167.999994873047
424,216,218058,1,0,0:0:0:0:
416,304,218330,6,0,P|352:320|324:316,1,83.9999974365235
232,308,218876,1,0,0:0:0:0:
156,352,219149,1,0,0:0:0:0:
160,264,219421,2,0,P|149:224|114:202,1,83.9999974365235
44,264,219966,1,0,0:0:0:0:
40,184,220240,1,0,0:0:0:0:
48,96,220512,2,0,P|104:60|131:67,1,83.9999974365235
200,84,221058,5,0,0:0:0:0:
296,52,221331,1,0,0:0:0:0:
296,52,221467,1,0,0:0:0:0:
296,52,221603,2,0,P|304:88|228:196,1,167.999994873047
172,256,222421,1,0,0:0:0:0:
96,316,222694,6,0,P|60:316|40:268,1,83.9999974365235
88,192,223240,1,0,0:0:0:0:
164,144,223512,1,0,0:0:0:0:
260,172,223785,2,0,P|264:228|280:272,1,83.9999974365235
368,280,224331,1,0,0:0:0:0:
464,304,224603,1,0,0:0:0:0:
460,200,224876,2,0,L|376:200,1,83.9999974365235
384,292,225421,5,0,0:0:0:0:
288,276,225694,1,0,0:0:0:0:
288,276,225831,1,0,0:0:0:0:
288,276,225967,2,0,P|336:192|416:168,1,167.999994873047
424,80,226785,2,0,L|488:148,1,83.9999974365235
436,240,227331,1,0,0:0:0:0:
440,328,227603,1,0,0:0:0:0:
352,352,227876,2,0,L|312:272,1,83.9999974365235
276,200,228421,1,0,0:0:0:0:
352,152,228694,1,0,0:0:0:0:
404,220,228967,2,0,L|404:308,1,83.9999974365235
296,332,229512,6,0,P|344:323|372:295,1,83.9999974365235
256,192,230058,12,0,231421,0:0:0:0:
