osu file format v14

[General]
AudioFilename: audio.mp3
AudioLeadIn: 0
PreviewTime: 58239
Countdown: 0
SampleSet: Normal
StackLeniency: 0.3
Mode: 0
LetterboxInBreaks: 0
EpilepsyWarning: 1
WidescreenStoryboard: 1

[Editor]
Bookmarks: 213966
DistanceSpacing: 1.5
BeatDivisor: 4
GridSize: 4
TimelineZoom: 3.099999

[Metadata]
Title:DSCF
TitleUnicode:DSCF
Artist:DECO*27
ArtistUnicode:DECO*27
Creator:eLzL
Version:Hard
Source:
Tags:Deco*27, Ghost, Hatsune Miku, Vocaloid, Delusion Sentiment Compensation Federation, DSCF, MKDR
BeatmapID:2040998
BeatmapSetID:961270

[Difficulty]
HPDrainRate:5
CircleSize:3.6
OverallDifficulty:7
ApproachRate:7
SliderMultiplier:1.4
SliderTickRate:1

[Events]
//Background and Video events
0,0,"bg.jpg",0,0
//Break Periods
2,26529,29521
2,30893,33339
2,94166,108339
2,170529,186885
//Storyboard Layer 0 (Background)
//Storyboard Layer 1 (Fail)
//Storyboard Layer 2 (Pass)
//Storyboard Layer 3 (Foreground)
Sprite,Foreground,Centre,"sb/haireitsu.png",496,108 S,2,227057,227257,0.8,0.16 F,2,227057,227257,1,0 P,0,227057,227257,A C,0,227057,,255,192,0
Sprite,Foreground,Centre,"sb/haireitsu.png",340,104 S,2,227330,227530,0.8,0.16 F,2,227330,227530,1,0 P,0,227330,227530,A C,0,227330,,255,192,0
Sprite,Foreground,Centre,"sb/haireitsu.png",260,104 S,2,227466,227666,0.8,0.16 F,2,227466,227666,1,0 P,0,227466,227666,A C,0,227466,,255,192,0
Sprite,Foreground,Centre,"sb/haireitsu.png",0,0 S,2,227603,228075,0.8,0.16 F,2,227603,228075,1,0 P,0,227603,228075,A C,0,227603,,255,192,0 M,0,227603,227637,180,106,180.8568,119.097 M,0,227637,227671,180.8568,119.097,181.7136,132.194 M,0,227671,227705,181.7136,132.194,182.5704,145.291 M,0,227705,227739,182.5704,145.291,183.4272,158.388 M,0,227739,227773,183.4272,158.388,184.2841,171.485 M,0,227773,227807,184.2841,171.485,185.1409,184.582 M,0,227807,227841,185.1409,184.582,185.9977,197.679 M,0,227841,227875,185.9977,197.679,186.8545,210.776
Sprite,Foreground,Centre,"sb/haireitsu.png",196,388 S,2,228148,228348,0.8,0.16 F,2,228148,228348,1,0 P,0,228148,228348,A C,0,228148,,0,202,0
Sprite,Foreground,Centre,"sb/haireitsu.png",128,248 S,2,228421,228621,0.8,0.16 F,2,228421,228621,1,0 P,0,228421,228621,A C,0,228421,,0,202,0
Sprite,Foreground,Centre,"sb/haireitsu.png",192,204 S,2,228557,228757,0.8,0.16 F,2,228557,228757,1,0 P,0,228557,228757,A C,0,228557,,0,202,0
Sprite,Foreground,Centre,"sb/haireitsu.png",0,0 S,2,228693,229165,0.8,0.16 F,2,228693,229165,1,0 P,0,228693,229165,A C,0,228693,,0,202,0 M,0,228693,228727,260,164,264.8941,176.1784 M,0,228727,228761,264.8941,176.1784,269.7882,188.3568 M,0,228761,228795,269.7882,188.3568,274.6824,200.5352 M,0,228795,228829,274.6824,200.5352,279.5765,212.7136 M,0,228829,228863,279.5765,212.7136,284.4706,224.892 M,0,228863,228897,284.4706,224.892,289.3647,237.0703 M,0,228897,228931,289.3647,237.0703,294.2589,249.2487 M,0,228931,228965,294.2589,249.2487,299.153,261.4271
Sprite,Foreground,Centre,"sb/haireitsu.png",383,395 S,2,229239,229439,0.8,0.16 F,2,229239,229439,1,0 P,0,229239,229439,A C,0,229239,,18,124,255
Sprite,Foreground,Centre,"sb/haireitsu.png",412,388 S,2,229375,229575,0.8,0.16 F,2,229375,229575,1,0 P,0,229375,229575,A C,0,229375,,18,124,255
Sprite,Foreground,Centre,"sb/haireitsu.png",440,368 S,2,229511,229711,0.8,0.16 F,2,229511,229711,1,0 P,0,229511,229711,A C,0,229511,,18,124,255
Sprite,Foreground,Centre,"sb/haireitsu.png",456,344 S,2,229648,229848,0.8,0.16 F,2,229648,229848,1,0 P,0,229648,229848,A C,0,229648,,18,124,255
Sprite,Foreground,Centre,"sb/haireitsu.png",0,0 S,2,229784,230256,0.8,0.16 F,2,229784,230256,1,0 P,0,229784,230256,A C,0,229784,,18,124,255 M,0,229784,229818,476,312,482.4729,300.632 M,0,229818,229852,482.4729,300.632,487.6984,288.6304 M,0,229852,229886,487.6984,288.6304,490.5176,275.8595 M,0,229886,229920,490.5176,275.8595,491.8817,262.8534 M,0,229920,229954,491.8817,262.8534,490.7967,249.823 M,0,229954,229988,490.7967,249.823,488.1792,237.0209 M,0,229988,230022,488.1792,237.0209,483.2887,224.897 M,0,230022,230056,483.2887,224.897,477.0599,213.3932
Sprite,Foreground,Centre,"sb/haireitsu.png",368,98 S,2,230330,230530,0.8,0.16 F,2,230330,230530,1,0 P,0,230330,230530,A C,0,230330,,242,24,57
Sprite,Foreground,Centre,"sb/haireitsu.png",344,86 S,2,230466,230666,0.8,0.16 F,2,230466,230666,1,0 P,0,230466,230666,A C,0,230466,,242,24,57
Sprite,Foreground,Centre,"sb/haireitsu.png",312,82 S,2,230602,230802,0.8,0.16 F,2,230602,230802,1,0 P,0,230602,230802,A C,0,230602,,242,24,57
Sprite,Foreground,Centre,"sb/haireitsu.png",276,90 S,2,230739,230939,0.8,0.16 F,2,230739,230939,1,0 P,0,230739,230939,A C,0,230739,,242,24,57
Sprite,Foreground,Centre,"sb/haireitsu.png",0,0 S,2,230875,231620,0.8,0.16 F,2,230875,231620,1,0 P,0,230875,231620,A C,0,230875,,242,24,57 M,0,230875,230909,248,104,236.1645,109.6118 M,0,230909,230943,236.1645,109.6118,224.8827,116.2621 M,0,230943,230977,224.8827,116.2621,214.6962,124.4909 M,0,230977,231011,214.6962,124.4909,205.3833,133.6817 M,0,231011,231045,205.3833,133.6817,197.4123,144.0682 M,0,231045,231079,197.4123,144.0682,190.6236,155.2453 M,0,231079,231113,190.6236,155.2453,185.1374,167.1371 M,0,231113,231147,185.1374,167.1371,181.4523,179.7029 M,0,231147,231181,181.4523,179.7029,179.0313,192.5614 M,0,231181,231215,179.0313,192.5614,178.3962,205.6386 M,0,231215,231250,178.3962,205.6386,179.1814,218.6924 M,0,231250,231284,179.1814,218.6924,181.4443,231.5918 M,0,231284,231318,181.4443,231.5918,185.5731,244.019 M,0,231318,231352,185.5731,244.019,190.9062,255.9674 M,0,231352,231386,190.9062,255.9674,197.8331,267.0775 M,0,231386,231420,197.8331,267.0775,205.7798,277.4872
Sprite,Foreground,Centre,"sb/haireitsu.png",323,219 S,2,222693,222893,0.8,0.16 F,2,222693,222893,1,0 P,0,222693,222893,A C,0,222693,,0,202,0
Sprite,Foreground,Centre,"sb/haireitsu.png",324,376 S,2,222966,223166,0.8,0.16 F,2,222966,223166,1,0 P,0,222966,223166,A C,0,222966,,0,202,0
Sprite,Foreground,Centre,"sb/haireitsu.png",248,352 S,2,223103,223303,0.8,0.16 F,2,223103,223303,1,0 P,0,223103,223303,A C,0,223103,,0,202,0
Sprite,Foreground,Centre,"sb/haireitsu.png",0,0 S,2,223239,223711,0.8,0.16 F,2,223239,223711,1,0 P,0,223239,223711,A C,0,223239,,0,202,0 M,0,223239,223273,176,324,184.7802,314.2443 M,0,223273,223307,184.7802,314.2443,193.5603,304.4885 M,0,223307,223341,193.5603,304.4885,202.3405,294.7328 M,0,223341,223375,202.3405,294.7328,211.1207,284.9771 M,0,223375,223409,211.1207,284.9771,219.9008,275.2213 M,0,223409,223443,219.9008,275.2213,228.681,265.4656 M,0,223443,223477,228.681,265.4656,237.4611,255.7098 M,0,223477,223511,237.4611,255.7098,246.2413,245.9541
Sprite,Foreground,Centre,"sb/haireitsu.png",352,128 S,2,223784,223984,0.8,0.16 F,2,223784,223984,1,0 P,0,223784,223984,A C,0,223784,,18,124,255
Sprite,Foreground,Centre,"sb/haireitsu.png",200,80 S,2,224057,224257,0.8,0.16 F,2,224057,224257,1,0 P,0,224057,224257,A C,0,224057,,18,124,255
Sprite,Foreground,Centre,"sb/haireitsu.png",156,148 S,2,224194,224394,0.8,0.16 F,2,224194,224394,1,0 P,0,224194,224394,A C,0,224194,,18,124,255
Sprite,Foreground,Centre,"sb/haireitsu.png",0,0 S,2,224330,224802,0.8,0.16 F,2,224330,224802,1,0 P,0,224330,224802,A C,0,224330,,18,124,255 M,0,224330,224364,116,216,126.9936,223.1698 M,0,224364,224398,126.9936,223.1698,137.9873,230.3395 M,0,224398,224432,137.9873,230.3395,148.9809,237.5093 M,0,224432,224466,148.9809,237.5093,159.9745,244.6791 M,0,224466,224500,159.9745,244.6791,170.9682,251.8488 M,0,224500,224534,170.9682,251.8488,181.9618,259.0186 M,0,224534,224568,181.9618,259.0186,192.9555,266.1884 M,0,224568,224602,192.9555,266.1884,203.9491,273.3581
Sprite,Foreground,Centre,"sb/haireitsu.png",336,360 S,2,224875,225075,0.8,0.16 F,2,224875,225075,1,0 P,0,224875,225075,A C,0,224875,,18,124,255
Sprite,Foreground,Centre,"sb/haireitsu.png",436,356 S,2,218330,218530,0.8,0.16 F,2,218330,218530,1,0 P,0,218330,218530,A C,0,218330,,18,124,255
Sprite,Foreground,Centre,"sb/haireitsu.png",408,200 S,2,218603,218803,0.8,0.16 F,2,218603,218803,1,0 P,0,218603,218803,A C,0,218603,,18,124,255
Sprite,Foreground,Centre,"sb/haireitsu.png",484,224 S,2,218739,218939,0.8,0.16 F,2,218739,218939,1,0 P,0,218739,218939,A C,0,218739,,18,124,255
Sprite,Foreground,Centre,"sb/haireitsu.png",0,0 S,2,218876,219348,0.8,0.16 F,2,218876,219348,1,0 P,0,218876,219348,A C,0,218876,,18,124,255 M,0,218876,218910,560,248,548.5739,254.4583 M,0,218910,218944,548.5739,254.4583,537.1477,260.9165 M,0,218944,218978,537.1477,260.9165,525.7216,267.3748 M,0,218978,219012,525.7216,267.3748,514.2954,273.833 M,0,219012,219046,514.2954,273.833,502.8693,280.2913 M,0,219046,219080,502.8693,280.2913,491.4432,286.7495 M,0,219080,219114,491.4432,286.7495,480.017,293.2078 M,0,219114,219148,480.017,293.2078,468.5909,299.666
Sprite,Foreground,Centre,"sb/haireitsu.png",332,380 S,2,219421,219621,0.8,0.16 F,2,219421,219621,1,0 P,0,219421,219621,A C,0,219421,,242,24,57
Sprite,Foreground,Centre,"sb/haireitsu.png",212,280 S,2,219694,219894,0.8,0.16 F,2,219694,219894,1,0 P,0,219694,219894,A C,0,219694,,242,24,57
Sprite,Foreground,Centre,"sb/haireitsu.png",160,340 S,2,219830,220030,0.8,0.16 F,2,219830,220030,1,0 P,0,219830,220030,A C,0,219830,,242,24,57
Sprite,Foreground,Centre,"sb/haireitsu.png",0,0 S,2,219966,220438,0.8,0.16 F,2,219966,220438,1,0 P,0,219966,220438,A C,0,219966,,242,24,57 M,0,219966,220000,118,406,131.1166,405.5316 M,0,220000,220034,131.1166,405.5316,144.2333,405.0631 M,0,220034,220068,144.2333,405.0631,157.3499,404.5946 M,0,220068,220102,157.3499,404.5946,170.4666,404.1262 M,0,220102,220136,170.4666,404.1262,183.5832,403.6577 M,0,220136,220170,183.5832,403.6577,196.6998,403.1893 M,0,220170,220204,196.6998,403.1893,209.8165,402.7208 M,0,220204,220238,209.8165,402.7208,222.9331,402.2524
Sprite,Foreground,Centre,"sb/haireitsu.png",360,320 S,2,220511,220711,0.8,0.16 F,2,220511,220711,1,0 P,0,220511,220711,A C,0,220511,,255,192,0
Sprite,Foreground,Centre,"sb/haireitsu.png",496,200 S,2,213966,214166,0.8,0.16 F,2,213966,214166,1,0 P,0,213966,214166,A C,0,213966,,242,24,57
Sprite,Foreground,Centre,"sb/haireitsu.png",305,169 S,2,214239,214439,0.8,0.16 F,2,214239,214439,1,0 P,0,214239,214439,A C,0,214239,,242,24,57
Sprite,Foreground,Centre,"sb/haireitsu.png",304,248 S,2,214376,214576,0.8,0.16 F,2,214376,214576,1,0 P,0,214376,214576,A C,0,214376,,242,24,57
Sprite,Foreground,Centre,"sb/haireitsu.png",0,0 S,2,214512,214984,0.8,0.16 F,2,214512,214984,1,0 P,0,214512,214984,A C,0,214512,,242,24,57 M,0,214512,214546,308,328,319.4733,321.6259 M,0,214546,214580,319.4733,321.6259,330.9466,315.2519 M,0,214580,214614,330.9466,315.2519,342.42,308.8778 M,0,214614,214648,342.42,308.8778,353.8932,302.5038 M,0,214648,214682,353.8932,302.5038,365.3666,296.1297 M,0,214682,214716,365.3666,296.1297,376.8399,289.7556 M,0,214716,214750,376.8399,289.7556,388.3132,283.3816 M,0,214750,214784,388.3132,283.3816,399.7865,277.0075
Sprite,Foreground,Centre,"sb/haireitsu.png",528,188 S,2,215057,215257,0.8,0.16 F,2,215057,215257,1,0 P,0,215057,215257,A C,0,215057,,255,192,0
Sprite,Foreground,Centre,"sb/haireitsu.png",376,144 S,2,215330,215530,0.8,0.16 F,2,215330,215530,1,0 P,0,215330,215530,A C,0,215330,,255,192,0
Sprite,Foreground,Centre,"sb/haireitsu.png",340,212 S,2,215466,215666,0.8,0.16 F,2,215466,215666,1,0 P,0,215466,215666,A C,0,215466,,255,192,0
Sprite,Foreground,Centre,"sb/haireitsu.png",0,0 S,2,215603,216075,0.8,0.16 F,2,215603,216075,1,0 P,0,215603,216075,A C,0,215603,,255,192,0 M,0,215603,215637,296,276,285.1558,268.6062 M,0,215637,215671,285.1558,268.6062,274.3115,261.2124 M,0,215671,215705,274.3115,261.2124,263.4673,253.8186 M,0,215705,215739,263.4673,253.8186,252.6231,246.4248 M,0,215739,215773,252.6231,246.4248,241.7788,239.031 M,0,215773,215807,241.7788,239.031,230.9346,231.6372 M,0,215807,215841,230.9346,231.6372,220.0904,224.2434 M,0,215841,215875,220.0904,224.2434,209.2461,216.8496
Sprite,Foreground,Centre,"sb/haireitsu.png",88,116 S,2,216148,216348,0.8,0.16 F,2,216148,216348,1,0 P,0,216148,216348,A C,0,216148,,255,192,0
Sprite,Foreground,Centre,"sb/haireitsu.png",369,312 S,2,187785,187985,0.8,0.16 F,2,187785,187985,1,0 P,0,187785,187985,A C,0,187785,,18,124,255
Sprite,Foreground,Centre,"sb/haireitsu.png",145,90 S,2,188330,188530,0.8,0.16 F,2,188330,188530,1,0 P,0,188330,188530,A C,0,188330,,18,124,255
Sprite,Foreground,Centre,"sb/haireitsu.png",221,395 S,2,188876,189076,0.8,0.16 F,2,188876,189076,1,0 P,0,188876,189076,A C,0,188876,,18,124,255
Sprite,Foreground,Centre,"sb/haireitsu.png",250,81 S,2,189421,189621,0.8,0.16 F,2,189421,189621,1,0 P,0,189421,189621,A C,0,189421,,18,124,255
Sprite,Foreground,Centre,"sb/haireitsu.png",274,368 S,2,189966,190166,0.8,0.16 F,2,189966,190166,1,0 P,0,189966,190166,A C,0,189966,,18,124,255
Sprite,Foreground,Centre,"sb/haireitsu.png",478,128 S,2,190512,190712,0.8,0.16 F,2,190512,190712,1,0 P,0,190512,190712,A C,0,190512,,18,124,255
Sprite,Foreground,Centre,"sb/haireitsu.png",163,143 S,2,191057,191257,0.8,0.16 F,2,191057,191257,1,0 P,0,191057,191257,A C,0,191057,,18,124,255
Sprite,Foreground,Centre,"sb/haireitsu.png",409,339 S,2,191603,191803,0.8,0.16 F,2,191603,191803,1,0 P,0,191603,191803,A C,0,191603,,18,124,255
Sprite,Foreground,Centre,"sb/haireitsu.png",144,167 S,2,192148,192348,0.8,0.16 F,2,192148,192348,1,0 P,0,192148,192348,A C,0,192148,,242,24,57
Sprite,Foreground,Centre,"sb/haireitsu.png",294,118 S,2,192421,192621,0.8,0.16 F,2,192421,192621,1,0 P,0,192421,192621,A C,0,192421,,242,24,57
Sprite,Foreground,Centre,"sb/haireitsu.png",181,228 S,2,192694,192894,0.8,0.16 F,2,192694,192894,1,0 P,0,192694,192894,A C,0,192694,,242,24,57
Sprite,Foreground,Centre,"sb/haireitsu.png",255,70 S,2,192966,193166,0.8,0.16 F,2,192966,193166,1,0 P,0,192966,193166,A C,0,192966,,242,24,57
Sprite,Foreground,Centre,"sb/haireitsu.png",388,153 S,2,193239,193439,0.8,0.16 F,2,193239,193439,1,0 P,0,193239,193439,A C,0,193239,,255,192,0
Sprite,Foreground,Centre,"sb/haireitsu.png",539,198 S,2,193512,193712,0.8,0.16 F,2,193512,193712,1,0 P,0,193512,193712,A C,0,193512,,255,192,0
Sprite,Foreground,Centre,"sb/haireitsu.png",419,95 S,2,193785,193985,0.8,0.16 F,2,193785,193985,1,0 P,0,193785,193985,A C,0,193785,,255,192,0
Sprite,Foreground,Centre,"sb/haireitsu.png",484,237 S,2,194057,194257,0.8,0.16 F,2,194057,194257,1,0 P,0,194057,194257,A C,0,194057,,255,192,0
Sprite,Foreground,Centre,"sb/haireitsu.png",329,267 S,2,194330,194530,0.8,0.16 F,2,194330,194530,1,0 P,0,194330,194530,A C,0,194330,,0,202,0
Sprite,Foreground,Centre,"sb/haireitsu.png",453,363 S,2,194603,194803,0.8,0.16 F,2,194603,194803,1,0 P,0,194603,194803,A C,0,194603,,0,202,0
Sprite,Foreground,Centre,"sb/haireitsu.png",386,219 S,2,194876,195076,0.8,0.16 F,2,194876,195076,1,0 P,0,194876,195076,A C,0,194876,,0,202,0
Sprite,Foreground,Centre,"sb/haireitsu.png",382,376 S,2,195148,195348,0.8,0.16 F,2,195148,195348,1,0 P,0,195148,195348,A C,0,195148,,0,202,0
Sprite,Foreground,Centre,"sb/haireitsu.png",0,0 S,2,195421,196439,0.8,0.16 F,2,195421,196439,1,0 P,0,195421,196439,A C,0,195421,,0,202,0 M,0,195421,195455,452,234,453.5457,220.9903 M,0,195455,195489,453.5457,220.9903,453.9353,207.9002 M,0,195489,195523,453.9353,207.9002,452.5363,194.8775 M,0,195523,195557,452.5363,194.8775,449.8467,182.0722 M,0,195557,195591,449.8467,182.0722,445.7578,169.6243 M,0,195591,195625,445.7578,169.6243,439.9578,157.8796 M,0,195625,195659,439.9578,157.8796,433.0704,146.7499 M,0,195659,195693,433.0704,146.7499,424.9858,136.43 M,0,195693,195727,424.9858,136.43,415.4939,127.401 M,0,195727,195761,415.4939,127.401,405.2274,119.2754 M,0,195761,195796,405.2274,119.2754,393.9613,112.5965 M,0,195796,195830,393.9613,112.5965,382.0839,107.11 M,0,195830,195864,382.0839,107.11,369.6599,102.9599 M,0,195864,195898,369.6599,102.9599,356.7816,100.5706 M,0,195898,195932,356.7816,100.5706,343.7431,99.45167 M,0,195932,195966,343.7431,99.45167,330.6416,99.77606 M,0,195966,196000,330.6416,99.77606,317.727,101.9697 M,0,196000,196034,317.727,101.9697,305.0817,105.3541 M,0,196034,196068,305.0817,105.3541,292.8646,110.1194 M,0,196068,196102,292.8646,110.1194,281.4948,116.6284 M,0,196102,196136,281.4948,116.6284,270.7508,124.1159 M,0,196136,196171,270.7508,124.1159,261.1248,132.9977 M,0,196171,196205,261.1248,132.9977,252.4443,142.7883 M,0,196205,196239,252.4443,142.7883,244.8849,153.4895
Sprite,Foreground,Centre,"sb/haireitsu.png",0,0 S,2,168148,169166,0.8,0.16 F,2,168148,169166,1,0 P,0,168148,169166,A C,0,168148,,0,202,0 M,0,168148,168182,212,276,219.2884,286.9105 M,0,168182,168216,219.2884,286.9105,226.9624,297.5525 M,0,168216,168250,226.9624,297.5525,235.2317,307.7388 M,0,168250,168284,235.2317,307.7388,243.9001,317.5853 M,0,168284,168318,243.9001,317.5853,253.0052,327.0345 M,0,168318,168352,253.0052,327.0345,262.6606,335.9187 M,0,168352,168386,262.6606,335.9187,272.637,344.4391 M,0,168386,168420,272.637,344.4391,283.075,352.3883 M,0,168420,168454,283.075,352.3883,293.8291,359.9005 M,0,168454,168488,293.8291,359.9005,304.9131,366.923 M,0,168488,168523,304.9131,366.923,316.3909,373.2799 M,0,168523,168557,316.3909,373.2799,328.1015,379.1938 M,0,168557,168591,328.1015,379.1938,340.1194,384.4576 M,0,168591,168625,340.1194,384.4576,352.3469,389.2078 M,0,168625,168659,352.3469,389.2078,364.7784,393.404 M,0,168659,168693,364.7784,393.404,377.4314,396.8753 M,0,168693,168727,377.4314,396.8753,390.2092,399.8461 M,0,168727,168761,390.2092,399.8461,403.1117,402.2398 M,0,168761,168795,403.1117,402.2398,416.1339,403.8456 M,0,168795,168829,416.1339,403.8456,429.2051,404.9769 M,0,168829,168863,429.2051,404.9769,442.3196,405.3668 M,0,168863,168898,442.3196,405.3668,455.4371,405.2256 M,0,168898,168932,455.4371,405.2256,468.5385,404.4943 M,0,168932,168966,468.5385,404.4943,481.572,402.9842
Sprite,Foreground,Centre,"sb/haireitsu.png",0,0 S,2,169239,170529,0.8,0.16 F,2,169239,170529,1,0 P,0,169239,170529,A C,0,169239,,0,202,0 M,0,169239,169273,512,324,499.1132,326.4576 M,0,169273,169307,499.1132,326.4576,486.1319,328.3452 M,0,169307,169341,486.1319,328.3452,473.0518,329.3441 M,0,169341,169375,473.0518,329.3441,459.9413,329.6915 M,0,169375,169409,459.9413,329.6915,446.8272,329.3183 M,0,169409,169443,446.8272,329.3183,433.7729,328.0219 M,0,169443,169477,433.7729,328.0219,420.7972,326.1092 M,0,169477,169511,420.7972,326.1092,407.9407,323.4857 M,0,169511,169545,407.9407,323.4857,395.3119,319.9337 M,0,169545,169579,395.3119,319.9337,382.8573,315.8174 M,0,169579,169614,382.8573,315.8174,370.7064,310.8737 M,0,169614,169648,370.7064,310.8737,358.8247,305.3219 M,0,169648,169682,358.8247,305.3219,347.2623,299.1242 M,0,169682,169716,347.2623,299.1242,336.1589,292.138 M,0,169716,169750,336.1589,292.138,325.4084,284.625 M,0,169750,169784,325.4084,284.625,315.0829,276.53 M,0,169784,169818,315.0829,276.53,305.3669,267.7151 M,0,169818,169852,305.3669,267.7151,296.068,258.4644 M,0,169852,169886,296.068,258.4644,287.4008,248.6175 M,0,169886,169920,287.4008,248.6175,279.256,238.3387 M,0,169920,169954,279.256,238.3387,271.6859,227.6254 M,0,169954,169989,271.6859,227.6254,264.8676,216.4183 M,0,169989,170023,264.8676,216.4183,258.6117,204.8913 M,0,170023,170057,258.6117,204.8913,252.9962,193.0341 M,0,170057,170091,252.9962,193.0341,248.2356,180.8098 M,0,170091,170125,248.2356,180.8098,244.0551,168.3777 M,0,170125,170159,244.0551,168.3777,240.562,155.7294 M,0,170159,170193,240.562,155.7294,238.005,142.862 M,0,170193,170227,238.005,142.862,236.0247,129.8949 M,0,170227,170261,236.0247,129.8949,234.9248,116.823 M,0,170261,170295,234.9248,116.823,234.4838,103.7156 M,0,170295,170329,234.4838,103.7156,234.7632,90.59952
Sprite,Foreground,Centre,"sb/haireitsu.png",0,0 S,2,128876,130166,0.8,0.16 F,2,128876,130166,1,0 P,0,128876,130166,A C,0,128876,,242,24,57 M,0,128876,128910,287,170,284.8467,180.2769 M,0,128910,128944,284.8467,180.2769,282.6935,190.5537 M,0,128944,128978,282.6935,190.5537,280.5403,200.8305 M,0,128978,129012,280.5403,200.8305,278.387,211.1074 M,0,129012,129046,278.387,211.1074,276.2338,221.3842 M,0,129046,129080,276.2338,221.3842,274.0805,231.6611 M,0,129080,129114,274.0805,231.6611,271.9273,241.9379 M,0,129114,129148,271.9273,241.9379,269.774,252.2148 M,0,129148,129182,269.774,252.2148,267.6208,262.4916 M,0,129182,129216,267.6208,262.4916,265.4676,272.7684 M,0,129216,129251,265.4676,272.7684,257.9644,279.2507 M,0,129251,129285,257.9644,279.2507,248.9773,284.6804 M,0,129285,129319,248.9773,284.6804,239.9902,290.1101 M,0,129319,129353,239.9902,290.1101,231.003,295.5398 M,0,129353,129387,231.003,295.5398,222.0159,300.9695 M,0,129387,129421,222.0159,300.9695,213.0288,306.3993 M,0,129421,129455,213.0288,306.3993,204.0417,311.829 M,0,129455,129489,204.0417,311.829,195.0546,317.2587 M,0,129489,129523,195.0546,317.2587,186.0675,322.6884 M,0,129523,129557,186.0675,322.6884,177.0804,328.1181 M,0,129557,129591,177.0804,328.1181,169.908,333.5458 M,0,129591,129626,169.908,333.5458,178.9282,338.9203 M,0,129626,129660,178.9282,338.9203,187.992,344.2209 M,0,129660,129694,187.992,344.2209,197.1057,349.4353 M,0,129694,129728,197.1057,349.4353,206.2771,354.5473 M,0,129728,129762,206.2771,354.5473,215.5166,359.5353 M,0,129762,129796,215.5166,359.5353,224.8377,364.369 M,0,129796,129830,224.8377,364.369,234.2595,369.003 M,0,129830,129864,234.2595,369.003,243.8094,373.3663 M,0,129864,129898,243.8094,373.3663,253.5294,377.3347 M,0,129898,129932,253.5294,377.3347,263.4876,380.6537 M,0,129932,129966,263.4876,380.6537,273.7817,382.6334
Sprite,Foreground,Centre,"sb/haireitsu.png",332,268 S,2,130512,130712,0.8,0.16 F,2,130512,130712,1,0 P,0,130512,130712,A C,0,130512,,242,24,57
Sprite,Foreground,Centre,"sb/haireitsu.png",0,0 S,2,131057,132347,0.8,0.16 F,2,131057,132347,1,0 P,0,131057,132347,A C,0,131057,,242,24,57 M,0,131057,131091,332,268,323.6076,274.2102 M,0,131091,131125,323.6076,274.2102,314.2695,278.8176 M,0,131125,131159,314.2695,278.8176,304.2757,281.6859 M,0,131159,131193,304.2757,281.6859,293.9642,283.0612 M,0,131193,131227,293.9642,283.0612,283.6094,281.9009 M,0,131227,131261,283.6094,281.9009,273.6443,278.9228 M,0,131261,131295,273.6443,278.9228,264.1585,274.5992 M,0,131295,131329,264.1585,274.5992,256.0606,268.0302 M,0,131329,131363,256.0606,268.0302,249.2746,260.1428 M,0,131363,131397,249.2746,260.1428,243.523,251.4175 M,0,131397,131432,243.523,251.4175,240.2472,241.5089 M,0,131432,131466,240.2472,241.5089,238.7888,231.2014 M,0,131466,131500,238.7888,231.2014,239.187,220.8128 M,0,131500,131534,239.187,220.8128,241.1458,210.6048 M,0,131534,131568,241.1458,210.6048,245.4821,201.1339 M,0,131568,131602,245.4821,201.1339,251.4241,192.5997 M,0,131602,131636,251.4241,192.5997,258.5214,184.9781 M,0,131636,131670,258.5214,184.9781,267.2888,179.3402 M,0,131670,131704,267.2888,179.3402,276.8998,175.3594 M,0,131704,131738,276.8998,175.3594,286.9854,172.6687 M,0,131738,131772,286.9854,172.6687,297.4174,172.6529 M,0,131772,131807,297.4174,172.6529,307.662,174.4879 M,0,131807,131841,307.662,174.4879,317.4051,178.112 M,0,131841,131875,317.4051,178.112,326.4609,183.1985 M,0,131875,131909,326.4609,183.1985,334.1004,190.2751 M,0,131909,131943,334.1004,190.2751,340.3497,198.5853 M,0,131943,131977,340.3497,198.5853,345.3276,207.7221 M,0,131977,132011,345.3276,207.7221,347.9429,217.8088 M,0,132011,132045,347.9429,217.8088,348.721,228.1807 M,0,132045,132079,348.721,228.1807,348.0811,238.5881 M,0,132079,132113,348.0811,238.5881,344.8379,248.499 M,0,132113,132147,344.8379,248.499,339.8947,257.6553
Sprite,Foreground,Centre,"sb/haireitsu.png",340,258 S,2,132694,132894,0.8,0.16 F,2,132694,132894,1,0 P,0,132694,132894,A C,0,132694,,242,24,57
Sprite,Foreground,Centre,"sb/haireitsu.png",0,0 S,2,133240,133712,0.8,0.16 F,2,133240,133712,1,0 P,0,133240,133712,A C,0,133240,,255,192,0 M,0,133240,133274,464,328,462.3951,340.372 M,0,133274,133308,462.3951,340.372,466.3159,352.1478 M,0,133308,133342,466.3159,352.1478,477.0945,358.249 M,0,133342,133376,477.0945,358.249,489.2144,358.4528 M,0,133376,133410,489.2144,358.4528,500.0338,351.6816 M,0,133410,133444,500.0338,351.6816,502.9875,339.5727 M,0,133444,133478,502.9875,339.5727,500.3317,327.4881 M,0,133478,133512,500.3317,327.4881,490.296,320.2435
Sprite,Foreground,Centre,"sb/haireitsu.png",0,0 S,2,133785,134257,0.8,0.16 F,2,133785,134257,1,0 P,0,133785,134257,A C,0,133785,,255,192,0 M,0,133785,133819,348,248,348.2032,235.8357 M,0,133819,133853,348.2032,235.8357,342.0546,225.4582 M,0,133853,133887,342.0546,225.4582,330.1418,223.7888 M,0,133887,133921,330.1418,223.7888,319.7839,229.0791 M,0,133921,133955,319.7839,229.0791,315.0131,240.6645 M,0,133955,133989,315.0131,240.6645,321.3188,251.0317 M,0,133989,134023,321.3188,251.0317,332.0292,256.3547 M,0,134023,134057,332.0292,256.3547,344.1109,252.5508
Sprite,Foreground,Centre,"sb/haireitsu.png",0,0 S,2,134330,134802,0.8,0.16 F,2,134330,134802,1,0 P,0,134330,134802,A C,0,134330,,255,192,0 M,0,134330,134364,360,408,359.3232,420.2672 M,0,134364,134398,359.3232,420.2672,364.7921,431.1221 M,0,134398,134432,364.7921,431.1221,376.5066,434.3847 M,0,134432,134466,376.5066,434.3847,387.7047,430.7666 M,0,134466,134500,387.7047,430.7666,394.7054,420.4493 M,0,134500,134534,394.7054,420.4493,391.4633,408.6593 M,0,134534,134568,391.4633,408.6593,382.7505,400.4493 M,0,134568,134602,382.7505,400.4493,370.6435,401.0836
Sprite,Foreground,Centre,"sb/haireitsu.png",0,0 S,2,134876,135348,0.8,0.16 F,2,134876,135348,1,0 P,0,134876,135348,A C,0,134876,,0,202,0 M,0,134876,134910,212,416,199.59,412.4324 M,0,134910,134944,199.59,412.4324,188.3853,405.9731 M,0,134944,134978,188.3853,405.9731,180.8704,395.498 M,0,134978,135012,180.8704,395.498,176.3108,383.4743 M,0,135012,135046,176.3108,383.4743,176.9064,370.613 M,0,135046,135080,176.9064,370.613,180.973,358.4757 M,0,135080,135114,180.973,358.4757,189.4049,348.7628 M,0,135114,135148,189.4049,348.7628,200.0849,341.5335
Sprite,Foreground,Centre,"sb/haireitsu.png",379,218 S,2,76512,76712,0.8,0.16 F,2,76512,76712,1,0 P,0,76512,76712,A C,0,76512,,0,202,0
Sprite,Foreground,Centre,"sb/haireitsu.png",438,364 S,2,76785,76985,0.8,0.16 F,2,76785,76985,1,0 P,0,76785,76985,A C,0,76785,,0,202,0
Sprite,Foreground,Centre,"sb/haireitsu.png",0,0 S,2,77058,77530,0.8,0.16 F,2,77058,77530,1,0 P,0,77058,77530,A C,0,77058,,0,202,0 M,0,77058,77092,281,349,288.875,338.5 M,0,77092,77126,288.875,338.5,296.75,328 M,0,77126,77160,296.75,328,304.625,317.5 M,0,77160,77194,304.625,317.5,312.5,307 M,0,77194,77228,312.5,307,320.375,296.5 M,0,77228,77262,320.375,296.5,328.25,286 M,0,77262,77296,328.25,286,336.125,275.5 M,0,77296,77330,336.125,275.5,344,265
Sprite,Foreground,Centre,"sb/haireitsu.png",446,145 S,2,77603,77803,0.8,0.16 F,2,77603,77803,1,0 P,0,77603,77803,A C,0,77603,,18,124,255
Sprite,Foreground,Centre,"sb/haireitsu.png",373,284 S,2,77876,78076,0.8,0.16 F,2,77876,78076,1,0 P,0,77876,78076,A C,0,77876,,18,124,255
Sprite,Foreground,Centre,"sb/haireitsu.png",0,0 S,2,78148,78620,0.8,0.16 F,2,78148,78620,1,0 P,0,78148,78620,A C,0,78148,,18,124,255 M,0,78148,78182,277,159,290.1065,158.3041 M,0,78182,78216,290.1065,158.3041,303.2131,157.6082 M,0,78216,78250,303.2131,157.6082,316.3196,156.9122 M,0,78250,78284,316.3196,156.9122,329.4261,156.2163 M,0,78284,78318,329.4261,156.2163,342.5327,155.5204 M,0,78318,78352,342.5327,155.5204,355.6392,154.8245 M,0,78352,78386,355.6392,154.8245,368.7458,154.1285 M,0,78386,78420,368.7458,154.1285,381.8523,153.4326
Sprite,Foreground,Centre,"sb/haireitsu.png",224,164 S,2,78694,78894,0.8,0.16 F,2,78694,78894,1,0 P,0,78694,78894,A C,0,78694,,18,124,255
Sprite,Foreground,Centre,"sb/haireitsu.png",0,0 S,2,78966,79438,0.8,0.16 F,2,78966,79438,1,0 P,0,78966,79438,A C,0,78966,,242,24,57 M,0,78966,79000,107,268,107.2453,281.1227 M,0,79000,79034,107.2453,281.1227,107.4906,294.2454 M,0,79034,79068,107.4906,294.2454,107.7359,307.3681 M,0,79068,79102,107.7359,307.3681,107.9811,320.4908 M,0,79102,79136,107.9811,320.4908,108.2264,333.6135 M,0,79136,79170,108.2264,333.6135,108.4717,346.7362 M,0,79170,79204,108.4717,346.7362,108.717,359.8589 M,0,79204,79238,108.717,359.8589,108.9623,372.9817
Sprite,Foreground,Centre,"sb/haireitsu.png",263,407 S,2,79512,79712,0.8,0.16 F,2,79512,79712,1,0 P,0,79512,79712,A C,0,79512,,242,24,57
Sprite,Foreground,Centre,"sb/haireitsu.png",263,407 S,2,79648,79848,0.8,0.16 F,2,79648,79848,1,0 P,0,79648,79848,A C,0,79648,,242,24,57
Sprite,Foreground,Centre,"sb/haireitsu.png",0,0 S,2,79785,80257,0.8,0.16 F,2,79785,80257,1,0 P,0,79785,80257,A C,0,79785,,242,24,57 M,0,79785,79819,263,407,276.1207,406.6636 M,0,79819,79853,276.1207,406.6636,289.2414,406.3271 M,0,79853,79887,289.2414,406.3271,302.3621,405.9907 M,0,79887,79921,302.3621,405.9907,315.4828,405.6543 M,0,79921,79955,315.4828,405.6543,328.6035,405.3179 M,0,79955,79989,328.6035,405.3179,341.7241,404.9814 M,0,79989,80023,341.7241,404.9814,354.8448,404.645 M,0,80023,80057,354.8448,404.645,367.9655,404.3086
Sprite,Foreground,Centre,"sb/haireitsu.png",0,0 S,2,80330,80802,0.8,0.16 F,2,80330,80802,1,0 P,0,80330,80802,A C,0,80330,,242,24,57 M,0,80330,80364,525,400,521.3586,387.4555 M,0,80364,80398,521.3586,387.4555,516.0921,375.4967 M,0,80398,80432,516.0921,375.4967,508.2435,365.0631 M,0,80432,80466,508.2435,365.0631,499.0045,355.8546 M,0,80466,80500,499.0045,355.8546,487.9709,348.8842 M,0,80500,80534,487.9709,348.8842,476.0314,343.6741 M,0,80534,80568,476.0314,343.6741,463.2469,341.0693 M,0,80568,80602,463.2469,341.0693,450.2426,340.5601
Sprite,Foreground,Centre,"sb/haireitsu.png",292,326 S,2,80876,81076,0.8,0.16 F,2,80876,81076,1,0 P,0,80876,81076,A C,0,80876,,255,192,0
Sprite,Foreground,Centre,"sb/haireitsu.png",154,403 S,2,81149,81349,0.8,0.16 F,2,81149,81349,1,0 P,0,81149,81349,A C,0,81149,,255,192,0
Sprite,Foreground,Centre,"sb/haireitsu.png",0,0 S,2,81422,81894,0.8,0.16 F,2,81422,81894,1,0 P,0,81422,81894,A C,0,81422,,255,192,0 M,0,81422,81456,161,245,171.8853,252.3332 M,0,81456,81490,171.8853,252.3332,182.7706,259.6665 M,0,81490,81524,182.7706,259.6665,193.6558,266.9997 M,0,81524,81558,193.6558,266.9997,204.5411,274.3329 M,0,81558,81592,204.5411,274.3329,215.4264,281.6662 M,0,81592,81626,215.4264,281.6662,226.3116,288.9995 M,0,81626,81660,226.3116,288.9995,237.1969,296.3327 M,0,81660,81694,237.1969,296.3327,248.0822,303.6659
Sprite,Foreground,Centre,"sb/haireitsu.png",381,387 S,2,81967,82167,0.8,0.16 F,2,81967,82167,1,0 P,0,81967,82167,A C,0,81967,,0,202,0
Sprite,Foreground,Centre,"sb/haireitsu.png",398,230 S,2,82240,82440,0.8,0.16 F,2,82240,82440,1,0 P,0,82240,82440,A C,0,82240,,0,202,0
Sprite,Foreground,Centre,"sb/haireitsu.png",0,0 S,2,82512,82984,0.8,0.16 F,2,82512,82984,1,0 P,0,82512,82984,A C,0,82512,,0,202,0 M,0,82512,82546,543,289,531.6871,295.6546 M,0,82546,82580,531.6871,295.6546,520.3743,302.3093 M,0,82580,82614,520.3743,302.3093,509.0613,308.9639 M,0,82614,82648,509.0613,308.9639,497.7484,315.6186 M,0,82648,82682,497.7484,315.6186,486.4356,322.2732 M,0,82682,82716,486.4356,322.2732,475.1227,328.9278 M,0,82716,82750,475.1227,328.9278,463.8098,335.5825 M,0,82750,82784,463.8098,335.5825,452.4969,342.2371
Sprite,Foreground,Centre,"sb/haireitsu.png",314,418 S,2,83057,83257,0.8,0.16 F,2,83057,83257,1,0 P,0,83057,83257,A C,0,83057,,18,124,255
Sprite,Foreground,Centre,"sb/haireitsu.png",276,264 S,2,83330,83530,0.8,0.16 F,2,83330,83530,1,0 P,0,83330,83530,A C,0,83330,,18,124,255
Sprite,Foreground,Centre,"sb/haireitsu.png",234,416 S,2,83603,83803,0.8,0.16 F,2,83603,83803,1,0 P,0,83603,83803,A C,0,83603,,18,124,255
Sprite,Foreground,Centre,"sb/haireitsu.png",334,294 S,2,83876,84076,0.8,0.16 F,2,83876,84076,1,0 P,0,83876,84076,A C,0,83876,,18,124,255
Sprite,Foreground,Centre,"sb/haireitsu.png",0,0 S,2,84148,84893,0.8,0.16 F,2,84148,84893,1,0 P,0,84148,84893,A C,0,84148,,18,124,255 M,0,84148,84182,194,366,181.305,362.947 M,0,84182,84216,181.305,362.947,169.1934,358.0912 M,0,84216,84250,169.1934,358.0912,158.5437,350.5531 M,0,84250,84284,158.5437,350.5531,149.264,341.4232 M,0,84284,84318,149.264,341.4232,141.7652,330.6995 M,0,84318,84352,141.7652,330.6995,137.1406,318.4906 M,0,84352,84386,137.1406,318.4906,134.3651,305.746 M,0,84386,84420,134.3651,305.746,134.598,292.7017 M,0,84420,84454,134.598,292.7017,136.9478,279.9009 M,0,84454,84488,136.9478,279.9009,141.6137,267.6831 M,0,84488,84523,141.6137,267.6831,149.0983,256.9881 M,0,84523,84557,149.0983,256.9881,158.0866,247.5432 M,0,84557,84591,158.0866,247.5432,168.9969,240.3914 M,0,84591,84625,168.9969,240.3914,180.9083,235.1553 M,0,84625,84659,180.9083,235.1553,193.6329,232.163 M,0,84659,84693,193.6329,232.163,206.6842,232.3263
Sprite,Foreground,Centre,"sb/haireitsu.png",522,234 S,2,85239,85439,0.8,0.16 F,2,85239,85439,1,0 P,0,85239,85439,A C,0,85239,,242,24,57
Sprite,Foreground,Centre,"sb/haireitsu.png",382,160 S,2,85512,85712,0.8,0.16 F,2,85512,85712,1,0 P,0,85512,85712,A C,0,85512,,242,24,57
Sprite,Foreground,Centre,"sb/haireitsu.png",0,0 S,2,85785,86257,0.8,0.16 F,2,85785,86257,1,0 P,0,85785,86257,A C,0,85785,,242,24,57 M,0,85785,85819,525,95,524.5477,108.1172 M,0,85819,85853,524.5477,108.1172,524.0953,121.2344 M,0,85853,85887,524.0953,121.2344,523.6431,134.3516 M,0,85887,85921,523.6431,134.3516,523.1907,147.4688 M,0,85921,85955,523.1907,147.4688,522.7384,160.586 M,0,85955,85989,522.7384,160.586,522.2861,173.7032 M,0,85989,86023,522.2861,173.7032,521.8337,186.8204 M,0,86023,86057,521.8337,186.8204,521.3815,199.9376
Sprite,Foreground,Centre,"sb/haireitsu.png",513,357 S,2,86330,86530,0.8,0.16 F,2,86330,86530,1,0 P,0,86330,86530,A C,0,86330,,255,192,0
Sprite,Foreground,Centre,"sb/haireitsu.png",399,247 S,2,86603,86803,0.8,0.16 F,2,86603,86803,1,0 P,0,86603,86803,A C,0,86603,,255,192,0
Sprite,Foreground,Centre,"sb/haireitsu.png",0,0 S,2,86875,87347,0.8,0.16 F,2,86875,87347,1,0 P,0,86875,87347,A C,0,86875,,255,192,0 M,0,86875,86909,325,385,338.0405,383.5129 M,0,86909,86943,338.0405,383.5129,351.081,382.0258 M,0,86943,86977,351.081,382.0258,364.1215,380.5388 M,0,86977,87011,364.1215,380.5388,377.1619,379.0517 M,0,87011,87045,377.1619,379.0517,390.2024,377.5646 M,0,87045,87079,390.2024,377.5646,403.2429,376.0776 M,0,87079,87113,403.2429,376.0776,416.2834,374.5905 M,0,87113,87147,416.2834,374.5905,429.3239,373.1034
Sprite,Foreground,Centre,"sb/haireitsu.png",328,250 S,2,87421,87621,0.8,0.16 F,2,87421,87621,1,0 P,0,87421,87621,A C,0,87421,,255,192,0
Sprite,Foreground,Centre,"sb/haireitsu.png",0,0 S,2,87693,88165,0.8,0.16 F,2,87693,88165,1,0 P,0,87693,88165,A C,0,87693,,0,202,0 M,0,87693,87727,235,123,221.9336,124.2391 M,0,87727,87761,221.9336,124.2391,208.8672,125.4781 M,0,87761,87795,208.8672,125.4781,195.8008,126.7172 M,0,87795,87829,195.8008,126.7172,182.7345,127.9562 M,0,87829,87863,182.7345,127.9562,169.6681,129.1953 M,0,87863,87897,169.6681,129.1953,156.6017,130.4343 M,0,87897,87931,156.6017,130.4343,143.5353,131.6734 M,0,87931,87965,143.5353,131.6734,130.4689,132.9124
Sprite,Foreground,Centre,"sb/haireitsu.png",119,290 S,2,88239,88439,0.8,0.16 F,2,88239,88439,1,0 P,0,88239,88439,A C,0,88239,,0,202,0
Sprite,Foreground,Centre,"sb/haireitsu.png",119,290 S,2,88375,88575,0.8,0.16 F,2,88375,88575,1,0 P,0,88375,88575,A C,0,88375,,0,202,0
Sprite,Foreground,Centre,"sb/haireitsu.png",0,0 S,2,88512,88984,0.8,0.16 F,2,88512,88984,1,0 P,0,88512,88984,A C,0,88512,,0,202,0 M,0,88512,88546,119,290,129.0194,281.522 M,0,88546,88580,129.0194,281.522,139.0389,273.044 M,0,88580,88614,139.0389,273.044,149.0583,264.566 M,0,88614,88648,149.0583,264.566,159.0778,256.088 M,0,88648,88682,159.0778,256.088,169.0972,247.61 M,0,88682,88716,169.0972,247.61,179.1167,239.132 M,0,88716,88750,179.1167,239.132,189.1361,230.6541 M,0,88750,88784,189.1361,230.6541,199.1556,222.1761
Sprite,Foreground,Centre,"sb/haireitsu.png",0,0 S,2,89057,89529,0.8,0.16 F,2,89057,89529,1,0 P,0,89057,89529,A C,0,89057,,0,202,0 M,0,89057,89091,321,122,308.1979,119.1403 M,0,89091,89125,308.1979,119.1403,295.2775,116.8739 M,0,89125,89159,295.2775,116.8739,282.2197,115.6315 M,0,89159,89193,282.2197,115.6315,269.118,115.0428 M,0,89193,89227,269.118,115.0428,256.0079,115.437 M,0,89227,89261,256.0079,115.437,242.9412,116.5352 M,0,89261,89295,242.9412,116.5352,229.954,118.4024 M,0,89295,89329,229.954,118.4024,217.1666,121.3262
Sprite,Foreground,Centre,"sb/haireitsu.png",188,276 S,2,89603,89803,0.8,0.16 F,2,89603,89803,1,0 P,0,89603,89803,A C,0,89603,,18,124,255
Sprite,Foreground,Centre,"sb/haireitsu.png",108,139 S,2,89876,90076,0.8,0.16 F,2,89876,90076,1,0 P,0,89876,90076,A C,0,89876,,18,124,255
Sprite,Foreground,Centre,"sb/haireitsu.png",0,0 S,2,90149,90621,0.8,0.16 F,2,90149,90621,1,0 P,0,90149,90621,A C,0,90149,,18,124,255 M,0,90149,90183,264,124,258.4694,135.9028 M,0,90183,90217,258.4694,135.9028,252.9388,147.8057 M,0,90217,90251,252.9388,147.8057,247.4081,159.7086 M,0,90251,90285,247.4081,159.7086,241.8775,171.6114 M,0,90285,90319,241.8775,171.6114,236.3469,183.5143 M,0,90319,90353,236.3469,183.5143,230.8163,195.4171 M,0,90353,90387,230.8163,195.4171,225.2857,207.32 M,0,90387,90421,225.2857,207.32,219.7551,219.2228
Sprite,Foreground,Centre,"sb/haireitsu.png",150,360 S,2,90694,90894,0.8,0.16 F,2,90694,90894,1,0 P,0,90694,90894,A C,0,90694,,242,24,57
Sprite,Foreground,Centre,"sb/haireitsu.png",101,210 S,2,90967,91167,0.8,0.16 F,2,90967,91167,1,0 P,0,90967,91167,A C,0,90967,,242,24,57
Sprite,Foreground,Centre,"sb/haireitsu.png",0,0 S,2,91239,91711,0.8,0.16 F,2,91239,91711,1,0 P,0,91239,91711,A C,0,91239,,242,24,57 M,0,91239,91273,257,193,251.0454,204.6965 M,0,91273,91307,251.0454,204.6965,245.0908,216.393 M,0,91307,91341,245.0908,216.393,239.1362,228.0896 M,0,91341,91375,239.1362,228.0896,233.1816,239.7861 M,0,91375,91409,233.1816,239.7861,227.2271,251.4826 M,0,91409,91443,227.2271,251.4826,221.2725,263.1791 M,0,91443,91477,221.2725,263.1791,215.3179,274.8756 M,0,91477,91511,215.3179,274.8756,209.3633,286.5721
Sprite,Foreground,Centre,"sb/haireitsu.png",144,156 S,2,91785,91985,0.8,0.16 F,2,91785,91985,1,0 P,0,91785,91985,A C,0,91785,,255,192,0
Sprite,Foreground,Centre,"sb/haireitsu.png",145,146 S,2,91921,92121,0.8,0.16 F,2,91921,92121,1,0 P,0,91921,92121,A C,0,91921,,255,192,0
Sprite,Foreground,Centre,"sb/haireitsu.png",147,137 S,2,92057,92257,0.8,0.16 F,2,92057,92257,1,0 P,0,92057,92257,A C,0,92057,,255,192,0
Sprite,Foreground,Centre,"sb/haireitsu.png",150,126 S,2,92194,92394,0.8,0.16 F,2,92194,92394,1,0 P,0,92194,92394,A C,0,92194,,255,192,0
Sprite,Foreground,Centre,"sb/haireitsu.png",0,0 S,2,92330,92802,0.8,0.16 F,2,92330,92802,1,0 P,0,92330,92802,A C,0,92330,,255,192,0 M,0,92330,92364,154,118,165.9333,112.5516 M,0,92364,92398,165.9333,112.5516,178.1077,107.6693 M,0,92398,92432,178.1077,107.6693,190.6041,103.6814 M,0,92432,92466,190.6041,103.6814,203.2907,100.362 M,0,92466,92500,203.2907,100.362,216.1545,97.78897 M,0,92500,92534,216.1545,97.78897,229.1738,96.18605 M,0,92534,92568,229.1738,96.18605,242.2546,95.24356 M,0,92568,92602,242.2546,95.24356,255.3741,95.06725
Sprite,Foreground,Centre,"sb/haireitsu.png",411,91 S,2,92876,93076,0.8,0.16 F,2,92876,93076,1,0 P,0,92876,93076,A C,0,92876,,0,202,0
Sprite,Foreground,Centre,"sb/haireitsu.png",431,93 S,2,93012,93212,0.8,0.16 F,2,93012,93212,1,0 P,0,93012,93212,A C,0,93012,,0,202,0
Sprite,Foreground,Centre,"sb/haireitsu.png",451,100 S,2,93148,93348,0.8,0.16 F,2,93148,93348,1,0 P,0,93148,93348,A C,0,93148,,0,202,0
Sprite,Foreground,Centre,"sb/haireitsu.png",469,108 S,2,93285,93485,0.8,0.16 F,2,93285,93485,1,0 P,0,93285,93485,A C,0,93285,,0,202,0
Sprite,Foreground,Centre,"sb/haireitsu.png",0,0 S,2,93421,94166,0.8,0.16 F,2,93421,94166,1,0 P,0,93421,94166,A C,0,93421,,0,202,0 M,0,93421,93455,488,118,497.8778,126.5992 M,0,93455,93489,497.8778,126.5992,506.891,136.0945 M,0,93489,93523,506.891,136.0945,514.3738,146.8378 M,0,93523,93557,514.3738,146.8378,520.6672,158.3027 M,0,93557,93591,520.6672,158.3027,525.5596,170.4592 M,0,93591,93625,525.5596,170.4592,528.4723,183.2261 M,0,93625,93659,528.4723,183.2261,530.1078,196.2101 M,0,93659,93693,530.1078,196.2101,529.8224,209.2983 M,0,93693,93727,529.8224,209.2983,528.1008,222.2602 M,0,93727,93761,528.1008,222.2602,524.8425,234.9457 M,0,93761,93796,524.8425,234.9457,519.6729,246.9754 M,0,93796,93830,519.6729,246.9754,513.3008,258.4007 M,0,93830,93864,513.3008,258.4007,505.596,269.0087 M,0,93864,93898,505.596,269.0087,496.2935,278.227 M,0,93898,93932,496.2935,278.227,486.1581,286.5128 M,0,93932,93966,486.1581,286.5128,475.0176,293.427
Sprite,Foreground,Centre,"sb/haireitsu.png",0,0 S,2,52512,53802,0.8,0.16 F,2,52512,53802,1,0 P,0,52512,53802,A C,0,52512,,18,124,255 M,0,52512,52546,316,104,310.2621,115.7933 M,0,52546,52580,310.2621,115.7933,305.1781,127.8821 M,0,52580,52614,305.1781,127.8821,301.1981,140.3774 M,0,52614,52648,301.1981,140.3774,297.9799,153.0862 M,0,52648,52682,297.9799,153.0862,295.8403,166.0234 M,0,52682,52716,295.8403,166.0234,294.559,179.0679 M,0,52716,52750,294.559,179.0679,294.1826,192.1772 M,0,52750,52784,294.1826,192.1772,294.9877,205.2664 M,0,52784,52818,294.9877,205.2664,296.5752,218.2802 M,0,52818,52852,296.5752,218.2802,299.256,231.1162 M,0,52852,52887,299.256,231.1162,302.7708,243.7435 M,0,52887,52921,302.7708,243.7435,307.153,256.1049 M,0,52921,52955,307.153,256.1049,312.6345,268.0182 M,0,52955,52989,312.6345,268.0182,318.8136,279.5813 M,0,52989,53023,318.8136,279.5813,325.9525,290.5807 M,0,53023,53057,325.9525,290.5807,333.7088,301.1556 M,0,53057,53091,333.7088,301.1556,325.9525,290.5807 M,0,53091,53125,325.9525,290.5807,318.8136,279.5813 M,0,53125,53159,318.8136,279.5813,312.6345,268.0183 M,0,53159,53193,312.6345,268.0183,307.153,256.1049 M,0,53193,53227,307.153,256.1049,302.7708,243.7436 M,0,53227,53262,302.7708,243.7436,299.256,231.1162 M,0,53262,53296,299.256,231.1162,296.5752,218.2802 M,0,53296,53330,296.5752,218.2802,294.9877,205.2664 M,0,53330,53364,294.9877,205.2664,294.1826,192.1772 M,0,53364,53398,294.1826,192.1772,294.559,179.068 M,0,53398,53432,294.559,179.068,295.8403,166.0234 M,0,53432,53466,295.8403,166.0234,297.9799,153.0862 M,0,53466,53500,297.9799,153.0862,301.1981,140.3774 M,0,53500,53534,301.1981,140.3774,305.1781,127.8821 M,0,53534,53568,305.1781,127.8821,310.2621,115.7934 M,0,53568,53602,310.2621,115.7934,316,104
Sprite,Foreground,Centre,"sb/haireitsu.png",468,380 S,2,54148,54348,0.8,0.16 F,2,54148,54348,1,0 P,0,54148,54348,A C,0,54148,,18,124,255
Sprite,Foreground,Centre,"sb/haireitsu.png",0,0 S,2,54694,55984,0.8,0.16 F,2,54694,55984,1,0 P,0,54694,55984,A C,0,54694,,18,124,255 M,0,54694,54728,468,380,455.0151,381.4965 M,0,54728,54762,455.0151,381.4965,441.9586,381.2513 M,0,54762,54796,441.9586,381.2513,429.2261,378.3329 M,0,54796,54830,429.2261,378.3329,417.1039,373.5448 M,0,54830,54864,417.1039,373.5448,405.9092,366.7928 M,0,54864,54898,405.9092,366.7928,396.4044,357.8281 M,0,54898,54932,396.4044,357.8281,388.2982,347.6116 M,0,54932,54966,388.2982,347.6116,381.9754,336.1495 M,0,54966,55000,381.9754,336.1495,378.3163,323.6033 M,0,55000,55034,378.3163,323.6033,376.4067,310.6912 M,0,55034,55069,376.4067,310.6912,377.1414,297.6504 M,0,55069,55103,377.1414,297.6504,379.8654,284.9079 M,0,55103,55137,379.8654,284.9079,384.6766,272.7601 M,0,55137,55171,384.6766,272.7601,391.9137,261.884 M,0,55171,55205,391.9137,261.884,400.6513,252.2078 M,0,55205,55239,400.6513,252.2078,410.9072,244.0872 M,0,55239,55273,410.9072,244.0872,422.6574,238.3703 M,0,55273,55307,422.6574,238.3703,435.0727,234.3601 M,0,55307,55341,435.0727,234.3601,448.0502,232.8906 M,0,55341,55375,448.0502,232.8906,461.0649,233.4769 M,0,55375,55409,461.0649,233.4769,473.8328,236.2182 M,0,55409,55444,473.8328,236.2182,485.7703,241.5219 M,0,55444,55478,485.7703,241.5219,496.7511,248.5431 M,0,55478,55512,496.7511,248.5431,506.4455,257.3143 M,0,55512,55546,506.4455,257.3143,514.0567,267.9339 M,0,55546,55580,514.0567,267.9339,520.0563,279.5139 M,0,55580,55614,520.0563,279.5139,524.0667,291.975 M,0,55614,55648,524.0667,291.975,525.2543,304.9899 M,0,55648,55682,525.2543,304.9899,524.6555,318.0288 M,0,55682,55716,524.6555,318.0288,521.436,330.6872 M,0,55716,55750,521.436,330.6872,516.322,342.6722 M,0,55750,55784,516.322,342.6722,509.2731,353.6737
Sprite,Foreground,Centre,"sb/haireitsu.png",509,353 S,2,56330,56530,0.8,0.16 F,2,56330,56530,1,0 P,0,56330,56530,A C,0,56330,,18,124,255
Sprite,Foreground,Centre,"sb/haireitsu.png",0,0 S,2,56876,57348,0.8,0.16 F,2,56876,57348,1,0 P,0,56876,57348,A C,0,56876,,242,24,57 M,0,56876,56910,227,375,225.964,387.2753 M,0,56910,56944,225.964,387.2753,230.5794,398.936 M,0,56944,56978,230.5794,398.936,242.1316,403.0775 M,0,56978,57012,242.1316,403.0775,254.3967,401.4477 M,0,57012,57046,254.3967,401.4477,261.3435,391.3827 M,0,57046,57080,261.3435,391.3827,262.7067,379.2398 M,0,57080,57114,262.7067,379.2398,254.7886,369.97 M,0,57114,57148,254.7886,369.97,243.4608,365.7725
Sprite,Foreground,Centre,"sb/haireitsu.png",0,0 S,2,57421,57893,0.8,0.16 F,2,57421,57893,1,0 P,0,57421,57893,A C,0,57421,,242,24,57 M,0,57421,57455,148,265,149.3493,252.6689 M,0,57455,57489,149.3493,252.6689,145.1468,240.927 M,0,57489,57523,145.1468,240.927,133.977,235.7013 M,0,57523,57557,133.977,235.7013,121.771,236.2554 M,0,57557,57591,121.771,236.2554,113.2641,245.1017 M,0,57591,57625,113.2641,245.1017,110.2844,256.7443 M,0,57625,57659,110.2844,256.7443,115.8986,267.6079 M,0,57659,57693,115.8986,267.6079,126.0533,273.7576
Sprite,Foreground,Centre,"sb/haireitsu.png",0,0 S,2,57966,58438,0.8,0.16 F,2,57966,58438,1,0 P,0,57966,58438,A C,0,57966,,242,24,57 M,0,57966,58000,97,388,96.5919,400.179 M,0,58000,58034,96.5919,400.179,102.3047,411.0634 M,0,58034,58068,102.3047,411.0634,114.2009,413.242 M,0,58068,58102,114.2009,413.242,125.3785,408.9408 M,0,58102,58136,125.3785,408.9408,129.2533,397.5638 M,0,58136,58170,129.2533,397.5638,126.3006,386.222 M,0,58170,58204,126.3006,386.222,115.664,380.7523 M,0,58204,58238,115.664,380.7523,103.593,381.7556
Sprite,Foreground,Centre,"sb/haireitsu.png",108,224 S,2,58512,58712,0.8,0.16 F,2,58512,58712,1,0 P,0,58512,58712,A C,0,58512,,242,24,57
Sprite,Foreground,Centre,"sb/haireitsu.png",194,92 S,2,58785,58985,0.8,0.16 F,2,58785,58985,1,0 P,0,58785,58985,A C,0,58785,,242,24,57
//Storyboard Sound Samples

[TimingPoints]
8876,272.727272727273,4,1,1,100,1,0
8876,-133.333333333333,4,1,1,100,0,0
26058,-133.333333333333,4,1,1,100,0,0
26468,-133.333333333333,4,1,1,100,0,0
26603,-133.333333333333,4,1,1,100,0,0
26703,-133.333333333333,4,1,1,100,0,0
33966,-133.333333333333,4,1,1,100,0,0
45421,-133.333333333333,4,1,1,100,0,0
45694,-133.333333333333,4,1,1,100,0,0
47330,-100,4,1,1,100,0,0
47603,-133.333333333333,4,1,1,100,0,0
52376,-133.333333333333,4,1,1,100,0,0
59057,-133.333333333333,4,1,1,100,0,1
60898,-133.333333333333,4,1,1,5,0,1
60932,-133.333333333333,4,1,1,100,0,1
61171,-133.333333333333,4,1,1,5,0,1
61239,-133.333333333333,4,1,1,100,0,1
93966,-133.333333333333,4,1,1,100,0,0
128876,-166.666666666667,4,1,1,100,0,0
133239,-133.333333333333,4,1,1,100,0,0
135148,-133.333333333333,4,1,1,100,0,0
135421,-133.333333333333,4,1,1,100,0,1
153148,-133.333333333333,4,1,1,100,0,0
193989,-133.333333333333,4,1,1,100,0,0
196512,-133.333333333333,4,1,1,100,0,1
231694,-133.333333333333,4,1,1,100,0,0

[HitObjects]
456,32,8876,6,0,P|470:84|452:143,1,105.000004005432
336,232,9421,1,2,0:0:0:0:
492,232,9694,1,0,0:0:0:0:
412,368,9966,2,0,L|468:368,2,52.5000020027161
252,364,10512,2,0,P|264:325|321:283,1,105.000004005432
328,128,11057,6,0,L|256:204,1,105.000004005432
96,204,11603,1,2,0:0:0:0:
220,300,11876,1,0,0:0:0:0:
68,340,12148,2,0,L|116:292,2,52.5000020027161
68,180,12694,2,0,L|68:108,2,52.5000020027161
329,156,13239,5,0,0:0:0:0:
452,68,13512,1,0,0:0:0:0:
469,216,13785,2,0,L|361:164,1,105.000004005432,2|0,0:0|0:0,0:0:0:0:
337,110,14330,5,0,0:0:0:0:
488,97,14603,1,0,0:0:0:0:
424,234,14876,2,0,L|357:140,1,105.000004005432,2|0,0:0|0:0,0:0:0:0:
257,31,15421,6,0,P|266:63|229:123,1,105.000004005432
99,207,15966,1,2,0:0:0:0:
30,64,16239,2,0,L|30:12,2,52.5000020027161
31,143,16648,1,0,0:0:0:0:
31,222,16785,2,0,P|79:247|115:219,2,105.000004005432
31,64,17603,6,0,L|31:176,1,105.000004005432
31,326,18148,1,2,0:0:0:0:
120,196,18421,1,0,0:0:0:0:
155,349,18694,2,0,L|111:389,2,52.5000020027161
282,256,19239,2,0,L|254:193,2,52.5000020027161
393,368,19785,6,0,L|472:275,1,105.000004005432
358,168,20330,1,2,0:0:0:0:
463,50,20603,1,0,0:0:0:0:
469,207,20876,2,0,L|437:263,2,52.5000020027161
355,97,21421,2,0,L|307:53,2,52.5000020027161
197,342,21966,5,0,0:0:0:0:
46,342,22239,1,0,0:0:0:0:
121,211,22512,2,0,L|183:299,1,105.000004005432,2|0,0:0|0:0,0:0:0:0:
162,375,23057,5,0,0:0:0:0:
34,297,23330,1,0,0:0:0:0:
166,224,23603,2,0,L|167:335,1,105.000004005432,2|0,0:0|0:0,0:0:0:0:
476,288,24148,5,0,0:0:0:0:
371,170,24421,1,0,0:0:0:0:
469,46,24694,1,2,0:0:0:0:
311,49,24966,2,0,L|359:93,2,52.5000020027161
232,63,25376,2,0,L|196:24,2,52.5000020027161
282,123,25785,1,0,0:0:0:0:
336,274,26057,6,0,L|344:302,4,26.2500010013581
64,44,30421,6,0,P|71:79|70:149,1,105.000004005432
37,46,34239,6,0,P|29:82|25:162,2,105.000004005432
193,30,35057,6,0,P|225:78|233:130,1,105.000004005432
101,212,35603,1,2,0:0:0:0:
43,356,35876,1,0,0:0:0:0:
196,322,36148,2,0,P|146:327|112:374,1,105.000004005432
69,215,36694,2,0,L|17:219,2,52.5000020027161
142,75,37239,6,0,P|166:37|223:29,1,105.000004005432
314,157,37785,1,2,0:0:0:0:
412,34,38057,1,0,0:0:0:0:
416,191,38330,2,0,P|437:240|487:253,1,105.000004005432
336,295,38876,2,0,L|334:360,2,52.5000020027161
424,160,39421,5,0,0:0:0:0:
480,300,39694,1,0,0:0:0:0:
331,279,39967,2,0,L|390:193,1,105.000004005432,2|0,0:0|0:0,0:0:0:0:
467,179,40512,5,0,0:0:0:0:
443,328,40785,1,0,0:0:0:0:
326,232,41057,2,0,L|430:194,1,105.000004005432,2|0,0:0|0:0,0:0:0:0:
55,343,41603,6,0,P|46:311|82:244,1,105.000004005432
202,156,42148,1,2,0:0:0:0:
316,264,42421,2,0,L|317:326,2,52.5000020027161
312,184,42830,1,0,0:0:0:0:
311,105,42966,2,0,L|369:105,2,52.5000020027161
467,345,43785,6,0,P|407:329|364:295,1,105.000004005432
257,197,44330,1,2,0:0:0:0:
384,104,44603,6,0,P|421:143|456:182,1,105.000004005432
347,65,45148,1,0,0:0:0:0:
143,26,45421,2,0,L|108:89,2,52.5000020027161
300,35,45966,6,0,P|346:53|394:100,1,105.000004005432
485,212,46511,1,2,0:0:0:0:
439,363,46784,6,0,P|395:338|363:290,1,105.000004005432
429,93,47330,2,0,L|470:19,2,70
282,33,47876,1,0,0:0:0:0:
188,166,48148,5,0,0:0:0:0:
37,173,48421,1,0,0:0:0:0:
105,39,48694,2,0,L|169:126,1,105.000004005432,2|0,0:0|0:0,0:0:0:0:
156,200,49239,5,0,0:0:0:0:
22,129,49512,1,0,0:0:0:0:
151,49,49785,2,0,L|156:165,1,105.000004005432,2|0,0:0|0:0,0:0:0:0:
46,338,50330,6,0,P|86:297|138:260,1,105.000004005432
281,275,50875,1,2,0:0:0:0:
420,348,51148,2,0,L|486:348,2,52.5000020027161
340,352,51557,1,0,0:0:0:0:
260,348,51694,2,0,L|132:348,1,105.000004005432
252,48,52512,6,0,P|235:92|272:248,2,210.000008010865
404,324,54148,1,2,0:0:0:0:
404,324,54694,2,0,P|322:214|429:313,1,420.000016021729
445,297,56330,1,2,0:0:0:0:
163,319,56876,6,0,P|175:348|166:315,1,105.000004005432
84,209,57421,2,0,P|73:179|81:213,1,105.000004005432
33,332,57966,2,0,P|49:359|36:328,1,105.000004005432
44,168,58512,1,0,0:0:0:0:
130,36,58785,1,0,0:0:0:0:
287,34,59057,6,0,P|316:33|383:79,1,105.000004005432
466,204,59603,1,2,0:0:0:0:
308,212,59876,1,0,0:0:0:0:
414,96,60148,1,0,0:0:0:0:
471,242,60421,1,0,0:0:0:0:
315,217,60694,2,0,L|357:203,1,26.2500010013581,2|0,0:0|0:0,0:0:0:0:
451,171,60966,2,0,L|417:182,1,26.2500010013581
315,217,61239,5,0,0:0:0:0:
315,59,61512,2,0,L|197:59,2,105.000004005432,0|2|0,0:0|0:0|0:0,0:0:0:0:
472,61,62330,1,0,0:0:0:0:
338,144,62603,1,0,0:0:0:0:
425,12,62876,1,2,0:0:0:0:
477,160,63148,2,0,P|482:222|476:272,1,105.000004005432
337,337,63694,6,0,L|447:289,1,105.000004005432,0|2,0:0|0:0,0:0:0:0:
465,140,64239,1,0,0:0:0:0:
340,43,64512,1,0,0:0:0:0:
182,45,64785,2,0,L|182:156,1,105.000004005432,0|2,0:0|0:0,0:0:0:0:
313,237,65330,1,0,0:0:0:0:
440,144,65603,1,0,0:0:0:0:
330,30,65876,2,0,L|220:31,1,105.000004005432,0|2,0:0|0:0,0:0:0:0:
141,164,66421,1,0,0:0:0:0:
251,276,66694,2,0,L|327:359,2,105.000004005432,0|0|2,0:0|0:0|0:0,0:0:0:0:
34,46,67785,6,0,P|122:32|149:28,1,105.000004005432
295,32,68330,2,0,P|346:72|392:103,1,105.000004005432
457,232,68876,2,0,P|457:283|459:355,1,105.000004005432
302,314,69421,2,0,P|212:313|189:309,1,105.000004005432
55,242,69966,1,2,0:0:0:0:
167,352,70239,1,0,0:0:0:0:
107,204,70511,1,0,0:0:0:0:
90,360,70784,1,0,0:0:0:0:
173,225,71057,2,0,L|143:246,1,26.2500010013581,2|0,0:0|0:0,0:0:0:0:
56,309,71329,2,0,L|82:292,1,26.2500010013581
173,225,71603,5,0,0:0:0:0:
73,102,71876,2,0,L|74:214,1,105.000004005432
137,351,72421,2,0,L|26:340,1,105.000004005432
170,263,72966,2,0,P|252:326|261:345,1,105.000004005432
408,303,73512,2,0,L|430:195,1,105.000004005432
457,45,74057,2,0,L|350:112,1,105.000004005432
212,71,74603,2,0,L|96:109,1,105.000004005432
65,254,75148,2,0,P|40:295|50:366,2,105.000004005432
260,56,75966,2,0,P|226:84|150:105,1,105.000004005432
315,162,76512,5,0,0:0:0:0:
374,308,76785,1,0,0:0:0:0:
217,293,77058,2,0,L|283:205,1,105.000004005432,2|0,0:0|0:0,0:0:0:0:
382,89,77603,5,0,0:0:0:0:
309,228,77876,1,0,0:0:0:0:
213,103,78148,2,0,L|326:97,1,105.000004005432,2|0,0:0|0:0,0:0:0:0:
160,108,78694,1,0,0:0:0:0:
43,212,78966,6,0,L|45:319,1,105.000004005432
199,351,79512,1,0,0:0:0:0:
199,351,79648,1,0,0:0:0:0:
199,351,79785,2,0,L|316:348,1,105.000004005432
461,344,80330,2,0,P|414:288|374:286,1,105.000004005432
228,270,80876,5,0,0:0:0:0:
90,347,81149,1,0,0:0:0:0:
97,189,81422,2,0,L|192:253,1,105.000004005432,2|0,0:0|0:0,0:0:0:0:
317,331,81967,5,0,0:0:0:0:
334,174,82240,1,0,0:0:0:0:
479,233,82512,2,0,L|377:293,1,105.000004005432,2|0,0:0|0:0,0:0:0:0:
250,362,83057,5,0,0:0:0:0:
212,208,83330,1,0,0:0:0:0:
170,360,83603,1,0,0:0:0:0:
270,238,83876,1,0,0:0:0:0:
130,310,84148,2,0,P|70:248|161:180,1,210.000008010865
458,178,85239,5,0,0:0:0:0:
318,104,85512,1,0,0:0:0:0:
461,39,85785,2,0,L|457:155,1,105.000004005432,2|0,0:0|0:0,0:0:0:0:
449,301,86330,5,0,0:0:0:0:
335,191,86603,1,0,0:0:0:0:
261,329,86875,2,0,L|375:316,1,105.000004005432,2|0,0:0|0:0,0:0:0:0:
264,194,87421,1,0,0:0:0:0:
171,67,87693,6,0,L|55:78,1,105.000004005432
55,234,88239,1,0,0:0:0:0:
55,234,88375,1,0,0:0:0:0:
55,234,88512,2,0,L|146:157,1,105.000004005432
257,66,89057,2,0,P|199:59|134:71,1,105.000004005432
124,220,89603,5,0,0:0:0:0:
44,83,89876,1,0,0:0:0:0:
200,68,90149,2,0,L|154:167,1,105.000004005432,2|0,0:0|0:0,0:0:0:0:
86,304,90694,5,0,0:0:0:0:
37,154,90967,1,0,0:0:0:0:
193,137,91239,2,0,L|137:247,1,105.000004005432,2|0,0:0|0:0,0:0:0:0:
80,100,91785,5,0,0:0:0:0:
81,90,91921,1,0,0:0:0:0:
83,81,92057,1,0,0:0:0:0:
86,70,92194,1,0,0:0:0:0:
90,62,92330,2,0,P|125:48|207:40,1,105.000004005432
347,35,92876,5,0,0:0:0:0:
367,37,93012,1,0,0:0:0:0:
387,44,93148,1,0,0:0:0:0:
405,52,93285,1,0,0:0:0:0:
424,62,93421,2,0,P|466:155|410:238,1,210.000008010865
254,191,109239,5,0,0:0:0:0:
254,191,110330,1,0,0:0:0:0:
335,41,111421,6,0,L|455:41,1,105.000004005432
304,122,111967,1,2,0:0:0:0:
447,186,112240,1,0,0:0:0:0:
304,122,112512,2,0,P|360:115|429:116,1,105.000004005432
467,261,113058,2,0,L|482:196,2,52.5000020027161
308,332,113603,6,0,P|247:322|180:328,1,105.000004005432
48,352,114149,1,2,0:0:0:0:
132,220,114421,1,0,0:0:0:0:
48,352,114694,2,0,L|48:232,1,105.000004005432
48,88,115240,2,0,L|96:40,2,52.5000020027161
204,116,115785,5,0,0:0:0:0:
328,20,116058,1,0,0:0:0:0:
364,172,116331,2,0,L|256:136,1,105.000004005432,2|0,0:0|0:0,0:0:0:0:
120,76,116876,5,0,0:0:0:0:
176,224,117149,1,0,0:0:0:0:
24,192,117421,2,0,L|100:108,1,105.000004005432,2|0,0:0|0:0,0:0:0:0:
136,32,117967,6,0,P|208:64|252:64,1,105.000004005432
388,44,118512,1,2,0:0:0:0:
436,196,118785,2,0,L|439:259,2,52.5000020027161
432,116,119194,1,0,0:0:0:0:
428,40,119330,2,0,L|496:40,2,52.5000020027161
348,44,119739,2,0,L|280:44,2,52.5000020027161
396,108,120149,6,0,P|436:168|456:216,1,105.000004005432
320,108,120694,1,2,0:0:0:0:
168,64,120966,6,0,L|40:68,1,105.000004005432
212,124,121512,1,0,0:0:0:0:
364,88,121785,2,0,L|336:28,2,52.5000020027161
212,124,122330,6,0,L|288:28,1,105.000004005432
120,24,122875,1,2,0:0:0:0:
277,41,123148,6,0,L|385:45,1,105.000004005432
488,160,123694,2,0,L|464:220,2,52.5000020027161
356,248,124240,1,0,0:0:0:0:
436,112,124512,5,0,0:0:0:0:
280,128,124785,1,0,0:0:0:0:
376,4,125058,2,0,L|432:112,1,105.000004005432,2|0,0:0|0:0,0:0:0:0:
452,252,125603,5,0,0:0:0:0:
300,216,125876,1,0,0:0:0:0:
356,364,126149,2,0,L|424:280,1,105.000004005432,2|0,0:0|0:0,0:0:0:0:
472,132,126694,6,0,P|481:164|432:224,1,105.000004005432
344,96,127239,1,2,0:0:0:0:
484,28,127512,2,0,L|484:84,2,52.5000020027161
404,28,127921,1,0,0:0:0:0:
324,28,128058,2,0,P|336:84|400:96,1,105.000004005432
223,114,128876,6,0,B|201:219|201:219|105:277|105:277|213:342|221:322,1,335.999989746094
268,212,130512,1,2,0:0:0:0:
268,212,131057,2,0,P|264:128|270:210,1,335.999989746094
276,202,132694,1,2,0:0:0:0:
400,272,133240,6,0,P|414:304|403:268,1,105.000004005432
284,192,133785,2,0,P|260:168|281:196,1,105.000004005432
296,352,134330,2,0,P|314:380|299:348,1,105.000004005432
148,360,134876,6,0,P|112:328|140:284,1,105.000004005432
264,192,135421,6,0,P|316:164|368:128,1,105.000004005432
472,36,135966,1,2,0:0:0:0:
472,196,136240,1,0,0:0:0:0:
340,112,136512,1,0,0:0:0:0:
496,112,136785,1,0,0:0:0:0:
372,208,137058,2,0,L|360:248,1,26.2500010013581,2|0,0:0|0:0,0:0:0:0:
408,124,137330,2,0,L|420:92,1,26.2500010013581
372,208,137603,5,0,0:0:0:0:
468,332,137876,2,0,P|426:346|364:332,2,105.000004005432
360,220,138694,1,0,0:0:0:0:
500,152,138967,1,0,0:0:0:0:
372,60,139240,1,2,0:0:0:0:
360,220,139512,2,0,P|365:282|384:320,1,105.000004005432
224,320,140058,6,0,L|104:344,1,105.000004005432,0|2,0:0|0:0,0:0:0:0:
180,196,140603,1,0,0:0:0:0:
312,280,140876,1,0,0:0:0:0:
180,196,141149,2,0,L|176:84,1,105.000004005432,0|2,0:0|0:0,0:0:0:0:
328,44,141694,1,0,0:0:0:0:
476,104,141967,1,0,0:0:0:0:
328,44,142240,2,0,L|392:128,1,105.000004005432,0|2,0:0|0:0,0:0:0:0:
492,252,142785,1,0,0:0:0:0:
391,127,143058,2,0,L|504:136,2,105.000004005432,0|0|2,0:0|0:0|0:0,0:0:0:0:
232,116,143876,1,0,0:0:0:0:
76,100,144148,6,0,L|168:48,1,105.000004005432
324,36,144694,2,0,L|376:128,1,105.000004005432
492,24,145239,2,0,L|480:132,1,105.000004005432
360,232,145785,2,0,L|472:240,1,105.000004005432
424,88,146330,1,2,0:0:0:0:
276,40,146603,1,0,0:0:0:0:
288,204,146875,1,0,0:0:0:0:
348,60,147148,1,0,0:0:0:0:
212,140,147421,2,0,L|176:164,1,26.2500010013581,2|0,0:0|0:0,0:0:0:0:
292,92,147693,2,0,L|328:68,1,26.2500010013581
212,140,147967,1,0,0:0:0:0:
348,60,148240,2,0,L|456:92,1,105.000004005432
432,248,148785,6,0,P|436:304|468:348,1,105.000004005432
420,192,149330,2,0,P|376:216|380:272,2,105.000004005432
452,36,150148,2,0,P|436:86|396:132,1,105.000004005432
280,28,150694,5,0,0:0:0:0:
290,28,150830,1,0,0:0:0:0:
299,28,150966,1,0,0:0:0:0:
310,29,151103,1,0,0:0:0:0:
319,32,151239,2,0,P|346:56|344:124,1,105.000004005432
192,44,151785,5,0,0:0:0:0:
176,36,151921,1,0,0:0:0:0:
152,36,152057,1,0,0:0:0:0:
136,40,152194,1,0,0:0:0:0:
120,56,152330,2,0,P|108:96|216:208,1,210.000008010865
216,52,153148,5,0,0:0:0:0:
368,96,153421,2,0,L|428:72,2,52.5000020027161
224,164,153966,1,0,0:0:0:0:
80,228,154239,2,0,P|44:207|88:64,1,210.000008010865
164,196,155057,2,0,P|216:129|288:24,1,210.000008010865
128,36,155876,5,0,0:0:0:0:
112,36,156012,1,0,0:0:0:0:
92,36,156148,1,0,0:0:0:0:
72,36,156285,1,0,0:0:0:0:
52,36,156421,2,0,L|137:112,1,105.000004005432
384,293,157239,5,0,0:0:0:0:
452,151,157512,2,0,L|478:92,2,52.5000020027161
396,296,158057,1,0,0:0:0:0:
376,140,158330,1,0,0:0:0:0:
396,296,158603,2,0,L|456:328,2,52.5000020027161
268,204,159148,1,0,0:0:0:0:
164,324,159421,5,0,0:0:0:0:
144,340,159557,1,0,0:0:0:0:
124,344,159694,1,0,0:0:0:0:
104,340,159830,1,0,0:0:0:0:
84,328,159966,2,0,L|83:243,1,78.7500030040742
152,64,160512,5,0,0:0:0:0:
144,80,160648,1,0,0:0:0:0:
144,104,160785,1,0,0:0:0:0:
148,120,160921,1,0,0:0:0:0:
160,144,161057,2,0,B|200:196|200:196|104:312,1,210.000008010865
260,264,161876,6,0,L|276:328,1,52.5000020027161
428,340,162285,2,0,L|372:300,1,52.5000020027161
468,176,162694,2,0,L|440:232,1,52.5000020027161
368,84,163103,2,0,L|304:80,1,52.5000020027161
244,116,163376,1,0,0:0:0:0:
228,40,163512,2,0,L|180:68,1,52.5000020027161
420,76,164057,6,0,L|488:88,1,52.5000020027161
360,200,164466,2,0,L|288:196,1,52.5000020027161
176,108,164876,2,0,P|185:84|210:64,1,52.5000020027161
264,120,165148,2,0,P|284:151|277:175,1,52.5000020027161
204,176,165421,2,0,P|169:190|136:176,1,52.5000020027161
96,136,165694,6,0,L|46:87,2,52.5000020027161
16,272,166239,2,0,P|62:291|115:269,1,105.000004005432
261,321,166785,1,0,0:0:0:0:
280,332,166921,1,0,0:0:0:0:
296,344,167057,2,0,L|360:252,2,105.000004005432
160,264,167876,5,0,0:0:0:0:
148,244,168012,1,0,0:0:0:0:
148,220,168148,2,0,P|208:288|436:344,1,315.000012016297
448,268,169239,2,0,P|292:248|172:20,1,420.000016021729,0|4,0:0|0:0,0:0:0:0:
305,256,187785,5,0,0:0:0:0:
81,34,188330,1,0,0:0:0:0:
157,339,188876,1,0,0:0:0:0:
186,25,189421,1,0,0:0:0:0:
210,312,189966,1,0,0:0:0:0:
414,72,190512,1,0,0:0:0:0:
99,87,191057,1,0,0:0:0:0:
345,283,191603,1,0,0:0:0:0:
80,111,192148,5,0,0:0:0:0:
230,62,192421,1,0,0:0:0:0:
117,172,192694,1,0,0:0:0:0:
191,14,192966,1,0,0:0:0:0:
324,97,193239,5,0,0:0:0:0:
475,142,193512,1,0,0:0:0:0:
355,39,193785,1,0,0:0:0:0:
420,181,194057,1,0,0:0:0:0:
265,211,194330,5,0,0:0:0:0:
389,307,194603,1,0,0:0:0:0:
322,163,194876,1,2,0:0:0:0:
318,320,195148,1,0,0:0:0:0:
388,178,195421,2,2,P|382:114|171:118,1,315.000012016297
277,222,196512,6,0,B|208:320,1,105.000004005432
157,161,197057,1,0,0:0:0:0:
311,128,197330,1,0,0:0:0:0:
203,13,197603,1,0,0:0:0:0:
157,161,197876,1,0,0:0:0:0:
311,128,198148,2,0,L|306:166,1,26.2500010013581
322,36,198421,2,0,L|287:35,1,26.2500010013581
410,63,198694,6,0,L|452:23,1,52.5000020027161
460,125,198966,1,0,0:0:0:0:
460,144,199103,1,0,0:0:0:0:
460,165,199239,2,0,L|401:180,1,52.5000020027161
324,199,199512,1,0,0:0:0:0:
310,214,199648,1,0,0:0:0:0:
314,239,199785,2,0,L|364:271,1,52.5000020027161
462,326,200057,1,0,0:0:0:0:
465,346,200194,1,0,0:0:0:0:
444,362,200330,2,0,L|388:361,1,52.5000020027161
356,290,200603,2,0,L|305:325,1,52.5000020027161
248,365,200876,2,0,L|197:325,1,52.5000020027161
248,365,201148,6,0,P|306:369|333:318,1,105.000004005432
389,187,201694,1,0,0:0:0:0:
479,315,201966,2,0,P|481:359|426:361,1,105.000004005432
351,209,202512,2,0,P|366:246|344:320,1,105.000004005432
197,284,203057,1,0,0:0:0:0:
41,260,203330,1,0,0:0:0:0:
80,107,203603,1,0,0:0:0:0:
235,130,203876,1,0,0:0:0:0:
80,107,204148,2,0,B|123:42|-4:73|104:227,1,210.000008010865
157,286,204830,5,0,0:0:0:0:
173,298,204966,1,0,0:0:0:0:
194,304,205103,1,0,0:0:0:0:
211,301,205239,2,0,L|316:277,1,105.000004005432
424,164,205785,5,0,0:0:0:0:
424,244,205921,2,0,L|472:268,2,52.5000020027161
356,204,206330,1,0,0:0:0:0:
288,168,206466,2,0,L|328:112,2,52.5000020027161
243,233,206876,2,0,P|266:265|276:281,1,52.5000020027161
230,342,207148,2,0,L|154:358,1,52.5000020027161
132,256,207421,6,0,P|135:283|112:312,1,52.5000020027161
56,244,207694,2,0,P|54:204|68:192,1,52.5000020027161
120,144,207966,2,0,P|142:151|152:184,1,52.5000020027161
132,256,208239,2,0,P|114:243|100:216,1,52.5000020027161
56,148,208512,1,0,0:0:0:0:
56,148,208648,1,0,0:0:0:0:
56,148,208785,2,0,L|84:96,1,52.5000020027161
140,52,209057,2,0,L|192:28,1,52.5000020027161
252,76,209330,2,0,P|293:48|356:56,1,105.000004005432
424,188,209876,6,0,P|448:221|454:289,1,105.000004005432
312,220,210421,2,0,P|245:229|200:256,1,105.000004005432
64,296,210966,2,0,P|65:348|124:360,2,105.000004005432
180,188,211785,5,0,0:0:0:0:
180,228,211921,1,0,0:0:0:0:
180,268,212057,1,0,0:0:0:0:
180,308,212194,1,0,0:0:0:0:
180,348,212330,2,0,P|244:328|280:288,1,105.000004005432
260,144,212876,5,0,0:0:0:0:
224,156,213012,1,0,0:0:0:0:
196,184,213148,1,0,0:0:0:0:
192,224,213285,1,0,0:0:0:0:
216,256,213421,2,0,P|257:270|312:240,1,105.000004005432
432,144,213966,5,0,0:0:0:0:
241,113,214239,1,0,0:0:0:0:
240,192,214376,1,0,0:0:0:0:
244,272,214512,2,0,L|352:212,1,105.000004005432,2|0,0:0|0:0,0:0:0:0:
464,132,215057,5,0,0:0:0:0:
312,88,215330,1,0,0:0:0:0:
276,156,215466,1,0,0:0:0:0:
232,220,215603,2,0,L|144:160,1,105.000004005432,2|0,0:0|0:0,0:0:0:0:
24,60,216148,1,0,0:0:0:0:
32,216,216421,6,0,L|140:212,1,105.000004005432
248,100,216966,1,0,0:0:0:0:
340,44,217239,2,0,L|248:104,1,105.000004005432
128,200,217784,2,0,P|178:225|228:248,1,105.000004005432
372,300,218330,5,0,0:0:0:0:
344,144,218603,1,0,0:0:0:0:
420,168,218739,1,0,0:0:0:0:
496,192,218876,2,0,L|404:244,1,105.000004005432,2|0,0:0|0:0,0:0:0:0:
268,324,219421,5,0,0:0:0:0:
148,224,219694,1,0,0:0:0:0:
96,284,219830,1,0,0:0:0:0:
54,350,219966,2,0,L|166:346,1,105.000004005432,2|0,0:0|0:0,0:0:0:0:
296,264,220511,5,0,0:0:0:0:
160,184,220784,1,0,0:0:0:0:
200,336,221057,1,0,0:0:0:0:
280,200,221330,1,0,0:0:0:0:
170,85,221602,2,0,P|102:93|128:160,1,157.500006008148
151,179,222148,1,0,0:0:0:0:
180,197,222285,1,0,0:0:0:0:
211,196,222421,1,0,0:0:0:0:
238,183,222557,1,0,0:0:0:0:
259,163,222693,5,0,0:0:0:0:
260,320,222966,1,0,0:0:0:0:
184,296,223103,1,0,0:0:0:0:
112,268,223239,2,0,L|184:188,1,105.000004005432,2|0,0:0|0:0,0:0:0:0:
288,72,223784,5,0,0:0:0:0:
136,24,224057,1,0,0:0:0:0:
92,92,224194,1,0,0:0:0:0:
52,160,224330,2,0,L|144:220,1,105.000004005432,2|0,0:0|0:0,0:0:0:0:
272,304,224875,1,0,0:0:0:0:
124,252,225148,6,0,L|192:336,1,105.000004005432
348,316,225693,1,0,0:0:0:0:
348,316,225829,1,0,0:0:0:0:
348,316,225966,2,0,L|281:225,1,105.000004005432
168,108,226512,2,0,P|220:82|281:80,1,105.000004005432
432,52,227057,5,0,0:0:0:0:
276,48,227330,1,0,0:0:0:0:
196,48,227466,1,0,0:0:0:0:
116,50,227603,2,0,L|123:157,1,105.000004005432,2|0,0:0|0:0,0:0:0:0:
132,332,228148,5,0,0:0:0:0:
64,192,228421,1,0,0:0:0:0:
128,148,228557,1,0,0:0:0:0:
196,108,228693,2,0,L|239:215,1,105.000004005432,2|0,0:0|0:0,0:0:0:0:
319,339,229239,5,0,0:0:0:0:
348,332,229375,1,0,0:0:0:0:
376,312,229511,1,0,0:0:0:0:
392,288,229648,1,0,0:0:0:0:
412,256,229784,2,0,P|428:208|410:153,1,105.000004005432
304,42,230330,5,0,0:0:0:0:
280,30,230466,1,0,0:0:0:0:
248,26,230602,1,0,0:0:0:0:
212,34,230739,1,0,0:0:0:0:
184,48,230875,2,0,P|124:104|144:224,1,210.000008010865
