osu file format v14

[General]
AudioFilename: audio.mp3
AudioLeadIn: 0
PreviewTime: 58239
Countdown: 0
SampleSet: Normal
StackLeniency: 0.3
Mode: 0
LetterboxInBreaks: 0
EpilepsyWarning: 1
WidescreenStoryboard: 1

[Editor]
DistanceSpacing: 2
BeatDivisor: 4
GridSize: 4
TimelineZoom: 3.099999

[Metadata]
Title:DSCF
TitleUnicode:DSCF
Artist:DECO*27
ArtistUnicode:DECO*27
Creator:eLzL
Version:Federation
Source:
Tags:Deco*27, Ghost, Hatsune Miku, Vocaloid, Delusion Sentiment Compensation Federation, DSCF, MKDR
BeatmapID:2036267
BeatmapSetID:961270

[Difficulty]
HPDrainRate:5
CircleSize:4
OverallDifficulty:8
ApproachRate:9
SliderMultiplier:1.4
SliderTickRate:1

[Events]
//Background and Video events
0,0,"bg.jpg",0,0
//Break Periods
2,26529,29521
2,30893,33339
2,94166,108339
2,170530,187110
//Storyboard Layer 0 (Background)
//Storyboard Layer 1 (Fail)
//Storyboard Layer 2 (Pass)
//Storyboard Layer 3 (Foreground)Sprite,Foreground,Centre,"sb/haireitsu.png",0,0 S,2,227057,227393,0.8,0.16 F,2,227057,227393,1,0 P,0,227057,227393,A C,0,227057,,242,24,57 M,0,227057,227091,416,140,428.1169,146.8071 M,0,227091,227125,428.1169,146.8071,438.7063,155.7433 M,0,227125,227159,438.7063,155.7433,447.0092,166.9304 M,0,227159,227193,447.0092,166.9304,451.7112,180.0044
Sprite,Foreground,Centre,"sb/haireitsu.png",0,0 S,2,227330,227666,0.8,0.16 F,2,227330,227666,1,0 P,0,227330,227666,A C,0,227330,,242,24,57 M,0,227330,227364,280,244,285.7744,256.7048 M,0,227364,227398,285.7744,256.7048,293.1426,268.5292 M,0,227398,227432,293.1426,268.5292,302.2884,279.0689 M,0,227432,227466,302.2884,279.0689,313.2334,287.7198
Sprite,Foreground,Centre,"sb/haireitsu.png",0,0 S,2,227603,228075,0.8,0.16 F,2,227603,228075,1,0 P,0,227603,228075,A C,0,227603,,242,24,57 M,0,227603,227637,476,340,474.1906,353.8336 M,0,227637,227671,474.1906,353.8336,470.6147,367.2993 M,0,227671,227705,470.6147,367.2993,464.9408,380.0654 M,0,227705,227739,464.9408,380.0654,456.8206,391.4085 M,0,227739,227773,456.8206,391.4085,447.2891,401.5645 M,0,227773,227807,447.2891,401.5645,436.2455,410.1087 M,0,227807,227841,436.2455,410.1087,423.736,416.2794 M,0,227841,227875,423.736,416.2794,410.5316,420.6991
Sprite,Foreground,Centre,"sb/haireitsu.png",0,0 S,2,228148,228484,0.8,0.16 F,2,228148,228484,1,0 P,0,228148,228484,A C,0,228148,,255,192,0 M,0,228148,228182,272,283,263.1464,293.5923 M,0,228182,228216,263.1464,293.5923,252.0181,301.6893 M,0,228216,228250,252.0181,301.6893,238.6663,305.0784 M,0,228250,228284,238.6663,305.0784,225.0006,304.6826
Sprite,Foreground,Centre,"sb/haireitsu.png",0,0 S,2,228421,228757,0.8,0.16 F,2,228421,228757,1,0 P,0,228421,228757,A C,0,228421,,255,192,0 M,0,228421,228455,192,152,194.9871,138.6857 M,0,228455,228489,194.9871,138.6857,202.0373,127.0615 M,0,228489,228523,202.0373,127.0615,213.9297,120.4753 M,0,228523,228557,213.9297,120.4753,227.2235,118.5474
Sprite,Foreground,Centre,"sb/haireitsu.png",0,0 S,2,228694,229166,0.8,0.16 F,2,228694,229166,1,0 P,0,228694,229166,A C,0,228694,,255,192,0 M,0,228694,228728,440,132,444.8839,145.1099 M,0,228728,228762,444.8839,145.1099,448.9689,158.4855 M,0,228762,228796,448.9689,158.4855,452.0683,172.1295 M,0,228796,228830,452.0683,172.1295,453.9314,185.9942 M,0,228830,228864,453.9314,185.9942,454.9081,199.9437 M,0,228864,228898,454.9081,199.9437,454.8644,213.932 M,0,228898,228932,454.8644,213.932,453.6146,227.8649 M,0,228932,228966,453.6146,227.8649,451.4339,241.6763
Sprite,Foreground,Centre,"sb/haireitsu.png",142,276 S,2,229239,229439,0.8,0.16 F,2,229239,229439,1,0 P,0,229239,229439,A C,0,229239,,0,202,0
Sprite,Foreground,Centre,"sb/haireitsu.png",113,219 S,2,229376,229576,0.8,0.16 F,2,229376,229576,1,0 P,0,229376,229576,A C,0,229376,,0,202,0
Sprite,Foreground,Centre,"sb/haireitsu.png",137,164 S,2,229512,229712,0.8,0.16 F,2,229512,229712,1,0 P,0,229512,229712,A C,0,229512,,0,202,0
Sprite,Foreground,Centre,"sb/haireitsu.png",0,0 S,2,229648,229984,0.8,0.16 F,2,229648,229984,1,0 P,0,229648,229984,A C,0,229648,,0,202,0 M,0,229648,229682,196,159,209.9948,158.6166 M,0,229682,229716,209.9948,158.6166,223.9895,158.2332 M,0,229716,229750,223.9895,158.2332,237.9843,157.8497 M,0,229750,229784,237.9843,157.8497,251.979,157.4663
Sprite,Foreground,Centre,"sb/haireitsu.png",427,179 S,2,230057,230257,0.8,0.16 F,2,230057,230257,1,0 P,0,230057,230257,A C,0,230057,,18,124,255
Sprite,Foreground,Centre,"sb/haireitsu.png",459,240 S,2,230194,230394,0.8,0.16 F,2,230194,230394,1,0 P,0,230194,230394,A C,0,230194,,18,124,255
Sprite,Foreground,Centre,"sb/haireitsu.png",424,300 S,2,230330,230530,0.8,0.16 F,2,230330,230530,1,0 P,0,230330,230530,A C,0,230330,,18,124,255
Sprite,Foreground,Centre,"sb/haireitsu.png",362,326 S,2,230466,230666,0.8,0.16 F,2,230466,230666,1,0 P,0,230466,230666,A C,0,230466,,18,124,255
Sprite,Foreground,Centre,"sb/haireitsu.png",0,0 S,2,230603,230939,0.8,0.16 F,2,230603,230939,1,0 P,0,230603,230939,A C,0,230603,,18,124,255 M,0,230603,230637,296,324,282.7874,319.5181 M,0,230637,230671,282.7874,319.5181,270.2242,313.4735 M,0,230671,230705,270.2242,313.4735,259.0112,305.1834 M,0,230705,230739,259.0112,305.1834,249.0542,295.4568
Sprite,Foreground,Centre,"sb/haireitsu.png",114,153 S,2,230876,231076,0.8,0.16 F,2,230876,231076,1,0 P,0,230876,231076,A C,0,230876,,242,24,57
Sprite,Foreground,Centre,"sb/haireitsu.png",185,319 S,2,231012,231212,0.8,0.16 F,2,231012,231212,1,0 P,0,231012,231212,A C,0,231012,,242,24,57
Sprite,Foreground,Centre,"sb/haireitsu.png",199,141 S,2,231148,231348,0.8,0.16 F,2,231148,231348,1,0 P,0,231148,231348,A C,0,231148,,242,24,57
Sprite,Foreground,Centre,"sb/haireitsu.png",114,315 S,2,231285,231485,0.8,0.16 F,2,231285,231485,1,0 P,0,231285,231485,A C,0,231285,,242,24,57
Sprite,Foreground,Centre,"sb/haireitsu.png",314,157 S,2,231421,231621,0.8,0.16 F,2,231421,231621,1,0 P,0,231421,231621,A C,0,231421,,242,24,57
Sprite,Foreground,Centre,"sb/haireitsu.png",0,0 S,2,222694,223030,0.8,0.16 F,2,222694,223030,1,0 P,0,222694,223030,A C,0,222694,,0,202,0 M,0,222694,222728,338,159,337.5884,172.994 M,0,222728,222762,337.5884,172.994,337.1768,186.9879 M,0,222762,222796,337.1768,186.9879,336.7652,200.9818 M,0,222796,222830,336.7652,200.9818,336.3537,214.9758
Sprite,Foreground,Centre,"sb/haireitsu.png",267,122 S,2,222966,223166,0.8,0.16 F,2,222966,223166,1,0 P,0,222966,223166,A C,0,222966,,0,202,0
Sprite,Foreground,Centre,"sb/haireitsu.png",0,0 S,2,223103,223439,0.8,0.16 F,2,223103,223439,1,0 P,0,223103,223439,A C,0,223103,,0,202,0 M,0,223103,223137,412,206,411.5412,219.9925 M,0,223137,223171,411.5412,219.9925,411.0825,233.985 M,0,223171,223205,411.0825,233.985,410.6237,247.9774 M,0,223205,223239,410.6237,247.9774,410.1649,261.9699
Sprite,Foreground,Centre,"sb/haireitsu.png",406,340 S,2,223376,223576,0.8,0.16 F,2,223376,223576,1,0 P,0,223376,223576,A C,0,223376,,0,202,0
Sprite,Foreground,Centre,"sb/haireitsu.png",339,379 S,2,223512,223712,0.8,0.16 F,2,223512,223712,1,0 P,0,223512,223712,A C,0,223512,,0,202,0
Sprite,Foreground,Centre,"sb/haireitsu.png",264,379 S,2,223648,223848,0.8,0.16 F,2,223648,223848,1,0 P,0,223648,223848,A C,0,223648,,0,202,0
Sprite,Foreground,Centre,"sb/haireitsu.png",0,0 S,2,223785,224121,0.8,0.16 F,2,223785,224121,1,0 P,0,223785,224121,A C,0,223785,,0,202,0 M,0,223785,223819,209,331,204.4995,317.7485 M,0,223819,223853,204.4995,317.7485,200.5827,304.3155 M,0,223853,223887,200.5827,304.3155,197.3795,290.6918 M,0,223887,223921,197.3795,290.6918,195.0497,276.8926
Sprite,Foreground,Centre,"sb/haireitsu.png",0,0 S,2,224057,224393,0.8,0.16 F,2,224057,224393,1,0 P,0,224057,224393,A C,0,224057,,0,202,0 M,0,224057,224091,251,198,239.6456,189.8099 M,0,224091,224125,239.6456,189.8099,228.2912,181.6199 M,0,224125,224159,228.2912,181.6199,216.9368,173.4298 M,0,224159,224193,216.9368,173.4298,205.5823,165.2397
Sprite,Foreground,Centre,"sb/haireitsu.png",0,0 S,2,224330,224666,0.8,0.16 F,2,224330,224666,1,0 P,0,224330,224666,A C,0,224330,,0,202,0 M,0,224330,224364,233,92,219.0222,92.78748 M,0,224364,224398,219.0222,92.78748,205.0443,93.57497 M,0,224398,224432,205.0443,93.57497,191.0665,94.36245 M,0,224432,224466,191.0665,94.36245,177.0887,95.14993
Sprite,Foreground,Centre,"sb/haireitsu.png",0,0 S,2,224603,225075,0.8,0.16 F,2,224603,225075,1,0 P,0,224603,225075,A C,0,224603,,0,202,0 M,0,224603,224637,347,93,360.5361,89.79311 M,0,224637,224671,360.5361,89.79311,374.3938,88.91223 M,0,224671,224705,374.3938,88.91223,388.0367,91.55527 M,0,224705,224739,388.0367,91.55527,400.8703,96.74837 M,0,224739,224773,400.8703,96.74837,412.3856,104.5279 M,0,224773,224807,412.3856,104.5279,421.5223,115.0013 M,0,224807,224841,421.5223,115.0013,428.5085,126.9599 M,0,224841,224875,428.5085,126.9599,432.975,140.1589
Sprite,Foreground,Centre,"sb/haireitsu.png",0,0 S,2,218330,218666,0.8,0.16 F,2,218330,218666,1,0 P,0,218330,218666,A C,0,218330,,18,124,255 M,0,218330,218364,165,251,178.9744,250.1531 M,0,218364,218398,178.9744,250.1531,192.9487,249.3061 M,0,218398,218432,192.9487,249.3061,206.9231,248.4592 M,0,218432,218466,206.9231,248.4592,220.8974,247.6123
Sprite,Foreground,Centre,"sb/haireitsu.png",0,0 S,2,218603,218939,0.8,0.16 F,2,218603,218939,1,0 P,0,218603,218939,A C,0,218603,,18,124,255 M,0,218603,218637,287,155,273,155 M,0,218637,218671,273,155,259,155 M,0,218671,218705,259,155,245,155 M,0,218705,218739,245,155,231,155
Sprite,Foreground,Centre,"sb/haireitsu.png",358,103 S,2,218876,219076,0.8,0.16 F,2,218876,219076,1,0 P,0,218876,219076,A C,0,218876,,18,124,255
Sprite,Foreground,Centre,"sb/haireitsu.png",439,87 S,2,219012,219212,0.8,0.16 F,2,219012,219212,1,0 P,0,219012,219212,A C,0,219012,,18,124,255
Sprite,Foreground,Centre,"sb/haireitsu.png",500,143 S,2,219148,219348,0.8,0.16 F,2,219148,219348,1,0 P,0,219148,219348,A C,0,219148,,18,124,255
Sprite,Foreground,Centre,"sb/haireitsu.png",482,225 S,2,219285,219485,0.8,0.16 F,2,219285,219485,1,0 P,0,219285,219485,A C,0,219285,,18,124,255
Sprite,Foreground,Centre,"sb/haireitsu.png",0,0 S,2,219421,219757,0.8,0.16 F,2,219421,219757,1,0 P,0,219421,219757,A C,0,219421,,18,124,255 M,0,219421,219455,427,285,441,285 M,0,219455,219489,441,285,455,285 M,0,219489,219523,455,285,469,285 M,0,219523,219557,469,285,483,285
Sprite,Foreground,Centre,"sb/haireitsu.png",0,0 S,2,219694,220030,0.8,0.16 F,2,219694,220030,1,0 P,0,219694,220030,A C,0,219694,,18,124,255 M,0,219694,219728,355,342,341,342 M,0,219728,219762,341,342,327,342 M,0,219762,219796,327,342,313,342 M,0,219796,219830,313,342,299,342
Sprite,Foreground,Centre,"sb/haireitsu.png",0,0 S,2,219966,220438,0.8,0.16 F,2,219966,220438,1,0 P,0,219966,220438,A C,0,219966,,18,124,255 M,0,219966,220000,414,404,427.9849,404.6505 M,0,220000,220034,427.9849,404.6505,441.9698,405.3009 M,0,220034,220068,441.9698,405.3009,455.9547,405.9514 M,0,220068,220102,455.9547,405.9514,469.9459,405.558 M,0,220102,220136,469.9459,405.558,483.9415,405.2097 M,0,220136,220170,483.9415,405.2097,497.9404,405.0457 M,0,220170,220204,497.9404,405.0457,511.9395,405.1637 M,0,220204,220238,511.9395,405.1637,525.9229,405.807
Sprite,Foreground,Centre,"sb/haireitsu.png",404,216 S,2,220512,220712,0.8,0.16 F,2,220512,220712,1,0 P,0,220512,220712,A C,0,220512,,242,24,57
Sprite,Foreground,Centre,"sb/haireitsu.png",268,266 S,2,213966,214166,0.8,0.16 F,2,213966,214166,1,0 P,0,213966,214166,A C,0,213966,,242,24,57
Sprite,Foreground,Centre,"sb/haireitsu.png",221,236 S,2,214103,214303,0.8,0.16 F,2,214103,214303,1,0 P,0,214103,214303,A C,0,214103,,242,24,57
Sprite,Foreground,Centre,"sb/haireitsu.png",164,216 S,2,214239,214439,0.8,0.16 F,2,214239,214439,1,0 P,0,214239,214439,A C,0,214239,,242,24,57
Sprite,Foreground,Centre,"sb/haireitsu.png",114,259 S,2,214376,214576,0.8,0.16 F,2,214376,214576,1,0 P,0,214376,214576,A C,0,214376,,242,24,57
Sprite,Foreground,Centre,"sb/haireitsu.png",106,318 S,2,214512,214712,0.8,0.16 F,2,214512,214712,1,0 P,0,214512,214712,A C,0,214512,,242,24,57
Sprite,Foreground,Centre,"sb/haireitsu.png",106,373 S,2,214648,214848,0.8,0.16 F,2,214648,214848,1,0 P,0,214648,214848,A C,0,214648,,242,24,57
Sprite,Foreground,Centre,"sb/haireitsu.png",112,392 S,2,214785,214985,0.8,0.16 F,2,214785,214985,1,0 P,0,214785,214985,A C,0,214785,,242,24,57
Sprite,Foreground,Centre,"sb/haireitsu.png",128,404 S,2,214921,215121,0.8,0.16 F,2,214921,215121,1,0 P,0,214921,215121,A C,0,214921,,242,24,57
Sprite,Foreground,Centre,"sb/haireitsu.png",170,412 S,2,215057,215257,0.8,0.16 F,2,215057,215257,1,0 P,0,215057,215257,A C,0,215057,,255,192,0
Sprite,Foreground,Centre,"sb/haireitsu.png",237,415 S,2,215194,215394,0.8,0.16 F,2,215194,215394,1,0 P,0,215194,215394,A C,0,215194,,255,192,0
Sprite,Foreground,Centre,"sb/haireitsu.png",300,391 S,2,215330,215530,0.8,0.16 F,2,215330,215530,1,0 P,0,215330,215530,A C,0,215330,,255,192,0
Sprite,Foreground,Centre,"sb/haireitsu.png",338,331 S,2,215466,215666,0.8,0.16 F,2,215466,215666,1,0 P,0,215466,215666,A C,0,215466,,255,192,0
Sprite,Foreground,Centre,"sb/haireitsu.png",0,0 S,2,215603,216075,0.8,0.16 F,2,215603,216075,1,0 P,0,215603,216075,A C,0,215603,,255,192,0 M,0,215603,215637,285,287,278.4592,274.6715 M,0,215637,215671,278.4592,274.6715,273.4385,261.6641 M,0,215671,215705,273.4385,261.6641,270.7993,247.967 M,0,215705,215739,270.7993,247.967,270.0548,234.0642 M,0,215739,215773,270.0548,234.0642,271.3658,220.1796 M,0,215773,215807,271.3658,220.1796,275.1433,206.7512 M,0,215807,215841,275.1433,206.7512,280.6808,193.9754 M,0,215841,215875,280.6808,193.9754,287.9813,182.0704
Sprite,Foreground,Centre,"sb/haireitsu.png",390,351 S,2,187785,187985,0.8,0.16 F,2,187785,187985,1,0 P,0,187785,187985,A C,0,187785,,255,192,0
Sprite,Foreground,Centre,"sb/haireitsu.png",390,351 S,2,188330,188530,0.8,0.16 F,2,188330,188530,1,0 P,0,188330,188530,A C,0,188330,,255,192,0
Sprite,Foreground,Centre,"sb/haireitsu.png",390,351 S,2,188876,189076,0.8,0.16 F,2,188876,189076,1,0 P,0,188876,189076,A C,0,188876,,255,192,0
Sprite,Foreground,Centre,"sb/haireitsu.png",390,351 S,2,189421,189621,0.8,0.16 F,2,189421,189621,1,0 P,0,189421,189621,A C,0,189421,,255,192,0
Sprite,Foreground,Centre,"sb/haireitsu.png",390,351 S,2,189966,190166,0.8,0.16 F,2,189966,190166,1,0 P,0,189966,190166,A C,0,189966,,255,192,0
Sprite,Foreground,Centre,"sb/haireitsu.png",390,351 S,2,190512,190712,0.8,0.16 F,2,190512,190712,1,0 P,0,190512,190712,A C,0,190512,,255,192,0
Sprite,Foreground,Centre,"sb/haireitsu.png",390,351 S,2,191057,191257,0.8,0.16 F,2,191057,191257,1,0 P,0,191057,191257,A C,0,191057,,255,192,0
Sprite,Foreground,Centre,"sb/haireitsu.png",390,351 S,2,191603,191803,0.8,0.16 F,2,191603,191803,1,0 P,0,191603,191803,A C,0,191603,,255,192,0
Sprite,Foreground,Centre,"sb/haireitsu.png",390,351 S,2,192148,192348,0.8,0.16 F,2,192148,192348,1,0 P,0,192148,192348,A C,0,192148,,255,192,0
Sprite,Foreground,Centre,"sb/haireitsu.png",303,368 S,2,192421,192621,0.8,0.16 F,2,192421,192621,1,0 P,0,192421,192621,A C,0,192421,,255,192,0
Sprite,Foreground,Centre,"sb/haireitsu.png",224,338 S,2,192694,192894,0.8,0.16 F,2,192694,192894,1,0 P,0,192694,192894,A C,0,192694,,255,192,0
Sprite,Foreground,Centre,"sb/haireitsu.png",206,251 S,2,192966,193166,0.8,0.16 F,2,192966,193166,1,0 P,0,192966,193166,A C,0,192966,,255,192,0
Sprite,Foreground,Centre,"sb/haireitsu.png",272,134 S,2,193239,193439,0.8,0.16 F,2,193239,193439,1,0 P,0,193239,193439,A C,0,193239,,0,202,0
Sprite,Foreground,Centre,"sb/haireitsu.png",420,304 S,2,193512,193712,0.8,0.16 F,2,193512,193712,1,0 P,0,193512,193712,A C,0,193512,,0,202,0
Sprite,Foreground,Centre,"sb/haireitsu.png",216,208 S,2,193785,193985,0.8,0.16 F,2,193785,193985,1,0 P,0,193785,193985,A C,0,193785,,0,202,0
Sprite,Foreground,Centre,"sb/haireitsu.png",436,160 S,2,194057,194257,0.8,0.16 F,2,194057,194257,1,0 P,0,194057,194257,A C,0,194057,,0,202,0
Sprite,Foreground,Centre,"sb/haireitsu.png",292,332 S,2,194330,194530,0.8,0.16 F,2,194330,194530,1,0 P,0,194330,194530,A C,0,194330,,0,202,0
Sprite,Foreground,Centre,"sb/haireitsu.png",232,116 S,2,194603,194803,0.8,0.16 F,2,194603,194803,1,0 P,0,194603,194803,A C,0,194603,,0,202,0
Sprite,Foreground,Centre,"sb/haireitsu.png",408,256 S,2,194876,195076,0.8,0.16 F,2,194876,195076,1,0 P,0,194876,195076,A C,0,194876,,0,202,0
Sprite,Foreground,Centre,"sb/haireitsu.png",184,240 S,2,195148,195348,0.8,0.16 F,2,195148,195348,1,0 P,0,195148,195348,A C,0,195148,,0,202,0
Sprite,Foreground,Centre,"sb/haireitsu.png",0,0 S,2,195421,196439,0.8,0.16 F,2,195421,196439,1,0 P,0,195421,196439,A C,0,195421,,0,202,0 M,0,195421,195455,367,142,376.955,151.8193 M,0,195455,195489,376.955,151.8193,386.0791,162.4034 M,0,195489,195523,386.0791,162.4034,394.1351,173.8325 M,0,195523,195557,394.1351,173.8325,400.8056,186.1198 M,0,195557,195591,400.8056,186.1198,406.3754,198.9318 M,0,195591,195625,406.3754,198.9318,410.6738,212.2304 M,0,195625,195659,410.6738,212.2304,413.6598,225.8942 M,0,195659,195693,413.6598,225.8942,415.0005,239.8115 M,0,195693,195727,415.0005,239.8115,415.1578,253.7821 M,0,195727,195761,415.1578,253.7821,413.9543,267.7086 M,0,195761,195796,413.9543,267.7086,411.3988,281.4632 M,0,195796,195830,411.3988,281.4632,407.1964,294.7991 M,0,195830,195864,407.1964,294.7991,401.9154,307.7357 M,0,195864,195898,401.9154,307.7357,395.3968,320.1042 M,0,195898,195932,395.3968,320.1042,387.5006,331.6417 M,0,195932,195966,387.5006,331.6417,378.6197,342.4253 M,0,195966,196000,378.6197,342.4253,368.7281,352.297 M,0,196000,196034,368.7281,352.297,357.9154,361.1652 M,0,196034,196068,357.9154,361.1652,346.1393,368.7019 M,0,196068,196102,346.1393,368.7019,333.7669,375.1908 M,0,196102,196136,333.7669,375.1908,320.816,380.4472 M,0,196136,196171,320.816,380.4472,307.4048,384.4213 M,0,196171,196205,307.4048,384.4213,293.6196,386.7592 M,0,196205,196239,293.6196,386.7592,279.6971,387.9342
Sprite,Foreground,Centre,"sb/haireitsu.png",0,0 S,2,168148,169393,0.8,0.16 F,2,168148,169393,1,0 P,0,168148,169393,A C,0,168148,,242,24,57 M,0,168148,168182,291,186,283.2204,174.3618 M,0,168182,168216,283.2204,174.3618,274.944,163.0717 M,0,168216,168250,274.944,163.0717,266.1188,152.2057 M,0,168250,168284,266.1188,152.2057,256.6911,141.8589 M,0,168284,168318,256.6911,141.8589,246.6026,132.1567 M,0,168318,168352,246.6026,132.1567,235.7846,123.2773 M,0,168352,168386,235.7846,123.2773,224.1736,115.4671 M,0,168386,168420,224.1736,115.4671,211.7292,109.0755 M,0,168420,168454,211.7292,109.0755,198.4895,104.5739 M,0,168454,168488,198.4895,104.5739,184.6617,102.5426 M,0,168488,168523,184.6617,102.5426,170.7275,103.5224 M,0,168523,168557,170.7275,103.5224,157.4067,107.7214 M,0,168557,168591,157.4067,107.7214,145.373,114.8222 M,0,168591,168625,145.373,114.8222,134.9781,124.1713 M,0,168625,168659,134.9781,124.1713,126.249,135.1004 M,0,168659,168693,126.249,135.1004,119.0499,147.0976 M,0,168693,168727,119.0499,147.0976,113.2118,159.8156 M,0,168727,168761,113.2118,159.8156,108.5924,173.0268 M,0,168761,168795,108.5924,173.0268,105.0999,186.58 M,0,168795,168829,105.0999,186.58,102.7357,200.3747 M,0,168829,168863,102.7357,200.3747,108.166,209.466 M,0,168863,168898,108.166,209.466,121.6507,213.2222 M,0,168898,168932,121.6507,213.2222,134.865,217.837 M,0,168932,168966,134.865,217.837,147.6429,223.5441 M,0,168966,169000,147.6429,223.5441,159.6916,230.6537 M,0,169000,169034,159.6916,230.6537,170.4849,239.5399 M,0,169034,169068,170.4849,239.5399,179.1571,250.4868 M,0,169068,169102,179.1571,250.4868,184.6636,263.3084 M,0,169102,169136,184.6636,263.3084,186.4801,277.1497 M,0,169136,169170,186.4801,277.1497,185.0371,291.0505 M,0,169170,169193,185.0371,291.0505,182.6864,300.0786
Sprite,Foreground,Centre,"sb/haireitsu.png",0,0 S,2,169239,170257,0.8,0.16 F,2,169239,170257,1,0 P,0,169239,170257,A C,0,169239,,242,24,57 M,0,169239,169273,182,300,195.9859,299.3714 M,0,169273,169307,195.9859,299.3714,209.9718,298.7429 M,0,169307,169341,209.9718,298.7429,223.9576,298.1143 M,0,169341,169375,223.9576,298.1143,237.9435,297.4857 M,0,169375,169409,237.9435,297.4857,251.9294,296.8571 M,0,169409,169443,251.9294,296.8571,265.9153,296.2285 M,0,169443,169477,265.9153,296.2285,279.1321,292.3587 M,0,169477,169511,279.1321,292.3587,291.9097,286.6374 M,0,169511,169545,291.9097,286.6374,304.6873,280.9161 M,0,169545,169579,304.6873,280.9161,317.4649,275.1948 M,0,169579,169614,317.4649,275.1948,330.2425,269.4735 M,0,169614,169648,330.2425,269.4735,343.0201,263.7522 M,0,169648,169682,343.0201,263.7522,355.7977,258.0309 M,0,169682,169716,355.7977,258.0309,368.5753,252.3096 M,0,169716,169750,368.5753,252.3096,381.3528,246.5883 M,0,169750,169784,381.3528,246.5883,394.1304,240.867 M,0,169784,169818,394.1304,240.867,406.8395,236.9933 M,0,169818,169852,406.8395,236.9933,419.1582,243.6454 M,0,169852,169886,419.1582,243.6454,431.4768,250.2975 M,0,169886,169920,431.4768,250.2975,443.7955,256.9496 M,0,169920,169954,443.7955,256.9496,456.1142,263.6017 M,0,169954,169989,456.1142,263.6017,468.4329,270.2538 M,0,169989,170023,468.4329,270.2538,480.7515,276.9058 M,0,170023,170057,480.7515,276.9058,493.0702,283.5579
Sprite,Foreground,Centre,"sb/haireitsu.png",520,142 S,2,170330,170530,0.8,0.16 F,2,170330,170530,1,0 P,0,170330,170530,A C,0,170330,,242,24,57
Sprite,Foreground,Centre,"sb/haireitsu.png",0,0 S,2,128876,129894,0.8,0.16 F,2,128876,129894,1,0 P,0,128876,129894,A C,0,128876,,18,124,255 M,0,128876,128910,454,394,440.8141,398.6378 M,0,128910,128944,440.8141,398.6378,427.2703,402.0482 M,0,128944,128978,427.2703,402.0482,413.421,403.945 M,0,128978,129012,413.421,403.945,399.4453,403.9885 M,0,129012,129046,399.4453,403.9885,385.5468,402.6591 M,0,129046,129080,385.5468,402.6591,371.8719,399.8029 M,0,129080,129114,371.8719,399.8029,358.5825,395.4509 M,0,129114,129148,358.5825,395.4509,346.015,389.335 M,0,129148,129182,346.015,389.335,334.0953,382.0609 M,0,129182,129216,334.0953,382.0609,323.043,373.5101 M,0,129216,129251,323.043,373.5101,312.9904,363.7806 M,0,129251,129285,312.9904,363.7806,304.3997,352.7544 M,0,129285,129319,304.3997,352.7544,296.8594,340.9982 M,0,129319,129353,296.8594,340.9982,290.657,328.471 M,0,129353,129387,290.657,328.471,286.171,315.2348 M,0,129387,129421,286.171,315.2348,283.0116,301.6351 M,0,129421,129455,283.0116,301.6351,281.3708,287.7619 M,0,129455,129489,281.3708,287.7619,281.2708,273.7784 M,0,129489,129523,281.2708,273.7784,283.0723,259.9183 M,0,129523,129557,283.0723,259.9183,286.1782,246.3042 M,0,129557,129591,286.1782,246.3042,290.7704,233.1065 M,0,129591,129626,290.7704,233.1065,296.798,220.4818 M,0,129626,129660,296.798,220.4818,304.5196,208.8304 M,0,129660,129694,304.5196,208.8304,313.2677,197.943
Sprite,Foreground,Centre,"sb/haireitsu.png",0,0 S,2,129966,130984,0.8,0.16 F,2,129966,130984,1,0 P,0,129966,130984,A C,0,129966,,18,124,255 M,0,129966,130000,313,197,305.7744,208.9735 M,0,130000,130034,305.7744,208.9735,299.4934,221.4593 M,0,130034,130068,299.4934,221.4593,294.3893,234.4783 M,0,130068,130102,294.3893,234.4783,290.7322,247.9748 M,0,130102,130136,290.7322,247.9748,288.2212,261.7205 M,0,130136,130170,288.2212,261.7205,286.9894,275.6434 M,0,130170,130204,286.9894,275.6434,287.0483,289.6283 M,0,130204,130238,287.0483,289.6283,288.6422,303.5205 M,0,130238,130272,288.6422,303.5205,291.3794,317.2234 M,0,130272,130306,291.3794,317.2234,295.3712,330.6193 M,0,130306,130341,295.3712,330.6193,300.5857,343.597 M,0,130341,130375,300.5857,343.597,307.2046,355.9149 M,0,130375,130409,307.2046,355.9149,314.8042,367.6416 M,0,130409,130443,314.8042,367.6416,323.4569,378.6207 M,0,130443,130477,323.4569,378.6207,333.0923,388.7601 M,0,130477,130511,333.0923,388.7601,343.7976,397.7567 M,0,130511,130545,343.7976,397.7567,355.1877,405.8529 M,0,130545,130579,355.1877,405.8529,367.2812,412.8658 M,0,130579,130613,367.2812,412.8658,379.9788,418.7358 M,0,130613,130647,379.9788,418.7358,393.2527,423.1352 M,0,130647,130681,393.2527,423.1352,406.8266,426.4584 M,0,130681,130716,406.8266,426.4584,420.6551,428.5151 M,0,130716,130750,420.6551,428.5151,434.6239,429.2867 M,0,130750,130784,434.6239,429.2867,448.584,428.465
Sprite,Foreground,Centre,"sb/haireitsu.png",0,0 S,2,131057,132075,0.8,0.16 F,2,131057,132075,1,0 P,0,131057,132075,A C,0,131057,,18,124,255 M,0,131057,131091,448,428,461.9102,428.947 M,0,131091,131125,461.9102,428.947,475.7794,427.8412 M,0,131125,131159,475.7794,427.8412,489.2629,424.286 M,0,131159,131193,489.2629,424.286,501.6759,417.9487 M,0,131193,131227,501.6759,417.9487,512.9011,409.749 M,0,131227,131261,512.9011,409.749,522.5098,399.675 M,0,131261,131295,522.5098,399.675,530.1995,388.0266 M,0,131295,131329,530.1995,388.0266,535.1606,375 M,0,131329,131363,535.1606,375,538.0659,361.4008 M,0,131363,131397,538.0659,361.4008,538.5154,347.4765 M,0,131397,131432,538.5154,347.4765,536.4818,333.6528 M,0,131432,131466,536.4818,333.6528,531.4276,320.659 M,0,131466,131500,531.4276,320.659,524.5269,308.5784 M,0,131500,131534,524.5269,308.5784,515.5741,297.8892 M,0,131534,131568,515.5741,297.8892,504.5624,289.3463 M,0,131568,131602,504.5624,289.3463,492.3666,282.676 M,0,131602,131636,492.3666,282.676,479.1627,278.2661 M,0,131636,131670,479.1627,278.2661,465.351,276.2625 M,0,131670,131704,465.351,276.2625,451.451,277.3076 M,0,131704,131738,451.451,277.3076,437.9083,280.4637 M,0,131738,131772,437.9083,280.4637,425.1165,285.9801 M,0,131772,131807,425.1165,285.9801,413.4724,293.7006 M,0,131807,131841,413.4724,293.7006,403.8585,303.7975 M,0,131841,131875,403.8585,303.7975,395.8616,315.1815
Sprite,Foreground,Centre,"sb/haireitsu.png",0,0 S,2,132148,133166,0.8,0.16 F,2,132148,133166,1,0 P,0,132148,133166,A C,0,132148,,18,124,255 M,0,132148,132182,395,315,404.0104,325.636 M,0,132182,132216,404.0104,325.636,411.3179,337.4723 M,0,132216,132250,411.3179,337.4723,416.3826,350.4657 M,0,132250,132284,416.3826,350.4657,418.4751,364.2424 M,0,132284,132318,418.4751,364.2424,418.3521,378.1402 M,0,132318,132352,418.3521,378.1402,415.7199,391.8132 M,0,132352,132386,415.7199,391.8132,410.6471,404.8264 M,0,132386,132420,410.6471,404.8264,402.771,416.3265 M,0,132420,132454,402.771,416.3265,393.2696,426.4827 M,0,132454,132488,393.2696,426.4827,382.065,434.778 M,0,132488,132523,382.065,434.778,369.3318,440.4364 M,0,132523,132557,369.3318,440.4364,355.8905,443.9653 M,0,132557,132591,355.8905,443.9653,342.0096,445.0142 M,0,132591,132625,342.0096,445.0142,328.1262,443.5361 M,0,132625,132659,328.1262,443.5361,314.9546,438.9794 M,0,132659,132693,314.9546,438.9794,302.6627,432.4782 M,0,132693,132727,302.6627,432.4782,291.7204,423.8467 M,0,132727,132761,291.7204,423.8467,282.8986,413.0621 M,0,132761,132795,282.8986,413.0621,275.9661,401.0196 M,0,132795,132829,275.9661,401.0196,271.3114,387.9039 M,0,132829,132863,271.3114,387.9039,269.0939,374.1245 M,0,132863,132898,269.0939,374.1245,270.0077,360.2178 M,0,132898,132932,270.0077,360.2178,273.054,346.6526 M,0,132932,132966,273.054,346.6526,278.5088,333.8321
Sprite,Foreground,Centre,"sb/haireitsu.png",0,0 S,2,133239,133711,0.8,0.16 F,2,133239,133711,1,0 P,0,133239,133711,A C,0,133239,,242,24,57 M,0,133239,133273,379,123,380.6358,136.9041 M,0,133273,133307,380.6358,136.9041,382.2715,150.8082 M,0,133307,133341,382.2715,150.8082,383.9073,164.7123 M,0,133341,133375,383.9073,164.7123,385.5431,178.6164 M,0,133375,133409,385.5431,178.6164,387.1789,192.5205 M,0,133409,133443,387.1789,192.5205,388.8147,206.4247 M,0,133443,133477,388.8147,206.4247,390.4504,220.3288 M,0,133477,133511,390.4504,220.3288,392.0862,234.2329
Sprite,Foreground,Centre,"sb/haireitsu.png",0,0 S,2,133785,134257,0.8,0.16 F,2,133785,134257,1,0 P,0,133785,134257,A C,0,133785,,242,24,57 M,0,133785,133819,379,123,392.958,121.917 M,0,133819,133853,392.958,121.917,406.9161,120.8341 M,0,133853,133887,406.9161,120.8341,420.8741,119.7511 M,0,133887,133921,420.8741,119.7511,434.8322,118.6682 M,0,133921,133955,434.8322,118.6682,448.7903,117.5852 M,0,133955,133989,448.7903,117.5852,462.7483,116.5023 M,0,133989,134023,462.7483,116.5023,476.7064,115.4193 M,0,134023,134057,476.7064,115.4193,490.6644,114.3364
Sprite,Foreground,Centre,"sb/haireitsu.png",0,0 S,2,134330,135348,0.8,0.16 F,2,134330,135348,1,0 P,0,134330,135348,A C,0,134330,,242,24,57 M,0,134330,134364,490,114,501.1927,122.3254 M,0,134364,134398,501.1927,122.3254,511.1138,132.0952 M,0,134398,134432,511.1138,132.0952,519.2901,143.3991 M,0,134432,134466,519.2901,143.3991,525.0494,156.0991 M,0,134466,134500,525.0494,156.0991,528.8534,169.4822 M,0,134500,134534,528.8534,169.4822,530.3844,183.3289 M,0,134534,134568,530.3844,183.3289,529.5918,197.2687 M,0,134568,134602,529.5918,197.2687,525.9777,210.7392 M,0,134602,134636,525.9777,210.7392,520.481,223.5251 M,0,134636,134670,520.481,223.5251,512.9253,235.2393 M,0,134670,134705,512.9253,235.2393,503.504,245.5611 M,0,134705,134739,503.504,245.5611,492.1575,253.675 M,0,134739,134773,492.1575,253.675,479.8197,260.1269 M,0,134773,134807,479.8197,260.1269,466.5566,264.448 M,0,134807,134841,466.5566,264.448,452.7046,266.0521 M,0,134841,134875,452.7046,266.0521,438.8,265.5746 M,0,134875,134909,438.8,265.5746,425.151,262.7917 M,0,134909,134943,425.151,262.7917,412.1255,257.7689 M,0,134943,134977,412.1255,257.7689,400.4035,250.2125 M,0,134977,135011,400.4035,250.2125,389.9158,241.0647 M,0,135011,135045,389.9158,241.0647,381.0793,230.2857 M,0,135045,135080,381.0793,230.2857,374.1397,218.1579 M,0,135080,135114,374.1397,218.1579,369.8802,204.8755 M,0,135114,135148,369.8802,204.8755,367.3231,191.1609
Sprite,Foreground,Centre,"sb/haireitsu.png",208,368 S,2,76512,76712,0.8,0.16 F,2,76512,76712,1,0 P,0,76512,76712,A C,0,76512,,242,24,57
Sprite,Foreground,Centre,"sb/haireitsu.png",145,257 S,2,76785,76985,0.8,0.16 F,2,76785,76985,1,0 P,0,76785,76985,A C,0,76785,,242,24,57
Sprite,Foreground,Centre,"sb/haireitsu.png",273,184 S,2,77057,77257,0.8,0.16 F,2,77057,77257,1,0 P,0,77057,77257,A C,0,77057,,242,24,57
Sprite,Foreground,Centre,"sb/haireitsu.png",0,0 S,2,77330,77734,0.8,0.16 F,2,77330,77734,1,0 P,0,77330,77734,A C,0,77330,,242,24,57 M,0,77330,77364,325,309,313.326,316.7278 M,0,77364,77398,313.326,316.7278,301.6521,324.4556 M,0,77398,77432,301.6521,324.4556,289.9782,332.1834 M,0,77432,77466,289.9782,332.1834,278.3043,339.9113 M,0,77466,77500,278.3043,339.9113,266.6303,347.6391 M,0,77500,77534,266.6303,347.6391,254.9564,355.3669
Sprite,Foreground,Centre,"sb/haireitsu.png",246,383 S,2,77603,77803,0.8,0.16 F,2,77603,77803,1,0 P,0,77603,77803,A C,0,77603,,255,192,0
Sprite,Foreground,Centre,"sb/haireitsu.png",87,386 S,2,77876,78076,0.8,0.16 F,2,77876,78076,1,0 P,0,77876,78076,A C,0,77876,,255,192,0
Sprite,Foreground,Centre,"sb/haireitsu.png",89,221 S,2,78148,78348,0.8,0.16 F,2,78148,78348,1,0 P,0,78148,78348,A C,0,78148,,255,192,0
Sprite,Foreground,Centre,"sb/haireitsu.png",0,0 S,2,78421,78893,0.8,0.16 F,2,78421,78893,1,0 P,0,78421,78893,A C,0,78421,,255,192,0 M,0,78421,78455,245,221,245.4743,234.992 M,0,78455,78489,245.4743,234.992,245.9486,248.9839 M,0,78489,78523,245.9486,248.9839,246.4229,262.9759 M,0,78523,78557,246.4229,262.9759,246.8972,276.9678 M,0,78557,78591,246.8972,276.9678,247.3715,290.9598 M,0,78591,78625,247.3715,290.9598,247.8458,304.9518 M,0,78625,78659,247.8458,304.9518,248.3201,318.9437 M,0,78659,78693,248.3201,318.9437,248.7944,332.9357
Sprite,Foreground,Centre,"sb/haireitsu.png",0,0 S,2,78966,79438,0.8,0.16 F,2,78966,79438,1,0 P,0,78966,79438,A C,0,78966,,0,202,0 M,0,78966,79000,271,256,272.2345,269.8883 M,0,79000,79034,272.2345,269.8883,275.2953,283.4778 M,0,79034,79068,275.2953,283.4778,281.0585,296.1645 M,0,79068,79102,281.0585,296.1645,288.64,307.8189 M,0,79102,79136,288.64,307.8189,298.0667,318.0939 M,0,79136,79170,298.0667,318.0939,309.4332,326.1591 M,0,79170,79204,309.4332,326.1591,321.8153,332.5 M,0,79204,79238,321.8153,332.5,335.1176,336.7576
Sprite,Foreground,Centre,"sb/haireitsu.png",0,0 S,2,79376,79848,0.8,0.16 F,2,79376,79848,1,0 P,0,79376,79848,A C,0,79376,,0,202,0 M,0,79376,79410,341,257,339.7655,243.1117 M,0,79410,79444,339.7655,243.1117,336.7047,229.5222 M,0,79444,79478,336.7047,229.5222,330.9415,216.8355 M,0,79478,79512,330.9415,216.8355,323.36,205.1811 M,0,79512,79546,323.36,205.1811,313.9333,194.9061 M,0,79546,79580,313.9333,194.9061,302.5668,186.8409 M,0,79580,79614,302.5668,186.8409,290.1847,180.5 M,0,79614,79648,290.1847,180.5,276.8824,176.2424
Sprite,Foreground,Centre,"sb/haireitsu.png",0,0 S,2,79785,80394,0.8,0.16 F,2,79785,80394,1,0 P,0,79785,80394,A C,0,79785,,0,202,0 M,0,79785,79819,271,256,267.6969,269.579 M,0,79819,79853,267.6969,269.579,265.7529,283.4044 M,0,79853,79887,265.7529,283.4044,265.4616,297.3741 M,0,79887,79921,265.4616,297.3741,267.1138,311.2483 M,0,79921,79955,267.1138,311.2483,270.2542,324.8462 M,0,79955,79989,270.2542,324.8462,274.9864,337.9817 M,0,79989,80023,274.9864,337.9817,281.248,350.4738 M,0,80023,80057,281.248,350.4738,289.1903,361.9694 M,0,80057,80091,289.1903,361.9694,298.3132,372.5307 M,0,80091,80125,298.3132,372.5307,308.6285,381.9405 M,0,80125,80160,308.6285,381.9405,319.9966,390.0677 M,0,80160,80194,319.9966,390.0677,332.3894,396.5215
Sprite,Foreground,Centre,"sb/haireitsu.png",0,0 S,2,80330,80939,0.8,0.16 F,2,80330,80939,1,0 P,0,80330,80939,A C,0,80330,,0,202,0 M,0,80330,80364,341,257,344.2181,243.4039 M,0,80364,80398,344.2181,243.4039,346.0811,229.5679 M,0,80398,80432,346.0811,229.5679,346.2634,215.586 M,0,80432,80466,346.2634,215.586,344.2851,201.7558 M,0,80466,80500,344.2851,201.7558,340.932,188.2058 M,0,80500,80534,340.932,188.2058,335.9633,175.1392 M,0,80534,80568,335.9633,175.1392,329.0632,162.9919 M,0,80568,80602,329.0632,162.9919,320.9651,151.6248 M,0,80602,80636,320.9651,151.6248,311.5435,141.3021 M,0,80636,80670,311.5435,141.3021,300.6786,132.5211 M,0,80670,80705,300.6786,132.5211,288.9705,124.9278 M,0,80705,80739,288.9705,124.9278,276.4168,118.7926
Sprite,Foreground,Centre,"sb/haireitsu.png",248,163 S,2,80876,81076,0.8,0.16 F,2,80876,81076,1,0 P,0,80876,81076,A C,0,80876,,0,202,0
Sprite,Foreground,Centre,"sb/haireitsu.png",160,236 S,2,81148,81348,0.8,0.16 F,2,81148,81348,1,0 P,0,81148,81348,A C,0,81148,,0,202,0
Sprite,Foreground,Centre,"sb/haireitsu.png",86,149 S,2,81421,81621,0.8,0.16 F,2,81421,81621,1,0 P,0,81421,81621,A C,0,81421,,0,202,0
Sprite,Foreground,Centre,"sb/haireitsu.png",0,0 S,2,81694,82098,0.8,0.16 F,2,81694,82098,1,0 P,0,81694,82098,A C,0,81694,,0,202,0 M,0,81694,81728,174,75,183.746,85.05061 M,0,81728,81762,183.746,85.05061,193.4921,95.10121 M,0,81762,81796,193.4921,95.10121,203.2381,105.1518 M,0,81796,81830,203.2381,105.1518,212.9842,115.2024 M,0,81830,81864,212.9842,115.2024,222.7302,125.253 M,0,81864,81898,222.7302,125.253,232.4763,135.3036
Sprite,Foreground,Centre,"sb/haireitsu.png",248,163 S,2,81966,82166,0.8,0.16 F,2,81966,82166,1,0 P,0,81966,82166,A C,0,81966,,0,202,0
Sprite,Foreground,Centre,"sb/haireitsu.png",249,287 S,2,82239,82439,0.8,0.16 F,2,82239,82439,1,0 P,0,82239,82439,A C,0,82239,,0,202,0
Sprite,Foreground,Centre,"sb/haireitsu.png",122,288 S,2,82512,82712,0.8,0.16 F,2,82512,82712,1,0 P,0,82512,82712,A C,0,82512,,0,202,0
Sprite,Foreground,Centre,"sb/haireitsu.png",0,0 S,2,82785,83121,0.8,0.16 F,2,82785,83121,1,0 P,0,82785,83121,A C,0,82785,,0,202,0 M,0,82785,82819,115,161,128.9934,160.5694 M,0,82819,82853,128.9934,160.5694,142.9868,160.1389 M,0,82853,82887,142.9868,160.1389,156.9801,159.7083 M,0,82887,82921,156.9801,159.7083,170.9735,159.2777
Sprite,Foreground,Centre,"sb/haireitsu.png",0,0 S,2,83057,83461,0.8,0.16 F,2,83057,83461,1,0 P,0,83057,83461,A C,0,83057,,18,124,255 M,0,83057,83091,309,219,316.9082,230.4892 M,0,83091,83125,316.9082,230.4892,326.2858,240.784 M,0,83125,83159,326.2858,240.784,337.2641,249.4114 M,0,83159,83193,337.2641,249.4114,349.7767,255.5679 M,0,83193,83227,349.7767,255.5679,363.0052,259.8961 M,0,83227,83261,363.0052,259.8961,376.7983,261.9855
Sprite,Foreground,Centre,"sb/haireitsu.png",0,0 S,2,83330,83734,0.8,0.16 F,2,83330,83734,1,0 P,0,83330,83734,A C,0,83330,,18,124,255 M,0,83330,83364,376,262,389.3029,266.1281 M,0,83364,83398,389.3029,266.1281,403.0576,268.1659 M,0,83398,83432,403.0576,268.1659,416.931,267.066 M,0,83432,83466,416.931,267.066,430.3506,263.5485 M,0,83466,83500,430.3506,263.5485,442.8972,257.5513 M,0,83500,83534,442.8972,257.5513,453.7819,248.8788
Sprite,Foreground,Centre,"sb/haireitsu.png",0,0 S,2,83603,84007,0.8,0.16 F,2,83603,84007,1,0 P,0,83603,84007,A C,0,83603,,18,124,255 M,0,83603,83637,454,248,467.0506,243.1812 M,0,83637,83671,467.0506,243.1812,478.9973,236.1326 M,0,83671,83705,478.9973,236.1326,489.178,226.6296 M,0,83705,83739,489.178,226.6296,496.459,214.7825 M,0,83739,83773,496.459,214.7825,501.3643,201.8244 M,0,83773,83807,501.3643,201.8244,503.3597,188.0696
Sprite,Foreground,Centre,"sb/haireitsu.png",0,0 S,2,83876,84280,0.8,0.16 F,2,83876,84280,1,0 P,0,83876,84280,A C,0,83876,,18,124,255 M,0,83876,83910,503,187,506.0652,173.3796 M,0,83910,83944,506.0652,173.3796,507.5017,159.51 M,0,83944,83978,507.5017,159.51,506.9334,145.5512 M,0,83978,84012,506.9334,145.5512,503.881,131.9303 M,0,84012,84046,503.881,131.9303,499.1832,118.8079 M,0,84046,84080,499.1832,118.8079,492.7003,106.4318
Sprite,Foreground,Centre,"sb/haireitsu.png",0,0 S,2,84148,85166,0.8,0.16 F,2,84148,85166,1,0 P,0,84148,85166,A C,0,84148,,18,124,255 M,0,84148,84182,493,106,502.3631,116.396 M,0,84182,84216,502.3631,116.396,511.1047,127.3142 M,0,84216,84250,511.1047,127.3142,519.0607,138.824 M,0,84250,84284,519.0607,138.824,525.9995,150.9722 M,0,84284,84318,525.9995,150.9722,532.1734,163.5203 M,0,84318,84352,532.1734,163.5203,537.452,176.4749 M,0,84352,84386,537.452,176.4749,541.8094,189.7746 M,0,84386,84420,541.8094,189.7746,544.9648,203.405 M,0,84420,84454,544.9648,203.405,547.3179,217.1919 M,0,84454,84488,547.3179,217.1919,548.697,231.1153 M,0,84488,84523,548.697,231.1153,548.8828,245.1041 M,0,84523,84557,548.8828,245.1041,548.2,259.072 M,0,84557,84591,548.2,259.072,546.5371,272.9612 M,0,84591,84625,546.5371,272.9612,543.9012,286.7057 M,0,84625,84659,543.9012,286.7057,540.0591,300.1585 M,0,84659,84693,540.0591,300.1585,535.434,313.3577 M,0,84693,84727,535.434,313.3577,529.891,326.2039 M,0,84727,84761,529.891,326.2039,523.2772,338.532 M,0,84761,84795,523.2772,338.532,515.909,350.4178 M,0,84795,84829,515.909,350.4178,507.7218,361.7597 M,0,84829,84863,507.7218,361.7597,498.754,372.5032 M,0,84863,84898,498.754,372.5032,488.8762,382.4111 M,0,84898,84932,488.8762,382.4111,478.4326,391.7135 M,0,84932,84966,478.4326,391.7135,467.3761,400.2907
Sprite,Foreground,Centre,"sb/haireitsu.png",305,245 S,2,85238,85438,0.8,0.16 F,2,85238,85438,1,0 P,0,85238,85438,A C,0,85238,,242,24,57
Sprite,Foreground,Centre,"sb/haireitsu.png",214,156 S,2,85511,85711,0.8,0.16 F,2,85511,85711,1,0 P,0,85511,85711,A C,0,85511,,242,24,57
Sprite,Foreground,Centre,"sb/haireitsu.png",305,65 S,2,85784,85984,0.8,0.16 F,2,85784,85984,1,0 P,0,85784,85984,A C,0,85784,,242,24,57
Sprite,Foreground,Centre,"sb/haireitsu.png",0,0 S,2,86057,86461,0.8,0.16 F,2,86057,86461,1,0 P,0,86057,86461,A C,0,86057,,242,24,57 M,0,86057,86091,389,150,379.7328,160.4937 M,0,86091,86125,379.7328,160.4937,370.4656,170.9875 M,0,86125,86159,370.4656,170.9875,361.1984,181.4813 M,0,86159,86193,361.1984,181.4813,351.9312,191.975 M,0,86193,86227,351.9312,191.975,342.6639,202.4688 M,0,86227,86261,342.6639,202.4688,333.3968,212.9625
Sprite,Foreground,Centre,"sb/haireitsu.png",306,245 S,2,86330,86530,0.8,0.16 F,2,86330,86530,1,0 P,0,86330,86530,A C,0,86330,,255,192,0
Sprite,Foreground,Centre,"sb/haireitsu.png",178,244 S,2,86603,86803,0.8,0.16 F,2,86603,86803,1,0 P,0,86603,86803,A C,0,86603,,255,192,0
Sprite,Foreground,Centre,"sb/haireitsu.png",178,117 S,2,86876,87076,0.8,0.16 F,2,86876,87076,1,0 P,0,86876,87076,A C,0,86876,,255,192,0
Sprite,Foreground,Centre,"sb/haireitsu.png",0,0 S,2,87148,87484,0.8,0.16 F,2,87148,87484,1,0 P,0,87148,87484,A C,0,87148,,255,192,0 M,0,87148,87182,307,116,307.4056,129.9941 M,0,87182,87216,307.4056,129.9941,307.8112,143.9883 M,0,87216,87250,307.8112,143.9883,308.2169,157.9824 M,0,87250,87284,308.2169,157.9824,308.6225,171.9765
Sprite,Foreground,Centre,"sb/haireitsu.png",0,0 S,2,87694,88166,0.8,0.16 F,2,87694,88166,1,0 P,0,87694,88166,A C,0,87694,,0,202,0 M,0,87694,87728,308,171,309.2345,184.8883 M,0,87728,87762,309.2345,184.8883,312.2953,198.4778 M,0,87762,87796,312.2953,198.4778,318.0585,211.1645 M,0,87796,87830,318.0585,211.1645,325.64,222.8189 M,0,87830,87864,325.64,222.8189,335.0667,233.0939 M,0,87864,87898,335.0667,233.0939,346.4332,241.1591 M,0,87898,87932,346.4332,241.1591,358.8153,247.5 M,0,87932,87966,358.8153,247.5,372.1176,251.7576
Sprite,Foreground,Centre,"sb/haireitsu.png",0,0 S,2,88104,88576,0.8,0.16 F,2,88104,88576,1,0 P,0,88104,88576,A C,0,88104,,0,202,0 M,0,88104,88138,450,263,448.7655,249.1117 M,0,88138,88172,448.7655,249.1117,445.7047,235.5222 M,0,88172,88206,445.7047,235.5222,439.9415,222.8355 M,0,88206,88240,439.9415,222.8355,432.36,211.1811 M,0,88240,88274,432.36,211.1811,422.9333,200.9061 M,0,88274,88308,422.9333,200.9061,411.5668,192.8409 M,0,88308,88342,411.5668,192.8409,399.1847,186.5 M,0,88342,88376,399.1847,186.5,385.8824,182.2424
Sprite,Foreground,Centre,"sb/haireitsu.png",0,0 S,2,88513,89122,0.8,0.16 F,2,88513,89122,1,0 P,0,88513,89122,A C,0,88513,,0,202,0 M,0,88513,88547,372,251,368.6969,264.579 M,0,88547,88581,368.6969,264.579,366.7529,278.4044 M,0,88581,88615,366.7529,278.4044,366.4616,292.3741 M,0,88615,88649,366.4616,292.3741,368.1138,306.2483 M,0,88649,88683,368.1138,306.2483,371.2542,319.8462 M,0,88683,88717,371.2542,319.8462,375.9864,332.9817 M,0,88717,88751,375.9864,332.9817,382.248,345.4738 M,0,88751,88785,382.248,345.4738,390.1903,356.9694 M,0,88785,88819,390.1903,356.9694,399.3132,367.5307 M,0,88819,88853,399.3132,367.5307,409.6285,376.9405 M,0,88853,88888,409.6285,376.9405,420.9966,385.0677 M,0,88888,88922,420.9966,385.0677,433.3894,391.5215
Sprite,Foreground,Centre,"sb/haireitsu.png",0,0 S,2,89058,89667,0.8,0.16 F,2,89058,89667,1,0 P,0,89058,89667,A C,0,89058,,0,202,0 M,0,89058,89092,461,308,464.2181,294.4039 M,0,89092,89126,464.2181,294.4039,466.0811,280.5679 M,0,89126,89160,466.0811,280.5679,466.2634,266.586 M,0,89160,89194,466.2634,266.586,464.2851,252.7558 M,0,89194,89228,464.2851,252.7558,460.932,239.2058 M,0,89228,89262,460.932,239.2058,455.9633,226.1392 M,0,89262,89296,455.9633,226.1392,449.0632,213.9919 M,0,89296,89330,449.0632,213.9919,440.9651,202.6248 M,0,89330,89364,440.9651,202.6248,431.5435,192.3021 M,0,89364,89398,431.5435,192.3021,420.6786,183.5211 M,0,89398,89433,420.6786,183.5211,408.9705,175.9278 M,0,89433,89467,408.9705,175.9278,396.4168,169.7926
Sprite,Foreground,Centre,"sb/haireitsu.png",254,101 S,2,89603,89803,0.8,0.16 F,2,89603,89803,1,0 P,0,89603,89803,A C,0,89603,,18,124,255
Sprite,Foreground,Centre,"sb/haireitsu.png",163,191 S,2,89876,90076,0.8,0.16 F,2,89876,90076,1,0 P,0,89876,90076,A C,0,89876,,18,124,255
Sprite,Foreground,Centre,"sb/haireitsu.png",254,281 S,2,90149,90349,0.8,0.16 F,2,90149,90349,1,0 P,0,90149,90349,A C,0,90149,,18,124,255
Sprite,Foreground,Centre,"sb/haireitsu.png",0,0 S,2,90422,90826,0.8,0.16 F,2,90422,90826,1,0 P,0,90422,90826,A C,0,90422,,18,124,255 M,0,90422,90456,338,196,328.7328,185.5063 M,0,90456,90490,328.7328,185.5063,319.4656,175.0125 M,0,90490,90524,319.4656,175.0125,310.1984,164.5187 M,0,90524,90558,310.1984,164.5187,300.9312,154.025 M,0,90558,90592,300.9312,154.025,291.6639,143.5313 M,0,90592,90626,291.6639,143.5313,282.3967,133.0375
Sprite,Foreground,Centre,"sb/haireitsu.png",255,101 S,2,90695,90895,0.8,0.16 F,2,90695,90895,1,0 P,0,90695,90895,A C,0,90695,,242,24,57
Sprite,Foreground,Centre,"sb/haireitsu.png",127,103 S,2,90966,91166,0.8,0.16 F,2,90966,91166,1,0 P,0,90966,91166,A C,0,90966,,242,24,57
Sprite,Foreground,Centre,"sb/haireitsu.png",128,231 S,2,91239,91439,0.8,0.16 F,2,91239,91439,1,0 P,0,91239,91439,A C,0,91239,,242,24,57
Sprite,Foreground,Centre,"sb/haireitsu.png",0,0 S,2,91513,91849,0.8,0.16 F,2,91513,91849,1,0 P,0,91513,91849,A C,0,91513,,242,24,57 M,0,91513,91547,260,237,260.4116,223.0061 M,0,91547,91581,260.4116,223.0061,260.8232,209.0121 M,0,91581,91615,260.8232,209.0121,261.2347,195.0182 M,0,91615,91649,261.2347,195.0182,261.6464,181.0242
Sprite,Foreground,Centre,"sb/haireitsu.png",0,0 S,2,91785,92189,0.8,0.16 F,2,91785,92189,1,0 P,0,91785,92189,A C,0,91785,,255,192,0 M,0,91785,91819,262,181,265.5191,167.5819 M,0,91819,91853,265.5191,167.5819,271.6062,155.148 M,0,91853,91887,271.6062,155.148,281.1855,145.1418 M,0,91887,91921,281.1855,145.1418,292.6947,137.556 M,0,91921,91955,292.6947,137.556,305.8049,132.999 M,0,91955,91989,305.8049,132.999,319.6625,132.7821
Sprite,Foreground,Centre,"sb/haireitsu.png",0,0 S,2,92057,92461,0.8,0.16 F,2,92057,92461,1,0 P,0,92057,92461,A C,0,92057,,255,192,0 M,0,92057,92091,319,132,332.8252,130.7478 M,0,92091,92125,332.8252,130.7478,346.6015,132.1782 M,0,92125,92159,346.6015,132.1782,359.383,137.5464 M,0,92159,92193,359.383,137.5464,370.6244,145.5433 M,0,92193,92227,370.6244,145.5433,379.6841,156.0448 M,0,92227,92261,379.6841,156.0448,385.2281,168.7549
Sprite,Foreground,Centre,"sb/haireitsu.png",0,0 S,2,92330,92734,0.8,0.16 F,2,92330,92734,1,0 P,0,92330,92734,A C,0,92330,,255,192,0 M,0,92330,92364,385,168,392.0294,179.9754 M,0,92364,92398,392.0294,179.9754,396.6008,193.0475 M,0,92398,92432,396.6008,193.0475,397.2971,206.8972 M,0,92432,92466,397.2971,206.8972,394.912,220.4868 M,0,92466,92500,394.912,220.4868,389.3492,233.1714 M,0,92500,92534,389.3492,233.1714,380.4109,243.7742
Sprite,Foreground,Centre,"sb/haireitsu.png",0,0 S,2,92603,93007,0.8,0.16 F,2,92603,93007,1,0 P,0,92603,93007,A C,0,92603,,255,192,0 M,0,92603,92637,380,244,372.8894,255.9122 M,0,92637,92671,372.8894,255.9122,363.5047,266.0656 M,0,92671,92705,363.5047,266.0656,351.7679,273.5697 M,0,92705,92739,351.7679,273.5697,338.2888,276.843 M,0,92739,92773,338.2888,276.843,324.4742,277.227 M,0,92773,92807,324.4742,277.227,310.9142,274.0807
Sprite,Foreground,Centre,"sb/haireitsu.png",0,0 S,2,92876,94166,0.8,0.16 F,2,92876,94166,1,0 P,0,92876,94166,A C,0,92876,,255,192,0 M,0,92876,92910,310,274,321.7441,266.3823 M,0,92910,92944,321.7441,266.3823,333.057,258.138 M,0,92944,92978,333.057,258.138,343.8821,249.2632 M,0,92978,93012,343.8821,249.2632,354.1633,239.7638 M,0,93012,93046,354.1633,239.7638,363.8474,229.6566 M,0,93046,93080,363.8474,229.6566,372.8874,218.9694 M,0,93080,93114,372.8874,218.9694,381.2438,207.7397 M,0,93114,93148,381.2438,207.7397,388.8885,196.0139 M,0,93148,93182,388.8885,196.0139,395.8043,183.8438 M,0,93182,93216,395.8043,183.8438,401.9865,171.2849 M,0,93216,93251,401.9865,171.2849,402.239,162.9705 M,0,93251,93285,402.239,162.9705,388.7054,166.5534 M,0,93285,93319,388.7054,166.5534,375.2185,170.3085 M,0,93319,93353,375.2185,170.3085,361.8068,174.3232 M,0,93353,93387,361.8068,174.3232,348.5435,178.8003 M,0,93387,93421,348.5435,178.8003,335.8172,184.5766 M,0,93421,93455,335.8172,184.5766,340.614,193.4538 M,0,93455,93489,340.614,193.4538,351.99,201.6139 M,0,93489,93523,351.99,201.6139,363.3576,209.7856 M,0,93523,93557,363.3576,209.7856,374.7142,217.9726 M,0,93557,93591,374.7142,217.9726,386.0552,226.1812 M,0,93591,93626,386.0552,226.1812,397.3716,234.4239 M,0,93626,93660,397.3716,234.4239,408.639,242.733 M,0,93660,93694,408.639,242.733,419.4894,251.423 M,0,93694,93728,419.4894,251.423,430.4933,260.0705 M,0,93728,93762,430.4933,260.0705,442.2892,267.599 M,0,93762,93796,442.2892,267.599,454.8395,273.7852 M,0,93796,93830,454.8395,273.7852,468.04,278.4214 M,0,93830,93864,468.04,278.4214,481.7185,281.3597 M,0,93864,93898,481.7185,281.3597,495.6587,282.5501 M,0,93898,93932,495.6587,282.5501,509.6418,282.0502 M,0,93932,93966,509.6418,282.0502,523.4847,280.0025
Sprite,Foreground,Centre,"sb/haireitsu.png",0,0 S,2,52512,53393,0.8,0.16 F,2,52512,53393,1,0 P,0,52512,53393,A C,0,52512,,0,202,0 M,0,52512,52546,276,135,289.9959,134.6628 M,0,52546,52580,289.9959,134.6628,303.9919,134.3255 M,0,52580,52614,303.9919,134.3255,317.9878,133.9883 M,0,52614,52648,317.9878,133.9883,331.9837,133.651 M,0,52648,52682,331.9837,133.651,345.9797,133.3138 M,0,52682,52716,345.9797,133.3138,359.546,133.8089 M,0,52716,52750,359.546,133.8089,367.3786,145.4128 M,0,52750,52784,367.3786,145.4128,375.2112,157.0166 M,0,52784,52818,375.2112,157.0166,383.0439,168.6205 M,0,52818,52852,383.0439,168.6205,382.792,181.1044 M,0,52852,52887,382.792,181.1044,377.6393,194.1217 M,0,52887,52921,377.6393,194.1217,372.4867,207.139 M,0,52921,52955,372.4867,207.139,367.334,220.1563 M,0,52955,52989,367.334,220.1563,355.8409,227.8476 M,0,52989,53023,355.8409,227.8476,343.9084,235.1698 M,0,53023,53057,343.9084,235.1698,331.9759,242.4921 M,0,53057,53091,331.9759,242.4921,322.8863,251.4671 M,0,53091,53125,322.8863,251.4671,322.4276,265.4595 M,0,53125,53159,322.4276,265.4595,321.9688,279.452 M,0,53159,53193,321.9688,279.452,321.51,293.4445
Sprite,Foreground,Centre,"sb/haireitsu.png",322,372 S,2,53330,53530,0.8,0.16 F,2,53330,53530,1,0 P,0,53330,53530,A C,0,53330,,0,202,0
Sprite,Foreground,Centre,"sb/haireitsu.png",0,0 S,2,53603,54484,0.8,0.16 F,2,53603,54484,1,0 P,0,53603,54484,A C,0,53603,,18,124,255 M,0,53603,53637,241,271,254.2122,266.3701 M,0,53637,53671,254.2122,266.3701,267.4245,261.7401 M,0,53671,53705,267.4245,261.7401,280.6368,257.1102 M,0,53705,53739,280.6368,257.1102,293.849,252.4803 M,0,53739,53773,293.849,252.4803,307.0613,247.8503 M,0,53773,53807,307.0613,247.8503,320.2735,243.2204 M,0,53807,53841,320.2735,243.2204,333.4858,238.5905 M,0,53841,53875,333.4858,238.5905,346.6981,233.9605 M,0,53875,53909,346.6981,233.9605,357.5573,231.9752 M,0,53909,53943,357.5573,231.9752,354.3008,245.5907 M,0,53943,53978,354.3008,245.5907,350.6296,259.1001 M,0,53978,54012,350.6296,259.1001,346.4179,272.4502 M,0,54012,54046,346.4179,272.4502,341.4973,285.5546 M,0,54046,54080,341.4973,285.5546,335.6552,298.273 M,0,54080,54114,335.6552,298.273,328.6459,310.3842 M,0,54114,54148,328.6459,310.3842,320.2514,321.5758 M,0,54148,54182,320.2514,321.5758,310.3919,331.498 M,0,54182,54216,310.3919,331.498,299.2243,339.9225 M,0,54216,54250,299.2243,339.9225,287.0757,346.8647 M,0,54250,54284,287.0757,346.8647,274.2902,352.5578
Sprite,Foreground,Centre,"sb/haireitsu.png",187,373 S,2,54421,54621,0.8,0.16 F,2,54421,54621,1,0 P,0,54421,54621,A C,0,54421,,18,124,255
Sprite,Foreground,Centre,"sb/haireitsu.png",0,0 S,2,54694,55575,0.8,0.16 F,2,54694,55575,1,0 P,0,54694,55575,A C,0,54694,,242,24,57 M,0,54694,54728,181,199,194.9355,199.9648 M,0,54728,54762,194.9355,199.9648,204.7361,209.0119 M,0,54762,54796,204.7361,209.0119,207.1265,222.7629 M,0,54796,54830,207.1265,222.7629,207.5022,236.7549 M,0,54830,54864,207.5022,236.7549,207.2459,250.7522 M,0,54864,54898,207.2459,250.7522,206.7297,264.7426 M,0,54898,54932,206.7297,264.7426,206.0966,278.7282 M,0,54932,54966,206.0966,278.7282,205.4135,292.7115 M,0,54966,55000,205.4135,292.7115,201.2387,305.2842 M,0,55000,55034,201.2387,305.2842,192.5895,316.2874 M,0,55034,55069,192.5895,316.2874,185.0714,328.088 M,0,55069,55103,185.0714,328.088,179.273,340.8127 M,0,55103,55137,179.273,340.8127,176.1874,354.4313 M,0,55137,55171,176.1874,354.4313,177.1932,368.3264 M,0,55171,55205,177.1932,368.3264,183.0316,380.9655 M,0,55205,55239,183.0316,380.9655,192.6608,391.0619 M,0,55239,55273,192.6608,391.0619,204.4367,398.5909 M,0,55273,55307,204.4367,398.5909,217.3011,404.086 M,0,55307,55341,217.3011,404.086,230.7261,408.0357 M,0,55341,55375,230.7261,408.0357,244.449,410.7891
Sprite,Foreground,Centre,"sb/haireitsu.png",338,408 S,2,55512,55712,0.8,0.16 F,2,55512,55712,1,0 P,0,55512,55712,A C,0,55512,,242,24,57
Sprite,Foreground,Centre,"sb/haireitsu.png",0,0 S,2,55785,56530,0.8,0.16 F,2,55785,56530,1,0 P,0,55785,56530,A C,0,55785,,255,192,0 M,0,55785,55819,516,405,523.3586,393.108 M,0,55819,55853,523.3586,393.108,529.7926,380.6999 M,0,55853,55887,529.7926,380.6999,535.0675,367.7469 M,0,55887,55921,535.0675,367.7469,538.8738,354.2917 M,0,55921,55955,538.8738,354.2917,541.5767,340.5816 M,0,55955,55989,541.5767,340.5816,543.0143,326.6757 M,0,55989,56023,543.0143,326.6757,543.1735,312.6861 M,0,56023,56057,543.1735,312.6861,541.7329,298.7764 M,0,56057,56091,541.7329,298.7764,539.2213,285.028 M,0,56091,56125,539.2213,285.028,535.4602,271.5596 M,0,56125,56160,535.4602,271.5596,530.2523,258.5826 M,0,56160,56194,530.2523,258.5826,523.9938,246.0893 M,0,56194,56228,523.9938,246.0893,516.6157,234.2166 M,0,56228,56262,516.6157,234.2166,508.1763,223.0612 M,0,56262,56296,508.1763,223.0612,498.5373,212.9303 M,0,56296,56330,498.5373,212.9303,488.1334,203.6
Sprite,Foreground,Centre,"sb/haireitsu.png",302,95 S,2,56603,56803,0.8,0.16 F,2,56603,56803,1,0 P,0,56603,56803,A C,0,56603,,255,192,0
Sprite,Foreground,Centre,"sb/haireitsu.png",0,0 S,2,56876,57348,0.8,0.16 F,2,56876,57348,1,0 P,0,56876,57348,A C,0,56876,,0,202,0 M,0,56876,56910,223,146,223.5596,159.9888 M,0,56910,56944,223.5596,159.9888,224.1191,173.9776 M,0,56944,56978,224.1191,173.9776,224.6787,187.9664 M,0,56978,57012,224.6787,187.9664,225.2382,201.9553 M,0,57012,57046,225.2382,201.9553,225.7978,215.9441 M,0,57046,57080,225.7978,215.9441,226.3573,229.9329 M,0,57080,57114,226.3573,229.9329,226.9169,243.9217 M,0,57114,57148,226.9169,243.9217,227.4764,257.9105
Sprite,Foreground,Centre,"sb/haireitsu.png",0,0 S,2,57421,57893,0.8,0.16 F,2,57421,57893,1,0 P,0,57421,57893,A C,0,57421,,0,202,0 M,0,57421,57455,119,110,119.1147,123.9995 M,0,57455,57489,119.1147,123.9995,119.2295,137.9991 M,0,57489,57523,119.2295,137.9991,119.3443,151.9986 M,0,57523,57557,119.3443,151.9986,119.459,165.9981 M,0,57557,57591,119.459,165.9981,119.5737,179.9977 M,0,57591,57625,119.5737,179.9977,119.6885,193.9972 M,0,57625,57659,119.6885,193.9972,119.8033,207.9967 M,0,57659,57693,119.8033,207.9967,119.918,221.9962
Sprite,Foreground,Centre,"sb/haireitsu.png",0,0 S,2,57966,58302,0.8,0.16 F,2,57966,58302,1,0 P,0,57966,58302,A C,0,57966,,0,202,0 M,0,57966,58000,308,362,319.0612,370.582 M,0,58000,58034,319.0612,370.582,330.1224,379.1639 M,0,58034,58068,330.1224,379.1639,341.1836,387.7459 M,0,58068,58102,341.1836,387.7459,352.2448,396.3279
Sprite,Foreground,Centre,"sb/haireitsu.png",0,0 S,2,58239,58984,0.8,0.16 F,2,58239,58984,1,0 P,0,58239,58984,A C,0,58239,,18,124,255 M,0,58239,58273,438,408,451.7672,405.5671 M,0,58273,58307,451.7672,405.5671,465.2659,401.9666 M,0,58307,58341,465.2659,401.9666,478.33,396.986 M,0,58341,58375,478.33,396.986,490.6709,390.4203 M,0,58375,58409,490.6709,390.4203,502.3448,382.7534 M,0,58409,58443,502.3448,382.7534,513.1693,373.9161 M,0,58443,58477,513.1693,373.9161,523.0306,363.9983 M,0,58477,58511,523.0306,363.9983,531.5413,352.9078 M,0,58511,58545,531.5413,352.9078,523.0306,363.9983 M,0,58545,58579,523.0306,363.9983,513.1693,373.9161 M,0,58579,58614,513.1693,373.9161,502.3448,382.7534 M,0,58614,58648,502.3448,382.7534,490.6709,390.4203 M,0,58648,58682,490.6709,390.4203,478.33,396.986 M,0,58682,58716,478.33,396.986,465.2659,401.9666 M,0,58716,58750,465.2659,401.9666,451.7672,405.5671 M,0,58750,58784,451.7672,405.5671,438,408
//Storyboard Sound Samples

[TimingPoints]
8876,272.727272727273,4,1,1,100,1,0
8876,-125,4,1,1,100,0,0
26058,-125,4,1,1,100,0,0
26468,-125,4,1,1,100,0,0
26603,-125,4,1,1,100,0,0
26703,-250,4,1,1,100,0,0
33966,-133.333333333333,4,1,1,100,0,0
52376,-125,4,1,1,100,0,0
59057,-125,4,1,1,100,0,1
60898,-125,4,1,1,5,0,1
60932,-125,4,1,1,100,0,1
61171,-125,4,1,1,5,0,1
61239,-125,4,1,1,100,0,1
93966,-125,4,1,1,100,0,0
128876,-125,4,1,1,100,0,0
133239,-125,4,1,1,100,0,0
135148,-125,4,1,1,100,0,1
153148,-125,4,1,1,100,0,0
193989,-125,4,1,1,100,0,0
196512,-125,4,1,1,100,0,1
231694,-125,4,1,1,100,0,0

[HitObjects]
312,56,8876,6,0,L|400:136,1,112
424,216,9421,2,0,P|452:223|471:247,1,56
408,296,9694,2,0,P|405:328|384:352,1,56
316,340,9966,2,0,L|265:383,2,56
372,261,10512,2,0,P|351:225|326:200,1,56
41,40,10921,5,0,0:0:0:0:
41,40,11057,2,0,P|25:105|26:116,1,56
137,91,11330,2,0,P|198:73|268:87,1,112
372,144,11739,2,0,L|377:200,2,56
279,232,12148,1,0,0:0:0:0:
283,341,12421,1,0,0:0:0:0:
283,341,12694,2,0,P|219:347|206:339,2,56
472,204,13239,5,0,0:0:0:0:
473,204,13512,2,0,B|422:250|422:250|378:250,1,112
272,223,14057,1,0,0:0:0:0:
272,223,14330,2,0,L|243:283,2,56
407,342,14876,2,0,L|468:344,2,56,0|0|8,0:0|0:0|0:0,0:0:0:0:
152,344,15421,5,0,0:0:0:0:
152,344,15694,2,0,L|112:290,1,56
237,134,15966,1,0,0:0:0:0:
237,133,16239,2,0,L|276:191,1,56
315,346,16512,2,0,B|245:349|245:349|199:350|199:350,1,112
332,178,17057,1,0,0:0:0:0:
351,332,17330,2,0,B|390:351|390:351|417:331,2,56
213,218,17876,6,0,B|180:165|180:165|236:139,1,112
424,98,18421,1,0,0:0:0:0:
424,98,18694,2,0,B|476:135|476:135|478:141,1,56
463,156,18966,2,0,L|337:208,1,112
202,302,19376,2,0,L|182:355,1,56
103,40,19785,1,8,0:0:0:0:
103,40,20057,6,0,B|71:168|71:168|66:166,1,112,4|8,0:0|0:0,0:0:0:0:
290,167,20466,2,0,L|350:167,1,56
214,226,20739,2,0,L|214:287,2,56,0|0|8,0:0|0:0|0:0,0:0:0:0:
148,165,21148,1,0,0:0:0:0:
205,91,21285,2,0,L|253:48,1,56
332,89,21557,2,0,P|424:121|502:112,1,168,4|8,0:0|0:0,0:0:0:0:
451,243,22239,5,0,0:0:0:0:
451,243,22512,2,0,P|367:263|334:251,2,112
377,168,23194,1,0,0:0:0:0:
377,168,23330,1,0,0:0:0:0:
419,73,23603,2,0,P|453:125|461:188,1,112
384,312,24148,6,0,L|332:360,1,56
256,320,24421,2,0,L|200:368,1,56
216,224,24694,6,0,L|145:226,1,56,0|0,0:3|0:3,0:3:0:0:
136,314,24967,2,0,L|62:319,1,56,0|0,0:3|0:3,0:3:0:0:
46,218,25239,1,0,0:0:0:0:
46,218,25376,2,0,L|98:166,1,56
75,79,25648,2,0,L|23:131,1,56
241,43,26057,6,0,L|221:72,4,28
336,269,30421,6,0,L|373:322,1,56
135,175,34239,6,0,L|232:213,2,105.000004005432
378,302,35057,6,0,B|438:323|438:323|487:302,1,105.000004005432
422,240,35466,1,0,0:0:0:0:
422,240,35603,2,0,L|372:217,1,52.5000020027161
349,250,35876,1,8,0:0:0:0:
351,286,36012,1,0,0:0:0:0:
349,319,36148,2,0,B|316:360|316:360|244:360,1,105.000004005432
178,338,36557,1,0,0:0:0:0:
145,325,36694,1,0,0:0:0:0:
119,306,36830,2,0,B|171:257|171:257|232:253,1,131.25000500679
276,209,37239,5,0,0:0:0:0:
439,132,37512,1,0,0:0:0:0:
416,230,37785,2,0,L|459:285,1,52.5000020027161
337,207,38057,2,0,L|314:265,1,52.5000020027161
430,133,38330,2,0,L|470:193,1,52.5000020027161
342,74,38603,2,0,L|311:131,1,52.5000020027161
232,47,38876,1,0,0:0:0:0:
232,47,39012,2,0,B|210:109|210:109|214:172,1,105.000004005432
231,338,39421,6,0,B|263:267|263:267|296:302,1,105.000004005432
372,339,39966,2,0,P|412:249|413:227,2,105.000004005432
316,298,40785,1,0,0:0:0:0:
312,299,41057,2,0,B|235:263|235:263|194:270,1,105.000004005432
113,282,41603,1,8,0:0:0:0:
130,40,41876,6,0,L|88:87,1,52.5000020027161
89,221,42148,2,0,L|129:172,1,52.5000020027161
220,118,42421,2,0,L|149:112,1,52.5000020027161
51,63,42694,2,0,L|52:130,1,52.5000020027161
29,192,42966,1,0,0:0:0:0:
13,229,43103,1,0,0:0:0:0:
53,239,43239,2,0,L|57:130,1,105.000004005432
467,134,43785,5,0,0:0:0:0:
467,134,44057,2,0,B|466:202|466:202|440:244,1,105.000004005432
382,195,44466,1,0,0:0:0:0:
297,198,44603,2,0,L|301:253,1,52.5000020027161
326,330,44876,2,0,L|368:369,1,52.5000020027161
393,290,45148,1,0,0:0:0:0:
393,290,45285,1,0,0:0:0:0:
393,290,45421,1,0,0:0:0:0:
393,290,45557,2,0,B|337:236|337:236|334:145,1,157.500006008148
406,26,46239,5,0,0:0:0:0:
406,26,46512,2,0,L|350:75,1,52.5000020027161
303,129,46785,2,0,L|345:176,1,52.5000020027161
386,228,47057,2,0,L|443:200,1,52.5000020027161
292,269,47330,2,0,L|242:294,1,52.5000020027161
166,203,47603,1,0,0:0:0:0:
161,206,47739,2,0,P|256:146|312:152,1,157.500006008148
429,306,48421,5,0,0:0:0:0:
429,306,48694,2,0,P|396:340|336:339,1,105.000004005432
227,262,49239,1,0,0:0:0:0:
373,333,49512,2,0,P|421:342|490:313,2,105.000004005432
221,177,50194,5,0,0:0:0:0:
221,177,50330,2,0,L|281:165,1,52.5000020027161
392,152,50603,2,0,B|419:150|419:150|414:119,1,52.5000020027161
334,87,50876,2,0,B|325:60|325:60|365:61|365:61,1,52.5000020027161
430,47,51148,1,0,0:0:0:0:
454,63,51285,1,0,0:0:0:0:
473,86,51421,1,0,0:0:0:0:
479,119,51557,1,0,0:0:0:0:
477,152,51694,2,0,L|421:151,1,52.5000020027161
331,84,51966,2,0,L|396:84,1,52.5000020027161
212,79,52239,5,0,0:0:0:0:
212,79,52376,1,0,0:0:0:0:
212,79,52512,2,0,B|295:77|295:77|322:117|322:117|303:165|303:165|259:192|259:192|257:253,1,280
258,316,53330,1,0,0:0:0:0:
177,215,53603,6,0,B|294:174|294:174|276:255|253:282|201:300,1,280
123,317,54421,1,0,0:0:0:0:
117,143,54694,6,0,B|146:143|146:145|141:245|141:245|85:307|115:347|189:356,1,280
274,352,55512,1,0,0:0:0:0:
452,349,55785,6,0,P|479:273|408:136,1,224
238,39,56603,1,0,0:0:0:0:
159,90,56876,6,0,L|164:215,1,112
55,54,57421,2,0,L|56:176,1,112
244,306,57966,2,0,L|302:351,1,56
374,352,58239,6,0,P|437:328|473:289,2,112
101,93,59057,6,0,B|163:54|163:54|219:68,1,112
277,185,59603,1,0,0:0:0:0:
176,264,59876,1,0,0:0:0:0:
48,225,60148,2,0,L|47:281,1,56
52,101,60421,1,0,0:0:0:0:
169,181,60694,2,0,B|179:138|179:138|206:184,1,93.3333333333333
204,181,60966,2,0,B|234:235|233:235|164:232,1,93.3333333333333
180,232,61239,6,0,L|142:273,1,56
53,203,61512,2,0,L|104:242,1,56
172,140,61785,2,0,L|137:186,1,56
48,102,62057,2,0,L|93:145,1,56
128,69,62330,1,0,0:0:0:0:
153,92,62466,1,0,0:0:0:0:
183,120,62603,2,0,L|182:189,1,56
176,263,62876,1,0,0:0:0:0:
152,294,63012,1,0,0:0:0:0:
122,324,63148,2,0,B|44:323|44:323|35:282,1,112
43,139,63694,6,0,P|82:125|154:130,1,112
357,200,64239,1,0,0:0:0:0:
357,200,64512,2,0,P|357:273|323:313,1,112
113,257,65057,1,0,0:0:0:0:
113,257,65330,2,0,P|91:197|110:144,1,112
391,58,65876,1,0,0:0:0:0:
447,186,66148,1,0,0:0:0:0:
469,34,66421,1,0,0:0:0:0:
447,186,66694,2,0,P|435:249|373:266,2,112
298,95,67512,5,0,0:0:0:0:
298,95,67785,2,0,L|232:98,1,56
126,106,68057,2,0,L|127:169,1,56
130,285,68330,2,0,L|192:283,1,56
335,281,68603,2,0,L|336:350,1,56
230,342,68876,2,0,L|190:342,2,28
450,345,69148,2,0,L|450:279,1,56
447,201,69421,2,0,L|379:201,1,56
327,117,69694,2,0,L|285:157,1,56
190,270,69966,5,0,0:0:0:0:
215,353,70239,2,0,P|256:320|284:309,1,84
304,327,70512,1,0,0:0:0:0:
367,381,70785,2,0,P|413:338|453:318,1,84
450,340,71057,1,0,0:0:0:0:
353,218,71330,5,0,0:0:0:0:
353,218,71466,1,0,0:0:0:0:
353,218,71603,2,0,P|311:200|127:236,1,224
148,135,72421,5,0,0:0:0:0:
58,127,72694,2,0,P|70:63|132:46,1,112
193,46,73239,2,0,L|194:230,1,168
112,221,73785,2,0,P|124:284|186:301,1,112
263,313,74330,2,0,B|335:309|335:309|372:268,1,112
422,200,74876,1,0,0:0:0:0:
422,200,75148,1,0,0:0:0:0:
422,200,75421,6,0,B|420:314|420:314|462:350,1,168
477,314,75966,2,0,L|283:316,1,168
144,312,76512,5,0,0:0:0:0:
81,201,76785,1,0,0:0:0:0:
209,128,77057,1,0,0:0:0:0:
261,253,77330,2,0,L|190:300,1,84
182,327,77603,5,0,0:0:0:0:
23,330,77876,1,0,0:0:0:0:
25,165,78148,1,0,0:0:0:0:
181,165,78421,2,0,L|185:283,1,112
207,200,78966,6,0,P|217:241|279:282,1,112
277,201,79376,2,0,P|267:160|205:119,1,112
207,200,79785,2,0,P|208:275|276:344,1,168
277,201,80330,2,0,P|278:135|198:58,1,168
184,107,80876,1,0,0:0:0:0:
96,180,81148,1,0,0:0:0:0:
22,93,81421,1,0,0:0:0:0:
110,19,81694,2,0,L|174:85,1,84
184,107,81966,1,0,0:0:0:0:
185,231,82239,1,0,0:0:0:0:
58,232,82512,1,0,0:0:0:0:
51,105,82785,2,0,L|116:103,1,56
245,163,83057,6,0,P|271:192|336:204,1,84
312,206,83330,2,0,P|377:203|396:187,1,84
390,192,83603,2,0,P|438:145|436:110,1,84
439,131,83876,2,0,P|438:69|425:45,1,84
429,50,84148,2,0,P|485:181|398:348,1,336
241,189,85238,5,0,0:0:0:0:
150,100,85511,1,0,0:0:0:0:
241,9,85784,1,0,0:0:0:0:
325,94,86057,2,0,L|257:171,1,84
242,189,86330,5,0,0:0:0:0:
114,188,86603,1,0,0:0:0:0:
114,61,86876,1,0,0:0:0:0:
243,60,87148,2,0,L|245:129,1,56
244,115,87694,6,0,P|254:156|316:197,1,112
386,207,88104,2,0,P|376:166|314:125,1,112
308,195,88513,2,0,P|309:270|377:339,1,168
397,252,89058,2,0,P|398:186|318:109,1,168
190,45,89603,5,0,0:0:0:0:
99,135,89876,1,0,0:0:0:0:
190,225,90149,1,0,0:0:0:0:
274,140,90422,2,0,L|206:63,1,84
191,45,90695,5,0,0:0:0:0:
63,47,90966,1,0,0:0:0:0:
64,175,91239,1,0,0:0:0:0:
196,181,91513,2,0,L|198:113,1,56
198,125,91785,6,0,P|249:76|266:78,1,84
255,76,92057,2,0,P|302:85|324:122,1,84
321,112,92330,2,0,P|331:166|303:198,1,84
316,188,92603,2,0,P|267:222|227:204,1,84
246,218,92876,2,0,B|313:177|342:106|342:106|268:125|269:132|269:132|357:195|355:195|355:195|408:241|475:220,1,448
366,311,109239,5,0,0:0:0:0:
366,311,110330,1,0,0:0:0:0:
287,255,110603,5,0,0:0:0:0:
287,255,110876,1,0,0:0:0:0:
287,255,111148,1,0,0:0:0:0:
286,254,111421,2,0,P|340:248|404:248,1,112
242,178,111966,2,0,L|178:223,1,56
119,288,112239,2,0,L|136:352,1,56
233,350,112512,2,0,L|311:352,1,56
398,323,112785,2,0,L|396:352,2,28
466,247,113057,2,0,L|482:312,2,56
313,179,113466,6,0,L|369:219,1,56
139,56,113876,1,0,0:0:0:0:
183,132,114149,2,0,L|214:187,1,56
330,184,114422,2,0,L|388:183,1,56
386,293,114694,2,0,L|321:337,1,56
213,324,114967,2,0,L|160:266,1,56
62,159,115239,2,0,L|58:119,2,28
83,308,115512,2,0,L|75:373,2,56
141,53,116057,5,0,0:0:0:0:
41,196,116330,2,0,P|98:271|122:283,2,112
37,26,117148,1,0,0:0:0:0:
229,27,117421,2,0,P|312:62|327:94,1,112
361,177,117966,6,0,L|294:154,1,56
177,125,118239,2,0,L|160:197,1,56
294,239,118512,2,0,L|350:268,1,56
200,274,118785,2,0,L|144:275,1,56
39,294,119057,1,0,0:0:0:0:
18,335,119194,1,0,0:0:0:0:
32,372,119330,2,0,L|85:250,1,112
177,33,119876,1,0,0:0:0:0:
379,48,120148,6,0,L|408:101,1,56
277,130,120421,2,0,L|247:179,1,56
436,213,120694,2,0,L|467:276,1,56
296,299,120966,2,0,L|261:349,1,56
129,286,121239,2,0,L|110:259,2,28
38,101,121512,1,0,0:0:0:0:
54,68,121648,1,0,0:0:0:0:
84,53,121785,1,0,0:0:0:0:
121,52,121921,1,0,0:0:0:0:
148,64,122057,2,0,P|98:117|70:172,1,112
69,98,122603,5,0,0:0:0:0:
198,124,122876,2,0,L|233:171,1,56
99,185,123148,2,0,L|75:246,1,56
212,266,123421,2,0,L|248:310,1,56
90,350,123694,2,0,L|141:300,1,56
141,236,123966,2,0,L|106:236,2,28
46,315,124239,2,0,P|68:372|127:379,1,112
308,358,124785,5,0,0:0:0:0:
433,358,125057,2,0,P|472:322|469:252,2,112
308,358,125876,1,0,0:0:0:0:
176,359,126148,2,0,P|115:353|74:309,1,112
43,197,126557,5,0,0:0:0:0:
43,197,126693,2,0,L|105:154,1,56
182,125,126966,2,0,L|214:179,1,56
314,210,127239,2,0,L|281:283,1,56
371,344,127511,1,0,0:0:0:0:
399,362,127648,1,0,0:0:0:0:
432,359,127784,1,0,0:0:0:0:
462,348,127920,1,0,0:0:0:0:
480,319,128057,2,0,L|478:263,1,56
389,170,128329,2,0,L|391:245,1,56
391,338,128603,5,0,0:0:0:0:
390,338,128739,1,0,0:0:0:0:
390,338,128876,2,0,P|291:338|258:133,1,336
249,141,129966,2,0,P|231:274|402:370,1,336
384,372,131057,2,0,P|459:250|324:278,1,336
331,259,132148,2,0,P|353:332|228:260,1,336
315,67,133239,6,0,L|329:186,1,112
315,67,133785,2,0,L|431:58,1,112
426,58,134330,2,0,P|465:145|303:131,1,336
118,143,135421,6,0,B|181:106|181:106|239:111,1,112
397,152,135967,1,0,0:0:0:0:
193,51,136239,2,0,L|141:98,1,56
62,119,136512,2,0,L|81:178,1,56
45,264,136785,2,0,L|104:255,1,56
229,236,137058,2,0,B|239:193|239:193|278:151,1,93.3333333333333
273,157,137330,2,0,B|312:191|302:211|357:189,1,93.3333333333333
348,192,137603,6,0,L|394:135,1,56
458,139,137876,2,0,L|407:100,1,56
319,113,138149,2,0,L|354:67,1,56
462,66,138421,2,0,L|413:28,1,56
282,31,138694,1,0,0:0:0:0:
250,33,138830,1,0,0:0:0:0:
218,49,138967,2,0,L|217:118,1,56
207,260,139240,1,0,0:0:0:0:
206,294,139376,1,0,0:0:0:0:
203,334,139512,2,0,P|156:345|78:315,1,112
270,146,140057,6,0,P|288:195|273:262,1,112
357,200,140603,1,0,0:0:0:0:
357,200,140876,2,0,P|357:273|323:313,1,112
112,261,141421,2,0,P|90:201|109:148,1,112
459,136,141966,1,0,0:0:0:0:
302,160,142240,1,0,0:0:0:0:
459,136,142512,1,0,0:0:0:0:
289,96,142785,1,0,0:0:0:0:
459,136,143058,2,0,P|447:199|385:216,2,112
186,144,143876,5,0,0:3:0:0:
186,144,144149,2,0,L|190:209,1,56,0|0,0:3|0:3,0:3:0:0:
198,284,144421,2,0,L|261:283,1,56,0|0,0:3|0:3,0:3:0:0:
316,346,144694,2,0,L|352:290,1,56,0|0,0:3|0:3,0:3:0:0:
439,319,144967,2,0,L|437:255,1,56,0|0,0:3|0:3,0:3:0:0:
378,167,145240,2,0,L|347:179,2,28,0|0|0,0:3|0:3|0:3,0:3:0:0:
423,45,145512,2,0,L|357:45,1,56,0|0,0:3|0:3,0:3:0:0:
269,46,145785,2,0,L|269:114,1,56,0|0,0:3|0:3,0:3:0:0:
185,182,146058,2,0,L|225:224,1,56,0|0,0:3|0:3,0:3:0:0:
292,312,146330,5,0,0:3:0:0:
279,345,146603,2,0,P|238:312|210:301,1,84
190,319,146876,1,0,0:0:0:0:
122,342,147149,2,0,P|76:299|36:279,1,84
39,301,147421,1,0,0:0:0:0:
50,159,147694,5,0,0:0:0:0:
50,159,147830,1,0,0:0:0:0:
50,159,147967,2,0,P|56:113|218:42,1,224
300,75,148785,5,0,0:0:0:0:
300,75,149058,2,0,P|328:102|390:167,1,112
447,207,149603,2,0,L|448:391,1,168
352,372,150148,2,0,B|321:320|321:320|256:334,1,112
51,345,150694,5,0,0:0:0:0:
34,317,150830,1,0,0:0:0:0:
29,281,150966,1,0,0:0:0:0:
45,252,151103,1,0,0:0:0:0:
68,227,151239,2,0,P|90:197|108:179,1,56
79,54,151512,1,0,0:0:0:0:
54,81,151648,1,0,0:0:0:0:
45,112,151785,1,0,0:0:0:0:
47,149,151921,1,0,0:0:0:0:
66,181,152057,1,0,0:0:0:0:
90,208,152194,1,0,0:0:0:0:
126,211,152330,2,0,P|169:172|223:144,1,112
371,55,152876,5,0,0:0:0:0:
409,52,153012,1,0,0:0:0:0:
437,67,153149,1,0,0:0:0:0:
461,97,153285,1,0,0:0:0:0:
480,120,153421,1,0,0:0:0:0:
489,159,153557,2,0,L|444:192,1,56,0|0,0:3|0:3,0:3:0:0:
354,73,153830,5,0,0:0:0:0:
444,192,153967,1,0,0:0:0:0:
442,30,154103,1,0,0:0:0:0:
444,192,154239,2,0,P|366:267|179:131,1,373.333333333333
178,142,155194,2,0,B|123:90|123:90|162:72|94:289,1,280
75,348,156012,1,0,0:0:0:0:
145,352,156148,1,0,0:0:0:0:
212,333,156285,1,0,0:0:0:0:
266,291,156421,1,0,0:0:0:0:
303,234,156557,1,0,0:0:0:0:
330,179,156694,2,0,P|274:239|193:247,1,168
159,138,157240,5,0,0:0:0:0:
290,41,157376,1,0,0:0:0:0:
125,39,157512,1,0,0:0:0:0:
290,41,157648,2,0,P|341:39|360:36,1,56
435,35,157921,5,0,0:0:0:0:
469,83,158057,1,0,0:0:0:0:
464,149,158194,1,0,0:0:0:0:
312,260,158330,5,0,0:0:0:0:
384,124,158466,1,0,0:0:0:0:
300,264,158603,1,0,0:0:0:0:
268,128,158739,1,0,0:0:0:0:
296,252,158876,1,0,0:0:0:0:
352,136,159012,1,0,0:0:0:0:
216,260,159148,2,0,L|256:264,2,28
44,264,159421,5,0,0:0:0:0:
173,320,159557,1,0,0:0:0:0:
132,176,159694,1,0,0:0:0:0:
173,320,159830,2,0,P|218:351|233:348,1,56
380,244,160103,1,0,0:0:0:0:
248,268,160239,1,0,0:0:0:0:
312,160,160376,1,0,0:0:0:0:
66,46,160512,5,0,0:0:0:0:
196,133,160648,1,0,0:0:0:0:
66,46,160785,1,0,0:0:0:0:
250,41,160921,1,0,0:0:0:0:
66,46,161057,2,0,P|82:191|141:216,1,224
296,99,161875,5,0,0:0:0:0:
466,234,162012,1,0,0:0:0:0:
163,71,162285,6,0,L|106:122,1,56
62,216,162694,5,0,0:0:0:0:
233,322,162830,1,0,0:0:0:0:
163,228,163103,5,0,0:3:0:0:
116,266,163239,1,0,0:3:0:0:
66,244,163376,1,0,0:3:0:0:
32,288,163512,1,0,0:3:0:0:
47,350,163648,2,0,L|116:348,1,56,0|0,0:3|0:3,0:3:0:0:
327,321,164057,5,0,0:0:0:0:
327,321,164194,2,0,L|407:309,1,56
314,183,164466,2,0,L|242:187,1,56
63,187,164876,5,0,0:0:0:0:
72,131,165012,1,0,0:0:0:0:
113,91,165148,1,0,0:0:0:0:
159,57,165285,1,0,0:0:0:0:
217,55,165421,1,0,0:0:0:0:
272,74,165557,5,0,0:0:0:0:
323,100,165694,1,0,0:0:0:0:
349,149,165830,1,0,0:0:0:0:
370,200,165966,2,0,L|131:139,1,224
297,34,166785,5,0,0:0:0:0:
297,34,166921,1,0,0:0:0:0:
297,34,167057,2,0,L|300:139,1,84
299,117,167330,2,0,P|305:172|283:175,1,84
299,117,167603,2,0,P|251:142|224:127,1,84
227,130,167876,5,0,0:0:0:0:
227,130,168012,1,0,0:0:0:0:
227,130,168148,2,0,B|149:8|61:15|40:120|38:152|38:152|144:176|117:249,1,429.333333333333
118,244,169239,2,0,B|207:240|207:240|341:180|341:180|441:234,1,336
456,86,170330,1,0,0:0:0:0:
326,295,187785,5,0,0:0:0:0:
326,295,188330,1,0,0:0:0:0:
326,295,188876,1,0,0:0:0:0:
326,295,189421,1,0,0:0:0:0:
326,295,189966,1,0,0:0:0:0:
326,295,190512,1,0,0:0:0:0:
326,295,191057,1,0,0:0:0:0:
326,295,191603,1,0,0:0:0:0:
326,295,192148,1,0,0:0:0:0:
239,312,192421,1,0,0:0:0:0:
160,282,192694,1,0,0:0:0:0:
142,195,192966,1,0,0:0:0:0:
208,78,193239,5,0,0:0:0:0:
356,248,193512,1,0,0:0:0:0:
152,152,193785,1,0,0:0:0:0:
372,104,194057,1,0,0:0:0:0:
228,276,194330,1,0,0:0:0:0:
168,60,194603,1,0,0:0:0:0:
344,200,194876,1,0,0:0:0:0:
120,184,195148,1,0,0:0:0:0:
303,86,195421,2,0,P|343:240|204:332,1,336
91,143,196512,6,0,B|154:106|154:106|212:111,1,112
342,154,197058,1,0,0:0:0:0:
126,44,197330,2,0,L|74:82,1,56
83,201,197603,2,0,L|82:257,1,56
233,313,197876,1,0,0:0:0:0:
179,158,198149,2,0,B|260:158|260:158|252:176,1,93.3333333333333
254,169,198421,2,0,B|293:203|283:223|337:203,1,93.3333333333333
329,205,198694,6,0,L|367:263,1,56
287,308,198967,2,0,L|237:344,1,56
376,357,199240,2,0,L|428:315,1,56
430,198,199512,2,0,L|366:197,1,56
208,187,199785,1,0,0:0:0:0:
143,187,199921,1,0,0:0:0:0:
78,188,200057,2,0,P|76:235|98:248,1,56
137,271,200331,1,0,0:0:0:0:
193,305,200467,1,0,0:0:0:0:
257,296,200603,2,0,P|210:307|132:277,1,112
285,47,201148,5,0,0:0:0:0:
285,47,201421,2,0,L|358:68,1,56
467,105,201694,1,0,0:0:0:0:
467,105,201966,2,0,L|425:159,1,56
357,232,202239,1,0,0:0:0:0:
357,232,202512,2,0,L|359:166,1,56
276,87,202785,2,0,L|273:151,1,56
277,291,203057,5,0,0:0:0:0:
231,166,203331,1,0,0:0:0:0:
277,291,203603,1,0,0:0:0:0:
327,157,203876,1,0,0:0:0:0:
277,291,204149,2,0,P|243:341|190:377,2,112
427,173,204967,5,0,0:3:0:0:
427,173,205240,2,0,L|360:173,1,56,0|0,0:3|0:3,0:3:0:0:
143,170,205512,2,0,L|199:139,1,56,0|0,0:3|0:3,0:3:0:0:
397,27,205785,2,0,L|341:87,1,56,0|0,0:3|0:3,0:3:0:0:
222,253,206058,2,0,L|255:182,1,56,0|0,0:3|0:3,0:3:0:0:
311,26,206330,2,0,L|312:93,1,56
311,276,206603,2,0,L|289:200,1,56,0|0,0:3|0:3,0:3:0:0:
225,24,206876,2,0,L|290:70,1,56,0|0,0:3|0:3,0:3:0:0:
421,172,207149,2,0,L|354:172,1,56,0|0,0:3|0:3,0:3:0:0:
161,177,207421,5,0,0:3:0:0:
84,76,207694,2,0,L|144:76,1,56
228,24,207966,2,0,L|281:58,1,56
385,56,208239,2,0,L|385:119,1,56
379,211,208512,1,0,0:0:0:0:
360,296,208648,1,0,0:0:0:0:
283,337,208785,1,0,0:0:0:0:
192,324,208921,1,0,0:0:0:0:
105,279,209057,2,0,P|80:231|140:71,1,224
211,169,209876,5,0,0:0:0:0:
211,169,210149,2,0,P|239:196|301:261,1,112
252,93,210694,1,0,0:0:0:0:
152,250,210966,1,0,0:0:0:0:
112,72,211239,1,0,0:0:0:0:
60,246,211512,2,0,P|83:295|103:308,1,56
165,338,211785,5,0,0:0:0:0:
220,357,211921,1,0,0:0:0:0:
279,362,212057,1,0,0:0:0:0:
335,356,212194,1,0,0:0:0:0:
390,345,212330,2,0,P|418:342|439:322,1,56
401,233,212603,5,0,0:0:0:0:
367,177,212739,1,0,0:0:0:0:
348,112,212876,1,0,0:0:0:0:
380,57,213012,1,0,0:0:0:0:
447,42,213148,1,0,0:0:0:0:
481,100,213285,1,0,0:0:0:0:
485,169,213421,2,0,P|476:225|373:285,1,168
204,210,213966,5,0,0:0:0:0:
157,180,214103,1,0,0:0:0:0:
100,160,214239,1,0,0:0:0:0:
50,203,214376,1,0,0:0:0:0:
42,262,214512,1,0,0:0:0:0:
42,317,214648,1,0,0:0:0:0:
48,336,214785,1,0,0:0:0:0:
64,348,214921,1,0,0:0:0:0:
106,356,215057,5,0,0:0:0:0:
173,359,215194,1,0,0:0:0:0:
236,335,215330,1,0,0:0:0:0:
274,275,215466,1,0,0:0:0:0:
221,231,215603,2,0,P|206:173|228:121,1,112
409,127,216421,5,0,0:0:0:0:
158,229,216830,1,0,0:0:0:0:
432,32,217239,1,0,0:0:0:0:
248,332,217785,1,0,0:0:0:0:
101,195,218330,6,0,L|167:191,1,56
223,99,218603,2,0,L|143:99,1,56
294,47,218876,1,0,0:0:0:0:
375,31,219012,1,0,0:0:0:0:
436,87,219148,1,0,0:0:0:0:
418,169,219285,1,0,0:0:0:0:
363,229,219421,2,0,L|436:229,1,56
291,286,219694,2,0,L|219:286,1,56
350,348,219966,2,0,B|393:350|393:350|472:347|473:352|474:352,1,112
340,160,220512,5,0,0:0:0:0:
188,4,220785,1,0,0:0:0:0:
24,168,221057,1,0,0:0:0:0:
136,324,221330,1,0,0:0:0:0:
136,324,221603,2,0,P|260:303|311:202,1,224
374,70,222421,5,0,0:0:0:0:
274,103,222694,6,0,L|272:171,1,56
203,66,222966,1,0,0:0:0:0:
348,150,223103,2,0,L|346:211,1,56
342,284,223376,1,0,0:0:0:0:
275,323,223512,1,0,0:0:0:0:
200,323,223648,1,0,0:0:0:0:
145,275,223785,2,0,P|133:233|129:204,1,56
187,142,224057,2,0,L|126:98,1,56
169,36,224330,2,0,L|98:40,1,56
283,37,224603,2,0,P|330:37|370:91,1,112
404,196,225148,5,0,0:0:0:0:
121,326,225557,1,0,0:0:0:0:
317,221,225966,1,0,0:0:0:0:
72,193,226512,2,0,P|83:128|171:52,1,168
352,84,227057,6,0,P|382:109|390:134,1,56
216,188,227330,2,0,P|237:222|271:243,1,56
412,284,227603,2,0,P|405:316|334:367,1,112
208,227,228148,6,0,P|186:247|149:245,1,56
128,96,228421,2,0,P|148:64|183:71,1,56
376,76,228694,2,0,P|390:129|383:204,1,112
78,220,229239,5,0,0:0:0:0:
49,163,229376,1,0,0:0:0:0:
73,108,229512,1,0,0:0:0:0:
132,103,229648,2,0,L|205:101,1,56
363,123,230057,5,0,0:0:0:0:
395,184,230194,1,0,0:0:0:0:
360,244,230330,1,0,0:0:0:0:
298,270,230466,1,0,0:0:0:0:
232,268,230603,2,0,P|202:255|173:222,1,56
50,97,230876,5,0,0:0:0:0:
121,263,231012,1,0,0:0:0:0:
135,85,231148,1,0,0:0:0:0:
50,259,231285,1,0,0:0:0:0:
250,101,231421,1,0,0:0:0:0:
