osu file format v14

[General]
AudioFilename: audio.mp3
AudioLeadIn: 0
PreviewTime: 58239
Countdown: 0
SampleSet: Normal
StackLeniency: 0.3
Mode: 0
LetterboxInBreaks: 0
EpilepsyWarning: 1
WidescreenStoryboard: 1

[Editor]
DistanceSpacing: 3.5
BeatDivisor: 8
GridSize: 4
TimelineZoom: 3.099999

[Metadata]
Title:DSCF
TitleUnicode:DSCF
Artist:DECO*27
ArtistUnicode:DECO*27
Creator:eLzL
Version:Delusion
Source:DECO*27
Tags:Deco*27, Ghost, Hatsune Miku, Vocaloid, MKDR
BeatmapID:2017176
BeatmapSetID:961270

[Difficulty]
HPDrainRate:6
CircleSize:4.2
OverallDifficulty:8
ApproachRate:9
SliderMultiplier:1.4
SliderTickRate:1

[Events]
//Background and Video events
0,0,"bg.jpg",0,0
//Break Periods
2,26530,29821
2,30893,33639
2,94166,108639
2,170530,187185
//Storyboard Layer 0 (Background)
//Storyboard Layer 1 (Fail)
//Storyboard Layer 2 (Pass)
//Storyboard Layer 3 (Foreground)
Sprite,Foreground,Centre,"sb\haireitsu.png",0,0 C,0,227058,,0,202,0 M,0,227058,227092,420,186,408.3641,203.2528 F,2,227058,227326,1,0 S,2,227058,227326,0.8,0.16 P,0,227058,227326,A M,0,227092,227126,408.3641,203.2528,391.7379,215.6443
Sprite,Foreground,Centre,"sb\haireitsu.png",0,0 C,0,227194,,0,202,0 M,0,227194,227228,248,307,262.417,291.9603 F,2,227194,227462,1,0 S,2,227194,227462,0.8,0.16 P,0,227194,227462,A M,0,227228,227262,262.417,291.9603,280.7001,282.1025
Sprite,Foreground,Centre,"sb\haireitsu.png",0,0 C,0,227330,,0,202,0 M,0,227330,227364,381,151,375.0638,170.8912 F,2,227330,227598,1,0 S,2,227330,227598,0.8,0.16 P,0,227330,227598,A M,0,227364,227398,375.0638,170.8912,362.1879,187.0513
Sprite,Foreground,Centre,"sb\haireitsu.png",0,0 C,0,227466,,0,202,0 M,0,227466,227500,273,355,281.7627,336.1544 F,2,227466,227734,1,0 S,2,227466,227734,0.8,0.16 P,0,227466,227734,A M,0,227500,227534,281.7627,336.1544,296.1854,321.2343
Sprite,Foreground,Centre,"sb\haireitsu.png",0,0 C,0,227603,,0,202,0 M,0,227603,227637,453,157,464.2311,139.3631 F,2,227603,227939,1,0 S,2,227603,227939,0.8,0.16 P,0,227603,227939,A M,0,227637,227671,464.2311,139.3631,478.9357,124.5076 M,0,227671,227705,478.9357,124.5076,496.9222,113.8683 M,0,227705,227739,496.9222,113.8683,516.7784,107.4098
Sprite,Foreground,Centre,"sb\haireitsu.png",518,298 C,0,227876,,0,202,0 F,2,227876,228076,1,0 S,2,227876,228076,0.8,0.16 P,0,227876,228076,A
Sprite,Foreground,Centre,"sb\haireitsu.png",518,298 C,0,227944,,0,202,0 F,2,227944,228144,1,0 S,2,227944,228144,0.8,0.16 P,0,227944,228144,A
Sprite,Foreground,Centre,"sb\haireitsu.png",518,298 C,0,228012,,0,202,0 F,2,228012,228212,1,0 S,2,228012,228212,0.8,0.16 P,0,228012,228212,A
Sprite,Foreground,Centre,"sb\haireitsu.png",0,0 C,0,228148,,18,124,255 M,0,228148,228182,284,229,301.394,240.4007 F,2,228148,228416,1,0 S,2,228148,228416,0.8,0.16 P,0,228148,228416,A M,0,228182,228216,301.394,240.4007,313.8462,256.9617
Sprite,Foreground,Centre,"sb\haireitsu.png",0,0 C,0,228284,,18,124,255 M,0,228284,228318,405,401,390.0939,386.4303 F,2,228284,228552,1,0 S,2,228284,228552,0.8,0.16 P,0,228284,228552,A M,0,228318,228352,390.0939,386.4303,380.2657,368.117
Sprite,Foreground,Centre,"sb\haireitsu.png",0,0 C,0,228420,,18,124,255 M,0,228420,228454,249,268,268.9849,273.556 F,2,228420,228688,1,0 S,2,228420,228688,0.8,0.16 P,0,228420,228688,A M,0,228454,228488,268.9849,273.556,285.2404,286.2784
Sprite,Foreground,Centre,"sb\haireitsu.png",0,0 C,0,228558,,18,124,255 M,0,228558,228592,453,376,434.2878,366.9303 F,2,228558,228826,1,0 S,2,228558,228826,0.8,0.16 P,0,228558,228826,A M,0,228592,228626,434.2878,366.9303,419.4282,352.4127
Sprite,Foreground,Centre,"sb\haireitsu.png",0,0 C,0,228693,,18,124,255 M,0,228693,228727,255,196,237.4657,184.6048 F,2,228693,229029,1,0 S,2,228693,229029,0.8,0.16 P,0,228693,229029,A M,0,228727,228761,237.4657,184.6048,222.7074,169.8007 M,0,228761,228795,222.7074,169.8007,212.1135,151.7848 M,0,228795,228829,212.1135,151.7848,205.6612,131.9252
Sprite,Foreground,Centre,"sb\haireitsu.png",384,144 C,0,229239,,242,24,57 F,2,229239,229439,1,0 S,2,229239,229439,0.8,0.16 P,0,229239,229439,A
Sprite,Foreground,Centre,"sb\haireitsu.png",532,261 C,0,229376,,242,24,57 F,2,229376,229576,1,0 S,2,229376,229576,0.8,0.16 P,0,229376,229576,A
Sprite,Foreground,Centre,"sb\haireitsu.png",443,115 C,0,229512,,242,24,57 F,2,229512,229712,1,0 S,2,229512,229712,0.8,0.16 P,0,229512,229712,A
Sprite,Foreground,Centre,"sb\haireitsu.png",0,0 C,0,229648,,242,24,57 M,0,229648,229682,464,271,466.6263,291.8351 F,2,229648,229984,1,0 S,2,229648,229984,0.8,0.16 P,0,229648,229984,A M,0,229682,229716,466.6263,291.8351,469.2526,312.6703 M,0,229716,229750,469.2526,312.6703,471.8788,333.5054 M,0,229750,229784,471.8788,333.5054,474.5051,354.3405
Sprite,Foreground,Centre,"sb\haireitsu.png",216,220 M,0,230058,,391.071,396.7226 C,0,230058,,255,192,0 F,2,230058,230258,1,0 S,2,230058,230258,0.8,0.16 P,0,230058,230258,A
Sprite,Foreground,Centre,"sb\haireitsu.png",331,404 M,0,230194,,278.1484,331.329 C,0,230194,,255,192,0 F,2,230194,230394,1,0 S,2,230194,230394,0.8,0.16 P,0,230194,230394,A
Sprite,Foreground,Centre,"sb\haireitsu.png",180,281 M,0,230330,,407.9226,138.1355 C,0,230330,,255,192,0 F,2,230330,230530,1,0 S,2,230330,230530,0.8,0.16 P,0,230330,230530,A
Sprite,Foreground,Centre,"sb\haireitsu.png",401,364 M,0,230467,,211.8903,211.2258 C,0,230467,,255,192,0 F,2,230467,230667,1,0 S,2,230467,230667,0.8,0.16 P,0,230467,230667,A
Sprite,Foreground,Centre,"sb\haireitsu.png",333,167 M,0,230603,,366.0323,273.5291 C,0,230603,,255,192,0 F,2,230603,230803,1,0 S,2,230603,230803,0.8,0.16 P,0,230603,230803,A
Sprite,Foreground,Centre,"sb\haireitsu.png",136,263 M,0,230739,,262.3484,110.2258 C,0,230739,,255,192,0 F,2,230739,230939,1,0 S,2,230739,230939,0.8,0.16 P,0,230739,230939,A
Sprite,Foreground,Centre,"sb\haireitsu.png",395,323 M,0,230876,,244.7032,321.3484 C,0,230876,,255,192,0 F,2,230876,231076,1,0 S,2,230876,231076,0.8,0.16 P,0,230876,231076,A
Sprite,Foreground,Centre,"sb\haireitsu.png",261,124 M,0,231012,,377.4387,195.8452 C,0,231012,,255,192,0 F,2,231012,231212,1,0 S,2,231012,231212,0.8,0.16 P,0,231012,231212,A
Sprite,Foreground,Centre,"sb\haireitsu.png",156,370 M,0,231148,,165.0839,268.4258 C,0,231148,,255,192,0 F,2,231148,231348,1,0 S,2,231148,231348,0.8,0.16 P,0,231148,231348,A
Sprite,Foreground,Centre,"sb\haireitsu.png",408,216 M,0,231285,,352.671,377.8581 C,0,231285,,255,192,0 F,2,231285,231485,1,0 S,2,231285,231485,0.8,0.16 P,0,231285,231485,A
Sprite,Foreground,Centre,"sb\haireitsu.png",88,140 M,0,231421,,296.1032,146.6064 C,0,231421,,255,192,0 F,2,231421,231621,1,0 S,2,231421,231621,0.8,0.16 P,0,231421,231621,A
Sprite,Foreground,Centre,"sb\haireitsu.png",0,0 C,0,222694,,18,124,255 M,0,222694,222728,250,204,263.7491,188.4033 F,2,222694,222962,1,0 S,2,222694,222962,0.8,0.16 P,0,222694,222962,A M,0,222728,222762,263.7491,188.4033,281.9843,178.5866
Sprite,Foreground,Centre,"sb\haireitsu.png",0,0 C,0,222830,,18,124,255 M,0,222830,222864,398,124,383.0508,138.5332 F,2,222830,223098,1,0 S,2,222830,223098,0.8,0.16 P,0,222830,223098,A M,0,222864,222898,383.0508,138.5332,364.5493,148.0209
Sprite,Foreground,Centre,"sb\haireitsu.png",0,0 C,0,222966,,18,124,255 M,0,222966,223000,270,223,278.218,203.9722 F,2,222966,223234,1,0 S,2,222966,223234,0.8,0.16 P,0,222966,223234,A M,0,223000,223034,278.218,203.9722,292.7636,189.2366
Sprite,Foreground,Centre,"sb\haireitsu.png",0,0 C,0,223102,,18,124,255 M,0,223102,223136,378,104,368.592,122.5522 F,2,223102,223370,1,0 S,2,223102,223370,0.8,0.16 P,0,223102,223370,A M,0,223136,223170,368.592,122.5522,353.4955,136.748
Sprite,Foreground,Centre,"sb\haireitsu.png",0,0 C,0,223239,,18,124,255 M,0,223239,223273,215,235,206.3812,254.1149 F,2,223239,223575,1,0 S,2,223239,223575,0.8,0.16 P,0,223239,223575,A M,0,223273,223307,206.3812,254.1149,200.416,274.2049 M,0,223307,223341,200.416,274.2049,197.1436,294.9013 M,0,223341,223375,197.1436,294.9013,196.9725,315.859
Sprite,Foreground,Centre,"sb\haireitsu.png",424,236 C,0,223512,,18,124,255 F,2,223512,223712,1,0 S,2,223512,223712,0.8,0.16 P,0,223512,223712,A
Sprite,Foreground,Centre,"sb\haireitsu.png",424,236 C,0,223580,,18,124,255 F,2,223580,223780,1,0 S,2,223580,223780,0.8,0.16 P,0,223580,223780,A
Sprite,Foreground,Centre,"sb\haireitsu.png",424,236 C,0,223648,,18,124,255 F,2,223648,223848,1,0 S,2,223648,223848,0.8,0.16 P,0,223648,223848,A
Sprite,Foreground,Centre,"sb\haireitsu.png",0,0 C,0,223785,,242,24,57 M,0,223785,223819,306,374,316.9729,356.3365 F,2,223785,224053,1,0 S,2,223785,224053,0.8,0.16 P,0,223785,224053,A M,0,223819,223853,316.9729,356.3365,333.2845,343.5691
Sprite,Foreground,Centre,"sb\haireitsu.png",0,0 C,0,223921,,242,24,57 M,0,223921,223955,477,253,462.0508,267.5332 F,2,223921,224189,1,0 S,2,223921,224189,0.8,0.16 P,0,223921,224189,A M,0,223955,223989,462.0508,267.5332,443.5493,277.0209
Sprite,Foreground,Centre,"sb\haireitsu.png",0,0 C,0,224057,,242,24,57 M,0,224057,224091,344,409,349.2346,388.9319 F,2,224057,224325,1,0 S,2,224057,224325,0.8,0.16 P,0,224057,224325,A M,0,224091,224125,349.2346,388.9319,361.2621,372.0779
Sprite,Foreground,Centre,"sb\haireitsu.png",0,0 C,0,224193,,242,24,57 M,0,224193,224227,452,205,442.592,223.5521 F,2,224193,224461,1,0 S,2,224193,224461,0.8,0.16 P,0,224193,224461,A M,0,224227,224261,442.592,223.5521,427.4955,237.748
Sprite,Foreground,Centre,"sb\haireitsu.png",0,0 C,0,224330,,242,24,57 M,0,224330,224364,250,391,232.8581,403.0195 F,2,224330,224666,1,0 S,2,224330,224666,0.8,0.16 P,0,224330,224666,A M,0,224364,224398,232.8581,403.0195,213.869,411.8467 M,0,224398,224432,213.869,411.8467,193.4252,416.3393 M,0,224432,224466,193.4252,416.3393,172.5085,417.1254
Sprite,Foreground,Centre,"sb\haireitsu.png",168,252 C,0,224603,,242,24,57 F,2,224603,224803,1,0 S,2,224603,224803,0.8,0.16 P,0,224603,224803,A
Sprite,Foreground,Centre,"sb\haireitsu.png",328,160 C,0,224739,,242,24,57 F,2,224739,224939,1,0 S,2,224739,224939,0.8,0.16 P,0,224739,224939,A
Sprite,Foreground,Centre,"sb\haireitsu.png",496,236 C,0,224876,,242,24,57 F,2,224876,225076,1,0 S,2,224876,225076,0.8,0.16 P,0,224876,225076,A
Sprite,Foreground,Centre,"sb\haireitsu.png",0,0 C,0,218330,,18,124,255 M,0,218330,218364,335,139,353.4716,148.5396 F,2,218330,218598,1,0 S,2,218330,218598,0.8,0.16 P,0,218330,218598,A M,0,218364,218398,353.4716,148.5396,367.4633,163.8078
Sprite,Foreground,Centre,"sb\haireitsu.png",0,0 C,0,218466,,18,124,255 M,0,218466,218500,450,262,431.9911,251.4747 F,2,218466,218734,1,0 S,2,218466,218734,0.8,0.16 P,0,218466,218734,A M,0,218500,218534,431.9911,251.4747,417.7447,236.3115
Sprite,Foreground,Centre,"sb\haireitsu.png",0,0 C,0,218602,,18,124,255 M,0,218602,218636,321,164,341.4699,167.2754 F,2,218602,218870,1,0 S,2,218602,218870,0.8,0.16 P,0,218602,218870,A M,0,218636,218670,341.4699,167.2754,358.9194,178.2693
Sprite,Foreground,Centre,"sb\haireitsu.png",0,0 C,0,218739,,18,124,255 M,0,218739,218773,463,236,442.4586,233.0205 F,2,218739,219007,1,0 S,2,218739,219007,0.8,0.16 P,0,218739,219007,A M,0,218773,218807,442.4586,233.0205,424.1529,223.2322
Sprite,Foreground,Centre,"sb\haireitsu.png",0,0 C,0,218875,,18,124,255 M,0,218875,218909,313,102,330.196,90.02779 F,2,218875,219211,1,0 S,2,218875,219211,0.8,0.16 P,0,218875,219211,A M,0,218909,218943,330.196,90.02779,349.0158,80.8263 M,0,218943,218977,349.0158,80.8263,369.1983,75.21918 M,0,218977,219011,369.1983,75.21918,390.0027,72.86667
Sprite,Foreground,Centre,"sb\haireitsu.png",524,168 C,0,219148,,18,124,255 F,2,219148,219348,1,0 S,2,219148,219348,0.8,0.16 P,0,219148,219348,A
Sprite,Foreground,Centre,"sb\haireitsu.png",524,168 C,0,219217,,18,124,255 F,2,219217,219417,1,0 S,2,219217,219417,0.8,0.16 P,0,219217,219417,A
Sprite,Foreground,Centre,"sb\haireitsu.png",524,168 C,0,219285,,18,124,255 F,2,219285,219485,1,0 S,2,219285,219485,0.8,0.16 P,0,219285,219485,A
Sprite,Foreground,Centre,"sb\haireitsu.png",0,0 C,0,219421,,242,24,57 M,0,219421,219455,305,204,316.8915,221.0668 F,2,219421,219689,1,0 S,2,219421,219689,0.8,0.16 P,0,219421,219689,A M,0,219455,219489,316.8915,221.0668,322.329,241.0657
Sprite,Foreground,Centre,"sb\haireitsu.png",0,0 C,0,219557,,242,24,57 M,0,219557,219591,349,366,337.1084,348.9332 F,2,219557,219825,1,0 S,2,219557,219825,0.8,0.16 P,0,219557,219825,A M,0,219591,219625,337.1084,348.9332,331.671,328.9343
Sprite,Foreground,Centre,"sb\haireitsu.png",0,0 C,0,219693,,242,24,57 M,0,219693,219727,281,219,297.9017,230.9611 F,2,219693,219961,1,0 S,2,219693,219961,0.8,0.16 P,0,219693,219961,A M,0,219727,219761,297.9017,230.9611,309.0861,248.3691
Sprite,Foreground,Centre,"sb\haireitsu.png",0,0 C,0,219829,,242,24,57 M,0,219829,219863,373,351,355.7986,339.4851 F,2,219829,220097,1,0 S,2,219829,220097,0.8,0.16 P,0,219829,220097,A M,0,219863,219897,355.7986,339.4851,344.1765,322.3479
Sprite,Foreground,Centre,"sb\haireitsu.png",0,0 C,0,219966,,242,24,57 M,0,219966,220000,304,161,324.8385,158.7877 F,2,219966,220302,1,0 S,2,219966,220302,0.8,0.16 P,0,219966,220302,A M,0,220000,220034,324.8385,158.7877,345.7713,159.6939 M,0,220034,220068,345.7713,159.6939,366.2043,164.3189 M,0,220068,220102,366.2043,164.3189,385.6823,172.0103
Sprite,Foreground,Centre,"sb\haireitsu.png",502,243 C,0,220239,,242,24,57 F,2,220239,220439,1,0 S,2,220239,220439,0.8,0.16 P,0,220239,220439,A
Sprite,Foreground,Centre,"sb\haireitsu.png",398,355 C,0,220376,,242,24,57 F,2,220376,220576,1,0 S,2,220376,220576,0.8,0.16 P,0,220376,220576,A
Sprite,Foreground,Centre,"sb\haireitsu.png",307,129 C,0,220512,,242,24,57 F,2,220512,220712,1,0 S,2,220512,220712,0.8,0.16 P,0,220512,220712,A
Sprite,Foreground,Centre,"sb\haireitsu.png",0,0 C,0,213967,,242,24,57 M,0,213967,214001,393,112,389.607,132.5115 F,2,213967,214235,1,0 S,2,213967,214235,0.8,0.16 P,0,213967,214235,A M,0,214001,214035,389.607,132.5115,379.3221,150.4843
Sprite,Foreground,Centre,"sb\haireitsu.png",0,0 C,0,214103,,242,24,57 M,0,214103,214137,309,258,312.8282,237.5454 F,2,214103,214371,1,0 S,2,214103,214371,0.8,0.16 P,0,214103,214371,A M,0,214137,214171,312.8282,237.5454,323.1344,219.5504
Sprite,Foreground,Centre,"sb\haireitsu.png",0,0 C,0,214239,,242,24,57 M,0,214239,214273,365,106,367.5482,126.5902 F,2,214239,214507,1,0 S,2,214239,214507,0.8,0.16 P,0,214239,214507,A M,0,214273,214307,367.5482,126.5902,362.701,146.7285
Sprite,Foreground,Centre,"sb\haireitsu.png",0,0 C,0,214375,,242,24,57 M,0,214375,214409,337,264,333.7087,243.525 F,2,214375,214643,1,0 S,2,214375,214643,0.8,0.16 P,0,214375,214643,A M,0,214409,214443,333.7087,243.525,337.8828,223.2243
Sprite,Foreground,Centre,"sb\haireitsu.png",0,0 C,0,214512,,242,24,57 M,0,214512,214546,426,123,442.4035,136.0369 F,2,214512,214848,1,0 S,2,214512,214848,0.8,0.16 P,0,214512,214848,A M,0,214546,214580,442.4035,136.0369,456.6237,151.4209 M,0,214580,214614,456.6237,151.4209,467.7902,169.1434 M,0,214614,214648,467.7902,169.1434,476.0274,188.3928
Sprite,Foreground,Centre,"sb\haireitsu.png",512,300 C,0,214785,,242,24,57 F,2,214785,214985,1,0 S,2,214785,214985,0.8,0.16 P,0,214785,214985,A
Sprite,Foreground,Centre,"sb\haireitsu.png",512,300 C,0,214853,,242,24,57 F,2,214853,215053,1,0 S,2,214853,215053,0.8,0.16 P,0,214853,215053,A
Sprite,Foreground,Centre,"sb\haireitsu.png",512,300 C,0,214921,,242,24,57 F,2,214921,215121,1,0 S,2,214921,215121,0.8,0.16 P,0,214921,215121,A
Sprite,Foreground,Centre,"sb\haireitsu.png",0,0 C,0,215058,,255,192,0 M,0,215058,215092,361,269,340.4885,265.6071 F,2,215058,215326,1,0 S,2,215058,215326,0.8,0.16 P,0,215058,215326,A M,0,215092,215126,340.4885,265.6071,322.5157,255.3221
Sprite,Foreground,Centre,"sb\haireitsu.png",0,0 C,0,215194,,255,192,0 M,0,215194,215228,215,185,235.4546,188.8283 F,2,215194,215462,1,0 S,2,215194,215462,0.8,0.16 P,0,215194,215462,A M,0,215228,215262,235.4546,188.8283,253.4496,199.1344
Sprite,Foreground,Centre,"sb\haireitsu.png",0,0 C,0,215330,,255,192,0 M,0,215330,215364,367,241,346.4098,243.5483 F,2,215330,215598,1,0 S,2,215330,215598,0.8,0.16 P,0,215330,215598,A M,0,215364,215398,346.4098,243.5483,326.2715,238.701
Sprite,Foreground,Centre,"sb\haireitsu.png",0,0 C,0,215466,,255,192,0 M,0,215466,215500,209,213,229.475,209.7088 F,2,215466,215734,1,0 S,2,215466,215734,0.8,0.16 P,0,215466,215734,A M,0,215500,215534,229.475,209.7088,249.7757,213.8828
Sprite,Foreground,Centre,"sb\haireitsu.png",0,0 C,0,215603,,255,192,0 M,0,215603,215637,392,298,378.9631,314.4035 F,2,215603,215939,1,0 S,2,215603,215939,0.8,0.16 P,0,215603,215939,A M,0,215637,215671,378.9631,314.4035,363.5791,328.6237 M,0,215671,215705,363.5791,328.6237,345.8566,339.7902 M,0,215705,215739,345.8566,339.7902,326.6072,348.0274
Sprite,Foreground,Centre,"sb\haireitsu.png",199,343 C,0,215876,,255,192,0 F,2,215876,216076,1,0 S,2,215876,216076,0.8,0.16 P,0,215876,216076,A
Sprite,Foreground,Centre,"sb\haireitsu.png",272,208 C,0,216012,,255,192,0 F,2,216012,216212,1,0 S,2,216012,216212,0.8,0.16 P,0,216012,216212,A
Sprite,Foreground,Centre,"sb\haireitsu.png",0,0 C,0,216148,,255,192,0 M,0,216148,216182,406,269,420.482,253.9851 F,2,216148,216484,1,0 S,2,216148,216484,0.8,0.16 P,0,216148,216484,A M,0,216182,216216,420.482,253.9851,430.668,235.7517 M,0,216216,216250,430.668,235.7517,434.4686,215.2419 M,0,216250,216284,434.4686,215.2419,432.8982,194.4194
Sprite,Foreground,Centre,"sb\haireitsu.png",520,100 C,0,187785,,0,202,0 F,2,187785,187985,1,0 S,2,187785,187985,0.8,0.16 P,0,187785,187985,A
Sprite,Foreground,Centre,"sb\haireitsu.png",287,204 C,0,188330,,0,202,0 F,2,188330,188530,1,0 S,2,188330,188530,0.8,0.16 P,0,188330,188530,A
Sprite,Foreground,Centre,"sb\haireitsu.png",544,168 C,0,188876,,0,202,0 F,2,188876,189076,1,0 S,2,188876,189076,0.8,0.16 P,0,188876,189076,A
Sprite,Foreground,Centre,"sb\haireitsu.png",328,396 C,0,189421,,0,202,0 F,2,189421,189621,1,0 S,2,189421,189621,0.8,0.16 P,0,189421,189621,A
Sprite,Foreground,Centre,"sb\haireitsu.png",432,88 C,0,189967,,0,202,0 F,2,189967,190167,1,0 S,2,189967,190167,0.8,0.16 P,0,189967,190167,A
Sprite,Foreground,Centre,"sb\haireitsu.png",96,248 C,0,190512,,0,202,0 F,2,190512,190712,1,0 S,2,190512,190712,0.8,0.16 P,0,190512,190712,A
Sprite,Foreground,Centre,"sb\haireitsu.png",520,376 C,0,191058,,0,202,0 F,2,191058,191258,1,0 S,2,191058,191258,0.8,0.16 P,0,191058,191258,A
Sprite,Foreground,Centre,"sb\haireitsu.png",480,88 C,0,191603,,0,202,0 F,2,191603,191803,1,0 S,2,191603,191803,0.8,0.16 P,0,191603,191803,A
Sprite,Foreground,Centre,"sb\haireitsu.png",488,111 C,0,192148,,0,202,0 F,2,192148,192348,1,0 S,2,192148,192348,0.8,0.16 P,0,192148,192348,A
Sprite,Foreground,Centre,"sb\haireitsu.png",496,144 C,0,192420,,0,202,0 F,2,192420,192620,1,0 S,2,192420,192620,0.8,0.16 P,0,192420,192620,A
Sprite,Foreground,Centre,"sb\haireitsu.png",495,179 C,0,192693,,0,202,0 F,2,192693,192893,1,0 S,2,192693,192893,0.8,0.16 P,0,192693,192893,A
Sprite,Foreground,Centre,"sb\haireitsu.png",484,212 C,0,192966,,0,202,0 F,2,192966,193166,1,0 S,2,192966,193166,0.8,0.16 P,0,192966,193166,A
Sprite,Foreground,Centre,"sb\haireitsu.png",452,248 C,0,193238,,18,124,255 F,2,193238,193438,1,0 S,2,193238,193438,0.8,0.16 P,0,193238,193438,A
Sprite,Foreground,Centre,"sb\haireitsu.png",408,268 C,0,193375,,18,124,255 F,2,193375,193575,1,0 S,2,193375,193575,0.8,0.16 P,0,193375,193575,A
Sprite,Foreground,Centre,"sb\haireitsu.png",356,284 C,0,193511,,18,124,255 F,2,193511,193711,1,0 S,2,193511,193711,0.8,0.16 P,0,193511,193711,A
Sprite,Foreground,Centre,"sb\haireitsu.png",308,268 C,0,193647,,18,124,255 F,2,193647,193847,1,0 S,2,193647,193847,0.8,0.16 P,0,193647,193847,A
Sprite,Foreground,Centre,"sb\haireitsu.png",272,232 C,0,193784,,18,124,255 F,2,193784,193984,1,0 S,2,193784,193984,0.8,0.16 P,0,193784,193984,A
Sprite,Foreground,Centre,"sb\haireitsu.png",232,192 C,0,193920,,18,124,255 F,2,193920,194120,1,0 S,2,193920,194120,0.8,0.16 P,0,193920,194120,A
Sprite,Foreground,Centre,"sb\haireitsu.png",216,144 C,0,194058,,18,124,255 F,2,194058,194258,1,0 S,2,194058,194258,0.8,0.16 P,0,194058,194258,A
Sprite,Foreground,Centre,"sb\haireitsu.png",248,104 C,0,194193,,18,124,255 F,2,194193,194393,1,0 S,2,194193,194393,0.8,0.16 P,0,194193,194393,A
Sprite,Foreground,Centre,"sb\haireitsu.png",296,88 C,0,194329,,18,124,255 F,2,194329,194529,1,0 S,2,194329,194529,0.8,0.16 P,0,194329,194529,A
Sprite,Foreground,Centre,"sb\haireitsu.png",340,112 C,0,194467,,18,124,255 F,2,194467,194667,1,0 S,2,194467,194667,0.8,0.16 P,0,194467,194667,A
Sprite,Foreground,Centre,"sb\haireitsu.png",356,160 C,0,194602,,18,124,255 F,2,194602,194802,1,0 S,2,194602,194802,0.8,0.16 P,0,194602,194802,A
Sprite,Foreground,Centre,"sb\haireitsu.png",328,200 C,0,194738,,18,124,255 F,2,194738,194938,1,0 S,2,194738,194938,0.8,0.16 P,0,194738,194938,A
Sprite,Foreground,Centre,"sb\haireitsu.png",289,252 C,0,194875,,242,24,57 F,2,194875,195075,1,0 S,2,194875,195075,0.8,0.16 P,0,194875,195075,A
Sprite,Foreground,Centre,"sb\haireitsu.png",240,288 C,0,195011,,242,24,57 F,2,195011,195211,1,0 S,2,195011,195211,0.8,0.16 P,0,195011,195211,A
Sprite,Foreground,Centre,"sb\haireitsu.png",196,340 C,0,195147,,242,24,57 F,2,195147,195347,1,0 S,2,195147,195347,0.8,0.16 P,0,195147,195347,A
Sprite,Foreground,Centre,"sb\haireitsu.png",232,396 C,0,195284,,242,24,57 F,2,195284,195484,1,0 S,2,195284,195484,0.8,0.16 P,0,195284,195484,A
Sprite,Foreground,Centre,"sb\haireitsu.png",296,416 C,0,195420,,242,24,57 F,2,195420,195620,1,0 S,2,195420,195620,0.8,0.16 P,0,195420,195620,A
Sprite,Foreground,Centre,"sb\haireitsu.png",364,396 C,0,195558,,242,24,57 F,2,195558,195758,1,0 S,2,195558,195758,0.8,0.16 P,0,195558,195758,A
Sprite,Foreground,Centre,"sb\haireitsu.png",424,360 C,0,195693,,242,24,57 F,2,195693,195893,1,0 S,2,195693,195893,0.8,0.16 P,0,195693,195893,A
Sprite,Foreground,Centre,"sb\haireitsu.png",472,304 C,0,195829,,242,24,57 F,2,195829,196029,1,0 S,2,195829,196029,0.8,0.16 P,0,195829,196029,A
Sprite,Foreground,Centre,"sb\haireitsu.png",508,240 C,0,195967,,242,24,57 F,2,195967,196167,1,0 S,2,195967,196167,0.8,0.16 P,0,195967,196167,A
Sprite,Foreground,Centre,"sb\haireitsu.png",516,160 C,0,196102,,242,24,57 F,2,196102,196302,1,0 S,2,196102,196302,0.8,0.16 P,0,196102,196302,A
Sprite,Foreground,Centre,"sb\haireitsu.png",460,100 C,0,196238,,242,24,57 F,2,196238,196438,1,0 S,2,196238,196438,0.8,0.16 P,0,196238,196438,A
Sprite,Foreground,Centre,"sb\haireitsu.png",380,92 C,0,196375,,242,24,57 F,2,196375,196575,1,0 S,2,196375,196575,0.8,0.16 P,0,196375,196575,A
Sprite,Foreground,Centre,"sb\haireitsu.png",432,140 C,0,168148,,242,24,57 F,2,168148,168348,1,0 S,2,168148,168348,0.8,0.16 P,0,168148,168348,A
Sprite,Foreground,Centre,"sb\haireitsu.png",514,286 C,0,168284,,242,24,57 F,2,168284,168484,1,0 S,2,168284,168484,0.8,0.16 P,0,168284,168484,A
Sprite,Foreground,Centre,"sb\haireitsu.png",352,209 C,0,168421,,242,24,57 F,2,168421,168621,1,0 S,2,168421,168621,0.8,0.16 P,0,168421,168621,A
Sprite,Foreground,Centre,"sb\haireitsu.png",518,162 C,0,168557,,242,24,57 F,2,168557,168757,1,0 S,2,168557,168757,0.8,0.16 P,0,168557,168757,A
Sprite,Foreground,Centre,"sb\haireitsu.png",0,0 C,0,168693,,242,24,57 M,0,168693,168727,405,297,395.0388,311.3884 F,2,168693,169029,1,0 S,2,168693,169029,0.8,0.16 P,0,168693,169029,A M,0,168727,168761,395.0388,311.3884,385.0776,325.7767 M,0,168761,168795,385.0776,325.7767,375.1165,340.1651 M,0,168795,168829,375.1165,340.1651,365.1553,354.5535
Sprite,Foreground,Centre,"sb\haireitsu.png",464,212 C,0,168966,,255,192,0 F,2,168966,169166,1,0 S,2,168966,169166,0.8,0.16 P,0,168966,169166,A
Sprite,Foreground,Centre,"sb\haireitsu.png",279,298 C,0,169102,,255,192,0 F,2,169102,169302,1,0 S,2,169102,169302,0.8,0.16 P,0,169102,169302,A M,0,169112,,286.4323,268.271
Sprite,Foreground,Centre,"sb\haireitsu.png",404,147 M,0,169239,,365.1871,119.7484 C,0,169239,,255,192,0 F,2,169239,169439,1,0 S,2,169239,169439,0.8,0.16 P,0,169239,169439,A
Sprite,Foreground,Centre,"sb\haireitsu.png",222,225 C,0,169375,,255,192,0 F,2,169375,169575,1,0 S,2,169375,169575,0.8,0.16 P,0,169375,169575,A M,0,169394,,402.8516,275.3742
Sprite,Foreground,Centre,"sb\haireitsu.png",424,270 C,0,169511,,255,192,0 F,2,169511,169711,1,0 S,2,169511,169711,0.8,0.16 P,0,169511,169711,A M,0,169569,,201.8581,345.1484
Sprite,Foreground,Centre,"sb\haireitsu.png",276,375 M,0,169648,,352.8,422.071 C,0,169648,,255,192,0 F,2,169648,169848,1,0 S,2,169648,169848,0.8,0.16 P,0,169648,169848,A
Sprite,Foreground,Centre,"sb\haireitsu.png",334,154 M,0,169785,,329.0452,177.1226 C,0,169785,,255,192,0 F,2,169785,169985,1,0 S,2,169785,169985,0.8,0.16 P,0,169785,169985,A
Sprite,Foreground,Centre,"sb\haireitsu.png",366,371 C,0,169921,,255,192,0 F,2,169921,170121,1,0 S,2,169921,170121,0.8,0.16 P,0,169921,170121,A M,0,169955,,459.3161,334.6645
Sprite,Foreground,Centre,"sb\haireitsu.png",241,169 M,0,170058,,237.6967,272.2258 C,0,170058,,255,192,0 F,2,170058,170258,1,0 S,2,170058,170258,0.8,0.16 P,0,170058,170258,A
Sprite,Foreground,Centre,"sb\haireitsu.png",442,309 M,0,170194,,470.0774,206.6 C,0,170194,,255,192,0 F,2,170194,170394,1,0 S,2,170194,170394,0.8,0.16 P,0,170194,170394,A
Sprite,Foreground,Centre,"sb\haireitsu.png",96,316 M,0,170330,,307.4065,382.8903 C,0,170330,,255,192,0 F,2,170330,170530,1,0 S,2,170330,170530,0.8,0.16 P,0,170330,170530,A
Sprite,Foreground,Centre,"sb\haireitsu.png",0,0 C,0,128876,,0,202,0 M,0,128876,128910,152,136,147.6644,143.5963 F,2,128876,129894,1,0 S,2,128876,129894,0.8,0.16 P,0,128876,129894,A M,0,128910,128944,147.6644,143.5963,143.8336,151.4576 M,0,128944,128978,143.8336,151.4576,140.5238,159.5504 M,0,128978,129012,140.5238,159.5504,137.7487,167.8403 M,0,129012,129046,137.7487,167.8403,135.5201,176.2922 M,0,129046,129080,135.5201,176.2922,133.847,184.8702 M,0,129080,129114,133.847,184.8702,132.7367,193.5378 M,0,129114,129148,132.7367,193.5378,132.1935,202.2584 M,0,129148,129182,132.1935,202.2584,132.2197,210.9949 M,0,129182,129216,132.2197,210.9949,132.8151,219.7102 M,0,129216,129251,132.8151,219.7102,133.9771,228.3676 M,0,129251,129285,133.9771,228.3676,135.7005,236.9301 M,0,129285,129319,135.7005,236.9301,137.9782,245.3616 M,0,129319,129353,137.9782,245.3616,140.8002,253.6263 M,0,129353,129387,140.8002,253.6263,144.1547,261.6892 M,0,129387,129421,144.1547,261.6892,148.0274,269.5161 M,0,129421,129455,148.0274,269.5161,152.4017,277.0739 M,0,129455,129489,152.4017,277.0739,157.2592,284.3304 M,0,129489,129523,157.2592,284.3304,162.3973,291.4026 M,0,129523,129557,162.3973,291.4026,168.1869,297.957 M,0,129557,129591,168.1869,297.957,174.3902,304.1192 M,0,129591,129626,174.3902,304.1192,180.9808,309.8632 M,0,129626,129660,180.9808,309.8632,187.9305,315.1648 M,0,129660,129694,187.9305,315.1648,195.1697,320.0729
Sprite,Foreground,Centre,"sb\haireitsu.png",0,0 C,0,129967,,18,124,255 M,0,129967,130001,432,120,433.6056,128.6014 F,2,129967,130985,1,0 S,2,129967,130985,0.8,0.16 P,0,129967,130985,A M,0,130001,130035,433.6056,128.6014,435.2112,137.2029 M,0,130035,130069,435.2112,137.2029,436.8168,145.8043 M,0,130069,130103,436.8168,145.8043,438.4224,154.4057 M,0,130103,130137,438.4224,154.4057,440.028,163.0071 M,0,130137,130171,440.028,163.0071,441.6336,171.6086 M,0,130171,130205,441.6336,171.6086,443.2392,180.21 M,0,130205,130239,443.2392,180.21,444.8448,188.8114 M,0,130239,130273,444.8448,188.8114,448.432,194.6684 M,0,130273,130307,448.432,194.6684,457.1018,193.4861 M,0,130307,130342,457.1018,193.4861,465.7715,192.3039 M,0,130342,130376,465.7715,192.3039,474.4413,191.1216 M,0,130376,130410,474.4413,191.1216,483.1111,189.9394 M,0,130410,130444,483.1111,189.9394,491.7808,188.7572 M,0,130444,130478,491.7808,188.7572,500.4506,187.5749 M,0,130478,130512,500.4506,187.5749,509.1204,186.3927 M,0,130512,130546,509.1204,186.3927,506.7577,183.418 M,0,130546,130580,506.7577,183.418,498.9081,179.5518 M,0,130580,130614,498.9081,179.5518,491.0586,175.6856 M,0,130614,130648,491.0586,175.6856,483.2091,171.8194 M,0,130648,130682,483.2091,171.8194,475.3596,167.9532 M,0,130682,130717,475.3596,167.9532,467.51,164.087 M,0,130717,130751,467.51,164.087,459.6605,160.2208 M,0,130751,130785,459.6605,160.2208,451.811,156.3547
Sprite,Foreground,Centre,"sb\haireitsu.png",0,0 C,0,131058,,242,24,57 M,0,131058,131092,392,296,383.2567,295.7053 F,2,131058,132076,1,0 S,2,131058,132076,0.8,0.16 P,0,131058,132076,A M,0,131092,131126,383.2567,295.7053,374.5541,294.8137 M,0,131126,131160,374.5541,294.8137,365.9361,293.311 M,0,131160,131194,365.9361,293.311,357.4476,291.1959 M,0,131194,131228,357.4476,291.1959,349.1335,288.4745 M,0,131228,131262,349.1335,288.4745,341.0348,285.167 M,0,131262,131296,341.0348,285.167,333.1854,281.3044 M,0,131296,131330,333.1854,281.3044,325.6149,276.9203 M,0,131330,131364,325.6149,276.9203,318.3425,272.0573 M,0,131364,131398,318.3425,272.0573,311.3782,266.7622 M,0,131398,131433,311.3782,266.7622,304.7139,261.0935 M,0,131433,131467,304.7139,261.0935,298.2757,255.1683 M,0,131467,131501,298.2757,255.1683,303.6764,251.8302 M,0,131501,131535,303.6764,251.8302,311.998,249.1257 M,0,131535,131569,311.998,249.1257,320.3195,246.4212 M,0,131569,131603,320.3195,246.4212,328.6411,243.7167 M,0,131603,131637,328.6411,243.7167,336.9626,241.0122 M,0,131637,131671,336.9626,241.0122,341.0418,248.7162 M,0,131671,131705,341.0418,248.7162,345.1019,256.4672 M,0,131705,131739,345.1019,256.4672,346.5559,264.0458 M,0,131739,131773,346.5559,264.0458,341.5099,271.1943 M,0,131773,131808,341.5099,271.1943,336.464,278.3427 M,0,131808,131842,336.464,278.3427,331.418,285.4912 M,0,131842,131876,331.418,285.4912,326.372,292.6396
Sprite,Foreground,Centre,"sb\haireitsu.png",0,0 C,0,132148,,255,192,0 M,0,132148,132182,192,384,186.4011,390.6978 F,2,132148,133166,1,0 S,2,132148,133166,0.8,0.16 P,0,132148,133166,A M,0,132182,132216,186.4011,390.6978,179.8945,396.5028 M,0,132216,132250,179.8945,396.5028,172.6198,401.294 M,0,132250,132284,172.6198,401.294,164.7328,404.9717 M,0,132284,132318,164.7328,404.9717,156.4015,407.4598 M,0,132318,132352,156.4015,407.4598,147.8032,408.7075 M,0,132352,132386,147.8032,408.7075,139.1207,408.6898 M,0,132386,132420,139.1207,408.6898,130.5383,407.4087 M,0,132420,132454,130.5383,407.4087,122.238,404.8925 M,0,132454,132488,122.238,404.8925,114.3956,401.1956 M,0,132488,132523,114.3956,401.1956,107.1774,396.3974 M,0,132523,132557,107.1774,396.3974,100.7363,390.6 M,0,132557,132591,100.7363,390.6,94.75859,384.2475 M,0,132591,132625,94.75859,384.2475,90.30045,376.7421 M,0,132625,132659,90.30045,376.7421,86.98578,368.6769 M,0,132659,132693,86.98578,368.6769,84.88247,360.2241 M,0,132693,132727,84.88247,360.2241,84.03284,351.5633 M,0,132727,132761,84.03284,351.5633,84.45277,342.8785 M,0,132761,132795,84.45277,342.8785,86.13145,334.354 M,0,132795,132829,86.13145,334.354,89.0316,326.1702 M,0,132829,132863,89.0316,326.1702,93.09027,318.5004 M,0,132863,132898,93.09027,318.5004,98.22021,311.5068 M,0,132898,132932,98.22021,311.5068,104.3117,305.3373 M,0,132932,132966,104.3117,305.3373,110.9888,299.7237
Sprite,Foreground,Centre,"sb\haireitsu.png",0,0 C,0,133239,,0,202,0 M,0,133239,133273,472,179,472.5403,182.458 F,2,133239,133711,1,0 S,2,133239,133711,0.8,0.16 P,0,133239,133711,A M,0,133273,133307,472.5403,182.458,473.0806,185.9161 M,0,133307,133341,473.0806,185.9161,473.621,189.3741 M,0,133341,133375,473.621,189.3741,474.1613,192.8322 M,0,133375,133409,474.1613,192.8322,474.7016,196.2902 M,0,133409,133443,474.7016,196.2902,475.2419,199.7482 M,0,133443,133477,475.2419,199.7482,475.7822,203.2063 M,0,133477,133511,475.7822,203.2063,476.3225,206.6643
Sprite,Foreground,Centre,"sb\haireitsu.png",333,223 C,0,133648,,0,202,0 F,2,133648,133848,1,0 S,2,133648,133848,0.8,0.16 P,0,133648,133848,A
Sprite,Foreground,Centre,"sb\haireitsu.png",0,0 C,0,133785,,0,202,0 M,0,133785,133819,336,346,335.8907,349.4983 F,2,133785,134530,1,0 S,2,133785,134530,0.8,0.16 P,0,133785,134530,A M,0,133819,133853,335.8907,349.4983,335.7813,352.9966 M,0,133853,133887,335.7813,352.9966,335.672,356.4949 M,0,133887,133921,335.672,356.4949,335.5627,359.9932 M,0,133921,133955,335.5627,359.9932,335.4534,363.4915 M,0,133955,133989,335.4534,363.4915,335.3441,366.9897 M,0,133989,134023,335.3441,366.9897,335.2347,370.488 M,0,134023,134057,335.2347,370.488,335.1254,373.9863 M,0,134057,134091,335.1254,373.9863,335.2347,370.488 M,0,134091,134125,335.2347,370.488,335.3441,366.9897 M,0,134125,134160,335.3441,366.9897,335.4534,363.4915 M,0,134160,134194,335.4534,363.4915,335.5627,359.9932 M,0,134194,134228,335.5627,359.9932,335.672,356.4949 M,0,134228,134262,335.672,356.4949,335.7813,352.9966 M,0,134262,134296,335.7813,352.9966,335.8907,349.4983 M,0,134296,134330,335.8907,349.4983,336,346
Sprite,Foreground,Centre,"sb\haireitsu.png",194,363 C,0,134603,,18,124,255 F,2,134603,134803,1,0 S,2,134603,134803,0.8,0.16 P,0,134603,134803,A
Sprite,Foreground,Centre,"sb\haireitsu.png",194,363 C,0,134876,,18,124,255 F,2,134876,135076,1,0 S,2,134876,135076,0.8,0.16 P,0,134876,135076,A
Sprite,Foreground,Centre,"sb\haireitsu.png",194,363 C,0,135148,,18,124,255 F,2,135148,135348,1,0 S,2,135148,135348,0.8,0.16 P,0,135148,135348,A
Sprite,Foreground,Centre,"sb\haireitsu.png",0,0 C,0,76512,,242,24,57 M,0,76512,76546,457,340,458.1641,357.4612 F,2,76512,76848,1,0 S,2,76512,76848,0.8,0.16 P,0,76512,76848,A M,0,76546,76580,458.1641,357.4612,459.3282,374.9225 M,0,76580,76614,459.3282,374.9225,460.4922,392.3837 M,0,76614,76648,460.4922,392.3837,461.6563,409.845
Sprite,Foreground,Centre,"sb\haireitsu.png",300,400 C,0,76785,,255,192,0 F,2,76785,76985,1,0 S,2,76785,76985,0.8,0.16 P,0,76785,76985,A
Sprite,Foreground,Centre,"sb\haireitsu.png",196,413 C,0,76921,,255,192,0 F,2,76921,77121,1,0 S,2,76921,77121,0.8,0.16 P,0,76921,77121,A
Sprite,Foreground,Centre,"sb\haireitsu.png",0,0 C,0,77058,,255,192,0 M,0,77058,77092,281,288,283.3436,305.3424 F,2,77058,77394,1,0 S,2,77058,77394,0.8,0.16 P,0,77058,77394,A M,0,77092,77126,283.3436,305.3424,285.6871,322.6848 M,0,77126,77160,285.6871,322.6848,288.0307,340.0271 M,0,77160,77194,288.0307,340.0271,290.3743,357.3695
Sprite,Foreground,Centre,"sb\haireitsu.png",492,264 C,0,77330,,0,202,0 F,2,77330,77530,1,0 S,2,77330,77530,0.8,0.16 P,0,77330,77530,A
Sprite,Foreground,Centre,"sb\haireitsu.png",492,264 C,0,77398,,0,202,0 F,2,77398,77598,1,0 S,2,77398,77598,0.8,0.16 P,0,77398,77598,A
Sprite,Foreground,Centre,"sb\haireitsu.png",492,264 C,0,77467,,0,202,0 F,2,77467,77667,1,0 S,2,77467,77667,0.8,0.16 P,0,77467,77667,A
Sprite,Foreground,Centre,"sb\haireitsu.png",341,268 C,0,77603,,0,202,0 F,2,77603,77803,1,0 S,2,77603,77803,0.8,0.16 P,0,77603,77803,A
Sprite,Foreground,Centre,"sb\haireitsu.png",424,158 C,0,77739,,0,202,0 F,2,77739,77939,1,0 S,2,77739,77939,0.8,0.16 P,0,77739,77939,A
Sprite,Foreground,Centre,"sb\haireitsu.png",0,0 C,0,77876,,0,202,0 M,0,77876,77910,434,313,419.8242,302.8401 F,2,77876,78212,1,0 S,2,77876,78212,0.8,0.16 P,0,77876,78212,A M,0,77910,77944,419.8242,302.8401,403.4986,296.7321 M,0,77944,77978,403.4986,296.7321,386.1547,295.094 M,0,77978,78012,386.1547,295.094,368.9928,298.0342
Sprite,Foreground,Centre,"sb\haireitsu.png",0,0 C,0,78148,,0,202,0 M,0,78148,78182,471,312,461.646,297.233 F,2,78148,78620,1,0 S,2,78148,78620,0.8,0.16 P,0,78148,78620,A M,0,78182,78216,461.646,297.233,450.4635,283.8074 M,0,78216,78250,450.4635,283.8074,437.6412,271.9469 M,0,78250,78284,437.6412,271.9469,423.3947,261.8492 M,0,78284,78318,423.3947,261.8492,407.963,253.6829 M,0,78318,78352,407.963,253.6829,391.6728,247.3607 M,0,78352,78386,391.6728,247.3607,374.6236,243.5067 M,0,78386,78420,374.6236,243.5067,357.2263,241.8934
Sprite,Foreground,Centre,"sb\haireitsu.png",132,232 C,0,78694,,18,124,255 F,2,78694,78894,1,0 S,2,78694,78894,0.8,0.16 P,0,78694,78894,A
Sprite,Foreground,Centre,"sb\haireitsu.png",0,0 C,0,78967,,18,124,255 M,0,78967,79001,128,233,119.8303,248.4129 F,2,78967,79439,1,0 S,2,78967,79439,0.8,0.16 P,0,78967,79439,A M,0,79001,79035,119.8303,248.4129,115.4169,265.2706 M,0,79035,79069,115.4169,265.2706,114.9872,282.6752 M,0,79069,79103,114.9872,282.6752,118.5576,299.7008 M,0,79103,79137,118.5576,299.7008,125.9328,315.4431 M,0,79137,79171,125.9328,315.4431,136.7161,329.0668 M,0,79171,79205,136.7161,329.0668,150.3311,339.8493 M,0,79205,79239,150.3311,339.8493,165.9324,347.5942
Sprite,Foreground,Centre,"sb\haireitsu.png",0,0 C,0,79376,,18,124,255 M,0,79376,79410,396,348,413.3436,345.6653 F,2,79376,79848,1,0 S,2,79376,79848,0.8,0.16 P,0,79376,79848,A M,0,79410,79444,413.3436,345.6653,430.6871,343.3306 M,0,79444,79478,430.6871,343.3306,447.9974,340.9691 M,0,79478,79512,447.9974,340.9691,446.5441,323.5296 M,0,79512,79546,446.5441,323.5296,445.0909,306.09 M,0,79546,79580,445.0909,306.09,443.6375,288.6505 M,0,79580,79614,443.6375,288.6505,442.1842,271.2109 M,0,79614,79648,442.1842,271.2109,440.731,253.7714
Sprite,Foreground,Centre,"sb\haireitsu.png",0,0 C,0,79785,,18,124,255 M,0,79785,79819,428,176,410.5479,177.2856 F,2,79785,80530,1,0 S,2,79785,80530,0.8,0.16 P,0,79785,80530,A M,0,79819,79853,410.5479,177.2856,393.1275,176.476 M,0,79853,79887,393.1275,176.476,379.7579,165.9226 M,0,79887,79921,379.7579,165.9226,366.8531,154.5744 M,0,79921,79955,366.8531,154.5744,349.5976,152.3064 M,0,79955,79989,349.5976,152.3064,332.1245,153.2048 M,0,79989,80023,332.1245,153.2048,314.6826,154.6293 M,0,80023,80057,314.6826,154.6293,310,167.8028 M,0,80057,80091,310,167.8028,314.6826,154.6293 M,0,80091,80125,314.6826,154.6293,332.1245,153.2048 M,0,80125,80160,332.1245,153.2048,349.5976,152.3064 M,0,80160,80194,349.5976,152.3064,366.8531,154.5744 M,0,80194,80228,366.8531,154.5744,379.7579,165.9226 M,0,80228,80262,379.7579,165.9226,393.1275,176.476 M,0,80262,80296,393.1275,176.476,410.5479,177.2856 M,0,80296,80330,410.5479,177.2856,428,176
Sprite,Foreground,Centre,"sb\haireitsu.png",416,256 C,0,80467,,18,124,255 F,2,80467,80667,1,0 S,2,80467,80667,0.8,0.16 P,0,80467,80667,A
Sprite,Foreground,Centre,"sb\haireitsu.png",524,356 C,0,80603,,18,124,255 F,2,80603,80803,1,0 S,2,80603,80803,0.8,0.16 P,0,80603,80803,A
Sprite,Foreground,Centre,"sb\haireitsu.png",372,296 C,0,80739,,18,124,255 F,2,80739,80939,1,0 S,2,80739,80939,0.8,0.16 P,0,80739,80939,A
Sprite,Foreground,Centre,"sb\haireitsu.png",372,296 C,0,80808,,18,124,255 F,2,80808,81008,1,0 S,2,80808,81008,0.8,0.16 P,0,80808,81008,A
Sprite,Foreground,Centre,"sb\haireitsu.png",0,0 C,0,80876,,18,124,255 M,0,80876,80910,372,296,372,313.5 F,2,80876,81212,1,0 S,2,80876,81212,0.8,0.16 P,0,80876,81212,A M,0,80910,80944,372,313.5,372,331 M,0,80944,80978,372,331,372,348.5 M,0,80978,81012,372,348.5,372,366
Sprite,Foreground,Centre,"sb\haireitsu.png",172,300 C,0,81148,,242,24,57 F,2,81148,81348,1,0 S,2,81148,81348,0.8,0.16 P,0,81148,81348,A
Sprite,Foreground,Centre,"sb\haireitsu.png",276,287 C,0,81284,,242,24,57 F,2,81284,81484,1,0 S,2,81284,81484,0.8,0.16 P,0,81284,81484,A
Sprite,Foreground,Centre,"sb\haireitsu.png",0,0 C,0,81421,,242,24,57 M,0,81421,81455,191,412,188.6564,394.6576 F,2,81421,81757,1,0 S,2,81421,81757,0.8,0.16 P,0,81421,81757,A M,0,81455,81489,188.6564,394.6576,186.3129,377.3152 M,0,81489,81523,186.3129,377.3152,183.9693,359.9729 M,0,81523,81557,183.9693,359.9729,181.6257,342.6305
Sprite,Foreground,Centre,"sb\haireitsu.png",180,128 C,0,81694,,242,24,57 F,2,81694,81894,1,0 S,2,81694,81894,0.8,0.16 P,0,81694,81894,A
Sprite,Foreground,Centre,"sb\haireitsu.png",180,128 C,0,81762,,242,24,57 F,2,81762,81962,1,0 S,2,81762,81962,0.8,0.16 P,0,81762,81962,A
Sprite,Foreground,Centre,"sb\haireitsu.png",180,128 C,0,81830,,242,24,57 F,2,81830,82030,1,0 S,2,81830,82030,0.8,0.16 P,0,81830,82030,A
Sprite,Foreground,Centre,"sb\haireitsu.png",344,112 C,0,81967,,255,192,0 F,2,81967,82167,1,0 S,2,81967,82167,0.8,0.16 P,0,81967,82167,A
Sprite,Foreground,Centre,"sb\haireitsu.png",484,120 C,0,82103,,255,192,0 F,2,82103,82303,1,0 S,2,82103,82303,0.8,0.16 P,0,82103,82303,A
Sprite,Foreground,Centre,"sb\haireitsu.png",0,0 C,0,82239,,255,192,0 M,0,82239,82273,387,144,382.8111,160.8258 F,2,82239,82575,1,0 S,2,82239,82575,0.8,0.16 P,0,82239,82575,A M,0,82273,82307,382.8111,160.8258,385.7984,177.8668 M,0,82307,82341,385.7984,177.8668,395.42,192.202 M,0,82341,82375,395.42,192.202,410.0007,201.3848
Sprite,Foreground,Centre,"sb\haireitsu.png",0,0 C,0,82512,,255,192,0 M,0,82512,82546,362,153,354.7715,168.8822 F,2,82512,82984,1,0 S,2,82512,82984,0.8,0.16 P,0,82512,82984,A M,0,82546,82580,354.7715,168.8822,351.0833,185.9195 M,0,82580,82614,351.0833,185.9195,351.0965,203.3362 M,0,82614,82648,351.0965,203.3362,354.805,220.3408 M,0,82648,82682,354.805,220.3408,362.0359,236.1612 M,0,82682,82716,362.0359,236.1612,372.4573,250.0796 M,0,82716,82750,372.4573,250.0796,385.5938,261.4645 M,0,82750,82784,385.5938,261.4645,400.704,270.1322
Sprite,Foreground,Centre,"sb\haireitsu.png",0,0 C,0,83058,,0,202,0 M,0,83058,83092,248,162,240.7213,177.8866 F,2,83058,83530,1,0 S,2,83058,83530,0.8,0.16 P,0,83058,83530,A M,0,83092,83126,240.7213,177.8866,236.0958,194.7305 M,0,83126,83160,236.0958,194.7305,234.2419,212.0929 M,0,83160,83194,234.2419,212.0929,235.2059,229.5214 M,0,83194,83228,235.2059,229.5214,238.9612,246.5624 M,0,83228,83262,238.9612,246.5624,245.4082,262.7726 M,0,83262,83296,245.4082,262.7726,254.3779,277.7304 M,0,83296,83330,254.3779,277.7304,265.6359,291.047
Sprite,Foreground,Centre,"sb\haireitsu.png",0,0 C,0,83603,,18,124,255 M,0,83603,83637,282,178,281.5267,195.4674 F,2,83603,84075,1,0 S,2,83603,84075,0.8,0.16 P,0,83603,84075,A M,0,83637,83671,281.5267,195.4674,283.9021,212.7713 M,0,83671,83705,283.9021,212.7713,289.0607,229.4512 M,0,83705,83739,289.0607,229.4512,296.8632,245.0633 M,0,83739,83773,296.8632,245.0633,307.0999,259.1924 M,0,83773,83807,307.0999,259.1924,319.4969,271.4631 M,0,83807,83841,319.4969,271.4631,333.7228,281.5493 M,0,83841,83875,333.7228,281.5493,349.3979,289.1834
Sprite,Foreground,Centre,"sb\haireitsu.png",0,0 C,0,84148,,242,24,57 M,0,84148,84182,376,200,358.6616,202.3726 F,2,84148,84484,1,0 S,2,84148,84484,0.8,0.16 P,0,84148,84484,A M,0,84182,84216,358.6616,202.3726,341.3232,204.7453 M,0,84216,84250,341.3232,204.7453,323.9847,207.1179 M,0,84250,84284,323.9847,207.1179,306.6463,209.4905
Sprite,Foreground,Centre,"sb\haireitsu.png",176,264 C,0,84421,,242,24,57 F,2,84421,84621,1,0 S,2,84421,84621,0.8,0.16 P,0,84421,84621,A
Sprite,Foreground,Centre,"sb\haireitsu.png",0,0 C,0,84558,,242,24,57 M,0,84558,84592,272,384,260.5387,370.7755 F,2,84558,84894,1,0 S,2,84558,84894,0.8,0.16 P,0,84558,84894,A M,0,84592,84626,260.5387,370.7755,249.0774,357.5509 M,0,84626,84660,249.0774,357.5509,237.6161,344.3263 M,0,84660,84694,237.6161,344.3263,226.1549,331.1018
Sprite,Foreground,Centre,"sb\haireitsu.png",96,152 C,0,84830,,242,24,57 F,2,84830,85030,1,0 S,2,84830,85030,0.8,0.16 P,0,84830,85030,A
Sprite,Foreground,Centre,"sb\haireitsu.png",96,152 C,0,84898,,242,24,57 F,2,84898,85098,1,0 S,2,84898,85098,0.8,0.16 P,0,84898,85098,A
Sprite,Foreground,Centre,"sb\haireitsu.png",0,0 C,0,84967,,242,24,57 M,0,84967,85001,96,152,96,169.5 F,2,84967,85303,1,0 S,2,84967,85303,0.8,0.16 P,0,84967,85303,A M,0,85001,85035,96,169.5,96,187 M,0,85035,85069,96,187,96,204.5 M,0,85069,85103,96,204.5,96,222
Sprite,Foreground,Centre,"sb\haireitsu.png",254,227 C,0,85239,,255,192,0 F,2,85239,85439,1,0 S,2,85239,85439,0.8,0.16 P,0,85239,85439,A
Sprite,Foreground,Centre,"sb\haireitsu.png",127,360 C,0,85376,,255,192,0 F,2,85376,85576,1,0 S,2,85376,85576,0.8,0.16 P,0,85376,85576,A
Sprite,Foreground,Centre,"sb\haireitsu.png",333,270 C,0,85512,,255,192,0 F,2,85512,85712,1,0 S,2,85512,85712,0.8,0.16 P,0,85512,85712,A
Sprite,Foreground,Centre,"sb\haireitsu.png",0,0 C,0,85648,,255,192,0 M,0,85648,85682,256,400,272.0005,406.999 F,2,85648,85984,1,0 S,2,85648,85984,0.8,0.16 P,0,85648,85984,A M,0,85682,85716,272.0005,406.999,289.1383,410.3551 M,0,85716,85750,289.1383,410.3551,306.595,409.9085 M,0,85750,85784,306.595,409.9085,323.5369,405.6809
Sprite,Foreground,Centre,"sb\haireitsu.png",472,224 C,0,85921,,255,192,0 F,2,85921,86121,1,0 S,2,85921,86121,0.8,0.16 P,0,85921,86121,A
Sprite,Foreground,Centre,"sb\haireitsu.png",472,224 C,0,85989,,255,192,0 F,2,85989,86189,1,0 S,2,85989,86189,0.8,0.16 P,0,85989,86189,A
Sprite,Foreground,Centre,"sb\haireitsu.png",472,224 C,0,86058,,255,192,0 F,2,86058,86258,1,0 S,2,86058,86258,0.8,0.16 P,0,86058,86258,A
Sprite,Foreground,Centre,"sb\haireitsu.png",0,0 C,0,86194,,255,192,0 M,0,86194,86228,327,147,310.4644,141.8219 F,2,86194,86530,1,0 S,2,86194,86530,0.8,0.16 P,0,86194,86530,A M,0,86228,86262,310.4644,141.8219,293.2669,141.4272 M,0,86262,86296,293.2669,141.4272,276.8203,146.4688 M,0,86296,86330,276.8203,146.4688,262.7984,156.4337
Sprite,Foreground,Centre,"sb\haireitsu.png",0,0 C,0,86467,,0,202,0 M,0,86467,86501,152,272,140.6763,285.1555 F,2,86467,86803,1,0 S,2,86467,86803,0.8,0.16 P,0,86467,86803,A M,0,86501,86535,140.6763,285.1555,134.5526,301.3388 M,0,86535,86569,134.5526,301.3388,134.3346,318.5969 M,0,86569,86603,134.3346,318.5969,140.0243,334.8575
Sprite,Foreground,Centre,"sb\haireitsu.png",0,0 C,0,86739,,0,202,0 M,0,86739,86773,320,368,337.2052,370.8685 F,2,86739,87075,1,0 S,2,86739,87075,0.8,0.16 P,0,86739,87075,A M,0,86773,86807,337.2052,370.8685,354.5787,369.5049 M,0,86807,86841,354.5787,369.5049,371.0969,363.9965 M,0,86841,86875,371.0969,363.9965,385.788,354.6742
Sprite,Foreground,Centre,"sb\haireitsu.png",307,197 C,0,87012,,0,202,0 F,2,87012,87212,1,0 S,2,87012,87212,0.8,0.16 P,0,87012,87212,A
Sprite,Foreground,Centre,"sb\haireitsu.png",307,197 C,0,87080,,0,202,0 F,2,87080,87280,1,0 S,2,87080,87280,0.8,0.16 P,0,87080,87280,A
Sprite,Foreground,Centre,"sb\haireitsu.png",307,197 C,0,87148,,0,202,0 F,2,87148,87348,1,0 S,2,87148,87348,0.8,0.16 P,0,87148,87348,A
Sprite,Foreground,Centre,"sb\haireitsu.png",0,0 C,0,87285,,0,202,0 M,0,87285,87319,140,192,127.0777,203.6537 F,2,87285,87621,1,0 S,2,87285,87621,0.8,0.16 P,0,87285,87621,A M,0,87319,87353,127.0777,203.6537,118.5743,218.8072 M,0,87353,87387,118.5743,218.8072,115.3699,235.8621 M,0,87387,87421,115.3699,235.8621,117.7875,253.0247
Sprite,Foreground,Centre,"sb\haireitsu.png",0,0 C,0,87694,,18,124,255 M,0,87694,87728,500,200,506.9314,216.0408 F,2,87694,88166,1,0 S,2,87694,88166,0.8,0.16 P,0,87694,88166,A M,0,87728,87762,506.9314,216.0408,511.4089,232.9216 M,0,87762,87796,511.4089,232.9216,513.3369,250.2714 M,0,87796,87830,513.3369,250.2714,512.6748,267.7096 M,0,87830,87864,512.6748,267.7096,509.4386,284.8535 M,0,87864,87898,509.4386,284.8535,503.7,301.3274 M,0,87898,87932,503.7,301.3274,495.7471,316.8649 M,0,87932,87966,495.7471,316.8649,485.3498,330.8973
Sprite,Foreground,Centre,"sb\haireitsu.png",0,0 C,0,88103,,18,124,255 M,0,88103,88137,500,200,506.0889,216.3993 F,2,88103,88575,1,0 S,2,88103,88575,0.8,0.16 P,0,88103,88575,A M,0,88137,88171,506.0889,216.3993,510.788,233.2475 M,0,88171,88205,510.788,233.2475,514.0649,250.4273 M,0,88205,88239,514.0649,250.4273,515.897,267.8189 M,0,88239,88273,515.897,267.8189,516.2717,285.3014 M,0,88273,88307,516.2717,285.3014,515.1868,302.7529 M,0,88307,88341,515.1868,302.7529,512.6498,320.052 M,0,88341,88375,512.6498,320.052,508.7833,337.1088
Sprite,Foreground,Centre,"sb\haireitsu.png",0,0 C,0,88512,,18,124,255 M,0,88512,88546,268,311,253.1532,301.8201 F,2,88512,89121,1,0 S,2,88512,89121,0.8,0.16 P,0,88512,89121,A M,0,88546,88580,253.1532,301.8201,240.4641,289.856 M,0,88580,88614,240.4641,289.856,230.4444,275.5978 M,0,88614,88648,230.4444,275.5978,223.4975,259.6276 M,0,88648,88682,223.4975,259.6276,219.9024,242.5961 M,0,88682,88716,219.9024,242.5961,219.8024,225.196 M,0,88716,88750,219.8024,225.196,223.1994,208.1348 M,0,88750,88784,223.1994,208.1348,229.621,191.9252 M,0,88784,88818,229.621,191.9252,239.5728,177.5871 M,0,88818,88852,239.5728,177.5871,252.1906,165.5504 M,0,88852,88887,252.1906,165.5504,266.958,156.3006 M,0,88887,88921,266.958,156.3006,283.2287,150.0081
Sprite,Foreground,Centre,"sb\haireitsu.png",0,0 C,0,89058,,18,124,255 M,0,89058,89092,289,154,289.1061,171.4997 F,2,89058,89530,1,0 S,2,89058,89530,0.8,0.16 P,0,89058,89530,A M,0,89092,89126,289.1061,171.4997,289.2121,188.9994 M,0,89126,89160,289.2121,188.9994,289.3182,206.499 M,0,89160,89194,289.3182,206.499,289.4243,223.9987 M,0,89194,89228,289.4243,223.9987,289.5303,241.4984 M,0,89228,89262,289.5303,241.4984,289.6364,258.9981 M,0,89262,89296,289.6364,258.9981,289.7424,276.4977 M,0,89296,89330,289.7424,276.4977,289.8484,293.9974
Sprite,Foreground,Centre,"sb\haireitsu.png",0,0 C,0,89603,,242,24,57 M,0,89603,89637,424,112,433.5905,126.6381 F,2,89603,89939,1,0 S,2,89603,89939,0.8,0.16 P,0,89603,89939,A M,0,89637,89671,433.5905,126.6381,443.1809,141.2761 M,0,89671,89705,443.1809,141.2761,452.7714,155.9142 M,0,89705,89739,452.7714,155.9142,462,170
Sprite,Foreground,Centre,"sb\haireitsu.png",0,0 C,0,89876,,242,24,57 M,0,89876,89910,384,320,373.7747,305.7982 F,2,89876,90212,1,0 S,2,89876,90212,0.8,0.16 P,0,89876,90212,A M,0,89910,89944,373.7747,305.7982,363.5493,291.5963 M,0,89944,89978,363.5493,291.5963,353.324,277.3944 M,0,89978,90012,353.324,277.3944,343.0987,263.1926
Sprite,Foreground,Centre,"sb\haireitsu.png",0,0 C,0,90148,,242,24,57 M,0,90148,90182,244,136,229.7099,146.1016 F,2,90148,90484,1,0 S,2,90148,90484,0.8,0.16 P,0,90148,90484,A M,0,90182,90216,229.7099,146.1016,215.4198,156.2032 M,0,90216,90250,215.4198,156.2032,201.1297,166.3049 M,0,90250,90284,201.1297,166.3049,186.8396,176.4065
Sprite,Foreground,Centre,"sb\haireitsu.png",168,344 C,0,90421,,242,24,57 F,2,90421,90621,1,0 S,2,90421,90621,0.8,0.16 P,0,90421,90621,A
Sprite,Foreground,Centre,"sb\haireitsu.png",168,344 C,0,90489,,242,24,57 F,2,90489,90689,1,0 S,2,90489,90689,0.8,0.16 P,0,90489,90689,A
Sprite,Foreground,Centre,"sb\haireitsu.png",168,344 C,0,90558,,242,24,57 F,2,90558,90758,1,0 S,2,90558,90758,0.8,0.16 P,0,90558,90758,A
Sprite,Foreground,Centre,"sb\haireitsu.png",416,328 C,0,90694,,242,24,57 F,2,90694,90894,1,0 S,2,90694,90894,0.8,0.16 P,0,90694,90894,A
Sprite,Foreground,Centre,"sb\haireitsu.png",318,222 C,0,90830,,242,24,57 F,2,90830,91030,1,0 S,2,90830,91030,0.8,0.16 P,0,90830,91030,A
Sprite,Foreground,Centre,"sb\haireitsu.png",220,300 C,0,90967,,242,24,57 F,2,90967,91167,1,0 S,2,90967,91167,0.8,0.16 P,0,90967,91167,A
Sprite,Foreground,Centre,"sb\haireitsu.png",312,408 C,0,91103,,242,24,57 F,2,91103,91303,1,0 S,2,91103,91303,0.8,0.16 P,0,91103,91303,A
Sprite,Foreground,Centre,"sb\haireitsu.png",0,0 C,0,91239,,242,24,57 M,0,91239,91273,417,251,400.2321,245.9914 F,2,91239,91575,1,0 S,2,91239,91575,0.8,0.16 P,0,91239,91575,A M,0,91273,91307,400.2321,245.9914,383.4641,240.9828 M,0,91307,91341,383.4641,240.9828,366.6962,235.9742 M,0,91341,91375,366.6962,235.9742,349.9282,230.9656
Sprite,Foreground,Centre,"sb\haireitsu.png",100,148 C,0,91785,,255,192,0 F,2,91785,91985,1,0 S,2,91785,91985,0.8,0.16 P,0,91785,91985,A
Sprite,Foreground,Centre,"sb\haireitsu.png",237,96 C,0,91921,,255,192,0 F,2,91921,92121,1,0 S,2,91921,92121,0.8,0.16 P,0,91921,92121,A
Sprite,Foreground,Centre,"sb\haireitsu.png",131,213 C,0,92058,,255,192,0 F,2,92058,92258,1,0 S,2,92058,92258,0.8,0.16 P,0,92058,92258,A
Sprite,Foreground,Centre,"sb\haireitsu.png",188,58 C,0,92194,,255,192,0 F,2,92194,92394,1,0 S,2,92194,92394,0.8,0.16 P,0,92194,92394,A
Sprite,Foreground,Centre,"sb\haireitsu.png",0,0 C,0,92330,,255,192,0 M,0,92330,92364,200,224,201.6992,241.4173 F,2,92330,92666,1,0 S,2,92330,92666,0.8,0.16 P,0,92330,92666,A M,0,92364,92398,201.6992,241.4173,203.3985,258.8346 M,0,92398,92432,203.3985,258.8346,205.0977,276.2519 M,0,92432,92466,205.0977,276.2519,206.797,293.6692
Sprite,Foreground,Centre,"sb\haireitsu.png",216,364 C,0,92603,,0,202,0 F,2,92603,92803,1,0 S,2,92603,92803,0.8,0.16 P,0,92603,92803,A
Sprite,Foreground,Centre,"sb\haireitsu.png",192,152 C,0,92739,,0,202,0 F,2,92739,92939,1,0 S,2,92739,92939,0.8,0.16 P,0,92739,92939,A
Sprite,Foreground,Centre,"sb\haireitsu.png",149,372 C,0,92876,,0,202,0 F,2,92876,93076,1,0 S,2,92876,93076,0.8,0.16 P,0,92876,93076,A
Sprite,Foreground,Centre,"sb\haireitsu.png",256,176 C,0,93012,,0,202,0 F,2,93012,93212,1,0 S,2,93012,93212,0.8,0.16 P,0,93012,93212,A
Sprite,Foreground,Centre,"sb\haireitsu.png",87,344 C,0,93148,,0,202,0 F,2,93148,93348,1,0 S,2,93148,93348,0.8,0.16 P,0,93148,93348,A
Sprite,Foreground,Centre,"sb\haireitsu.png",296,236 C,0,93285,,0,202,0 F,2,93285,93485,1,0 S,2,93285,93485,0.8,0.16 P,0,93285,93485,A
Sprite,Foreground,Centre,"sb\haireitsu.png",0,0 C,0,93421,,0,202,0 M,0,93421,93455,72,276,74.70253,258.7207 F,2,93421,94166,1,0 S,2,93421,94166,0.8,0.16 P,0,93421,94166,A M,0,93455,93489,74.70253,258.7207,79.0373,241.7813 M,0,93489,93523,79.0373,241.7813,84.96446,225.3348 M,0,93523,93557,84.96446,225.3348,92.42997,209.5298 M,0,93557,93591,92.42997,209.5298,101.366,194.5089 M,0,93591,93625,101.366,194.5089,111.5603,180.3023 M,0,93625,93659,111.5603,180.3023,123.2347,167.2808 M,0,93659,93693,123.2347,167.2808,136.0933,155.433 M,0,93693,93727,136.0933,155.433,150.0192,144.8655 M,0,93727,93761,150.0192,144.8655,164.8863,135.6735 M,0,93761,93796,164.8863,135.6735,180.56,127.9398 M,0,93796,93830,180.56,127.9398,196.8485,121.5836 M,0,93830,93864,196.8485,121.5836,213.7299,117.0181 M,0,93864,93898,213.7299,117.0181,230.9657,114.0816 M,0,93898,93932,230.9657,114.0816,248.3997,112.8002 M,0,93932,93966,248.3997,112.8002,265.8745,113.1849
Sprite,Foreground,Centre,"sb\haireitsu.png",0,0 C,0,52512,,0,202,0 M,0,52512,52546,440,288,431.5271,290.1765 F,2,52512,53666,1,0 S,2,52512,53666,0.8,0.16 P,0,52512,53666,A M,0,52546,52580,431.5271,290.1765,422.9095,291.6752 M,0,52580,52614,422.9095,291.6752,414.1891,292.3398 M,0,52614,52648,414.1891,292.3398,405.4561,291.9305 M,0,52648,52682,405.4561,291.9305,396.9131,290.1045 M,0,52682,52716,396.9131,290.1045,389.0271,286.3788 M,0,52716,52750,389.0271,286.3788,382.7126,280.3917 M,0,52750,52784,382.7126,280.3917,378.9908,272.5278 M,0,52784,52818,378.9908,272.5278,377.9641,263.8677 M,0,52818,52852,377.9641,263.8677,378.9739,255.1899 M,0,52852,52887,378.9739,255.1899,381.3465,246.7747 M,0,52887,52921,381.3465,246.7747,384.655,238.6782 M,0,52921,52955,384.655,238.6782,388.6216,230.8812 M,0,52955,52989,388.6216,230.8812,393.0882,223.3585 M,0,52989,53023,393.0882,223.3585,397.9329,216.0733 M,0,53023,53057,397.9329,216.0733,403.0795,208.9977 M,0,53057,53091,403.0795,208.9977,408.4771,202.1114 M,0,53091,53125,408.4771,202.1114,414.084,195.3943 M,0,53125,53159,414.084,195.3943,419.8632,188.8248 M,0,53159,53193,419.8632,188.8248,425.7964,182.3938 M,0,53193,53227,425.7964,182.3938,431.8609,176.0865 M,0,53227,53262,431.8609,176.0865,438.0444,169.8959 M,0,53262,53296,438.0444,169.8959,444.3285,163.8074 M,0,53296,53330,444.3285,163.8074,450.7078,157.8187 M,0,53330,53364,450.7078,157.8187,457.1705,151.92 M,0,53364,53398,457.1705,151.92,463.7091,146.1056 M,0,53398,53432,463.7091,146.1056,470.3171,140.37 M,0,53432,53466,470.3171,140.37,476.9884,134.7083
Sprite,Foreground,Centre,"sb\haireitsu.png",0,0 C,0,53603,,18,124,255 M,0,53603,53637,416,96,407.4645,97.90732 F,2,53603,54757,1,0 S,2,53603,54757,0.8,0.16 P,0,53603,54757,A M,0,53637,53671,407.4645,97.90732,399.0691,100.3516 M,0,53671,53705,399.0691,100.3516,390.8473,103.3229 M,0,53705,53739,390.8473,103.3229,382.832,106.8091 M,0,53739,53773,382.832,106.8091,375.0553,110.796 M,0,53773,53807,375.0553,110.796,367.5482,115.2676 M,0,53807,53841,367.5482,115.2676,360.3408,120.2058 M,0,53841,53875,360.3408,120.2058,353.4619,125.5907 M,0,53875,53909,353.4619,125.5907,346.939,131.4006 M,0,53909,53943,346.939,131.4006,340.7982,137.6122 M,0,53943,53978,340.7982,137.6122,335.064,144.2007 M,0,53978,54012,335.064,144.2007,329.5682,151.0025 M,0,54012,54046,329.5682,151.0025,324.7411,158.2956 M,0,54046,54080,324.7411,158.2956,320.3872,165.8785 M,0,54080,54114,320.3872,165.8785,316.5239,173.7206 M,0,54114,54148,316.5239,173.7206,313.1664,181.7906 M,0,54148,54182,313.1664,181.7906,310.3281,190.0559 M,0,54182,54216,310.3281,190.0559,308.0201,198.4834 M,0,54216,54250,308.0201,198.4834,306.2515,207.0392 M,0,54250,54284,306.2515,207.0392,305.0294,215.6892 M,0,54284,54318,305.0294,215.6892,304.3586,224.3986 M,0,54318,54353,304.3586,224.3986,304.2416,233.1324 M,0,54353,54387,304.2416,233.1324,304.6789,241.8558 M,0,54387,54421,304.6789,241.8558,305.4385,250.5671 M,0,54421,54455,305.4385,250.5671,307.0179,259.169 M,0,54455,54489,307.0179,259.169,309.1393,267.6516 M,0,54489,54523,309.1393,267.6516,311.7939,275.9807 M,0,54523,54557,311.7939,275.9807,314.8964,284.1583
Sprite,Foreground,Centre,"sb\haireitsu.png",0,0 C,0,54694,,242,24,57 M,0,54694,54728,376,312,382.3707,306.004 F,2,54694,55848,1,0 S,2,54694,55848,0.8,0.16 P,0,54694,55848,A M,0,54728,54762,382.3707,306.004,389.0591,300.3644 M,0,54762,54796,389.0591,300.3644,396.028,295.0751 M,0,54796,54830,396.028,295.0751,403.2434,290.1271 M,0,54830,54864,403.2434,290.1271,410.6785,285.5157 M,0,54864,54898,410.6785,285.5157,418.3099,281.2366 M,0,54898,54932,418.3099,281.2366,426.1247,277.3026 M,0,54932,54966,426.1247,277.3026,434.1043,273.7147 M,0,54966,55000,434.1043,273.7147,442.2388,270.4933 M,0,55000,55034,442.2388,270.4933,450.5168,267.6614 M,0,55034,55069,450.5168,267.6614,458.9283,265.2554 M,0,55069,55103,458.9283,265.2554,467.463,263.3326 M,0,55103,55137,467.463,263.3326,476.1035,261.9651 M,0,55137,55171,476.1035,261.9651,484.8223,261.2565 M,0,55171,55205,484.8223,261.2565,492.6372,259.788 M,0,55205,55239,492.6372,259.788,488.1696,252.2728 M,0,55239,55273,488.1696,252.2728,484.3407,244.4099 M,0,55273,55307,484.3407,244.4099,481.287,236.2133 M,0,55307,55341,481.287,236.2133,478.8662,227.8069 M,0,55341,55375,478.8662,227.8069,476.9715,219.2659 M,0,55375,55409,476.9715,219.2659,475.5118,210.6395 M,0,55409,55444,475.5118,210.6395,474.428,201.9576 M,0,55444,55478,474.428,201.9576,473.6718,193.241 M,0,55478,55512,473.6718,193.241,473.1958,184.5045 M,0,55512,55546,473.1958,184.5045,472.9691,175.7578 M,0,55546,55580,472.9691,175.7578,472.9614,167.0082 M,0,55580,55614,472.9614,167.0082,473.1637,158.2607 M,0,55614,55648,473.1637,158.2607,473.5455,149.5193
Sprite,Foreground,Centre,"sb\haireitsu.png",0,0 C,0,55785,,255,192,0 M,0,55785,55819,544,168,547.83,175.8626 F,2,55785,56939,1,0 S,2,55785,56939,0.8,0.16 P,0,55785,56939,A M,0,55819,55853,547.83,175.8626,551.1051,183.97 M,0,55853,55887,551.1051,183.97,553.8098,192.2832 M,0,55887,55921,553.8098,192.2832,555.9314,200.7622 M,0,55921,55955,555.9314,200.7622,557.4598,209.3664 M,0,55955,55989,557.4598,209.3664,558.3881,218.0544 M,0,55989,56023,558.3881,218.0544,558.7119,226.7846 M,0,56023,56057,558.7119,226.7846,558.4297,235.515 M,0,56057,56091,558.4297,235.515,557.5432,244.2038 M,0,56091,56125,557.5432,244.2038,556.0566,252.8094 M,0,56125,56160,556.0566,252.8094,553.9773,261.2905 M,0,56160,56194,553.9773,261.2905,551.3152,269.6064 M,0,56194,56228,551.3152,269.6064,548.0833,277.7172 M,0,56228,56262,548.0833,277.7172,544.2971,285.5841 M,0,56262,56296,544.2971,285.5841,539.9747,293.1694 M,0,56296,56330,539.9747,293.1694,535.137,300.4367 M,0,56330,56364,535.137,300.4367,529.9952,307.5046 M,0,56364,56398,529.9952,307.5046,524.1648,314.0214 M,0,56398,56432,524.1648,314.0214,517.898,320.1171 M,0,56432,56466,517.898,320.1171,511.2251,325.7626 M,0,56466,56500,511.2251,325.7626,504.1782,330.9311 M,0,56500,56535,504.1782,330.9311,496.7911,335.598 M,0,56535,56569,496.7911,335.598,489.0996,339.741 M,0,56569,56603,489.0996,339.741,481.1404,343.3403 M,0,56603,56637,481.1404,343.3403,472.9519,346.3789 M,0,56637,56671,472.9519,346.3789,464.5733,348.8423 M,0,56671,56705,464.5733,348.8423,456.045,350.7188 M,0,56705,56739,456.045,350.7188,447.4077,351.9995
Sprite,Foreground,Centre,"sb\haireitsu.png",215,319 C,0,56876,,255,192,0 F,2,56876,57076,1,0 S,2,56876,57076,0.8,0.16 P,0,56876,57076,A
Sprite,Foreground,Centre,"sb\haireitsu.png",0,0 C,0,57148,,0,202,0 M,0,57148,57182,133,119,126.4499,113.1984 F,2,57148,57484,1,0 S,2,57148,57484,0.8,0.16 P,0,57148,57484,A M,0,57182,57216,126.4499,113.1984,119.8997,107.3969 M,0,57216,57250,119.8997,107.3969,113.3496,101.5953 M,0,57250,57284,113.3496,101.5953,106.7994,95.79377
Sprite,Foreground,Centre,"sb\haireitsu.png",265,241 C,0,57421,,0,202,0 F,2,57421,57621,1,0 S,2,57421,57621,0.8,0.16 P,0,57421,57621,A
Sprite,Foreground,Centre,"sb\haireitsu.png",0,0 C,0,57694,,18,124,255 M,0,57694,57728,247,124,240.485,118.159 F,2,57694,58030,1,0 S,2,57694,58030,0.8,0.16 P,0,57694,58030,A M,0,57728,57762,240.485,118.159,233.97,112.318 M,0,57762,57796,233.97,112.318,227.455,106.4769 M,0,57796,57830,227.455,106.4769,220.9401,100.6359
Sprite,Foreground,Centre,"sb\haireitsu.png",381,230 C,0,57967,,18,124,255 F,2,57967,58167,1,0 S,2,57967,58167,0.8,0.16 P,0,57967,58167,A
Sprite,Foreground,Centre,"sb\haireitsu.png",536,101 C,0,58239,,242,24,57 F,2,58239,58439,1,0 S,2,58239,58439,0.8,0.16 P,0,58239,58439,A
Sprite,Foreground,Centre,"sb\haireitsu.png",536,101 C,0,58512,,242,24,57 F,2,58512,58712,1,0 S,2,58512,58712,0.8,0.16 P,0,58512,58712,A
Sprite,Foreground,Centre,"sb\haireitsu.png",536,101 C,0,58785,,242,24,57 F,2,58785,58985,1,0 S,2,58785,58985,0.8,0.16 P,0,58785,58985,A
//Storyboard Layer 4 (Overlay)
//Storyboard Sound Samples

[TimingPoints]
8058,272.727272727273,4,1,1,80,1,0
52376,-200,4,1,1,80,0,0
53467,-200,4,1,1,35,0,0
53603,-200,4,1,1,80,0,0
54558,-200,4,1,1,35,0,0
54626,-200,4,1,1,80,0,0
55648,-200,4,1,1,35,0,0
55785,-200,4,1,1,80,0,0
56739,-200,4,1,1,35,0,0
56808,-200,4,1,1,80,0,0
58989,-100,4,1,1,80,0,1
93967,-100,4,1,1,80,0,0
128876,-200,4,1,1,80,0,0
133239,-500,4,1,1,80,0,0
135421,-100,4,1,1,80,0,1
137262,-100,4,1,1,35,0,1
137330,-100,4,1,1,80,0,1
152330,-83.3333333333333,4,1,1,80,0,1
152430,-100,4,1,1,80,0,1
153148,-100,4,1,1,80,0,0
159421,-100,4,1,1,35,0,0
159489,-100,4,1,1,80,0,0
164467,-100,4,1,1,35,0,0
164535,-100,4,1,1,80,0,0
168830,-100,4,1,1,5,0,0
168898,-100,4,1,1,80,0,0
192148,-200,4,1,1,80,0,0
193239,-83.3333333333333,4,1,1,80,0,0
196512,-100,4,1,1,80,0,1
198148,-200,4,1,1,80,0,1
198353,-100,4,1,1,5,0,1
198421,-100,4,1,1,80,0,1
212330,-200,4,1,1,80,0,1
212535,-200,4,1,1,5,0,1
212603,-200,4,1,1,80,0,1
213694,-100,4,1,1,80,0,1
213967,-83.3333333333333,4,1,1,80,0,1
214035,-83.3333333333333,4,1,1,5,0,1
214103,-83.3333333333333,4,1,1,80,0,1
214171,-83.3333333333333,4,1,1,5,0,1
214239,-83.3333333333333,4,1,1,80,0,1
214308,-83.3333333333333,4,1,1,5,0,1
214376,-83.3333333333333,4,1,1,80,0,1
214444,-83.3333333333333,4,1,1,5,0,1
214512,-83.3333333333333,4,1,1,80,0,1
215126,-83.3333333333333,4,1,1,5,0,1
215194,-83.3333333333333,4,1,1,80,0,1
215262,-83.3333333333333,4,1,1,5,0,1
215330,-83.3333333333333,4,1,1,80,0,1
215398,-83.3333333333333,4,1,1,5,0,1
215467,-83.3333333333333,4,1,1,80,0,1
215535,-83.3333333333333,4,1,1,5,0,1
215603,-83.3333333333333,4,1,1,80,0,1
216285,-83.3333333333333,4,1,1,5,0,1
216421,-100,4,1,1,80,0,1
218058,-83.3333333333333,4,1,1,80,0,1
218194,-83.3333333333333,4,1,1,5,0,1
218330,-83.3333333333333,4,1,1,80,0,1
218398,-83.3333333333333,4,1,1,5,0,1
218467,-83.3333333333333,4,1,1,80,0,1
218535,-83.3333333333333,4,1,1,5,0,1
218603,-83.3333333333333,4,1,1,80,0,1
218671,-83.3333333333333,4,1,1,5,0,1
218739,-83.3333333333333,4,1,1,80,0,1
218808,-83.3333333333333,4,1,1,5,0,1
218876,-83.3333333333333,4,1,1,80,0,1
219421,-83.3333333333333,4,1,1,80,0,1
219489,-83.3333333333333,4,1,1,5,0,1
219558,-83.3333333333333,4,1,1,80,0,1
219626,-83.3333333333333,4,1,1,5,0,1
219694,-83.3333333333333,4,1,1,80,0,1
219762,-83.3333333333333,4,1,1,5,0,1
219830,-83.3333333333333,4,1,1,80,0,1
219898,-83.3333333333333,4,1,1,5,0,1
219967,-83.3333333333333,4,1,1,80,0,1
222762,-83.3333333333333,4,1,1,5,0,1
222830,-83.3333333333333,4,1,1,80,0,1
222898,-83.3333333333333,4,1,1,5,0,1
222967,-83.3333333333333,4,1,1,80,0,1
223035,-83.3333333333333,4,1,1,5,0,1
223103,-83.3333333333333,4,1,1,80,0,1
223171,-83.3333333333333,4,1,1,5,0,1
223239,-83.3333333333333,4,1,1,80,0,1
223853,-83.3333333333333,4,1,1,5,0,1
223921,-83.3333333333333,4,1,1,80,0,1
223989,-83.3333333333333,4,1,1,5,0,1
224058,-83.3333333333333,4,1,1,80,0,1
224126,-83.3333333333333,4,1,1,5,0,1
224194,-83.3333333333333,4,1,1,80,0,1
224262,-83.3333333333333,4,1,1,5,0,1
224330,-83.3333333333333,4,1,1,80,0,1
227126,-83.3333333333333,4,1,1,5,0,1
227194,-83.3333333333333,4,1,1,80,0,1
227262,-83.3333333333333,4,1,1,5,0,1
227330,-83.3333333333333,4,1,1,80,0,1
227398,-83.3333333333333,4,1,1,5,0,1
227467,-83.3333333333333,4,1,1,80,0,1
227535,-83.3333333333333,4,1,1,5,0,1
227603,-83.3333333333333,4,1,1,80,0,1
228217,-83.3333333333333,4,1,1,5,0,1
228285,-83.3333333333333,4,1,1,80,0,1
228353,-83.3333333333333,4,1,1,5,0,1
228421,-83.3333333333333,4,1,1,80,0,1
228489,-83.3333333333333,4,1,1,5,0,1
228558,-83.3333333333333,4,1,1,80,0,1
228626,-83.3333333333333,4,1,1,5,0,1
228694,-83.3333333333333,4,1,1,80,0,1
231694,-100,4,1,1,80,0,0

[HitObjects]
325,244,8058,5,0,0:0:0:0:
325,244,8330,1,0,0:0:0:0:
325,244,8603,1,0,0:0:0:0:
246,111,8876,6,0,P|240:63|327:43,1,140
437,111,9422,1,2,0:0:0:0:
374,153,9558,1,0,0:0:0:0:
444,184,9695,1,0,0:0:0:0:
386,230,9831,1,0,0:0:0:0:
471,258,9967,2,0,P|468:292|439:313,2,70
458,93,10512,2,0,P|401:75|379:91,1,70,2|0,0:0|0:0,0:0:0:0:
168,144,10921,5,0,0:0:0:0:
33,148,11058,2,0,L|32:69,1,70
228,61,11330,2,0,L|244:141,1,70
120,24,11603,1,2,0:0:0:0:
123,152,11739,2,0,L|123:230,1,70
248,220,12012,1,0,0:0:0:0:
360,220,12148,1,0,0:0:0:0:
360,332,12285,1,0,0:0:0:0:
247,332,12421,1,0,0:0:0:0:
248,220,12558,2,0,P|252:182|302:187,2,70,0|2|0,0:0|0:0|0:0,0:0:0:0:
112,233,13103,5,0,0:0:0:0:
90,188,13239,1,0,0:0:0:0:
92,138,13376,1,0,0:0:0:0:
115,98,13512,2,0,P|214:92|245:135,2,140,0|2|0,0:0|0:0|0:0,0:0:0:0:
282,269,14330,5,0,0:0:0:0:
355,347,14467,1,0,0:0:0:0:
431,276,14603,1,0,0:0:0:0:
363,197,14739,1,0,0:0:0:0:
282,269,14876,2,0,L|222:308,3,70,2|0|0|0,0:0|0:0|0:0|0:0,0:0:0:0:
204,276,15421,6,0,L|114:280,1,70
44,288,15694,1,0,0:0:0:0:
44,288,15830,2,0,L|57:361,1,70,0|2,0:0|0:0,0:0:0:0:
136,300,16103,1,0,0:0:0:0:
252,215,16239,1,0,0:0:0:0:
253,357,16376,1,0,0:0:0:0:
152,209,16512,1,0,0:0:0:0:
316,211,16648,2,0,P|356:181|359:155,2,70
205,200,17058,2,0,P|147:188|124:203,2,70,2|0|0,0:0|0:0|0:0,0:0:0:0:
464,184,17603,6,0,L|473:255,1,70
348,128,17876,1,0,0:0:0:0:
348,128,18012,2,0,L|285:65,1,70,0|2,0:0|0:0,0:0:0:0:
189,234,18285,2,0,L|260:283,1,70
372,125,18558,2,0,L|301:86,1,70
305,101,18762,1,0,0:0:0:0:
305,101,18830,1,0,0:0:0:0:
130,153,18967,2,0,L|190:219,1,70
269,38,19239,2,0,L|184:38,1,70,2|0,0:0|0:0,0:0:0:0:
130,153,19512,6,0,P|132:245|186:286,1,140
418,287,20058,2,0,L|466:225,1,70
464,102,20330,1,2,0:0:0:0:
351,73,20467,2,0,L|284:136,1,70
169,101,20739,1,0,0:0:0:0:
171,199,20876,2,0,L|170:284,1,70
365,184,21148,2,0,L|329:113,1,70
285,306,21421,2,0,L|367:290,2,70,2|0|0,0:0|0:0|0:0,0:0:0:0:
94,296,21830,5,0,0:0:0:0:
79,265,21967,1,0,0:0:0:0:
64,229,22103,1,0,0:0:0:0:
55,192,22239,2,0,P|49:129|118:81,2,140,0|2|0,0:0|0:0|0:0,0:0:0:0:
86,258,22921,5,0,0:0:0:0:
105,289,23058,1,0,0:0:0:0:
125,315,23194,1,0,0:0:0:0:
147,342,23330,2,0,P|191:374|225:375,2,70,0|0|2,0:0|0:0|0:0,0:0:0:0:
112,277,23739,2,0,P|106:228|130:197,1,70
240,69,24012,6,0,L|298:117,1,70
454,157,24285,5,0,0:0:0:0:
350,253,24421,1,0,0:0:0:0:
454,157,24558,1,0,0:0:0:0:
350,253,24694,1,2,0:0:0:0:
400,124,24830,5,0,0:0:0:0:
400,300,24967,1,0,0:0:0:0:
400,124,25103,1,0,0:0:0:0:
400,300,25239,1,0,0:0:0:0:
400,124,25376,2,0,P|395:74|360:48,1,70
165,277,25648,2,0,P|185:317|218:334,2,70,0|2|0,0:0|0:0|0:0,0:0:0:0:
160,68,26058,6,0,L|205:68,4,35
317,187,30421,6,0,P|307:234|338:269,2,70
444,208,34239,5,0,0:0:0:0:
444,208,34512,1,0,0:0:0:0:
444,208,34785,1,0,0:0:0:0:
444,208,35058,2,0,P|450:279|406:336,1,140
264,280,35603,1,2,0:0:0:0:
316,350,35739,1,0,0:0:0:0:
185,286,35876,1,0,0:0:0:0:
243,360,36012,1,0,0:0:0:0:
108,212,36148,2,0,L|198:196,1,70
280,244,36421,2,0,L|326:308,1,70
448,164,36694,2,0,P|457:225|435:237,3,70,2|0|0|0,0:0|0:0|0:0|0:0,0:0:0:0:
432,176,37239,6,0,L|412:276,1,70
336,264,37512,1,0,0:0:0:0:
320,332,37648,2,0,L|227:334,1,70,0|2,0:0|0:0,0:0:0:0:
132,172,37921,2,0,L|208:104,1,70
320,28,38194,1,0,0:0:0:0:
320,28,38262,1,0,0:0:0:0:
320,28,38330,1,0,0:0:0:0:
324,204,38467,2,0,L|269:257,1,70
184,144,38739,1,0,0:0:0:0:
100,64,38876,2,0,P|128:24|155:15,2,70,2|0|0,0:0|0:0|0:0,0:0:0:0:
312,264,39421,5,0,0:0:0:0:
341,296,39558,1,0,0:0:0:0:
371,325,39694,2,0,P|408:349|502:323,2,140,0|2|0,0:0|0:0|0:0,0:0:0:0:
259,205,40513,1,0,0:0:0:0:
229,167,40649,1,0,0:0:0:0:
203,137,40785,1,0,0:0:0:0:
174,102,40922,1,0,0:0:0:0:
150,71,41058,2,0,B|124:29|100:12|79:15,2,70,2|0|0,0:0|0:0|0:0,0:0:0:0:
251,220,41603,6,0,L|283:286,1,70
332,60,41876,2,0,L|405:56,1,70,0|2,0:0|0:0,0:0:0:0:
371,172,42148,1,0,0:0:0:0:
461,317,42285,1,0,0:0:0:0:
327,213,42421,1,0,0:0:0:0:
493,254,42558,1,0,0:0:0:0:
329,283,42694,1,0,0:0:0:0:
476,195,42830,1,0,0:0:0:0:
251,331,42967,2,0,P|246:260|255:251,1,70
328,170,43239,2,0,P|345:204|337:241,3,70,2|0|0|0,0:0|0:0|0:0|0:0,0:0:0:0:
240,104,43785,5,0,0:0:0:0:
241,105,44058,2,0,L|245:181,1,70
286,23,44330,1,2,0:0:0:0:
331,113,44467,1,0,0:0:0:0:
373,25,44603,1,0,0:0:0:0:
417,111,44739,1,0,0:0:0:0:
273,196,44876,1,0,0:0:0:0:
273,196,44944,1,0,0:0:0:0:
273,196,45012,1,0,0:0:0:0:
205,88,45148,2,0,L|268:53,1,70
344,186,45421,2,0,L|403:267,2,70,2|0|0,0:0|0:0|0:0,0:0:0:0:
240,40,45830,5,0,0:0:0:0:
240,40,45967,2,0,P|206:90|215:120,1,70
280,218,46239,2,0,P|324:214|354:180,1,70
406,86,46512,2,0,P|374:49|331:49,1,70,2|0,0:0|0:0,0:0:0:0:
237,164,46785,1,0,0:0:0:0:
237,164,46853,1,0,0:0:0:0:
237,164,46921,1,0,0:0:0:0:
312,78,47058,2,0,P|348:93|364:133,1,70
178,191,47330,1,0,0:0:0:0:
250,339,47467,2,0,L|299:274,1,70,0|2,0:0|0:0,0:0:0:0:
378,160,47739,2,0,L|321:239,2,70
425,87,48148,5,0,0:0:0:0:
449,51,48285,1,0,0:0:0:0:
477,15,48421,2,0,B|477:47|477:47|488:68|488:68|432:144,2,140,0|2|0,0:0|0:0|0:0,0:0:0:0:
108,132,49239,5,0,0:0:0:0:
190,268,49376,1,0,0:0:0:0:
53,182,49512,1,0,0:0:0:0:
218,193,49648,1,0,0:0:0:0:
66,255,49785,1,2,0:0:0:0:
171,107,49921,2,0,L|170:206,2,70
328,64,50330,6,0,L|404:40,1,70
265,197,50603,2,0,L|207:261,1,70
24,168,50876,1,2,0:0:0:0:
182,130,51012,1,0,0:0:0:0:
56,258,51148,1,0,0:0:0:0:
122,81,51285,1,0,0:0:0:0:
164,297,51421,1,0,0:0:0:0:
297,137,51558,1,0,0:0:0:0:
414,298,51694,2,0,P|428:356|418:387,2,70,0|2|0,0:0|0:0|0:0,0:0:0:0:
376,232,52239,5,0,0:0:0:0:
376,232,52376,1,0,0:0:0:0:
376,232,52512,2,0,B|305:253|265:198|426:68,1,245
352,40,53603,6,0,P|278:80|253:233,1,245
312,256,54694,6,0,B|377:191|499:180|397:274|410:86,1,245
480,112,55785,6,0,P|477:236|373:297,1,245
151,263,56876,1,4,0:0:0:0:
69,63,57148,6,0,L|34:32,1,35,8|0,0:0|0:0,0:0:0:0:
201,185,57421,1,4,0:0:0:0:
183,68,57694,6,0,L|154:42,1,35,8|0,0:0|0:0,0:0:0:0:
317,174,57967,1,4,0:0:0:0:
472,45,58239,5,0,0:0:0:0:
472,45,58512,1,0,0:0:0:0:
472,45,58785,1,0,0:0:0:0:
352,184,59058,6,0,L|358:272,1,70
232,204,59330,2,0,L|227:113,1,70
112,240,59603,2,0,P|110:194|137:193,2,70,2|0|0,0:0|0:0|0:0,0:0:0:0:
225,319,60012,1,0,0:0:0:0:
360,245,60148,1,0,0:0:0:0:
360,245,60217,1,0,0:0:0:0:
360,245,60285,1,0,0:0:0:0:
304,80,60421,2,0,P|344:120|343:147,1,70
300,284,60694,2,0,P|264:312|235:277,1,70,2|0,0:0|0:0,0:0:0:0:
128,164,60967,2,0,P|133:104|159:104,1,70,2|0,0:0|0:0,0:0:0:0:
136,112,61239,6,0,L|132:195,1,70
268,304,61512,1,0,0:0:0:0:
370,203,61648,1,0,0:0:0:0:
367,346,61785,1,2,0:0:0:0:
269,209,61921,1,0,0:0:0:0:
433,271,62058,1,0,0:0:0:0:
269,209,62194,1,0,0:0:0:0:
379,362,62330,1,0,0:0:0:0:
379,362,62398,1,0,0:0:0:0:
379,362,62467,1,0,0:0:0:0:
379,362,62535,1,0,0:0:0:0:
379,362,62603,2,0,P|407:316|402:215,2,140,0|2|0,0:0|0:0|0:0,0:0:0:0:
284,360,63421,6,0,L|136:332,1,140
141,244,63967,1,2,0:0:0:0:
390,226,64239,1,0,0:0:0:0:
52,128,64512,1,0,0:0:0:0:
286,333,64785,1,0,0:0:0:0:
220,72,65058,1,2,0:0:0:0:
116,352,65330,1,0,0:0:0:0:
327,212,65603,2,0,P|326:142|266:97,1,140
134,157,66148,2,0,P|130:240|186:302,1,140,2|0,0:0|0:0,0:0:0:0:
405,293,66694,2,0,L|406:217,1,70
368,104,66967,5,0,0:0:0:0:
220,52,67103,1,0,0:0:0:0:
100,160,67239,1,0,0:0:0:0:
132,308,67376,1,0,0:0:0:0:
324,328,67512,1,0,0:0:0:0:
324,328,67580,1,0,0:0:0:0:
324,328,67648,1,0,0:0:0:0:
324,328,67717,1,0,0:0:0:0:
324,328,67785,2,0,L|320:236,1,70
134,57,68058,6,0,P|77:87|76:111,1,70
196,220,68330,2,0,P|231:216|253:175,1,70,2|0,0:0|0:0,0:0:0:0:
360,72,68603,2,0,P|408:78|416:98,1,70
424,212,68876,1,0,0:0:0:0:
424,212,68944,1,0,0:0:0:0:
424,212,69012,1,0,0:0:0:0:
428,320,69148,2,0,P|398:350|352:331,2,70,0|0|2,0:0|0:0|0:0,0:0:0:0:
424,212,69558,2,0,P|435:163|423:148,2,70
316,229,69967,6,0,L|240:229,1,70
169,148,70239,1,0,0:0:0:0:
257,61,70376,2,0,P|334:108|337:115,1,70,0|2,0:0|0:0,0:0:0:0:
400,176,70648,1,0,0:0:0:0:
400,176,70717,1,0,0:0:0:0:
400,176,70785,1,0,0:0:0:0:
272,284,70921,1,0,0:0:0:0:
136,240,71058,2,0,P|115:297|121:322,1,70
312,368,71330,2,0,P|354:337|354:298,1,70
404,144,71603,2,0,P|371:110|330:99,2,70,2|0|0,0:0|0:0|0:0,0:0:0:0:
404,146,72148,6,0,L|409:289,1,140
128,292,72694,2,0,P|74:253|87:170,1,140,2|0,0:0|0:0,0:0:0:0:
312,64,73239,2,0,P|404:124|404:137,1,140
196,228,73785,2,0,P|199:324|251:343,1,140,2|0,0:0|0:0,0:0:0:0:
417,250,74330,2,0,P|431:157|372:120,1,140
117,130,74876,2,0,P|106:197|148:266,1,140,2|0,0:0|0:0,0:0:0:0:
288,44,75421,2,0,B|218:107|378:97|388:128,1,140
444,252,75967,5,2,0:0:0:0:
444,252,76035,1,0,0:0:0:0:
444,252,76103,1,0,0:0:0:0:
271,262,76239,1,0,0:0:0:0:
387,133,76376,1,0,0:0:0:0:
393,284,76512,2,0,L|398:359,1,70
236,344,76785,5,0,0:0:0:0:
132,357,76921,1,0,0:0:0:0:
217,232,77058,2,0,L|227:306,1,70,2|0,0:0|0:0,0:0:0:0:
428,208,77330,5,0,0:0:0:0:
428,208,77398,1,0,0:0:0:0:
428,208,77467,1,0,0:0:0:0:
277,212,77603,1,0,0:0:0:0:
360,102,77739,1,0,0:0:0:0:
370,257,77876,2,0,P|285:252|277:259,1,70
407,256,78148,2,0,P|355:203|280:186,1,140,2|0,0:0|0:0,0:0:0:0:
68,176,78694,5,0,0:0:0:0:
64,177,78967,2,0,P|59:255|103:292,1,140,0|2,0:0|0:0,0:0:0:0:
332,292,79376,2,0,B|384:285|384:285|376:189,1,140
364,120,79785,2,0,B|314:124|318:125|314:89|311:94|246:99|246:99|246:132,2,140,0|0|2,0:0|0:0|0:0,0:0:0:0:
352,200,80467,1,0,0:0:0:0:
460,300,80603,1,0,0:0:0:0:
308,240,80739,1,0,0:0:0:0:
308,240,80808,1,0,0:0:0:0:
308,240,80876,2,0,L|308:315,1,70
108,244,81148,5,0,0:0:0:0:
212,231,81284,1,0,0:0:0:0:
127,356,81421,2,0,L|117:282,1,70,2|0,0:0|0:0,0:0:0:0:
116,72,81694,1,0,0:0:0:0:
116,72,81762,1,0,0:0:0:0:
116,72,81830,1,0,0:0:0:0:
280,56,81967,5,0,0:0:0:0:
420,64,82103,1,0,0:0:0:0:
323,88,82239,2,0,P|340:143|377:145,1,70
298,97,82512,2,0,P|288:155|360:220,1,140,2|0,0:0|0:0,0:0:0:0:
184,106,83058,6,0,P|174:188|210:243,1,140
218,122,83603,6,0,P|241:201|296:237,1,140,2|0,0:0|0:0,0:0:0:0:
312,144,84148,6,0,L|217:157,1,70
112,208,84421,1,0,0:0:0:0:
208,328,84558,2,0,L|156:268,1,70,0|2,0:0|0:0,0:0:0:0:
32,96,84830,1,0,0:0:0:0:
32,96,84898,1,0,0:0:0:0:
32,96,84967,2,0,L|32:170,1,70
190,171,85239,5,0,0:0:0:0:
63,304,85376,1,0,0:0:0:0:
269,214,85512,1,2,0:0:0:0:
192,344,85648,2,0,P|242:354|275:342,1,70
408,168,85921,1,0,0:0:0:0:
408,168,85989,1,0,0:0:0:0:
408,168,86058,1,0,0:0:0:0:
263,91,86194,2,0,P|193:106|188:114,1,70
88,216,86467,6,0,P|76:280|94:298,1,70
256,312,86739,2,0,P|323:298|337:282,1,70,0|2,0:0|0:0,0:0:0:0:
243,141,87012,1,0,0:0:0:0:
243,141,87080,1,0,0:0:0:0:
243,141,87148,1,0,0:0:0:0:
76,136,87285,2,0,P|52:191|71:223,1,70
436,144,87694,6,0,P|449:211|406:290,1,140,0|2,0:0|0:0,0:0:0:0:
436,144,88103,2,0,P|452:212|444:284,1,140
204,255,88512,2,0,P|156:190|223:93,1,210
225,98,89058,2,0,L|226:263,1,140,2|0,0:0|0:0,0:0:0:0:
360,56,89603,6,0,L|398:114,1,70
320,264,89876,2,0,L|266:189,1,70
180,80,90148,2,0,L|122:121,1,70,2|0,0:0|0:0,0:0:0:0:
104,288,90421,1,0,0:0:0:0:
104,288,90489,1,0,0:0:0:0:
104,288,90558,1,0,0:0:0:0:
352,272,90694,1,0,0:0:0:0:
254,166,90830,1,0,0:0:0:0:
156,244,90967,1,0,0:0:0:0:
248,352,91103,1,0,0:0:0:0:
353,195,91239,2,0,L|276:172,1,70,2|0,0:0|0:0,0:0:0:0:
36,92,91785,5,0,0:0:0:0:
173,40,91921,1,0,0:0:0:0:
67,157,92058,1,0,0:0:0:0:
124,2,92194,1,0,0:0:0:0:
136,168,92330,2,0,L|144:250,1,70,2|0,0:0|0:0,0:0:0:0:
152,308,92603,5,0,0:0:0:0:
128,96,92739,1,0,0:0:0:0:
85,316,92876,1,0,0:0:0:0:
192,120,93012,1,0,0:0:0:0:
23,288,93148,1,0,0:0:0:0:
232,180,93285,1,0,0:0:0:0:
8,220,93421,2,0,P|28:154|212:58,1,280,2|0,0:0|0:0,0:0:0:0:
343,271,109239,6,0,L|367:317,1,35,2|0,0:0|0:0,0:0:0:0:
317,269,110330,6,0,L|336:302,1,35,2|0,0:0|0:0,0:0:0:0:
236,294,110603,5,0,0:0:0:0:
236,294,110876,1,0,0:0:0:0:
236,294,111148,1,0,0:0:0:0:
28,108,111421,6,0,P|128:108|168:108,1,140
280,120,111967,1,2,0:0:0:0:
303,47,112103,1,0,0:0:0:0:
352,106,112240,1,0,0:0:0:0:
385,36,112376,1,0,0:0:0:0:
430,112,112512,2,0,P|472:111|495:87,2,70
363,68,112921,2,0,P|401:38|441:29,3,70,0|2|0|0,0:0|0:0|0:0|0:0,0:0:0:0:
244,212,113467,6,0,L|179:152,1,70
208,60,113739,2,0,L|277:50,1,70
288,184,114012,2,0,L|288:267,1,70,0|2,0:0|0:0,0:0:0:0:
436,212,114285,1,0,0:0:0:0:
436,212,114353,1,0,0:0:0:0:
436,212,114421,1,0,0:0:0:0:
332,308,114558,2,0,L|268:353,1,70
204,220,114830,2,0,L|266:287,1,70
192,336,115103,2,0,P|149:356|114:336,3,70,0|2|0|0,0:0|0:0|0:0|0:0,0:0:0:0:
297,218,115648,5,0,0:0:0:0:
341,164,115784,1,0,0:0:0:0:
386,110,115920,1,0,0:0:0:0:
435,54,116058,2,0,B|448:136|448:136|401:80|401:80,2,140,0|2|0,0:0|0:0|0:0,0:0:0:0:
356,38,116739,5,0,0:0:0:0:
312,93,116875,1,0,0:0:0:0:
269,148,117011,1,0,0:0:0:0:
226,203,117148,1,0,0:0:0:0:
183,258,117284,1,0,0:0:0:0:
140,313,117421,2,0,P|101:348|59:346,2,70
213,229,117830,5,0,0:0:0:0:
213,229,117967,2,0,L|263:165,1,70
369,92,118239,1,0,0:0:0:0:
369,92,118376,2,0,L|419:175,1,70
356,277,118648,1,0,0:0:0:0:
356,277,118717,1,0,0:0:0:0:
356,277,118785,2,0,L|269:293,1,70
179,216,119058,1,0,0:0:0:0:
223,105,119194,2,0,P|261:83|294:95,2,70
259,208,119603,2,0,P|310:242|373:188,1,140
28,172,120148,6,0,L|102:127,1,70
184,68,120421,2,0,L|251:130,1,70
232,244,120694,2,0,L|182:192,1,70
120,316,120967,1,0,0:0:0:0:
120,316,121035,1,0,0:0:0:0:
120,316,121103,1,0,0:0:0:0:
244,352,121239,2,0,L|279:275,1,70
332,140,121512,2,0,L|251:128,1,70
108,228,121785,1,0,0:0:0:0:
108,228,121921,2,0,L|112:300,2,70
228,104,122330,6,0,L|240:206,1,70
392,184,122603,2,0,L|376:89,1,70
340,312,122876,2,0,L|259:313,1,70
136,200,123148,2,0,L|189:133,1,70
372,180,123421,2,0,L|399:253,1,70
200,100,123694,1,0,0:0:0:0:
200,100,123762,1,0,0:0:0:0:
200,100,123830,1,0,0:0:0:0:
128,280,123967,2,0,L|96:363,2,70
152,216,124376,5,0,0:0:0:0:
169,148,124512,1,0,0:0:0:0:
187,80,124648,1,0,0:0:0:0:
202,12,124785,2,0,P|241:87|267:63,2,140
314,24,125467,5,0,0:0:0:0:
343,87,125603,1,0,0:0:0:0:
372,151,125739,1,0,0:0:0:0:
402,214,125876,1,0,0:0:0:0:
431,278,126012,1,0,0:0:0:0:
460,341,126148,2,0,B|485:330|492:321|479:278,2,70
308,289,126558,5,0,0:0:0:0:
116,140,126694,1,0,0:0:0:0:
360,144,126830,1,0,0:0:0:0:
212,340,126967,1,0,0:0:0:0:
200,96,127103,5,0,0:0:0:0:
336,300,127239,1,0,0:0:0:0:
96,240,127376,1,0,0:0:0:0:
300,108,127512,1,0,0:0:0:0:
284,352,127648,5,0,0:0:0:0:
108,180,127785,1,0,0:0:0:0:
352,172,127921,1,0,0:0:0:0:
144,40,128058,1,0,0:0:0:0:
136,284,128194,1,0,0:0:0:0:
352,172,128330,1,0,0:0:0:0:
88,80,128603,5,0,0:0:0:0:
88,80,128739,1,0,0:0:0:0:
88,80,128876,2,0,P|84:214|136:267,1,210
368,64,129967,6,0,B|382:139|382:139|448:130|448:130|381:97,1,210
328,240,131058,6,0,B|274:240|243:207|233:198|233:198|273:185|273:185|284:206|284:206|260:240,1,210
128,328,132148,6,0,P|21:306|48:243,1,210
408,123,133239,6,0,L|413:155,1,28
269,167,133648,1,0,0:0:0:0:
272,290,133785,2,0,L|271:322,2,28
130,307,134603,5,0,0:0:0:0:
130,307,134876,1,0,0:0:0:0:
130,307,135148,1,0,0:0:0:0:
272,112,135421,6,0,P|213:115|203:147,1,70
238,224,135694,2,0,L|272:287,1,70
254,194,135967,1,0,0:0:0:0:
135,118,136103,6,0,L|70:178,2,70
250,129,136512,2,0,L|281:199,2,70
163,248,136921,1,0,0:0:0:0:
163,248,137058,2,0,P|116:292|73:283,1,105
163,248,137330,2,0,L|167:330,1,70
286,263,137603,6,0,L|250:200,1,70
159,33,137876,1,0,0:0:0:0:
225,157,138012,1,0,0:0:0:0:
85,85,138148,1,0,0:0:0:0:
239,65,138285,1,0,0:0:0:0:
123,171,138421,2,0,L|74:235,1,70
134,287,138694,1,0,0:0:0:0:
217,186,138830,1,0,0:0:0:0:
85,85,138967,2,0,L|84:176,1,70
32,188,139239,1,0,0:0:0:0:
160,176,139376,1,0,0:0:0:0:
24,52,139512,2,0,L|20:144,2,70
328,64,140058,6,0,P|376:84|392:176,1,140
312,232,140603,1,0,0:0:0:0:
192,236,140876,2,0,P|193:293|271:340,1,140
276,148,141421,2,0,B|275:60|304:129|352:198,1,140
284,332,141967,1,0,0:0:0:0:
128,292,142239,1,0,0:0:0:0:
80,120,142512,1,0,0:0:0:0:
248,32,142785,1,0,0:0:0:0:
248,32,143058,2,0,P|302:109|305:170,1,140
372,164,143467,5,0,0:0:0:0:
388,36,143603,1,0,0:0:0:0:
224,104,143739,1,0,0:0:0:0:
88,164,143876,1,0,0:0:0:0:
72,176,143944,1,0,0:0:0:0:
56,188,144012,1,0,0:0:0:0:
44,200,144080,1,0,0:0:0:0:
32,212,144148,2,0,P|70:248|104:264,1,70
212,268,144421,2,0,P|224:216|248:192,1,70
392,168,144694,2,0,P|400:204|376:248,1,70
272,112,144967,2,0,P|312:80|348:72,1,70
320,256,145239,2,0,P|276:276|240:268,1,70
376,104,145512,2,0,P|400:140|400:176,1,70
184,188,145785,2,0,P|180:148|196:124,1,70
304,76,146058,2,0,P|264:48|224:52,1,70
24,40,146330,5,0,0:0:0:0:
100,168,146467,1,0,0:0:0:0:
152,104,146603,1,0,0:0:0:0:
32,264,146739,1,0,0:0:0:0:
32,136,146876,1,0,0:0:0:0:
160,272,147012,1,0,0:0:0:0:
232,196,147148,1,0,0:0:0:0:
76,352,147285,1,0,0:0:0:0:
152,176,147421,1,0,0:0:0:0:
152,176,147489,1,0,0:0:0:0:
152,176,147558,1,0,0:0:0:0:
216,352,147694,1,0,0:0:0:0:
76,220,147830,1,0,0:0:0:0:
248,284,147967,1,0,0:0:0:0:
72,288,148103,1,0,0:0:0:0:
152,176,148239,2,0,L|197:333,1,140
372,152,148785,5,0,0:0:0:0:
371,156,149058,2,0,L|377:309,1,140
256,148,149603,2,0,L|176:26,1,140
404,64,150148,1,0,0:0:0:0:
404,64,150285,1,0,0:0:0:0:
404,64,150421,2,0,L|423:144,1,70
228,232,150694,5,0,0:0:0:0:
54,327,150830,1,0,0:0:0:0:
255,292,150967,1,0,0:0:0:0:
54,253,151103,1,0,0:0:0:0:
216,358,151239,2,0,L|164:208,1,140
116,96,151648,5,0,0:0:0:0:
280,169,151785,1,0,0:0:0:0:
155,34,151921,1,0,0:0:0:0:
215,210,152058,1,0,0:0:0:0:
233,25,152194,1,0,0:0:0:0:
149,188,152330,2,0,L|280:62,1,167.999994873047
244,76,152876,5,0,0:0:0:0:
343,110,153012,1,0,0:0:0:0:
309,209,153148,1,0,0:0:0:0:
209,175,153285,1,0,0:0:0:0:
297,68,153421,2,0,L|381:67,1,70
386,100,153626,1,0,0:0:0:0:
386,100,153694,1,0,0:0:0:0:
351,199,153830,1,0,0:0:0:0:
451,233,153966,1,0,0:0:0:0:
485,134,154103,1,0,0:0:0:0:
349,164,154239,2,0,L|301:299,2,140
68,191,155058,6,0,B|172:290|172:288|412:67,1,420
456,172,156012,1,0,0:0:0:0:
383,230,156148,1,0,0:0:0:0:
313,284,156285,1,0,0:0:0:0:
241,330,156421,2,0,L|160:381,4,70
376,36,157239,5,0,0:0:0:0:
398,237,157376,1,0,0:0:0:0:
321,93,157512,1,0,0:0:0:0:
448,204,157648,2,0,P|483:245|505:282,1,70
248,264,157921,1,0,0:0:0:0:
248,264,157989,1,0,0:0:0:0:
248,264,158058,1,0,0:0:0:0:
116,56,158194,5,0,0:0:0:0:
295,25,158330,1,0,0:0:0:0:
318,167,158467,1,0,0:0:0:0:
145,204,158603,1,0,0:0:0:0:
79,97,158739,1,0,0:0:0:0:
266,236,158876,1,0,0:0:0:0:
278,54,159012,1,0,0:0:0:0:
278,54,159080,1,0,0:0:0:0:
278,54,159148,2,0,P|292:150|281:200,1,140
184,280,159558,5,0,0:0:0:0:
94,363,159694,1,0,0:0:0:0:
251,364,159830,1,0,0:0:0:0:
289,199,159967,2,0,L|347:272,1,70
192,60,160239,5,0,0:0:0:0:
192,60,160308,1,0,0:0:0:0:
192,60,160376,1,0,0:0:0:0:
192,60,160444,1,0,0:0:0:0:
192,60,160512,1,0,0:0:0:0:
368,56,160648,1,0,0:0:0:0:
228,256,160785,1,0,0:0:0:0:
237,85,160921,1,0,0:0:0:0:
424,272,161058,2,0,L|455:307,8,35
128,48,161876,5,0,0:0:0:0:
195,243,162012,1,0,0:0:0:0:
233,240,162285,1,0,0:0:0:0:
338,40,162421,1,0,0:0:0:0:
353,39,162694,1,0,0:0:0:0:
377,243,162830,1,0,0:0:0:0:
300,320,163103,2,0,L|252:373,1,70
202,154,163376,1,0,0:0:0:0:
68,308,163512,2,0,L|31:214,1,70
221,64,164058,5,0,0:0:0:0:
237,248,164194,2,0,B|259:330|259:330|286:248,1,140
364,108,164603,2,0,L|394:35,1,70
309,228,164876,5,0,0:0:0:0:
194,91,165012,1,0,0:0:0:0:
194,271,165148,1,0,0:0:0:0:
259,90,165285,1,0,0:0:0:0:
251,270,165421,1,0,0:0:0:0:
138,120,165558,1,0,0:0:0:0:
333,172,165694,1,0,0:0:0:0:
154,211,165830,1,0,0:0:0:0:
350,212,165967,2,0,L|499:210,1,140
269,112,166512,5,0,0:0:0:0:
269,112,166785,1,0,0:0:0:0:
350,95,167058,6,0,L|374:246,1,140
196,111,167603,1,0,0:0:0:0:
196,111,167876,1,0,0:0:0:0:
368,84,168148,5,0,0:0:0:0:
450,230,168284,1,0,0:0:0:0:
288,153,168421,1,0,0:0:0:0:
454,106,168557,1,0,0:0:0:0:
341,241,168693,2,0,L|287:319,1,70
400,156,168966,5,0,0:0:0:0:
225,201,169102,1,0,0:0:0:0:
296,38,169239,1,0,0:0:0:0:
342,203,169376,1,0,0:0:0:0:
141,274,169512,1,0,0:0:0:0:
291,359,169648,1,0,0:0:0:0:
272,121,169785,1,0,0:0:0:0:
386,273,169921,1,0,0:0:0:0:
173,212,170058,1,0,0:0:0:0:
400,146,170194,1,0,0:0:0:0:
215,332,170330,1,0,0:0:0:0:
456,44,187785,5,0,0:0:0:0:
223,148,188330,1,0,0:0:0:0:
480,112,188876,1,0,0:0:0:0:
264,340,189421,1,0,0:0:0:0:
368,32,189967,1,0,0:0:0:0:
32,192,190512,1,0,0:0:0:0:
456,320,191058,1,0,0:0:0:0:
416,32,191603,1,0,0:0:0:0:
424,55,192148,1,0,0:0:0:0:
432,88,192420,1,0,0:0:0:0:
431,123,192693,1,0,0:0:0:0:
420,156,192966,1,0,0:0:0:0:
388,192,193238,5,0,0:0:0:0:
344,212,193375,1,0,0:0:0:0:
292,228,193511,1,0,0:0:0:0:
244,212,193647,1,0,0:0:0:0:
208,176,193784,1,2,0:0:0:0:
168,136,193920,1,0,0:0:0:0:
152,88,194058,1,0,0:0:0:0:
184,48,194193,1,0,0:0:0:0:
232,32,194329,1,0,0:0:0:0:
276,56,194467,1,0,0:0:0:0:
292,104,194602,1,0,0:0:0:0:
264,144,194738,1,0,0:0:0:0:
225,196,194875,5,2,0:0:0:0:
176,232,195011,1,0,0:0:0:0:
132,284,195147,1,0,0:0:0:0:
168,340,195284,1,0,0:0:0:0:
232,360,195420,1,0,0:0:0:0:
300,340,195558,1,0,0:0:0:0:
360,304,195693,1,0,0:0:0:0:
408,248,195829,1,0,0:0:0:0:
444,184,195967,1,2,0:0:0:0:
452,104,196102,1,0,0:0:0:0:
396,44,196238,1,0,0:0:0:0:
316,36,196375,1,0,0:0:0:0:
228,48,196512,6,0,P|188:56|164:84,1,70
372,160,196785,2,0,L|337:97,1,70
420,256,197058,1,0,0:0:0:0:
336,336,197194,1,0,0:0:0:0:
208,372,197330,1,0,0:0:0:0:
120,272,197467,1,0,0:0:0:0:
168,148,197603,2,0,L|137:78,2,70
272,124,198012,1,0,0:0:0:0:
384,84,198148,2,0,L|429:45,1,52.5
392,92,198421,2,0,L|467:27,1,87.5
443,188,198694,6,0,L|443:259,1,70
357,235,198967,1,0,0:0:0:0:
279,323,199103,1,0,0:0:0:0:
321,157,199239,1,0,0:0:0:0:
243,256,199376,1,0,0:0:0:0:
285,76,199512,2,0,L|236:139,1,70
212,180,199785,1,0,0:0:0:0:
226,324,199921,1,0,0:0:0:0:
345,280,200058,2,0,L|330:178,1,70
322,136,200330,1,0,0:0:0:0:
356,344,200467,1,0,0:0:0:0:
416,200,200603,2,0,L|424:239,2,35
384,52,200876,1,0,0:0:0:0:
337,119,201148,6,0,P|368:172|370:249,1,140
178,75,201694,1,0,0:0:0:0:
128,254,201967,2,0,P|230:322|254:311,1,140
259,167,202512,2,0,P|205:162|197:144,2,70
179,189,203058,2,0,L|194:335,1,140
416,76,203603,2,0,L|329:191,1,140
84,184,204148,2,0,P|32:232|160:260,1,280
401,148,204967,6,0,L|475:107,1,70
294,207,205239,1,0,0:0:0:0:
180,102,205376,1,0,0:0:0:0:
183,264,205512,2,0,L|183:357,1,70
218,177,205785,5,0,0:0:0:0:
332,282,205922,1,0,0:0:0:0:
328,120,206058,2,0,L|329:27,1,70
271,154,206330,5,0,0:0:0:0:
166,268,206467,1,0,0:0:0:0:
328,265,206603,2,0,L|421:265,1,70
241,230,206876,5,0,0:0:0:0:
346,116,207013,1,0,0:0:0:0:
184,119,207149,2,0,L|91:119,1,70
312,120,207421,5,0,0:0:0:0:
476,120,207558,1,0,0:0:0:0:
392,264,207694,1,0,0:0:0:0:
234,160,207830,1,0,0:0:0:0:
371,63,207967,1,0,0:0:0:0:
468,200,208103,1,0,0:0:0:0:
331,297,208239,1,0,0:0:0:0:
264,108,208376,1,0,0:0:0:0:
476,120,208512,1,0,0:0:0:0:
476,120,208580,1,0,0:0:0:0:
476,120,208648,1,0,0:0:0:0:
192,172,208785,2,0,P|206:124|192:98,1,70
328,111,209058,2,0,P|346:148|375:171,1,70
352,298,209330,2,0,P|299:286|258:290,1,70
421,92,209603,2,0,L|479:36,1,70
298,69,209876,5,0,0:0:0:0:
141,151,210148,1,0,0:0:0:0:
214,317,210421,1,0,0:0:0:0:
381,239,210694,1,0,0:0:0:0:
238,86,210967,1,0,0:0:0:0:
104,292,211239,2,0,P|51:292|37:268,2,70
225,204,211785,5,0,0:0:0:0:
373,179,211921,1,0,0:0:0:0:
222,317,212058,1,0,0:0:0:0:
334,124,212194,1,0,0:0:0:0:
372,306,212330,2,0,L|384:361,1,52.5
412,360,212603,5,0,0:0:0:0:
368,171,212739,1,0,0:0:0:0:
299,348,212876,1,0,0:0:0:0:
479,257,213012,1,0,0:0:0:0:
275,260,213148,1,0,0:0:0:0:
432,121,213285,1,0,0:0:0:0:
438,257,213421,2,0,B|414:290|414:290|382:270,1,70
329,56,213967,6,0,P|302:107|292:112,1,41.9999987182618
245,202,214103,2,0,P|272:151|281:146,1,41.9999987182618
301,50,214239,2,0,P|288:106|279:113,1,41.9999987182618,0|0,0:0|0:3,0:0:0:0:
273,208,214375,2,0,P|285:151|294:144,1,41.9999987182618,0|0,0:0|0:3,0:0:0:0:
362,67,214512,2,0,P|404:113|417:153,1,83.9999974365235
448,244,214785,1,0,0:0:0:0:
448,244,214853,1,0,0:0:0:0:
448,244,214921,1,0,0:0:0:0:
297,213,215058,6,0,P|246:186|241:176,1,41.9999987182618
151,129,215194,2,0,P|202:156|207:165,1,41.9999987182618
303,185,215330,2,0,P|247:172|240:163,1,41.9999987182618,0|0,0:0|0:3,0:0:0:0:
145,157,215466,2,0,P|202:169|209:178,1,41.9999987182618,0|0,0:0|0:3,0:0:0:0:
328,242,215603,2,0,P|282:284|242:297,1,83.9999974365235
135,287,215876,1,0,0:0:0:0:
208,152,216012,1,0,0:0:0:0:
342,213,216148,2,0,P|370:167|354:109,1,83.9999974365235
286,58,216421,6,0,L|395:162,1,140
415,247,216830,2,0,L|290:343,1,140
164,348,217239,2,0,L|58:216,1,140
180,200,217785,2,0,B|278:199|278:199|229:241|229:241|246:181,1,210
271,83,218330,6,0,P|311:123|313:134,1,41.9999987182618
386,206,218466,2,0,P|345:165|342:155,1,41.9999987182618
257,108,218602,2,0,P|306:136|310:147,1,41.9999987182618,0|0,0:0|0:3,0:0:0:0:
399,180,218739,2,0,P|347:151|343:141,1,41.9999987182618,0|0,0:0|0:3,0:0:0:0:
249,46,218875,2,0,P|305:19|347:18,1,83.9999974365235
460,112,219148,1,0,0:0:0:0:
460,112,219217,1,0,0:0:0:0:
460,112,219285,1,0,0:0:0:0:
241,148,219421,6,0,P|258:203|255:213,1,41.9999987182618
285,310,219557,2,0,P|268:255|271:245,1,41.9999987182618
217,163,219693,2,0,P|248:212|246:223,1,41.9999987182618,0|0,0:0|0:3,0:0:0:0:
309,295,219829,2,0,P|277:246|279:235,1,41.9999987182618,0|0,0:0|0:3,0:0:0:0:
240,105,219966,2,0,P|302:108|340:127,1,83.9999974365235
438,187,220239,1,0,0:0:0:0:
334,299,220376,1,0,0:0:0:0:
243,73,220512,1,0,0:0:0:0:
243,73,220785,6,0,L|173:234,1,167.999994873047
318,111,221330,2,0,L|210:376,1,251.999992309571
335,249,221876,5,0,0:0:0:0:
189,266,222012,1,0,0:0:0:0:
319,185,222148,1,0,0:0:0:0:
234,308,222285,1,0,0:0:0:0:
263,149,222421,1,0,0:0:0:0:
303,305,222558,1,0,0:0:0:0:
186,148,222694,6,0,P|235:119|247:120,1,41.9999987182618
334,68,222830,2,0,P|284:96|273:96,1,41.9999987182618
206,167,222966,2,0,P|246:126|258:125,1,41.9999987182618,0|0,0:0|0:3,0:0:0:0:
314,48,223102,2,0,P|273:89|262:91,1,41.9999987182618,0|0,0:0|0:3,0:0:0:0:
151,179,223239,2,0,P|134:230|139:295,1,83.9999974365235
360,180,223512,1,0,0:0:0:0:
360,180,223580,1,0,0:0:0:0:
360,180,223648,1,0,0:0:0:0:
242,318,223785,6,0,P|286:281|297:280,1,41.9999987182618
413,197,223921,2,0,P|363:225|352:225,1,41.9999987182618
280,353,224057,2,0,P|313:306|324:303,1,41.9999987182618,0|0,0:0|0:3,0:0:0:0:
388,149,224193,2,0,P|347:190|336:192,1,41.9999987182618,0|0,0:0|0:3,0:0:0:0:
186,335,224330,2,0,P|126:361|70:351,1,83.9999974365235
104,196,224603,1,0,0:0:0:0:
264,104,224739,1,0,0:0:0:0:
432,180,224876,1,0,0:0:0:0:
394,100,225148,6,0,P|401:158|439:268,1,167.999994873047
344,320,225558,2,0,L|170:332,1,167.999994873047
212,208,225967,2,0,B|265:303|297:193|297:193|314:154,1,167.999994873047
204,52,226512,2,0,P|267:201|349:288,1,251.999992309571
356,130,227058,6,0,P|311:166|300:167,1,41.9999987182618
184,251,227194,2,0,P|233:222|244:222,1,41.9999987182618
317,95,227330,2,0,P|283:141|272:144,1,41.9999987182618,0|0,0:0|0:3,0:0:0:0:
209,299,227466,2,0,P|249:257|260:255,1,41.9999987182618,0|0,0:0|0:3,0:0:0:0:
389,101,227603,2,0,P|439:55|490:52,1,83.9999974365235
454,242,227876,1,0,0:0:0:0:
454,242,227944,1,0,0:0:0:0:
454,242,228012,1,0,0:0:0:0:
220,173,228148,6,0,P|256:217|257:228,1,41.9999987182618
341,345,228284,2,0,P|312:295|312:284,1,41.9999987182618
185,212,228420,2,0,P|231:245|234:256,1,41.9999987182618,0|0,0:0|0:3,0:0:0:0:
389,320,228558,2,0,P|347:279|345:268,1,41.9999987182618,0|0,0:0|0:3,0:0:0:0:
191,140,228693,2,0,P|145:89|142:39,1,83.9999974365235
320,88,229239,5,0,0:0:0:0:
468,205,229376,1,0,0:0:0:0:
379,59,229512,1,0,0:0:0:0:
400,215,229648,2,0,L|415:334,1,83.9999974365235,0|2,0:0|0:0,0:0:0:0:
332,341,230058,5,0,0:0:0:0:
207,271,230194,1,0,0:0:0:0:
333,73,230330,1,0,0:0:0:0:
132,149,230467,1,0,0:0:0:0:
299,217,230603,1,0,0:0:0:0:
198,49,230739,1,0,0:0:0:0:
166,267,230876,1,2,0:0:0:0:
309,136,231012,1,0,0:0:0:0:
98,211,231148,1,0,0:0:0:0:
282,330,231285,1,0,0:0:0:0:
211,89,231421,1,0,0:0:0:0:
