osu file format v14

[General]
AudioFilename: audio.mp3
AudioLeadIn: 0
PreviewTime: 58239
Countdown: 0
SampleSet: Normal
StackLeniency: 0.3
Mode: 3
LetterboxInBreaks: 0
EpilepsyWarning: 1
SpecialStyle: 0
WidescreenStoryboard: 1

[Editor]
DistanceSpacing: 0.8
BeatDivisor: 4
GridSize: 4
TimelineZoom: 3.099999

[Metadata]
Title:DSCF
TitleUnicode:DSCF
Artist:DECO*27
ArtistUnicode:DECO*27
Creator:eLzL
Version:4K Kanshou
Source:
Tags:Deco*27, Ghost, Hatsune Miku, Vocaloid, Delusion Sentiment Compensation Federation, DSCF, MKDR
BeatmapID:2032652
BeatmapSetID:961270

[Difficulty]
HPDrainRate:7
CircleSize:4
OverallDifficulty:8
ApproachRate:8
SliderMultiplier:1.4
SliderTickRate:1

[Events]
//Background and Video events
0,0,"bg.jpg",0,0
//Break Periods
//Storyboard Layer 0 (Background)
//Storyboard Layer 1 (Fail)
//Storyboard Layer 2 (Pass)
//Storyboard Layer 3 (Foreground)
//Storyboard Sound Samples

[TimingPoints]
150,272.727272727273,4,1,1,100,1,0
8057,-100,4,1,1,40,0,0
8329,-100,4,1,1,100,0,0
30421,-200,4,1,1,100,0,0
30694,-100,4,1,1,100,0,0
43784,-100,4,1,1,100,0,0
52511,-100,4,1,1,100,0,0
58989,-100,4,1,1,100,0,1
59058,272.727272727273,4,1,1,100,1,1
61239,-100,4,1,1,100,0,1
93967,-100,4,1,1,100,0,0
135421,-100,4,1,1,100,0,1
153148,-100,4,1,1,100,0,0
196512,-100,4,1,1,100,0,1
198353,-100,4,1,1,100,0,1
213694,-100,4,1,1,100,0,1
216421,-100,4,1,1,100,0,1
231694,-100,4,1,1,100,0,0

[HitObjects]
448,192,150,5,4,0:0:0:0:
192,192,150,1,4,0:0:0:0:
320,192,422,128,0,695:0:0:0:0:
64,192,695,1,8,0:0:0:0:
192,192,968,1,0,0:0:0:0:
320,192,1104,1,0,0:0:0:0:
448,192,1240,128,4,1513:0:0:0:0:
320,192,1513,128,2,1786:0:0:0:0:
192,192,1786,128,2,2059:0:0:0:0:
320,192,2059,128,2,2331:0:0:0:0:
448,192,2331,1,4,0:0:0:0:
64,192,2331,1,4,0:0:0:0:
192,192,2604,128,2,2877:0:0:0:0:
448,192,2877,1,8,0:0:0:0:
64,192,3150,1,0,0:0:0:0:
192,192,3286,1,0,0:0:0:0:
320,192,3422,128,4,3695:0:0:0:0:
64,192,3695,1,2,0:0:0:0:
192,192,3968,1,10,0:0:0:0:
448,192,3968,1,10,0:0:0:0:
64,192,4513,1,4,0:0:0:0:
448,192,4513,1,4,0:0:0:0:
192,192,4786,128,2,5059:0:0:0:0:
320,192,5059,1,8,0:0:0:0:
448,192,5331,1,0,0:0:0:0:
320,192,5468,1,0,0:0:0:0:
192,192,5604,128,4,5877:0:0:0:0:
64,192,5877,128,2,6150:0:0:0:0:
448,192,6150,128,2,6422:0:0:0:0:
192,192,6422,128,2,6695:0:0:0:0:
320,192,6695,1,4,0:0:0:0:
64,192,6695,1,4,0:0:0:0:
448,192,6968,128,2,7240:0:0:0:0:
192,192,7240,1,8,0:0:0:0:
320,192,7513,1,0,0:0:0:0:
192,192,7650,1,0,0:0:0:0:
64,192,7786,128,6,8059:0:0:0:0:
320,192,8059,128,2,8331:0:0:0:0:
448,192,8059,128,2,8331:0:0:0:0:
448,192,8877,1,4,0:0:0:0:
192,192,8877,1,4,0:0:0:0:
64,192,9150,128,2,9422:0:0:0:0:
320,192,9422,1,8,0:0:0:0:
448,192,9695,1,0,0:0:0:0:
320,192,9831,1,0,0:0:0:0:
192,192,9968,128,4,10240:0:0:0:0:
64,192,10240,128,2,10513:0:0:0:0:
320,192,10513,1,8,0:0:0:0:
448,192,10513,1,8,0:0:0:0:
64,192,10786,128,2,11059:0:0:0:0:
320,192,11059,128,4,11331:0:0:0:0:
448,192,11331,128,2,11604:0:0:0:0:
64,192,11604,1,8,0:0:0:0:
448,192,11877,1,0,0:0:0:0:
320,192,12013,1,0,0:0:0:0:
64,192,12150,1,4,0:0:0:0:
192,192,12150,1,4,0:0:0:0:
320,192,12422,1,2,0:0:0:0:
448,192,12422,1,2,0:0:0:0:
64,192,12695,1,10,0:0:0:0:
448,192,12695,1,10,0:0:0:0:
192,192,12968,1,0,0:0:0:0:
320,192,12968,1,0,0:0:0:0:
64,192,13240,1,4,0:0:0:0:
320,192,13240,1,4,0:0:0:0:
192,192,13513,128,2,13786:0:0:0:0:
320,192,13786,1,8,0:0:0:0:
64,192,14059,1,0,0:0:0:0:
192,192,14195,1,0,0:0:0:0:
320,192,14331,128,4,14604:0:0:0:0:
64,192,14604,1,2,0:0:0:0:
448,192,14877,1,8,0:0:0:0:
192,192,14877,1,8,0:0:0:0:
448,192,15150,128,0,15422:0:0:0:0:
192,192,15422,128,4,15695:0:0:0:0:
64,192,15695,128,2,15968:0:0:0:0:
320,192,15968,1,8,0:0:0:0:
192,192,16240,1,0,0:0:0:0:
64,192,16377,1,0,0:0:0:0:
320,192,16513,1,4,0:0:0:0:
448,192,16513,1,4,0:0:0:0:
192,192,16786,1,2,0:0:0:0:
64,192,16786,1,2,0:0:0:0:
64,192,17059,1,8,0:0:0:0:
448,192,17059,1,8,0:0:0:0:
192,192,17331,1,0,0:0:0:0:
320,192,17331,1,0,0:0:0:0:
192,192,17604,1,4,0:0:0:0:
448,192,17604,1,4,0:0:0:0:
64,192,17877,128,2,18150:0:0:0:0:
320,192,18150,1,8,0:0:0:0:
192,192,18422,1,0,0:0:0:0:
320,192,18559,1,0,0:0:0:0:
192,192,18695,128,4,18968:0:0:0:0:
448,192,18968,1,2,0:0:0:0:
64,192,19240,1,8,0:0:0:0:
320,192,19240,1,8,0:0:0:0:
448,192,19513,128,2,19786:0:0:0:0:
192,192,19786,128,4,20059:0:0:0:0:
64,192,20059,128,2,20331:0:0:0:0:
448,192,20331,1,8,0:0:0:0:
64,192,20604,1,0,0:0:0:0:
448,192,20740,1,0,0:0:0:0:
320,192,20877,1,4,0:0:0:0:
192,192,20877,1,4,0:0:0:0:
192,192,21150,1,4,0:0:0:0:
320,192,21150,1,4,0:0:0:0:
64,192,21422,1,8,0:0:0:0:
448,192,21422,1,8,0:0:0:0:
192,192,21695,1,4,0:0:0:0:
320,192,21695,1,4,0:0:0:0:
320,192,21968,1,4,0:0:0:0:
192,192,21968,1,4,0:0:0:0:
320,192,22240,128,2,22513:0:0:0:0:
192,192,22513,1,8,0:0:0:0:
64,192,22786,1,0,0:0:0:0:
192,192,22922,1,0,0:0:0:0:
448,192,23059,128,4,23331:0:0:0:0:
320,192,23331,1,2,0:0:0:0:
192,192,23604,1,8,0:0:0:0:
64,192,23604,1,8,0:0:0:0:
448,192,23877,128,2,24150:0:0:0:0:
192,192,24150,128,4,24422:0:0:0:0:
64,192,24422,128,2,24695:0:0:0:0:
448,192,24695,1,8,0:0:0:0:
64,192,24968,1,0,0:0:0:0:
192,192,25104,1,0,0:0:0:0:
320,192,25240,1,4,0:0:0:0:
448,192,25240,1,4,0:0:0:0:
192,192,25377,1,0,0:0:0:0:
320,192,25513,1,2,0:0:0:0:
64,192,25513,1,2,0:0:0:0:
192,192,25650,1,0,0:0:0:0:
448,192,25786,1,8,0:0:0:0:
64,192,25786,1,8,0:0:0:0:
192,192,25922,1,0,0:0:0:0:
320,192,26059,1,0,0:0:0:0:
64,192,26195,1,0,0:0:0:0:
192,192,26331,1,4,0:0:0:0:
448,192,26331,1,4,0:0:0:0:
320,192,26604,128,2,26877:0:0:0:0:
64,192,26877,1,8,0:0:0:0:
320,192,27150,1,0,0:0:0:0:
192,192,27286,1,0,0:0:0:0:
64,192,27422,128,4,27695:0:0:0:0:
320,192,27695,1,2,0:0:0:0:
192,192,27968,1,8,0:0:0:0:
448,192,27968,1,8,0:0:0:0:
64,192,28240,128,2,28513:0:0:0:0:
320,192,28513,128,4,28786:0:0:0:0:
448,192,28786,128,2,29059:0:0:0:0:
64,192,29059,1,8,0:0:0:0:
448,192,29331,1,0,0:0:0:0:
320,192,29468,1,0,0:0:0:0:
448,192,29604,1,4,0:0:0:0:
192,192,29604,1,4,0:0:0:0:
64,192,29877,1,2,0:0:0:0:
320,192,29877,1,2,0:0:0:0:
64,192,30150,1,8,0:0:0:0:
448,192,30150,1,8,0:0:0:0:
64,192,30695,1,4,0:0:0:0:
192,192,30695,1,4,0:0:0:0:
320,192,30968,128,2,31240:0:0:0:0:
64,192,31240,1,8,0:0:0:0:
192,192,31513,1,0,0:0:0:0:
320,192,31650,1,0,0:0:0:0:
448,192,31786,128,4,32059:0:0:0:0:
64,192,32059,1,2,0:0:0:0:
192,192,32331,1,8,0:0:0:0:
320,192,32331,1,8,0:0:0:0:
64,192,32604,128,2,32877:0:0:0:0:
448,192,32877,128,4,33150:0:0:0:0:
320,192,33150,128,2,33422:0:0:0:0:
64,192,33422,1,8,0:0:0:0:
192,192,33695,1,0,0:0:0:0:
320,192,33831,1,0,0:0:0:0:
64,192,33968,1,4,0:0:0:0:
448,192,34104,1,8,0:0:0:0:
64,192,34240,128,4,35059:0:0:0:0:
192,192,34240,128,4,35059:0:0:0:0:
448,192,34513,1,2,0:0:0:0:
320,192,34513,1,2,0:0:0:0:
448,192,35059,128,4,35331:0:0:0:0:
320,192,35059,1,4,0:0:0:0:
64,192,35331,1,4,0:0:0:0:
192,192,35331,128,4,35604:0:0:0:0:
320,192,35604,1,10,0:0:0:0:
448,192,35604,1,10,0:0:0:0:
64,192,35877,1,4,0:0:0:0:
320,192,35877,1,0,0:0:0:0:
192,192,36013,1,4,0:0:0:0:
448,192,36013,1,0,0:0:0:0:
320,192,36150,128,4,36422:0:0:0:0:
64,192,36150,1,0,0:0:0:0:
448,192,36422,128,4,36695:0:0:0:0:
192,192,36422,1,0,0:0:0:0:
192,192,36695,128,8,36968:0:0:0:0:
64,192,36695,1,8,0:0:0:0:
320,192,36968,1,4,0:0:0:0:
448,192,36968,1,4,0:0:0:0:
192,192,37240,128,4,37513:0:0:0:0:
448,192,37240,1,0,0:0:0:0:
64,192,37513,128,4,37786:0:0:0:0:
320,192,37513,1,0,0:0:0:0:
320,192,37786,1,8,0:0:0:0:
448,192,37786,1,8,0:0:0:0:
192,192,38059,1,4,0:0:0:0:
448,192,38059,1,4,0:0:0:0:
64,192,38195,1,4,0:0:0:0:
320,192,38195,1,4,0:0:0:0:
192,192,38331,1,4,0:0:0:0:
320,192,38331,1,4,0:0:0:0:
448,192,38468,1,8,0:0:0:0:
64,192,38468,1,8,0:0:0:0:
64,192,38604,128,4,38877:0:0:0:0:
192,192,38604,1,4,0:0:0:0:
448,192,38877,1,8,0:0:0:0:
320,192,38877,128,8,39150:0:0:0:0:
192,192,39150,128,4,39422:0:0:0:0:
64,192,39150,1,0,0:0:0:0:
320,192,39422,128,4,39695:0:0:0:0:
64,192,39422,1,0,0:0:0:0:
448,192,39695,128,4,39968:0:0:0:0:
192,192,39695,1,0,0:0:0:0:
64,192,39968,1,8,0:0:0:0:
320,192,39968,1,8,0:0:0:0:
192,192,40240,1,4,0:0:0:0:
64,192,40240,1,0,0:0:0:0:
448,192,40377,1,4,0:0:0:0:
320,192,40377,1,0,0:0:0:0:
64,192,40513,1,4,0:0:0:0:
192,192,40513,1,4,0:0:0:0:
448,192,40650,1,8,0:0:0:0:
64,192,40650,1,8,0:0:0:0:
192,192,40786,128,4,41059:0:0:0:0:
320,192,40786,1,4,0:0:0:0:
320,192,41059,128,8,41331:0:0:0:0:
448,192,41059,1,8,0:0:0:0:
64,192,41331,128,4,41604:0:0:0:0:
192,192,41331,1,0,0:0:0:0:
192,192,41604,128,4,41877:0:0:0:0:
448,192,41604,1,0,0:0:0:0:
320,192,41877,128,4,42150:0:0:0:0:
64,192,41877,1,0,0:0:0:0:
192,192,42150,1,8,0:0:0:0:
448,192,42150,1,8,0:0:0:0:
64,192,42422,1,0,0:0:0:0:
192,192,42559,1,0,0:0:0:0:
320,192,42695,1,4,0:0:0:0:
448,192,42831,1,0,0:0:0:0:
320,192,42968,1,0,0:0:0:0:
192,192,43104,1,0,0:0:0:0:
64,192,43240,1,8,0:0:0:0:
448,192,43240,1,8,0:0:0:0:
192,192,43377,1,0,0:0:0:0:
320,192,43513,1,0,0:0:0:0:
448,192,43650,1,0,0:0:0:0:
64,192,43786,128,2,44059:0:0:0:0:
320,192,43786,1,0,0:0:0:0:
192,192,44059,128,2,44331:0:0:0:0:
448,192,44059,1,0,0:0:0:0:
320,192,44331,128,2,44604:0:0:0:0:
64,192,44331,1,8,0:0:0:0:
448,192,44331,1,0,0:0:0:0:
64,192,44604,128,2,44877:0:0:0:0:
192,192,44604,1,0,0:0:0:0:
320,192,44740,1,0,0:0:0:0:
192,192,44877,128,2,45150:0:0:0:0:
448,192,44877,1,0,0:0:0:0:
320,192,45013,1,0,0:0:0:0:
320,192,45150,128,2,45422:0:0:0:0:
448,192,45150,1,0,0:0:0:0:
192,192,45286,1,0,0:0:0:0:
64,192,45422,1,0,0:0:0:0:
192,192,45559,1,0,0:0:0:0:
448,192,45695,128,0,45968:0:0:0:0:
320,192,45695,1,0,0:0:0:0:
192,192,45831,1,0,0:0:0:0:
64,192,45968,128,2,46240:0:0:0:0:
320,192,45968,1,0,0:0:0:0:
192,192,46240,128,2,46513:0:0:0:0:
448,192,46240,1,0,0:0:0:0:
320,192,46513,128,2,46786:0:0:0:0:
64,192,46513,1,0,0:0:0:0:
448,192,46513,1,8,0:0:0:0:
448,192,46786,128,2,47059:0:0:0:0:
64,192,46786,1,0,0:0:0:0:
192,192,46922,1,0,0:0:0:0:
64,192,47059,1,0,0:0:0:0:
192,192,47195,1,0,0:0:0:0:
320,192,47331,1,0,0:0:0:0:
192,192,47468,1,0,0:0:0:0:
448,192,47604,128,2,47877:0:0:0:0:
64,192,47604,1,0,0:0:0:0:
192,192,47740,1,0,0:0:0:0:
320,192,47877,1,0,0:0:0:0:
192,192,48013,1,0,0:0:0:0:
64,192,48150,128,0,48422:0:0:0:0:
320,192,48150,1,0,0:0:0:0:
192,192,48422,128,2,48695:0:0:0:0:
448,192,48422,1,0,0:0:0:0:
320,192,48695,128,2,48968:0:0:0:0:
64,192,48695,1,0,0:0:0:0:
448,192,48695,1,8,0:0:0:0:
64,192,48968,128,2,49240:0:0:0:0:
192,192,48968,1,0,0:0:0:0:
320,192,49104,1,0,0:0:0:0:
192,192,49240,128,2,49513:0:0:0:0:
448,192,49240,1,0,0:0:0:0:
320,192,49377,1,0,0:0:0:0:
320,192,49513,128,2,49786:0:0:0:0:
64,192,49513,1,0,0:0:0:0:
448,192,49650,1,0,0:0:0:0:
192,192,49786,1,0,0:0:0:0:
64,192,49922,1,0,0:0:0:0:
448,192,50059,128,0,50331:0:0:0:0:
320,192,50059,1,0,0:0:0:0:
192,192,50195,1,0,0:0:0:0:
192,192,50331,128,2,50604:0:0:0:0:
64,192,50331,1,0,0:0:0:0:
320,192,50604,128,2,50877:0:0:0:0:
64,192,50604,1,0,0:0:0:0:
448,192,50877,128,2,51150:0:0:0:0:
192,192,50877,1,0,0:0:0:0:
64,192,50877,1,8,0:0:0:0:
192,192,51150,1,0,0:0:0:0:
64,192,51286,1,0,0:0:0:0:
448,192,51422,1,0,0:0:0:0:
320,192,51559,1,0,0:0:0:0:
448,192,51695,128,0,51968:0:0:0:0:
192,192,51695,1,0,0:0:0:0:
64,192,51831,1,0,0:0:0:0:
192,192,51968,128,2,52240:0:0:0:0:
320,192,51968,1,8,0:0:0:0:
448,192,52104,1,0,0:0:0:0:
64,192,52240,128,2,52513:0:0:0:0:
320,192,52240,1,0,0:0:0:0:
192,192,52377,1,0,0:0:0:0:
320,192,52513,128,2,53604:0:0:0:0:
64,192,52786,1,0,0:0:0:0:
192,192,52786,1,0,0:0:0:0:
448,192,53059,1,0,0:0:0:0:
192,192,53059,1,0,0:0:0:0:
64,192,53331,1,0,0:0:0:0:
192,192,53331,1,0,0:0:0:0:
448,192,53604,1,0,0:0:0:0:
192,192,53604,128,2,54695:0:0:0:0:
64,192,53604,1,0,0:0:0:0:
64,192,53877,1,0,0:0:0:0:
320,192,53877,1,0,0:0:0:0:
448,192,54150,1,0,0:0:0:0:
320,192,54150,1,0,0:0:0:0:
64,192,54422,1,0,0:0:0:0:
448,192,54422,1,0,0:0:0:0:
448,192,54695,1,0,0:0:0:0:
64,192,54695,128,2,55786:0:0:0:0:
320,192,54695,1,0,0:0:0:0:
192,192,54968,1,0,0:0:0:0:
448,192,54968,1,0,0:0:0:0:
448,192,55240,1,0,0:0:0:0:
320,192,55240,1,0,0:0:0:0:
192,192,55513,1,0,0:0:0:0:
320,192,55513,1,0,0:0:0:0:
448,192,55786,128,2,56877:0:0:0:0:
320,192,55786,1,0,0:0:0:0:
192,192,55786,1,0,0:0:0:0:
320,192,56059,1,0,0:0:0:0:
64,192,56059,1,0,0:0:0:0:
64,192,56331,1,0,0:0:0:0:
192,192,56331,1,0,0:0:0:0:
320,192,56604,1,0,0:0:0:0:
192,192,56604,1,0,0:0:0:0:
64,192,56877,1,4,0:0:0:0:
192,192,56877,1,4,0:0:0:0:
320,192,56877,1,0,0:0:0:0:
320,192,57150,1,0,0:0:0:0:
192,192,57286,1,0,0:0:0:0:
320,192,57422,1,4,0:0:0:0:
448,192,57422,1,4,0:0:0:0:
64,192,57422,1,0,0:0:0:0:
192,192,57695,1,0,0:0:0:0:
320,192,57831,1,0,0:0:0:0:
64,192,57968,1,14,0:0:0:0:
448,192,57968,1,14,0:0:0:0:
192,192,57968,1,0,0:0:0:0:
320,192,58240,128,2,59058:0:0:0:0:
64,192,59058,1,4,0:0:0:0:
448,192,59058,1,4,0:0:0:0:
192,192,59058,1,0,0:0:0:0:
192,192,59330,1,0,0:0:0:0:
320,192,59467,1,0,0:0:0:0:
64,192,59603,1,8,0:0:0:0:
448,192,59603,1,8,0:0:0:0:
320,192,59876,1,0,0:0:0:0:
448,192,60012,1,0,0:0:0:0:
192,192,60148,1,4,0:0:0:0:
64,192,60148,1,4,0:0:0:0:
320,192,60285,1,0,0:0:0:0:
192,192,60421,1,0,0:0:0:0:
320,192,60558,1,0,0:0:0:0:
64,192,60694,1,8,0:0:0:0:
448,192,60694,1,8,0:0:0:0:
192,192,60967,1,0,0:0:0:0:
320,192,61103,1,0,0:0:0:0:
64,192,61239,128,4,61785:0:0:0:0:
192,192,61239,128,4,61785:0:0:0:0:
448,192,61785,1,8,0:0:0:0:
320,192,61785,1,8,0:0:0:0:
192,192,62058,1,0,0:0:0:0:
64,192,62194,1,0,0:0:0:0:
320,192,62330,1,4,0:0:0:0:
448,192,62330,1,4,0:0:0:0:
192,192,62467,1,0,0:0:0:0:
64,192,62603,1,0,0:0:0:0:
192,192,62739,1,0,0:0:0:0:
320,192,62876,128,8,63421:0:0:0:0:
64,192,62876,128,8,63421:0:0:0:0:
448,192,63421,1,4,0:0:0:0:
192,192,63421,1,4,0:0:0:0:
320,192,63694,1,0,0:0:0:0:
192,192,63830,1,0,0:0:0:0:
64,192,63967,1,8,0:0:0:0:
448,192,63967,1,8,0:0:0:0:
192,192,64239,1,0,0:0:0:0:
448,192,64376,1,0,0:0:0:0:
64,192,64512,1,4,0:0:0:0:
320,192,64512,1,4,0:0:0:0:
192,192,64648,1,0,0:0:0:0:
64,192,64785,1,0,0:0:0:0:
448,192,64921,1,0,0:0:0:0:
320,192,65058,128,8,65603:0:0:0:0:
64,192,65058,128,8,65603:0:0:0:0:
448,192,65603,1,4,0:0:0:0:
192,192,65603,1,4,0:0:0:0:
64,192,65876,1,0,0:0:0:0:
192,192,66012,1,0,0:0:0:0:
320,192,66148,1,8,0:0:0:0:
448,192,66148,1,8,0:0:0:0:
64,192,66285,128,2,66421:0:0:0:0:
192,192,66421,128,2,66558:0:0:0:0:
320,192,66558,128,2,66694:0:0:0:0:
448,192,66694,128,2,67239:0:0:0:0:
64,192,67239,1,2,0:0:0:0:
192,192,67376,1,2,0:0:0:0:
320,192,67512,1,2,0:0:0:0:
448,192,67648,1,2,0:0:0:0:
192,192,67785,1,4,0:0:0:0:
64,192,67785,1,4,0:0:0:0:
320,192,68058,1,0,0:0:0:0:
64,192,68194,1,0,0:0:0:0:
192,192,68330,1,8,0:0:0:0:
448,192,68330,1,8,0:0:0:0:
64,192,68603,1,0,0:0:0:0:
448,192,68739,1,0,0:0:0:0:
64,192,68876,1,4,0:0:0:0:
192,192,68876,1,4,0:0:0:0:
320,192,69012,1,0,0:0:0:0:
192,192,69148,1,0,0:0:0:0:
320,192,69285,1,0,0:0:0:0:
64,192,69421,1,8,0:0:0:0:
448,192,69421,1,8,0:0:0:0:
192,192,69694,1,0,0:0:0:0:
448,192,69830,1,0,0:0:0:0:
64,192,69967,128,4,70239:0:0:0:0:
320,192,69967,1,0,0:0:0:0:
192,192,70239,1,0,0:0:0:0:
320,192,70376,1,0,0:0:0:0:
64,192,70512,128,8,70785:0:0:0:0:
448,192,70512,1,8,0:0:0:0:
320,192,70785,1,0,0:0:0:0:
448,192,70921,1,0,0:0:0:0:
192,192,71058,1,4,0:0:0:0:
64,192,71058,1,4,0:0:0:0:
320,192,71194,1,0,0:0:0:0:
64,192,71330,1,0,0:0:0:0:
192,192,71467,1,0,0:0:0:0:
64,192,71603,128,8,72148:0:0:0:0:
320,192,71603,128,8,72148:0:0:0:0:
192,192,72148,128,4,72421:0:0:0:0:
448,192,72148,128,4,72421:0:0:0:0:
320,192,72694,1,8,0:0:0:0:
448,192,72694,1,8,0:0:0:0:
192,192,72967,1,0,0:0:0:0:
320,192,73103,1,0,0:0:0:0:
448,192,73239,1,4,0:0:0:0:
192,192,73239,1,4,0:0:0:0:
320,192,73376,1,0,0:0:0:0:
64,192,73512,1,0,0:0:0:0:
320,192,73648,1,0,0:0:0:0:
64,192,73785,128,8,74330:0:0:0:0:
448,192,73785,128,8,74330:0:0:0:0:
192,192,74330,128,2,75421:0:0:0:0:
320,192,74603,1,0,0:0:0:0:
448,192,74739,1,0,0:0:0:0:
320,192,74876,1,8,0:0:0:0:
64,192,74876,1,8,0:0:0:0:
448,192,75148,1,0,0:0:0:0:
320,192,75421,128,2,76512:0:0:0:0:
64,192,75421,1,4,0:0:0:0:
192,192,75694,1,0,0:0:0:0:
64,192,75830,1,0,0:0:0:0:
192,192,75967,1,8,0:0:0:0:
448,192,75967,1,8,0:0:0:0:
64,192,76239,1,0,0:0:0:0:
448,192,76512,1,0,0:0:0:0:
192,192,76512,1,4,0:0:0:0:
64,192,76648,1,0,0:0:0:0:
448,192,76785,1,0,0:0:0:0:
192,192,76921,1,0,0:0:0:0:
448,192,77058,1,8,0:0:0:0:
64,192,77058,1,0,0:0:0:0:
64,192,77194,1,0,0:0:0:0:
192,192,77330,1,0,0:0:0:0:
320,192,77467,1,0,0:0:0:0:
448,192,77603,1,4,0:0:0:0:
64,192,77603,1,0,0:0:0:0:
320,192,77739,1,0,0:0:0:0:
64,192,77876,1,0,0:0:0:0:
320,192,78012,1,0,0:0:0:0:
64,192,78148,1,8,0:0:0:0:
448,192,78148,1,0,0:0:0:0:
448,192,78285,1,0,0:0:0:0:
320,192,78421,1,0,0:0:0:0:
192,192,78558,1,0,0:0:0:0:
64,192,78694,1,4,0:0:0:0:
448,192,78694,1,4,0:0:0:0:
320,192,78967,1,2,0:0:0:0:
448,192,78967,128,0,79376:0:0:0:0:
64,192,79239,1,8,0:0:0:0:
320,192,79239,1,0,0:0:0:0:
192,192,79239,1,8,0:0:0:0:
192,192,79376,128,2,79785:0:0:0:0:
320,192,79512,1,0,0:0:0:0:
448,192,79648,1,0,0:0:0:0:
320,192,79785,128,0,80330:0:0:0:0:
448,192,79785,1,8,0:0:0:0:
64,192,79785,1,0,0:0:0:0:
192,192,79921,1,0,0:0:0:0:
64,192,80058,1,0,0:0:0:0:
192,192,80194,1,0,0:0:0:0:
448,192,80330,128,2,80876:0:0:0:0:
64,192,80330,1,8,0:0:0:0:
320,192,80467,1,0,0:0:0:0:
64,192,80603,1,0,0:0:0:0:
320,192,80739,1,0,0:0:0:0:
64,192,80876,1,4,0:0:0:0:
192,192,80876,1,4,0:0:0:0:
320,192,81012,1,0,0:0:0:0:
64,192,81148,1,0,0:0:0:0:
320,192,81285,1,0,0:0:0:0:
64,192,81421,1,8,0:0:0:0:
192,192,81558,1,0,0:0:0:0:
320,192,81694,1,0,0:0:0:0:
448,192,81830,1,0,0:0:0:0:
64,192,81967,1,0,0:0:0:0:
320,192,81967,1,4,0:0:0:0:
192,192,82103,1,0,0:0:0:0:
448,192,82239,1,0,0:0:0:0:
192,192,82376,1,0,0:0:0:0:
448,192,82512,1,8,0:0:0:0:
320,192,82648,1,0,0:0:0:0:
192,192,82785,1,0,0:0:0:0:
64,192,82921,1,0,0:0:0:0:
448,192,83058,128,4,83330:0:0:0:0:
320,192,83058,1,4,0:0:0:0:
64,192,83330,128,0,83603:0:0:0:0:
192,192,83330,1,0,0:0:0:0:
320,192,83603,128,8,83876:0:0:0:0:
448,192,83603,1,8,0:0:0:0:
64,192,83876,1,0,0:0:0:0:
192,192,83876,128,0,84148:0:0:0:0:
320,192,84148,128,4,84421:0:0:0:0:
448,192,84148,128,4,84421:0:0:0:0:
64,192,84421,1,0,0:0:0:0:
192,192,84558,1,0,0:0:0:0:
320,192,84694,1,0,0:0:0:0:
192,192,84830,1,0,0:0:0:0:
320,192,84967,1,0,0:0:0:0:
448,192,85103,1,0,0:0:0:0:
64,192,85239,1,0,0:0:0:0:
320,192,85239,1,4,0:0:0:0:
192,192,85376,1,0,0:0:0:0:
448,192,85512,1,0,0:0:0:0:
192,192,85648,1,0,0:0:0:0:
448,192,85785,1,8,0:0:0:0:
320,192,85921,1,0,0:0:0:0:
192,192,86058,1,0,0:0:0:0:
320,192,86194,1,0,0:0:0:0:
192,192,86330,1,4,0:0:0:0:
64,192,86330,1,0,0:0:0:0:
320,192,86467,1,0,0:0:0:0:
64,192,86603,1,0,0:0:0:0:
320,192,86739,1,0,0:0:0:0:
64,192,86876,1,8,0:0:0:0:
192,192,87012,1,0,0:0:0:0:
320,192,87148,1,0,0:0:0:0:
448,192,87285,1,0,0:0:0:0:
192,192,87421,1,0,0:0:0:0:
320,192,87421,1,4,0:0:0:0:
64,192,87694,1,2,0:0:0:0:
320,192,87967,1,0,0:0:0:0:
448,192,87967,1,8,0:0:0:0:
192,192,88239,1,0,0:0:0:0:
448,192,88376,1,0,0:0:0:0:
64,192,88512,1,4,0:0:0:0:
320,192,88512,1,0,0:0:0:0:
192,192,88648,1,0,0:0:0:0:
448,192,88785,1,0,0:0:0:0:
64,192,88921,1,0,0:0:0:0:
320,192,89058,1,4,0:0:0:0:
192,192,89058,1,0,0:0:0:0:
64,192,89194,1,0,0:0:0:0:
192,192,89330,1,0,0:0:0:0:
320,192,89467,1,0,0:0:0:0:
64,192,89603,1,0,0:0:0:0:
192,192,89603,1,4,0:0:0:0:
448,192,89739,1,0,0:0:0:0:
64,192,89876,1,2,0:0:0:0:
320,192,89876,128,0,90148:0:0:0:0:
192,192,90148,1,0,0:0:0:0:
64,192,90148,128,8,90421:0:0:0:0:
448,192,90285,1,0,0:0:0:0:
320,192,90421,1,0,0:0:0:0:
192,192,90558,1,0,0:0:0:0:
448,192,90694,1,4,0:0:0:0:
192,192,90694,128,4,90967:0:0:0:0:
320,192,90830,1,0,0:0:0:0:
448,192,90967,1,0,0:0:0:0:
192,192,91103,1,0,0:0:0:0:
448,192,91239,1,0,0:0:0:0:
64,192,91239,1,8,0:0:0:0:
320,192,91376,1,0,0:0:0:0:
192,192,91512,1,2,0:0:0:0:
448,192,91512,1,0,0:0:0:0:
320,192,91648,1,0,0:0:0:0:
192,192,91785,1,4,0:0:0:0:
64,192,91785,1,0,0:0:0:0:
448,192,91785,1,4,0:0:0:0:
320,192,91921,1,0,0:0:0:0:
448,192,92058,1,0,0:0:0:0:
64,192,92194,1,0,0:0:0:0:
192,192,92194,1,0,0:0:0:0:
448,192,92330,128,0,92603:0:0:0:0:
320,192,92330,1,0,0:0:0:0:
64,192,92603,1,0,0:0:0:0:
320,192,92603,1,0,0:0:0:0:
192,192,92739,1,0,0:0:0:0:
320,192,92876,1,0,0:0:0:0:
448,192,93012,1,0,0:0:0:0:
192,192,93148,1,0,0:0:0:0:
320,192,93285,1,0,0:0:0:0:
64,192,93421,128,2,93967:0:0:0:0:
448,192,93421,128,2,93967:0:0:0:0:
192,192,93967,1,4,0:0:0:0:
64,192,94239,1,2,0:0:0:0:
320,192,94512,1,8,0:0:0:0:
448,192,94512,1,8,0:0:0:0:
192,192,95058,1,4,0:0:0:0:
320,192,95330,1,2,0:0:0:0:
64,192,95603,1,8,0:0:0:0:
448,192,95603,1,8,0:0:0:0:
192,192,96148,128,4,96421:0:0:0:0:
448,192,96421,1,2,0:0:0:0:
64,192,96694,1,8,0:0:0:0:
320,192,96694,1,8,0:0:0:0:
448,192,96967,1,0,0:0:0:0:
320,192,97103,1,0,0:0:0:0:
192,192,97239,1,4,0:0:0:0:
64,192,97239,128,4,97512:0:0:0:0:
448,192,97512,1,2,0:0:0:0:
192,192,97785,1,8,0:0:0:0:
320,192,97785,1,8,0:0:0:0:
448,192,98330,128,4,98603:0:0:0:0:
192,192,98603,1,2,0:0:0:0:
64,192,98876,1,8,0:0:0:0:
320,192,98876,1,8,0:0:0:0:
192,192,99148,1,0,0:0:0:0:
320,192,99285,1,0,0:0:0:0:
192,192,99421,1,4,0:0:0:0:
448,192,99421,128,4,99694:0:0:0:0:
64,192,99694,1,2,0:0:0:0:
192,192,99967,1,8,0:0:0:0:
448,192,99967,1,8,0:0:0:0:
64,192,100239,128,0,100512:0:0:0:0:
320,192,100512,1,4,0:0:0:0:
448,192,100512,1,4,0:0:0:0:
64,192,100785,1,2,0:0:0:0:
320,192,101058,1,8,0:0:0:0:
448,192,101058,1,8,0:0:0:0:
448,192,101330,1,0,0:0:0:0:
320,192,101467,1,0,0:0:0:0:
64,192,101603,128,4,101876:0:0:0:0:
192,192,101603,1,4,0:0:0:0:
320,192,102148,1,8,0:0:0:0:
448,192,102148,1,8,0:0:0:0:
192,192,102148,1,8,0:0:0:0:
64,192,102421,1,0,0:0:0:0:
192,192,102694,128,4,102967:0:0:0:0:
320,192,102694,128,4,102967:0:0:0:0:
64,192,103239,1,8,0:0:0:0:
448,192,103239,1,8,0:0:0:0:
192,192,103512,1,0,0:0:0:0:
320,192,103648,1,0,0:0:0:0:
448,192,103785,1,4,0:0:0:0:
64,192,103785,1,4,0:0:0:0:
320,192,104058,1,2,0:0:0:0:
64,192,104330,1,8,0:0:0:0:
192,192,104330,1,8,0:0:0:0:
320,192,104330,1,8,0:0:0:0:
448,192,104876,1,4,0:0:0:0:
192,192,104876,1,4,0:0:0:0:
320,192,105148,1,2,0:0:0:0:
64,192,105421,1,8,0:0:0:0:
192,192,105421,1,8,0:0:0:0:
320,192,105694,1,0,0:0:0:0:
448,192,105830,1,0,0:0:0:0:
64,192,105967,1,4,0:0:0:0:
192,192,105967,1,4,0:0:0:0:
320,192,106239,1,2,0:0:0:0:
64,192,106512,1,8,0:0:0:0:
192,192,106512,1,8,0:0:0:0:
448,192,106512,1,8,0:0:0:0:
320,192,106785,1,0,0:0:0:0:
64,192,107058,1,4,0:0:0:0:
448,192,107058,1,4,0:0:0:0:
192,192,107330,1,2,0:0:0:0:
320,192,107603,1,8,0:0:0:0:
448,192,107603,1,8,0:0:0:0:
320,192,107876,1,0,0:0:0:0:
192,192,108012,1,0,0:0:0:0:
320,192,108148,128,4,108421:0:0:0:0:
448,192,108148,128,4,108694:0:0:0:0:
64,192,108694,1,8,0:0:0:0:
192,192,108694,1,8,0:0:0:0:
192,192,109239,128,8,109785:0:0:0:0:
320,192,109239,128,8,109785:0:0:0:0:
64,192,110330,128,8,110876:0:0:0:0:
192,192,110330,128,8,110876:0:0:0:0:
448,192,110603,1,2,0:0:0:0:
448,192,110876,128,2,111421:0:0:0:0:
64,192,111421,1,0,0:0:0:0:
192,192,111421,1,0,0:0:0:0:
320,192,111694,128,2,111967:0:0:0:0:
448,192,111967,1,8,0:0:0:0:
192,192,112239,1,0,0:0:0:0:
320,192,112376,1,0,0:0:0:0:
64,192,112512,1,4,0:0:0:0:
448,192,112512,1,4,0:0:0:0:
64,192,112785,128,2,113058:0:0:0:0:
192,192,113058,1,8,0:0:0:0:
448,192,113330,128,0,113603:0:0:0:0:
320,192,113603,128,4,113876:0:0:0:0:
192,192,113876,128,2,114148:0:0:0:0:
448,192,114148,1,8,0:0:0:0:
320,192,114421,1,0,0:0:0:0:
192,192,114558,1,0,0:0:0:0:
64,192,114694,1,0,0:0:0:0:
192,192,114830,1,0,0:0:0:0:
320,192,114967,1,4,0:0:0:0:
448,192,114967,1,4,0:0:0:0:
64,192,115239,1,8,0:0:0:0:
192,192,115239,1,8,0:0:0:0:
448,192,115512,128,2,115785:0:0:0:0:
192,192,115785,128,4,116058:0:0:0:0:
64,192,116058,128,2,116330:0:0:0:0:
320,192,116330,1,8,0:0:0:0:
192,192,116603,1,0,0:0:0:0:
320,192,116739,1,0,0:0:0:0:
448,192,116876,1,0,0:0:0:0:
320,192,117012,1,0,0:0:0:0:
192,192,117148,1,4,0:0:0:0:
64,192,117148,1,4,0:0:0:0:
320,192,117421,1,10,0:0:0:0:
448,192,117421,1,10,0:0:0:0:
64,192,117694,128,2,117967:0:0:0:0:
320,192,117967,128,4,118239:0:0:0:0:
64,192,118239,128,2,118512:0:0:0:0:
448,192,118512,1,8,0:0:0:0:
448,192,118785,1,0,0:0:0:0:
320,192,118921,1,0,0:0:0:0:
192,192,119058,1,4,0:0:0:0:
448,192,119058,1,0,0:0:0:0:
64,192,119194,1,0,0:0:0:0:
192,192,119330,1,0,0:0:0:0:
320,192,119467,1,0,0:0:0:0:
448,192,119603,1,8,0:0:0:0:
64,192,119603,1,10,0:0:0:0:
320,192,119739,1,0,0:0:0:0:
192,192,119876,1,0,0:0:0:0:
64,192,120012,1,0,0:0:0:0:
448,192,120148,128,2,120421:0:0:0:0:
192,192,120148,1,0,0:0:0:0:
320,192,120421,128,2,120694:0:0:0:0:
64,192,120421,1,0,0:0:0:0:
192,192,120421,1,0,0:0:0:0:
192,192,120694,128,2,120967:0:0:0:0:
448,192,120694,1,0,0:0:0:0:
64,192,120694,1,0,0:0:0:0:
448,192,120967,128,2,121239:0:0:0:0:
320,192,120967,1,0,0:0:0:0:
192,192,121103,1,0,0:0:0:0:
320,192,121239,128,2,121512:0:0:0:0:
64,192,121239,1,0,0:0:0:0:
192,192,121376,1,0,0:0:0:0:
192,192,121512,128,2,121785:0:0:0:0:
448,192,121512,1,0,0:0:0:0:
320,192,121648,1,0,0:0:0:0:
64,192,121785,1,0,0:0:0:0:
320,192,121921,1,0,0:0:0:0:
448,192,122058,128,0,122330:0:0:0:0:
192,192,122058,1,0,0:0:0:0:
64,192,122194,1,0,0:0:0:0:
320,192,122330,128,2,122603:0:0:0:0:
192,192,122330,1,0,0:0:0:0:
64,192,122330,1,0,0:0:0:0:
192,192,122603,128,2,122876:0:0:0:0:
448,192,122603,1,0,0:0:0:0:
64,192,122876,128,2,123148:0:0:0:0:
320,192,122876,1,0,0:0:0:0:
448,192,123148,128,2,123421:0:0:0:0:
192,192,123148,1,0,0:0:0:0:
320,192,123285,1,0,0:0:0:0:
64,192,123421,1,0,0:0:0:0:
192,192,123558,1,0,0:0:0:0:
320,192,123694,1,0,0:0:0:0:
192,192,123830,1,0,0:0:0:0:
64,192,123967,128,0,124239:0:0:0:0:
320,192,123967,1,0,0:0:0:0:
448,192,124103,1,0,0:0:0:0:
192,192,124239,1,0,0:0:0:0:
320,192,124376,1,0,0:0:0:0:
448,192,124512,128,0,124785:0:0:0:0:
192,192,124512,1,0,0:0:0:0:
192,192,124785,128,2,125058:0:0:0:0:
64,192,124785,1,0,0:0:0:0:
320,192,125058,128,2,125330:0:0:0:0:
64,192,125058,1,0,0:0:0:0:
448,192,125058,1,0,0:0:0:0:
192,192,125330,128,2,125603:0:0:0:0:
64,192,125330,1,0,0:0:0:0:
320,192,125467,1,0,0:0:0:0:
320,192,125603,128,2,125876:0:0:0:0:
448,192,125603,1,0,0:0:0:0:
192,192,125739,1,0,0:0:0:0:
448,192,125876,128,2,126148:0:0:0:0:
64,192,125876,1,0,0:0:0:0:
192,192,126012,1,0,0:0:0:0:
320,192,126148,1,0,0:0:0:0:
64,192,126285,1,0,0:0:0:0:
320,192,126421,128,0,126694:0:0:0:0:
192,192,126421,1,0,0:0:0:0:
64,192,126558,1,0,0:0:0:0:
64,192,126694,128,2,126967:0:0:0:0:
448,192,126694,1,0,0:0:0:0:
192,192,126967,128,2,127239:0:0:0:0:
320,192,126967,1,0,0:0:0:0:
320,192,127239,128,2,127512:0:0:0:0:
64,192,127239,1,0,0:0:0:0:
448,192,127239,1,0,0:0:0:0:
192,192,127512,1,0,0:0:0:0:
64,192,127648,1,0,0:0:0:0:
448,192,127785,1,0,0:0:0:0:
320,192,127921,1,0,0:0:0:0:
448,192,128058,128,0,128330:0:0:0:0:
192,192,128058,1,0,0:0:0:0:
64,192,128194,1,0,0:0:0:0:
192,192,128330,128,2,128603:0:0:0:0:
320,192,128330,1,0,0:0:0:0:
448,192,128467,1,0,0:0:0:0:
64,192,128603,128,2,128876:0:0:0:0:
320,192,128603,1,0,0:0:0:0:
192,192,128739,1,0,0:0:0:0:
192,192,128876,128,2,129967:0:0:0:0:
320,192,128876,1,0,0:0:0:0:
448,192,128876,1,0,0:0:0:0:
320,192,129148,1,0,0:0:0:0:
448,192,129148,1,0,0:0:0:0:
64,192,129421,1,0,0:0:0:0:
448,192,129421,1,0,0:0:0:0:
320,192,129694,1,0,0:0:0:0:
64,192,129694,1,0,0:0:0:0:
64,192,129967,1,0,0:0:0:0:
320,192,129967,128,2,131058:0:0:0:0:
448,192,129967,1,0,0:0:0:0:
192,192,130239,1,0,0:0:0:0:
448,192,130239,1,0,0:0:0:0:
64,192,130512,1,0,0:0:0:0:
192,192,130512,1,0,0:0:0:0:
192,192,130785,1,0,0:0:0:0:
448,192,130785,1,0,0:0:0:0:
448,192,131058,128,2,132148:0:0:0:0:
64,192,131058,1,0,0:0:0:0:
192,192,131058,1,0,0:0:0:0:
320,192,131330,1,0,0:0:0:0:
64,192,131330,1,0,0:0:0:0:
64,192,131603,1,0,0:0:0:0:
192,192,131603,1,0,0:0:0:0:
320,192,131876,1,0,0:0:0:0:
192,192,131876,1,0,0:0:0:0:
64,192,132148,128,2,133239:0:0:0:0:
192,192,132148,1,0,0:0:0:0:
320,192,132285,1,0,0:0:0:0:
448,192,132421,128,2,133239:0:0:0:0:
192,192,133239,1,4,0:0:0:0:
320,192,133239,1,0,0:0:0:0:
320,192,133512,1,0,0:0:0:0:
192,192,133648,1,0,0:0:0:0:
320,192,133785,1,4,0:0:0:0:
448,192,133785,1,4,0:0:0:0:
64,192,133785,1,0,0:0:0:0:
192,192,134058,1,0,0:0:0:0:
320,192,134194,1,0,0:0:0:0:
64,192,134330,1,4,0:0:0:0:
448,192,134330,1,4,0:0:0:0:
192,192,134330,1,0,0:0:0:0:
192,192,134603,128,2,135421:0:0:0:0:
64,192,135421,1,4,0:0:0:0:
448,192,135421,1,4,0:0:0:0:
320,192,135421,1,0,0:0:0:0:
192,192,135694,1,0,0:0:0:0:
320,192,135830,1,0,0:0:0:0:
64,192,135967,1,8,0:0:0:0:
448,192,135967,1,8,0:0:0:0:
64,192,136239,1,0,0:0:0:0:
320,192,136376,1,0,0:0:0:0:
448,192,136512,1,4,0:0:0:0:
64,192,136512,1,4,0:0:0:0:
320,192,136648,1,0,0:0:0:0:
192,192,136785,1,0,0:0:0:0:
64,192,136921,1,0,0:0:0:0:
192,192,137058,1,8,0:0:0:0:
320,192,137058,1,8,0:0:0:0:
448,192,137194,1,0,0:0:0:0:
64,192,137330,1,0,0:0:0:0:
192,192,137467,1,0,0:0:0:0:
448,192,137603,128,4,138148:0:0:0:0:
320,192,137603,128,4,138148:0:0:0:0:
192,192,138148,1,8,0:0:0:0:
64,192,138148,1,8,0:0:0:0:
320,192,138421,1,0,0:0:0:0:
64,192,138558,1,0,0:0:0:0:
192,192,138694,1,4,0:0:0:0:
448,192,138694,1,4,0:0:0:0:
320,192,138830,1,0,0:0:0:0:
192,192,138967,1,0,0:0:0:0:
64,192,139103,1,0,0:0:0:0:
192,192,139239,128,8,139785:0:0:0:0:
448,192,139239,128,8,139785:0:0:0:0:
64,192,139785,1,4,0:0:0:0:
320,192,139785,1,4,0:0:0:0:
192,192,140058,1,0,0:0:0:0:
320,192,140194,1,0,0:0:0:0:
64,192,140330,1,8,0:0:0:0:
448,192,140330,1,8,0:0:0:0:
64,192,140603,1,0,0:0:0:0:
192,192,140739,1,0,0:0:0:0:
320,192,140876,1,4,0:0:0:0:
64,192,140876,1,4,0:0:0:0:
448,192,141012,1,0,0:0:0:0:
320,192,141148,1,0,0:0:0:0:
192,192,141285,1,0,0:0:0:0:
448,192,141421,128,8,141967:0:0:0:0:
64,192,141421,128,8,141967:0:0:0:0:
192,192,141967,1,4,0:0:0:0:
320,192,141967,1,4,0:0:0:0:
448,192,142239,1,0,0:0:0:0:
64,192,142376,1,0,0:0:0:0:
192,192,142512,1,8,0:0:0:0:
320,192,142512,1,8,0:0:0:0:
64,192,142648,128,2,142785:0:0:0:0:
192,192,142785,128,2,142921:0:0:0:0:
320,192,142921,128,2,143058:0:0:0:0:
448,192,143058,128,2,143603:0:0:0:0:
64,192,143603,1,2,0:0:0:0:
192,192,143739,1,2,0:0:0:0:
320,192,143876,1,2,0:0:0:0:
448,192,144012,1,2,0:0:0:0:
192,192,144148,1,4,0:0:0:0:
64,192,144148,1,4,0:0:0:0:
320,192,144421,1,0,0:0:0:0:
448,192,144558,1,0,0:0:0:0:
64,192,144694,1,8,0:0:0:0:
192,192,144694,1,8,0:0:0:0:
64,192,144967,1,0,0:0:0:0:
448,192,145103,1,0,0:0:0:0:
64,192,145239,1,4,0:0:0:0:
320,192,145239,1,4,0:0:0:0:
192,192,145376,1,0,0:0:0:0:
320,192,145512,1,0,0:0:0:0:
448,192,145648,1,0,0:0:0:0:
64,192,145785,1,8,0:0:0:0:
320,192,145785,1,8,0:0:0:0:
192,192,146058,1,0,0:0:0:0:
448,192,146194,1,0,0:0:0:0:
64,192,146330,128,4,146603:0:0:0:0:
320,192,146330,1,4,0:0:0:0:
320,192,146603,1,0,0:0:0:0:
192,192,146739,1,0,0:0:0:0:
320,192,146876,128,8,147148:0:0:0:0:
448,192,146876,1,8,0:0:0:0:
192,192,147148,1,0,0:0:0:0:
448,192,147285,1,0,0:0:0:0:
320,192,147421,1,4,0:0:0:0:
64,192,147421,1,4,0:0:0:0:
192,192,147558,1,0,0:0:0:0:
448,192,147694,1,0,0:0:0:0:
320,192,147830,1,0,0:0:0:0:
192,192,147967,128,8,148512:0:0:0:0:
64,192,147967,128,8,148512:0:0:0:0:
448,192,148512,128,4,148785:0:0:0:0:
320,192,148512,128,4,148785:0:0:0:0:
64,192,149058,1,8,0:0:0:0:
448,192,149058,1,8,0:0:0:0:
192,192,149330,1,0,0:0:0:0:
320,192,149467,1,0,0:0:0:0:
448,192,149603,1,4,0:0:0:0:
64,192,149603,1,4,0:0:0:0:
320,192,149739,1,0,0:0:0:0:
192,192,149876,1,0,0:0:0:0:
64,192,150012,1,0,0:0:0:0:
320,192,150148,1,8,0:0:0:0:
448,192,150148,1,8,0:0:0:0:
64,192,150694,128,2,151239:0:0:0:0:
192,192,150694,1,0,0:0:0:0:
320,192,150830,1,0,0:0:0:0:
448,192,150967,1,0,0:0:0:0:
320,192,151103,1,0,0:0:0:0:
192,192,151239,128,2,151512:0:0:0:0:
448,192,151512,1,0,0:0:0:0:
320,192,151648,1,0,0:0:0:0:
192,192,151785,1,0,0:0:0:0:
64,192,151921,1,0,0:0:0:0:
192,192,152058,1,0,0:0:0:0:
320,192,152194,1,0,0:0:0:0:
64,192,152330,128,2,152876:0:0:0:0:
448,192,152876,1,0,0:0:0:0:
192,192,153012,1,0,0:0:0:0:
448,192,153148,1,0,0:0:0:0:
192,192,153285,1,0,0:0:0:0:
448,192,153421,128,0,153694:0:0:0:0:
320,192,153694,1,0,0:0:0:0:
192,192,153830,1,0,0:0:0:0:
64,192,153967,128,0,154239:0:0:0:0:
192,192,154103,1,0,0:0:0:0:
320,192,154239,128,0,155058:0:0:0:0:
448,192,154239,1,0,0:0:0:0:
448,192,155058,128,2,155876:0:0:0:0:
64,192,155058,1,0,0:0:0:0:
64,192,155876,1,2,0:0:0:0:
192,192,156012,1,2,0:0:0:0:
320,192,156148,1,2,0:0:0:0:
448,192,156285,1,2,0:0:0:0:
64,192,156421,128,2,157239:0:0:0:0:
192,192,157239,1,0,0:0:0:0:
320,192,157376,1,0,0:0:0:0:
448,192,157512,1,0,0:0:0:0:
320,192,157648,1,0,0:0:0:0:
448,192,157785,1,0,0:0:0:0:
320,192,157921,1,0,0:0:0:0:
192,192,158058,1,0,0:0:0:0:
64,192,158194,1,0,0:0:0:0:
192,192,158330,1,0,0:0:0:0:
448,192,158467,1,0,0:0:0:0:
320,192,158603,1,0,0:0:0:0:
448,192,158739,1,0,0:0:0:0:
320,192,158876,1,0,0:0:0:0:
192,192,159012,1,0,0:0:0:0:
64,192,159148,128,0,159421:0:0:0:0:
448,192,159421,1,0,0:0:0:0:
192,192,159558,1,0,0:0:0:0:
448,192,159694,1,0,0:0:0:0:
64,192,159830,128,0,160239:0:0:0:0:
320,192,159967,1,0,0:0:0:0:
192,192,160103,1,0,0:0:0:0:
448,192,160239,1,0,0:0:0:0:
320,192,160376,1,0,0:0:0:0:
192,192,160512,1,0,0:0:0:0:
64,192,160648,1,0,0:0:0:0:
192,192,160785,1,0,0:0:0:0:
320,192,160921,1,0,0:0:0:0:
448,192,161058,128,0,161603:0:0:0:0:
192,192,161058,1,0,0:0:0:0:
64,192,161603,1,0,0:0:0:0:
320,192,161603,1,0,0:0:0:0:
320,192,161876,128,0,162012:0:0:0:0:
64,192,162012,1,0,0:0:0:0:
192,192,162285,128,0,162421:0:0:0:0:
448,192,162421,1,0,0:0:0:0:
192,192,162694,128,0,162830:0:0:0:0:
64,192,162830,1,0,0:0:0:0:
320,192,163103,1,0,0:0:0:0:
192,192,163239,1,0,0:0:0:0:
448,192,163376,1,0,0:0:0:0:
320,192,163512,1,0,0:0:0:0:
192,192,163648,128,0,163921:0:0:0:0:
320,192,163785,1,0,0:0:0:0:
64,192,163785,1,0,0:0:0:0:
448,192,164058,1,0,0:0:0:0:
64,192,164194,1,0,0:0:0:0:
192,192,164467,1,0,0:0:0:0:
320,192,164603,1,0,0:0:0:0:
64,192,164876,1,0,0:0:0:0:
192,192,165012,1,0,0:0:0:0:
320,192,165148,1,0,0:0:0:0:
192,192,165285,1,0,0:0:0:0:
320,192,165421,1,0,0:0:0:0:
448,192,165558,1,0,0:0:0:0:
320,192,165694,1,0,0:0:0:0:
192,192,165830,1,0,0:0:0:0:
64,192,165967,1,0,0:0:0:0:
320,192,165967,128,0,166512:0:0:0:0:
192,192,165967,1,0,0:0:0:0:
64,192,166239,1,0,0:0:0:0:
448,192,166239,1,0,0:0:0:0:
64,192,166512,1,0,0:0:0:0:
192,192,166512,1,0,0:0:0:0:
192,192,166785,1,0,0:0:0:0:
320,192,166921,1,0,0:0:0:0:
448,192,167058,128,0,167603:0:0:0:0:
192,192,167058,1,0,0:0:0:0:
64,192,167058,1,0,0:0:0:0:
192,192,167330,1,0,0:0:0:0:
320,192,167330,1,0,0:0:0:0:
320,192,167603,1,0,0:0:0:0:
64,192,167603,1,0,0:0:0:0:
64,192,167876,1,0,0:0:0:0:
192,192,168012,1,0,0:0:0:0:
448,192,168148,1,0,0:0:0:0:
320,192,168148,1,0,0:0:0:0:
192,192,168285,1,0,0:0:0:0:
64,192,168421,1,0,0:0:0:0:
320,192,168558,1,0,0:0:0:0:
64,192,168694,128,0,168967:0:0:0:0:
320,192,168967,1,0,0:0:0:0:
448,192,169103,1,0,0:0:0:0:
192,192,169239,1,0,0:0:0:0:
64,192,169239,1,0,0:0:0:0:
320,192,169376,1,0,0:0:0:0:
64,192,169512,1,0,0:0:0:0:
320,192,169648,1,0,0:0:0:0:
64,192,169785,128,2,170330:0:0:0:0:
448,192,169785,128,2,170330:0:0:0:0:
192,192,170330,128,2,171421:0:0:0:0:
320,192,170330,1,0,0:0:0:0:
448,192,170603,1,0,0:0:0:0:
64,192,170603,1,0,0:0:0:0:
320,192,170876,1,0,0:0:0:0:
448,192,170876,1,0,0:0:0:0:
448,192,171148,1,0,0:0:0:0:
64,192,171148,1,0,0:0:0:0:
320,192,171421,128,2,172512:0:0:0:0:
448,192,171421,1,0,0:0:0:0:
64,192,171421,1,0,0:0:0:0:
448,192,171694,1,0,0:0:0:0:
192,192,171694,1,0,0:0:0:0:
192,192,171967,1,0,0:0:0:0:
64,192,171967,1,0,0:0:0:0:
64,192,172239,1,0,0:0:0:0:
448,192,172239,1,0,0:0:0:0:
448,192,172512,128,2,173603:0:0:0:0:
64,192,172512,1,0,0:0:0:0:
192,192,172512,1,0,0:0:0:0:
192,192,172785,1,0,0:0:0:0:
320,192,172785,1,0,0:0:0:0:
320,192,173058,1,0,0:0:0:0:
64,192,173058,1,0,0:0:0:0:
192,192,173330,1,0,0:0:0:0:
64,192,173330,1,0,0:0:0:0:
64,192,173603,128,2,174694:0:0:0:0:
320,192,173603,1,0,0:0:0:0:
192,192,173603,1,0,0:0:0:0:
320,192,173876,1,0,0:0:0:0:
192,192,173876,1,0,0:0:0:0:
192,192,174148,1,0,0:0:0:0:
448,192,174148,1,0,0:0:0:0:
320,192,174421,1,0,0:0:0:0:
448,192,174421,1,0,0:0:0:0:
448,192,174694,1,0,0:0:0:0:
192,192,174694,1,4,0:0:0:0:
320,192,174694,1,0,0:0:0:0:
448,192,174967,1,0,0:0:0:0:
320,192,175103,1,0,0:0:0:0:
64,192,175239,1,0,0:0:0:0:
192,192,175239,1,4,0:0:0:0:
448,192,175239,1,0,0:0:0:0:
192,192,175512,1,0,0:0:0:0:
64,192,175648,1,0,0:0:0:0:
320,192,175785,1,4,0:0:0:0:
448,192,175785,1,0,0:0:0:0:
192,192,175785,1,0,0:0:0:0:
192,192,176058,1,0,0:0:0:0:
320,192,176194,1,0,0:0:0:0:
64,192,176330,1,4,0:0:0:0:
192,192,176330,1,0,0:0:0:0:
448,192,176330,1,0,0:0:0:0:
320,192,176603,1,0,0:0:0:0:
192,192,176739,1,0,0:0:0:0:
320,192,176876,1,0,0:0:0:0:
448,192,176876,1,4,0:0:0:0:
64,192,176876,1,0,0:0:0:0:
192,192,177148,1,0,0:0:0:0:
320,192,177285,1,0,0:0:0:0:
448,192,177421,1,0,0:0:0:0:
64,192,177421,1,0,0:0:0:0:
320,192,177558,1,0,0:0:0:0:
192,192,177694,1,0,0:0:0:0:
64,192,177830,1,0,0:0:0:0:
192,192,177967,1,4,0:0:0:0:
320,192,177967,1,4,0:0:0:0:
448,192,177967,1,4,0:0:0:0:
64,192,179058,128,2,179330:0:0:0:0:
192,192,179330,1,0,0:0:0:0:
320,192,179467,1,0,0:0:0:0:
64,192,179603,128,2,179876:0:0:0:0:
320,192,179876,1,0,0:0:0:0:
192,192,180012,128,2,180148:0:0:0:0:
448,192,180012,1,0,0:0:0:0:
192,192,180285,128,2,180421:0:0:0:0:
320,192,180558,1,0,0:0:0:0:
192,192,180694,128,2,180967:0:0:0:0:
64,192,180694,1,0,0:0:0:0:
320,192,181103,1,0,0:0:0:0:
64,192,181239,1,0,0:0:0:0:
448,192,181239,128,2,181512:0:0:0:0:
320,192,181648,1,0,0:0:0:0:
64,192,181785,1,0,0:0:0:0:
192,192,181785,128,2,182058:0:0:0:0:
320,192,182194,1,0,0:0:0:0:
192,192,182330,128,2,182603:0:0:0:0:
448,192,182330,1,0,0:0:0:0:
64,192,182739,1,0,0:0:0:0:
320,192,182876,1,0,0:0:0:0:
448,192,182876,128,2,183148:0:0:0:0:
192,192,183285,1,0,0:0:0:0:
64,192,183421,128,2,183694:0:0:0:0:
320,192,183421,1,0,0:0:0:0:
320,192,183830,1,0,0:0:0:0:
192,192,183967,128,2,184239:0:0:0:0:
448,192,183967,1,0,0:0:0:0:
192,192,184376,128,2,184512:0:0:0:0:
192,192,184648,128,2,184785:0:0:0:0:
448,192,184921,1,0,0:0:0:0:
64,192,185058,1,0,0:0:0:0:
192,192,185058,128,2,185330:0:0:0:0:
320,192,185467,1,0,0:0:0:0:
64,192,185603,128,2,185876:0:0:0:0:
192,192,185603,1,0,0:0:0:0:
448,192,186012,1,0,0:0:0:0:
320,192,186148,1,0,0:0:0:0:
192,192,186148,128,2,186421:0:0:0:0:
192,192,186558,128,2,186694:0:0:0:0:
192,192,186830,128,2,186967:0:0:0:0:
448,192,187103,1,0,0:0:0:0:
64,192,187239,1,0,0:0:0:0:
192,192,187239,128,2,187512:0:0:0:0:
448,192,187648,1,0,0:0:0:0:
64,192,187785,1,0,0:0:0:0:
320,192,187785,1,4,0:0:0:0:
192,192,187785,128,2,188058:0:0:0:0:
448,192,188194,1,0,0:0:0:0:
192,192,188330,128,2,188603:0:0:0:0:
64,192,188330,1,0,0:0:0:0:
320,192,188330,1,4,0:0:0:0:
192,192,188739,128,2,188876:0:0:0:0:
320,192,188876,1,4,0:0:0:0:
448,192,188876,1,0,0:0:0:0:
192,192,189012,128,2,189148:0:0:0:0:
64,192,189285,1,0,0:0:0:0:
192,192,189421,128,2,189694:0:0:0:0:
320,192,189421,1,4,0:0:0:0:
448,192,189421,1,0,0:0:0:0:
320,192,189830,1,0,0:0:0:0:
448,192,189967,128,2,190239:0:0:0:0:
192,192,189967,1,4,0:0:0:0:
64,192,189967,1,0,0:0:0:0:
192,192,190376,1,0,0:0:0:0:
320,192,190512,128,2,190785:0:0:0:0:
448,192,190512,1,4,0:0:0:0:
64,192,190512,1,0,0:0:0:0:
192,192,190921,1,0,0:0:0:0:
320,192,191058,1,0,0:0:0:0:
448,192,191058,1,4,0:0:0:0:
64,192,191058,128,2,191330:0:0:0:0:
448,192,191467,1,0,0:0:0:0:
320,192,191603,128,2,191876:0:0:0:0:
192,192,191603,1,0,0:0:0:0:
64,192,191603,1,4,0:0:0:0:
320,192,192148,1,0,0:0:0:0:
448,192,192148,1,0,0:0:0:0:
64,192,192148,1,0,0:0:0:0:
320,192,192421,1,0,0:0:0:0:
64,192,192421,1,0,0:0:0:0:
192,192,192421,1,0,0:0:0:0:
448,192,192694,1,0,0:0:0:0:
320,192,192694,1,0,0:0:0:0:
64,192,192694,1,0,0:0:0:0:
192,192,192967,1,4,0:0:0:0:
64,192,192967,1,0,0:0:0:0:
448,192,192967,1,0,0:0:0:0:
64,192,193239,1,0,0:0:0:0:
320,192,193239,1,4,0:0:0:0:
192,192,193376,1,0,0:0:0:0:
448,192,193512,1,0,0:0:0:0:
64,192,193648,1,0,0:0:0:0:
192,192,193785,1,2,0:0:0:0:
448,192,193785,1,2,0:0:0:0:
320,192,193921,1,0,0:0:0:0:
64,192,194058,1,0,0:0:0:0:
192,192,194194,1,0,0:0:0:0:
320,192,194330,1,2,0:0:0:0:
448,192,194330,1,0,0:0:0:0:
192,192,194467,1,0,0:0:0:0:
64,192,194603,1,0,0:0:0:0:
320,192,194603,1,0,0:0:0:0:
192,192,194739,1,0,0:0:0:0:
320,192,194876,1,2,0:0:0:0:
448,192,194876,1,2,0:0:0:0:
192,192,195012,1,0,0:0:0:0:
64,192,195148,1,0,0:0:0:0:
448,192,195148,1,0,0:0:0:0:
192,192,195285,1,0,0:0:0:0:
448,192,195421,1,8,0:0:0:0:
64,192,195421,1,8,0:0:0:0:
320,192,195421,1,8,0:0:0:0:
192,192,195558,1,8,0:0:0:0:
448,192,195558,1,8,0:0:0:0:
320,192,195558,1,8,0:0:0:0:
64,192,195694,1,8,0:0:0:0:
448,192,195694,1,8,0:0:0:0:
192,192,195694,1,8,0:0:0:0:
64,192,195830,1,8,0:0:0:0:
448,192,195830,1,8,0:0:0:0:
320,192,195830,1,8,0:0:0:0:
64,192,195967,1,8,0:0:0:0:
320,192,195967,1,8,0:0:0:0:
192,192,195967,1,8,0:0:0:0:
320,192,196103,1,8,0:0:0:0:
192,192,196103,1,8,0:0:0:0:
448,192,196103,1,8,0:0:0:0:
448,192,196239,1,8,0:0:0:0:
64,192,196239,1,0,0:0:0:0:
192,192,196239,1,0,0:0:0:0:
192,192,196376,1,8,0:0:0:0:
448,192,196376,1,0,0:0:0:0:
320,192,196376,1,0,0:0:0:0:
448,192,196512,128,4,196648:0:0:0:0:
64,192,196512,128,0,196648:0:0:0:0:
320,192,196512,128,4,196648:0:0:0:0:
192,192,196785,1,0,0:0:0:0:
64,192,196921,1,0,0:0:0:0:
320,192,197058,1,0,0:0:0:0:
448,192,197058,1,8,0:0:0:0:
192,192,197058,1,0,0:0:0:0:
192,192,197330,1,0,0:0:0:0:
320,192,197467,1,0,0:0:0:0:
448,192,197603,1,0,0:0:0:0:
64,192,197603,1,0,0:0:0:0:
320,192,197739,1,0,0:0:0:0:
192,192,197876,1,0,0:0:0:0:
64,192,198012,1,0,0:0:0:0:
192,192,198148,1,8,0:0:0:0:
448,192,198148,1,8,0:0:0:0:
320,192,198148,1,8,0:0:0:0:
320,192,198421,1,0,0:0:0:0:
192,192,198558,1,0,0:0:0:0:
64,192,198694,128,4,199239:0:0:0:0:
448,192,198694,128,4,199239:0:0:0:0:
320,192,199239,1,8,0:0:0:0:
192,192,199239,1,8,0:0:0:0:
192,192,199512,1,0,0:0:0:0:
64,192,199648,1,0,0:0:0:0:
192,192,199785,1,4,0:0:0:0:
448,192,199785,1,0,0:0:0:0:
320,192,199921,1,0,0:0:0:0:
64,192,200058,1,0,0:0:0:0:
192,192,200194,1,0,0:0:0:0:
320,192,200330,128,0,200876:0:0:0:0:
448,192,200330,1,8,0:0:0:0:
64,192,200330,1,0,0:0:0:0:
192,192,200876,1,4,0:0:0:0:
64,192,200876,1,4,0:0:0:0:
192,192,201148,1,0,0:0:0:0:
320,192,201285,1,0,0:0:0:0:
448,192,201421,1,8,0:0:0:0:
64,192,201421,1,8,0:0:0:0:
192,192,201421,1,8,0:0:0:0:
192,192,201694,1,0,0:0:0:0:
320,192,201830,1,0,0:0:0:0:
64,192,201967,1,0,0:0:0:0:
448,192,201967,1,4,0:0:0:0:
192,192,202103,1,0,0:0:0:0:
320,192,202239,1,0,0:0:0:0:
448,192,202376,1,0,0:0:0:0:
320,192,202512,128,8,203058:0:0:0:0:
64,192,202512,128,0,203058:0:0:0:0:
448,192,203058,1,4,0:0:0:0:
192,192,203058,1,0,0:0:0:0:
448,192,203330,1,0,0:0:0:0:
64,192,203467,1,0,0:0:0:0:
320,192,203603,1,8,0:0:0:0:
448,192,203603,1,8,0:0:0:0:
192,192,203603,1,0,0:0:0:0:
64,192,203739,128,2,203876:0:0:0:0:
192,192,203876,128,2,204012:0:0:0:0:
320,192,204012,128,2,204148:0:0:0:0:
448,192,204148,128,2,204694:0:0:0:0:
64,192,204694,1,2,0:0:0:0:
192,192,204830,1,2,0:0:0:0:
320,192,204967,1,2,0:0:0:0:
448,192,205103,1,2,0:0:0:0:
64,192,205239,1,0,0:0:0:0:
320,192,205239,1,0,0:0:0:0:
192,192,205239,1,4,0:0:0:0:
320,192,205512,1,0,0:0:0:0:
192,192,205648,1,0,0:0:0:0:
448,192,205785,1,8,0:0:0:0:
64,192,205785,1,0,0:0:0:0:
320,192,205921,1,0,0:0:0:0:
192,192,206058,1,0,0:0:0:0:
64,192,206194,1,0,0:0:0:0:
320,192,206330,1,4,0:0:0:0:
448,192,206330,1,0,0:0:0:0:
64,192,206467,1,0,0:0:0:0:
192,192,206603,1,0,0:0:0:0:
320,192,206739,1,0,0:0:0:0:
64,192,206876,1,8,0:0:0:0:
448,192,206876,1,0,0:0:0:0:
320,192,207012,1,0,0:0:0:0:
192,192,207148,1,0,0:0:0:0:
448,192,207285,1,0,0:0:0:0:
64,192,207421,128,0,207694:0:0:0:0:
320,192,207421,1,4,0:0:0:0:
192,192,207694,1,0,0:0:0:0:
320,192,207830,1,0,0:0:0:0:
64,192,207967,128,0,208239:0:0:0:0:
448,192,207967,1,8,0:0:0:0:
192,192,208239,1,8,0:0:0:0:
448,192,208376,1,8,0:0:0:0:
320,192,208512,1,8,0:0:0:0:
192,192,208648,1,8,0:0:0:0:
64,192,208785,1,8,0:0:0:0:
192,192,208921,1,8,0:0:0:0:
64,192,209058,128,0,209603:0:0:0:0:
320,192,209058,128,8,209603:0:0:0:0:
192,192,209603,128,4,209876:0:0:0:0:
448,192,209603,128,4,209876:0:0:0:0:
448,192,210148,1,8,0:0:0:0:
64,192,210148,1,8,0:0:0:0:
192,192,210148,1,8,0:0:0:0:
192,192,210421,1,0,0:0:0:0:
320,192,210558,1,0,0:0:0:0:
448,192,210694,1,4,0:0:0:0:
64,192,210694,1,0,0:0:0:0:
192,192,210830,1,0,0:0:0:0:
64,192,210967,1,0,0:0:0:0:
320,192,211103,1,0,0:0:0:0:
64,192,211239,128,0,211785:0:0:0:0:
448,192,211239,128,8,211785:0:0:0:0:
192,192,211785,1,0,0:0:0:0:
320,192,211921,1,0,0:0:0:0:
448,192,212058,1,0,0:0:0:0:
192,192,212194,1,0,0:0:0:0:
320,192,212330,1,8,0:0:0:0:
64,192,212330,1,8,0:0:0:0:
448,192,212330,1,0,0:0:0:0:
320,192,212603,1,0,0:0:0:0:
448,192,212739,1,0,0:0:0:0:
64,192,212876,1,0,0:0:0:0:
320,192,212876,1,2,0:0:0:0:
192,192,213012,1,0,0:0:0:0:
320,192,213148,1,0,0:0:0:0:
448,192,213285,1,0,0:0:0:0:
320,192,213421,1,2,0:0:0:0:
64,192,213421,1,0,0:0:0:0:
192,192,213558,1,0,0:0:0:0:
64,192,213694,1,0,0:0:0:0:
320,192,213830,1,0,0:0:0:0:
192,192,213967,1,0,0:0:0:0:
448,192,213967,1,4,0:0:0:0:
320,192,214103,1,0,0:0:0:0:
64,192,214239,1,0,0:0:0:0:
320,192,214376,1,0,0:0:0:0:
64,192,214512,1,8,0:0:0:0:
192,192,214512,1,0,0:0:0:0:
448,192,214648,1,0,0:0:0:0:
320,192,214785,1,0,0:0:0:0:
192,192,214921,1,0,0:0:0:0:
64,192,215058,1,4,0:0:0:0:
448,192,215058,1,0,0:0:0:0:
192,192,215194,1,0,0:0:0:0:
448,192,215330,1,0,0:0:0:0:
192,192,215467,1,0,0:0:0:0:
448,192,215603,1,8,0:0:0:0:
320,192,215603,1,0,0:0:0:0:
64,192,215739,1,0,0:0:0:0:
192,192,215876,1,0,0:0:0:0:
320,192,216012,1,0,0:0:0:0:
64,192,216148,1,6,0:0:0:0:
448,192,216148,1,6,0:0:0:0:
192,192,216148,1,6,0:0:0:0:
320,192,216148,1,6,0:0:0:0:
320,192,216421,1,0,0:0:0:0:
64,192,216694,1,0,0:0:0:0:
192,192,216694,1,8,0:0:0:0:
448,192,216694,1,0,0:0:0:0:
64,192,216967,1,0,0:0:0:0:
192,192,217103,1,0,0:0:0:0:
320,192,217239,1,8,0:0:0:0:
64,192,217239,1,0,0:0:0:0:
448,192,217239,1,0,0:0:0:0:
192,192,217376,1,0,0:0:0:0:
320,192,217512,1,0,0:0:0:0:
192,192,217648,1,0,0:0:0:0:
64,192,217785,1,0,0:0:0:0:
448,192,217785,1,0,0:0:0:0:
320,192,217785,1,8,0:0:0:0:
192,192,217921,1,0,0:0:0:0:
64,192,218058,1,0,0:0:0:0:
192,192,218194,1,0,0:0:0:0:
64,192,218330,1,0,0:0:0:0:
320,192,218330,1,4,0:0:0:0:
448,192,218330,1,0,0:0:0:0:
192,192,218467,1,0,0:0:0:0:
448,192,218603,1,0,0:0:0:0:
192,192,218739,1,0,0:0:0:0:
64,192,218876,1,8,0:0:0:0:
320,192,218876,1,0,0:0:0:0:
192,192,219012,1,0,0:0:0:0:
320,192,219148,1,0,0:0:0:0:
448,192,219285,1,0,0:0:0:0:
64,192,219421,1,0,0:0:0:0:
320,192,219421,1,4,0:0:0:0:
192,192,219421,1,4,0:0:0:0:
448,192,219558,1,0,0:0:0:0:
192,192,219694,1,0,0:0:0:0:
448,192,219830,1,0,0:0:0:0:
192,192,219967,1,8,0:0:0:0:
64,192,219967,1,0,0:0:0:0:
320,192,220103,1,0,0:0:0:0:
192,192,220239,1,0,0:0:0:0:
64,192,220376,1,0,0:0:0:0:
448,192,220512,128,0,220785:0:0:0:0:
320,192,220512,1,0,0:0:0:0:
64,192,220785,128,0,221058:0:0:0:0:
192,192,220785,1,0,0:0:0:0:
320,192,221058,128,0,221330:0:0:0:0:
448,192,221058,1,0,0:0:0:0:
64,192,221330,1,0,0:0:0:0:
192,192,221330,128,0,221603:0:0:0:0:
320,192,221603,128,0,221876:0:0:0:0:
448,192,221603,128,0,221876:0:0:0:0:
64,192,221876,1,0,0:0:0:0:
192,192,222012,1,0,0:0:0:0:
320,192,222148,1,0,0:0:0:0:
192,192,222285,1,0,0:0:0:0:
320,192,222421,1,0,0:0:0:0:
448,192,222558,1,0,0:0:0:0:
64,192,222694,1,0,0:0:0:0:
320,192,222694,1,4,0:0:0:0:
448,192,222830,1,0,0:0:0:0:
320,192,222967,1,0,0:0:0:0:
192,192,223103,1,0,0:0:0:0:
448,192,223239,1,0,0:0:0:0:
64,192,223239,1,0,0:0:0:0:
320,192,223239,1,8,0:0:0:0:
192,192,223376,1,0,0:0:0:0:
320,192,223512,1,0,0:0:0:0:
448,192,223648,1,0,0:0:0:0:
192,192,223785,1,4,0:0:0:0:
64,192,223785,1,0,0:0:0:0:
320,192,223921,1,0,0:0:0:0:
192,192,224058,1,0,0:0:0:0:
320,192,224194,1,0,0:0:0:0:
192,192,224330,1,8,0:0:0:0:
448,192,224330,1,0,0:0:0:0:
64,192,224467,1,0,0:0:0:0:
192,192,224603,1,0,0:0:0:0:
320,192,224739,1,0,0:0:0:0:
192,192,224876,1,0,0:0:0:0:
448,192,224876,1,0,0:0:0:0:
64,192,224876,1,4,0:0:0:0:
64,192,225148,128,0,225421:0:0:0:0:
320,192,225148,1,0,0:0:0:0:
448,192,225421,1,8,0:0:0:0:
192,192,225421,1,0,0:0:0:0:
192,192,225694,1,0,0:0:0:0:
64,192,225694,1,0,0:0:0:0:
320,192,225830,1,0,0:0:0:0:
64,192,225967,1,0,0:0:0:0:
448,192,225967,1,4,0:0:0:0:
192,192,226103,1,0,0:0:0:0:
320,192,226239,1,0,0:0:0:0:
64,192,226376,1,0,0:0:0:0:
448,192,226376,1,0,0:0:0:0:
192,192,226512,1,0,0:0:0:0:
320,192,226512,1,0,0:0:0:0:
64,192,226648,1,0,0:0:0:0:
192,192,226785,1,0,0:0:0:0:
320,192,226921,1,0,0:0:0:0:
64,192,227058,1,2,0:0:0:0:
320,192,227058,1,0,0:0:0:0:
448,192,227058,1,4,0:0:0:0:
192,192,227194,1,0,0:0:0:0:
64,192,227330,1,2,0:0:0:0:
320,192,227330,1,0,0:0:0:0:
192,192,227467,1,0,0:0:0:0:
64,192,227603,1,2,0:0:0:0:
320,192,227603,1,0,0:0:0:0:
448,192,227739,1,0,0:0:0:0:
192,192,227876,1,0,0:0:0:0:
320,192,228012,1,0,0:0:0:0:
64,192,228148,1,0,0:0:0:0:
448,192,228148,1,0,0:0:0:0:
192,192,228148,1,2,0:0:0:0:
320,192,228285,1,0,0:0:0:0:
64,192,228421,1,0,0:0:0:0:
448,192,228421,1,0,0:0:0:0:
192,192,228421,1,2,0:0:0:0:
320,192,228558,1,0,0:0:0:0:
64,192,228694,1,0,0:0:0:0:
448,192,228694,1,0,0:0:0:0:
192,192,228694,1,2,0:0:0:0:
320,192,228830,1,0,0:0:0:0:
448,192,228967,128,2,229239:0:0:0:0:
64,192,228967,128,2,229239:0:0:0:0:
192,192,229239,1,0,0:0:0:0:
320,192,229376,1,0,0:0:0:0:
448,192,229512,1,0,0:0:0:0:
192,192,229648,1,0,0:0:0:0:
448,192,229785,128,8,230058:0:0:0:0:
64,192,229785,128,8,230058:0:0:0:0:
192,192,230058,1,0,0:0:0:0:
320,192,230194,1,0,0:0:0:0:
64,192,230194,1,0,0:0:0:0:
448,192,230330,1,0,0:0:0:0:
320,192,230330,1,0,0:0:0:0:
64,192,230467,1,0,0:0:0:0:
192,192,230467,1,0,0:0:0:0:
64,192,230603,1,0,0:0:0:0:
448,192,230603,1,0,0:0:0:0:
320,192,230603,1,0,0:0:0:0:
448,192,230739,1,0,0:0:0:0:
192,192,230739,1,0,0:0:0:0:
64,192,230739,1,0,0:0:0:0:
192,192,230876,128,10,231421:0:0:0:0:
448,192,230876,128,2,231421:0:0:0:0:
320,192,230876,128,2,231421:0:0:0:0:
