osu file format v14

[General]
AudioFilename: audio.mp3
AudioLeadIn: 0
PreviewTime: 42667
Countdown: 0
SampleSet: Normal
StackLeniency: 0.7
Mode: 1
LetterboxInBreaks: 0
WidescreenStoryboard: 1

[Editor]
DistanceSpacing: 1.1
BeatDivisor: 16
GridSize: 32
TimelineZoom: 2.2

[Metadata]
Title:Cinderella
TitleUnicode:シンデレラ
Artist:DECO*27
ArtistUnicode:DECO*27
Creator:sobatsuyu
Version:Oni
Source:
Tags:deco27 初音ミク hatsune miku vocaloid japanese pop jpop j-pop Rockwell mannequin chromoxx
BeatmapID:3529971
BeatmapSetID:1548431

[Difficulty]
HPDrainRate:5
CircleSize:5
OverallDifficulty:5.5
ApproachRate:5
SliderMultiplier:1.4
SliderTickRate:1

[Events]
//Background and Video events
0,0,"5.jpg",0,0
//Break Periods
//Storyboard Layer 0 (Background)
//Storyboard Layer 1 (Fail)
//Storyboard Layer 2 (Pass)
//Storyboard Layer 3 (Foreground)
//Storyboard Layer 4 (Overlay)
//Storyboard Sound Samples

[TimingPoints]
409,379.746835443038,4,1,0,60,1,0
6461,-100,4,1,0,80,0,0
18613,-100,4,1,0,70,0,0
30765,-100,4,1,0,75,0,0
36840,-100,4,1,0,80,0,0
43320,-100,4,1,0,90,0,1
67244,-100,4,1,0,70,0,0
79776,-100,4,1,0,90,0,1
91548,-100,4,1,0,60,0,0
97624,-100,4,1,0,80,0,0
103700,-100,4,1,0,70,0,0
109776,-100,4,1,0,85,0,0
117750,-100,4,1,0,90,0,1
152307,-100,4,1,0,90,0,0

[HitObjects]
256,192,409,5,4,0:0:0:0:
256,192,1168,1,4,0:0:0:0:
256,192,1927,1,4,0:0:0:0:
256,192,2687,1,4,0:0:0:0:
256,192,3446,1,4,0:0:0:0:
256,192,3636,1,4,0:0:0:0:
256,192,4206,1,4,0:0:0:0:
256,192,4396,1,4,0:0:0:0:
256,192,4776,1,4,0:0:0:0:
256,192,5155,1,0,0:0:0:0:
256,192,5345,1,0,0:0:0:0:
256,192,5535,1,0,0:0:0:0:
160,192,5630,1,0,0:0:0:0:
256,192,5725,1,8,0:0:0:0:
256,192,5915,1,8,0:0:0:0:
256,192,6105,1,12,0:0:0:0:
256,192,6484,5,4,0:0:0:0:
256,192,6864,1,8,0:0:0:0:
256,192,7054,1,8,0:0:0:0:
256,192,7244,1,0,0:0:0:0:
256,192,7434,1,0,0:0:0:0:
256,192,7529,1,0,0:0:0:0:
256,192,7624,1,8,0:0:0:0:
256,192,7814,1,8,0:0:0:0:
256,192,8003,1,0,0:0:0:0:
256,192,8193,1,8,0:0:0:0:
256,192,8288,1,0,0:0:0:0:
256,192,8383,1,8,0:0:0:0:
256,192,8573,1,8,0:0:0:0:
256,192,8763,1,0,0:0:0:0:
256,192,8953,1,12,0:0:0:0:
256,192,9143,1,12,0:0:0:0:
256,192,9522,1,4,0:0:0:0:
256,192,9902,1,8,0:0:0:0:
256,192,10092,1,8,0:0:0:0:
256,160,10282,1,0,0:0:0:0:
256,160,10472,1,0,0:0:0:0:
256,160,10567,1,0,0:0:0:0:
256,160,10662,1,8,0:0:0:0:
256,160,10852,1,8,0:0:0:0:
256,192,11041,1,0,0:0:0:0:
256,160,11231,1,8,0:0:0:0:
256,160,11326,1,8,0:0:0:0:
256,160,11421,1,0,0:0:0:0:
256,192,11611,1,8,0:0:0:0:
256,192,11801,1,0,0:0:0:0:
256,192,11991,1,12,0:0:0:0:
256,192,12181,1,12,0:0:0:0:
256,192,12560,5,4,0:0:0:0:
256,192,12940,1,8,0:0:0:0:
256,192,13130,1,8,0:0:0:0:
256,192,13320,1,0,0:0:0:0:
256,192,13510,1,0,0:0:0:0:
256,192,13605,1,0,0:0:0:0:
256,192,13700,1,8,0:0:0:0:
256,192,13890,1,8,0:0:0:0:
256,192,14079,1,0,0:0:0:0:
256,192,14269,1,8,0:0:0:0:
256,192,14364,1,0,0:0:0:0:
256,192,14459,1,8,0:0:0:0:
256,192,14649,1,8,0:0:0:0:
256,192,14839,1,0,0:0:0:0:
256,192,15029,1,12,0:0:0:0:
256,192,15219,1,12,0:0:0:0:
256,192,15598,1,4,0:0:0:0:
256,192,15978,1,8,0:0:0:0:
256,224,16168,1,8,0:0:0:0:
256,224,16358,1,0,0:0:0:0:
256,224,16548,1,8,0:0:0:0:
256,224,16643,1,8,0:0:0:0:
256,224,16738,1,0,0:0:0:0:
256,192,16927,1,8,0:0:0:0:
256,192,17117,1,0,0:0:0:0:
288,224,17307,1,8,0:0:0:0:
256,224,17402,1,0,0:0:0:0:
256,224,17497,1,8,0:0:0:0:
256,224,17687,1,0,0:0:0:0:
256,192,17877,1,8,0:0:0:0:
256,192,17972,1,8,0:0:0:0:
256,192,18067,1,0,0:0:0:0:
256,192,18257,1,12,0:0:0:0:
256,192,18636,5,0,0:0:0:0:
256,192,19016,1,0,0:0:0:0:
256,192,19396,1,0,0:0:0:0:
256,192,19776,1,0,0:0:0:0:
256,192,19965,1,8,0:0:0:0:
256,192,20155,1,0,0:0:0:0:
256,192,20535,1,0,0:0:0:0:
256,192,20915,1,0,0:0:0:0:
256,192,21105,1,0,0:0:0:0:
256,192,21295,1,8,0:0:0:0:
256,192,21484,1,8,0:0:0:0:
256,192,21674,1,0,0:0:0:0:
256,192,22054,1,0,0:0:0:0:
262,196,22244,1,8,0:0:0:0:
256,192,22434,1,0,0:0:0:0:
224,192,22814,1,0,0:0:0:0:
256,192,23003,1,8,0:0:0:0:
256,192,23193,1,0,0:0:0:0:
224,192,23383,1,0,0:0:0:0:
256,192,23573,1,8,0:0:0:0:
256,192,23953,1,0,0:0:0:0:
256,192,24143,1,0,0:0:0:0:
256,192,24333,1,8,0:0:0:0:
256,192,24712,5,0,0:0:0:0:
256,192,25092,1,0,0:0:0:0:
256,192,25472,1,0,0:0:0:0:
256,192,25662,1,0,0:0:0:0:
288,192,25757,1,0,0:0:0:0:
256,192,25852,1,0,0:0:0:0:
256,192,26041,1,8,0:0:0:0:
256,192,26231,1,0,0:0:0:0:
256,192,26611,1,0,0:0:0:0:
256,192,26991,1,0,0:0:0:0:
256,192,27181,1,0,0:0:0:0:
256,192,27276,1,0,0:0:0:0:
256,192,27371,1,0,0:0:0:0:
256,192,27560,1,8,0:0:0:0:
256,192,27750,1,0,0:0:0:0:
256,192,28130,1,0,0:0:0:0:
256,192,28320,1,8,0:0:0:0:
256,192,28510,1,0,0:0:0:0:
256,192,28700,1,0,0:0:0:0:
256,192,28890,1,8,0:0:0:0:
256,192,29079,1,8,0:0:0:0:
256,192,29269,1,0,0:0:0:0:
256,192,29459,1,8,0:0:0:0:
256,192,29554,1,8,0:0:0:0:
256,192,29649,1,0,0:0:0:0:
256,192,29839,1,8,0:0:0:0:
256,192,30029,1,0,0:0:0:0:
256,192,30124,1,0,0:0:0:0:
256,192,30219,1,0,0:0:0:0:
256,192,30409,1,8,0:0:0:0:
256,192,30788,5,0,0:0:0:0:
256,192,31168,1,8,0:0:0:0:
256,192,31548,1,0,0:0:0:0:
256,192,31833,1,0,0:0:0:0:
256,192,32117,1,0,0:0:0:0:
256,192,32307,1,0,0:0:0:0:
256,192,32402,1,0,0:0:0:0:
256,192,32497,1,0,0:0:0:0:
256,192,32687,1,8,0:0:0:0:
256,192,32972,1,0,0:0:0:0:
256,192,33067,1,8,0:0:0:0:
256,192,33257,1,8,0:0:0:0:
224,192,33352,1,8,0:0:0:0:
224,192,33446,1,0,0:0:0:0:
224,192,33636,1,0,0:0:0:0:
224,192,33826,1,0,0:0:0:0:
224,192,34206,1,8,0:0:0:0:
224,192,34586,1,0,0:0:0:0:
224,192,34871,1,0,0:0:0:0:
224,192,35155,1,0,0:0:0:0:
224,192,35345,1,0,0:0:0:0:
224,192,35440,1,0,0:0:0:0:
224,192,35535,1,0,0:0:0:0:
224,192,35725,1,0,0:0:0:0:
224,192,35915,1,8,0:0:0:0:
224,192,36010,1,8,0:0:0:0:
224,192,36105,1,0,0:0:0:0:
224,192,36295,1,0,0:0:0:0:
192,224,36484,1,8,0:0:0:0:
192,224,36674,1,8,0:0:0:0:
224,224,36864,5,4,0:0:0:0:
256,192,37244,1,8,0:0:0:0:
256,192,37624,1,8,0:0:0:0:
256,192,38003,1,8,0:0:0:0:
256,192,38098,1,8,0:0:0:0:
256,192,38193,1,8,0:0:0:0:
256,192,38383,1,4,0:0:0:0:
224,192,38763,1,8,0:0:0:0:
256,192,39143,1,8,0:0:0:0:
288,224,39522,1,8,0:0:0:0:
256,192,39617,1,8,0:0:0:0:
256,192,39712,1,8,0:0:0:0:
288,192,39902,1,4,0:0:0:0:
288,192,40282,1,8,0:0:0:0:
288,224,40472,1,8,0:0:0:0:
288,192,40662,1,4,0:0:0:0:
256,192,40852,1,8,0:0:0:0:
256,192,40946,1,8,0:0:0:0:
256,192,41041,1,8,0:0:0:0:
256,192,41231,1,8,0:0:0:0:
288,192,41421,1,4,0:0:0:0:
288,192,41801,1,4,0:0:0:0:
256,192,42181,1,0,0:0:0:0:
224,192,42276,1,0,0:0:0:0:
256,192,42371,1,0,0:0:0:0:
256,192,42465,1,0,0:0:0:0:
256,192,42560,1,8,0:0:0:0:
288,192,43320,5,12,0:0:0:0:
256,192,43700,1,8,0:0:0:0:
256,192,43890,1,0,0:0:0:0:
256,192,44079,1,8,0:0:0:0:
256,192,44269,1,8,0:0:0:0:
256,192,44364,1,8,0:0:0:0:
256,192,44459,1,0,0:0:0:0:
256,192,44649,1,0,0:0:0:0:
256,192,44839,1,8,0:0:0:0:
256,192,45029,1,0,0:0:0:0:
256,192,45124,1,0,0:0:0:0:
256,192,45219,1,8,0:0:0:0:
256,192,45409,1,0,0:0:0:0:
256,192,45598,1,8,0:0:0:0:
256,192,45978,1,4,0:0:0:0:
256,160,46358,1,0,0:0:0:0:
256,160,46548,1,8,0:0:0:0:
256,192,46738,1,0,0:0:0:0:
224,160,46833,1,8,0:0:0:0:
256,192,47022,1,8,0:0:0:0:
256,192,47117,1,0,0:0:0:0:
256,192,47307,1,8,0:0:0:0:
256,192,47497,1,0,0:0:0:0:
224,160,47877,1,8,0:0:0:0:
224,160,48067,1,0,0:0:0:0:
256,160,48257,1,8,0:0:0:0:
256,160,48446,1,8,0:0:0:0:
256,160,48541,1,8,0:0:0:0:
256,160,48636,1,8,0:0:0:0:
256,160,48826,1,8,0:0:0:0:
224,160,49016,5,4,0:0:0:0:
256,160,49396,1,8,0:0:0:0:
256,192,49776,1,8,0:0:0:0:
256,192,49965,1,0,0:0:0:0:
256,192,50155,1,8,0:0:0:0:
256,192,50345,1,0,0:0:0:0:
256,192,50440,1,8,0:0:0:0:
256,192,50535,1,0,0:0:0:0:
256,192,50725,1,0,0:0:0:0:
256,192,50915,1,8,0:0:0:0:
256,192,51105,1,8,0:0:0:0:
256,192,51200,1,8,0:0:0:0:
256,192,51295,1,0,0:0:0:0:
256,192,51484,1,0,0:0:0:0:
256,192,51674,1,8,0:0:0:0:
256,192,52054,1,4,0:0:0:0:
256,160,52434,1,0,0:0:0:0:
256,160,52624,1,8,0:0:0:0:
256,192,52814,1,0,0:0:0:0:
224,160,52909,1,8,0:0:0:0:
256,192,53098,1,8,0:0:0:0:
256,192,53193,1,0,0:0:0:0:
256,192,53383,1,8,0:0:0:0:
256,192,53573,1,0,0:0:0:0:
224,160,53953,1,8,0:0:0:0:
224,160,54143,1,0,0:0:0:0:
256,160,54333,1,8,0:0:0:0:
256,160,54522,1,8,0:0:0:0:
256,160,54617,1,0,0:0:0:0:
256,160,54712,1,8,0:0:0:0:
256,160,54902,1,8,0:0:0:0:
224,160,55092,5,4,0:0:0:0:
256,192,55377,1,8,0:0:0:0:
256,192,55472,1,0,0:0:0:0:
256,192,55662,1,8,0:0:0:0:
256,192,55852,1,0,0:0:0:0:
224,192,56041,1,8,0:0:0:0:
224,192,56136,1,8,0:0:0:0:
224,192,56231,1,8,0:0:0:0:
224,192,56421,1,8,0:0:0:0:
224,192,56611,1,0,0:0:0:0:
256,160,56991,1,0,0:0:0:0:
256,192,57181,1,0,0:0:0:0:
256,192,57276,1,0,0:0:0:0:
256,192,57371,1,8,0:0:0:0:
256,192,57560,1,12,0:0:0:0:
256,192,57940,1,12,0:0:0:0:
256,192,58130,1,0,0:0:0:0:
256,192,58415,1,0,0:0:0:0:
256,192,58510,1,8,0:0:0:0:
288,192,58700,1,0,0:0:0:0:
288,192,58890,1,8,0:0:0:0:
288,192,59079,1,0,0:0:0:0:
288,192,59174,1,0,0:0:0:0:
288,192,59269,1,8,0:0:0:0:
288,192,59459,1,8,0:0:0:0:
288,192,59649,1,0,0:0:0:0:
288,192,59839,1,8,0:0:0:0:
288,192,59934,1,8,0:0:0:0:
288,192,60029,1,0,0:0:0:0:
288,192,60219,1,8,0:0:0:0:
288,192,60409,1,0,0:0:0:0:
288,192,60598,1,12,0:0:0:0:
288,192,60788,1,12,0:0:0:0:
288,192,61168,5,4,0:0:0:0:
256,192,61453,1,8,0:0:0:0:
256,192,61548,1,0,0:0:0:0:
256,192,61738,1,8,0:0:0:0:
256,192,61927,1,0,0:0:0:0:
224,192,62117,1,8,0:0:0:0:
224,192,62212,1,8,0:0:0:0:
224,192,62307,1,8,0:0:0:0:
224,192,62497,1,8,0:0:0:0:
224,192,62687,1,0,0:0:0:0:
256,160,63067,1,0,0:0:0:0:
256,192,63257,1,8,0:0:0:0:
256,192,63352,1,8,0:0:0:0:
256,192,63446,1,0,0:0:0:0:
256,192,63636,1,12,0:0:0:0:
256,192,64016,1,12,0:0:0:0:
256,192,64206,5,4,0:0:0:0:
256,192,64396,1,4,0:0:0:0:
256,192,64965,1,4,0:0:0:0:
256,192,65155,1,4,0:0:0:0:
256,192,65535,1,4,0:0:0:0:
256,192,65915,1,0,0:0:0:0:
256,192,66105,1,0,0:0:0:0:
256,192,66295,1,0,0:0:0:0:
256,192,66390,1,0,0:0:0:0:
256,192,66484,1,8,0:0:0:0:
256,192,66674,1,8,0:0:0:0:
256,192,66864,1,12,0:0:0:0:
288,192,67244,5,0,0:0:0:0:
288,192,67529,1,0,0:0:0:0:
288,192,67624,1,8,0:0:0:0:
288,192,67814,1,0,0:0:0:0:
288,192,68003,1,8,0:0:0:0:
256,192,68288,1,8,0:0:0:0:
256,192,68383,1,0,0:0:0:0:
256,192,68573,1,8,0:0:0:0:
256,192,68763,1,0,0:0:0:0:
256,192,69048,1,0,0:0:0:0:
256,192,69143,1,8,0:0:0:0:
256,192,69333,1,0,0:0:0:0:
256,192,69522,1,8,0:0:0:0:
256,192,69712,1,0,0:0:0:0:
288,160,69807,1,0,0:0:0:0:
288,160,69902,1,8,0:0:0:0:
256,160,70092,1,8,0:0:0:0:
288,160,70282,1,0,0:0:0:0:
256,192,70662,1,0,0:0:0:0:
256,192,70852,1,8,0:0:0:0:
256,192,71041,1,0,0:0:0:0:
256,192,71231,1,8,0:0:0:0:
256,192,71326,1,8,0:0:0:0:
256,192,71421,1,0,0:0:0:0:
256,192,71611,1,8,0:0:0:0:
256,192,71801,1,0,0:0:0:0:
256,192,72181,1,0,0:0:0:0:
256,192,72371,1,8,0:0:0:0:
256,192,72560,1,0,0:0:0:0:
256,192,72750,1,0,0:0:0:0:
256,192,72845,1,0,0:0:0:0:
256,192,72940,1,8,0:0:0:0:
256,192,73130,1,8,0:0:0:0:
256,160,73320,5,0,0:0:0:0:
256,192,73605,1,8,0:0:0:0:
256,192,73700,1,8,0:0:0:0:
256,192,73890,1,8,0:0:0:0:
256,192,74079,1,0,0:0:0:0:
256,192,74364,1,8,0:0:0:0:
256,192,74459,1,8,0:0:0:0:
256,192,74649,1,8,0:0:0:0:
256,192,74839,1,0,0:0:0:0:
256,192,75124,1,8,0:0:0:0:
256,192,75219,1,0,0:0:0:0:
256,192,75409,1,8,0:0:0:0:
256,192,75598,1,0,0:0:0:0:
256,192,75788,1,8,0:0:0:0:
256,192,75883,1,8,0:0:0:0:
256,192,75978,1,8,0:0:0:0:
256,192,76168,1,8,0:0:0:0:
256,192,76358,1,0,0:0:0:0:
256,192,76738,1,8,0:0:0:0:
256,192,76927,1,8,0:0:0:0:
256,192,77117,1,0,0:0:0:0:
256,192,77307,1,0,0:0:0:0:
256,192,77402,1,8,0:0:0:0:
256,192,77497,1,0,0:0:0:0:
256,192,77687,1,8,0:0:0:0:
256,192,77877,1,0,0:0:0:0:
224,192,78067,1,8,0:0:0:0:
224,192,78162,1,8,0:0:0:0:
224,192,78257,1,0,0:0:0:0:
224,192,78446,1,8,0:0:0:0:
224,192,78636,1,0,0:0:0:0:
256,192,78731,1,0,0:0:0:0:
256,192,78826,1,0,0:0:0:0:
192,160,78921,1,0,0:0:0:0:
256,192,79016,1,8,0:0:0:0:
288,192,79776,5,12,0:0:0:0:
256,192,80155,1,8,0:0:0:0:
256,192,80345,1,0,0:0:0:0:
256,192,80535,1,8,0:0:0:0:
256,192,80725,1,8,0:0:0:0:
256,192,80820,1,8,0:0:0:0:
256,192,80915,1,0,0:0:0:0:
256,192,81105,1,0,0:0:0:0:
256,192,81295,1,8,0:0:0:0:
256,192,81484,1,0,0:0:0:0:
256,192,81579,1,8,0:0:0:0:
256,192,81674,1,0,0:0:0:0:
256,192,81864,1,0,0:0:0:0:
256,192,82054,1,8,0:0:0:0:
256,192,82434,1,4,0:0:0:0:
256,160,82814,1,0,0:0:0:0:
256,160,83003,1,8,0:0:0:0:
256,192,83193,1,0,0:0:0:0:
224,160,83288,1,8,0:0:0:0:
256,192,83478,1,8,0:0:0:0:
256,192,83573,1,0,0:0:0:0:
256,192,83763,1,8,0:0:0:0:
256,192,83953,1,0,0:0:0:0:
224,160,84333,1,8,0:0:0:0:
224,160,84522,1,0,0:0:0:0:
256,160,84712,1,8,0:0:0:0:
256,160,84902,1,8,0:0:0:0:
256,160,84997,1,0,0:0:0:0:
256,160,85092,1,8,0:0:0:0:
256,160,85282,1,8,0:0:0:0:
224,160,85472,5,4,0:0:0:0:
256,160,85852,1,8,0:0:0:0:
256,192,86231,1,8,0:0:0:0:
256,192,86421,1,0,0:0:0:0:
256,192,86611,1,8,0:0:0:0:
256,192,86801,1,0,0:0:0:0:
256,192,86896,1,0,0:0:0:0:
256,192,86991,1,8,0:0:0:0:
256,192,87181,1,0,0:0:0:0:
256,192,87371,1,8,0:0:0:0:
256,192,87560,1,8,0:0:0:0:
256,192,87655,1,8,0:0:0:0:
256,192,87750,1,0,0:0:0:0:
256,192,87940,1,0,0:0:0:0:
256,192,88130,1,8,0:0:0:0:
256,192,88510,1,4,0:0:0:0:
256,160,88890,1,0,0:0:0:0:
256,160,89079,1,8,0:0:0:0:
256,192,89269,1,0,0:0:0:0:
224,160,89364,1,8,0:0:0:0:
256,192,89554,1,8,0:0:0:0:
256,192,89649,1,0,0:0:0:0:
256,192,89839,1,8,0:0:0:0:
256,192,90029,1,0,0:0:0:0:
256,192,90219,1,0,0:0:0:0:
256,192,90314,1,0,0:0:0:0:
256,192,90409,1,8,0:0:0:0:
224,160,90598,1,0,0:0:0:0:
256,160,90788,1,8,0:0:0:0:
256,160,90978,1,8,0:0:0:0:
256,160,91073,1,0,0:0:0:0:
256,160,91168,1,8,0:0:0:0:
256,160,91358,1,8,0:0:0:0:
224,160,91548,5,4,0:0:0:0:
256,192,92117,1,0,0:0:0:0:
256,192,92307,1,8,0:0:0:0:
256,192,92687,1,8,0:0:0:0:
256,192,92877,1,0,0:0:0:0:
256,192,93067,1,0,0:0:0:0:
256,192,93636,1,0,0:0:0:0:
256,192,93826,1,8,0:0:0:0:
192,192,94206,1,8,0:0:0:0:
256,160,94586,1,0,0:0:0:0:
256,192,94965,1,8,0:0:0:0:
256,160,95155,1,0,0:0:0:0:
256,160,95345,1,8,0:0:0:0:
288,160,95725,1,0,0:0:0:0:
256,160,95915,1,8,0:0:0:0:
256,160,96105,1,0,0:0:0:0:
192,160,96484,1,0,0:0:0:0:
224,192,96674,1,8,0:0:0:0:
256,160,96864,1,8,0:0:0:0:
256,160,97054,1,0,0:0:0:0:
256,192,97244,1,8,0:0:0:0:
256,192,97624,1,4,0:0:0:0:
256,192,98003,1,4,0:0:0:0:
256,192,98383,1,4,0:0:0:0:
256,192,98763,1,4,0:0:0:0:
256,192,99143,1,0,0:0:0:0:
256,192,99333,1,0,0:0:0:0:
256,192,99522,1,8,0:0:0:0:
256,192,99712,1,8,0:0:0:0:
256,192,99807,1,8,0:0:0:0:
256,192,99902,1,0,0:0:0:0:
256,192,100092,1,0,0:0:0:0:
256,192,100187,1,0,0:0:0:0:
256,192,100282,1,8,0:0:0:0:
256,192,100662,1,4,0:0:0:0:
256,192,101041,1,4,0:0:0:0:
256,192,101421,1,4,0:0:0:0:
256,192,101801,1,4,0:0:0:0:
256,192,102181,12,0,103510,0:0:0:0:
256,192,103700,5,4,0:0:0:0:
256,192,103890,1,0,0:0:0:0:
256,192,104079,1,8,0:0:0:0:
256,192,104269,1,0,0:0:0:0:
256,192,104364,1,8,0:0:0:0:
256,192,104459,1,0,0:0:0:0:
256,192,104649,1,0,0:0:0:0:
256,192,104839,1,8,0:0:0:0:
256,192,105219,1,0,0:0:0:0:
256,192,105409,1,0,0:0:0:0:
256,192,105598,1,8,0:0:0:0:
256,192,105788,1,0,0:0:0:0:
256,192,105883,1,0,0:0:0:0:
256,192,105978,1,0,0:0:0:0:
256,192,106168,1,0,0:0:0:0:
256,192,106358,1,8,0:0:0:0:
256,192,106548,1,8,0:0:0:0:
256,192,106643,1,8,0:0:0:0:
256,192,106738,5,0,0:0:0:0:
256,192,106927,1,0,0:0:0:0:
256,192,107117,1,8,0:0:0:0:
256,224,107307,1,0,0:0:0:0:
256,224,107402,1,8,0:0:0:0:
256,224,107497,1,0,0:0:0:0:
256,224,107687,1,0,0:0:0:0:
256,192,107877,1,8,0:0:0:0:
256,192,108257,1,0,0:0:0:0:
256,192,108446,1,0,0:0:0:0:
256,192,108636,1,8,0:0:0:0:
256,192,108826,1,0,0:0:0:0:
256,192,109016,1,8,0:0:0:0:
256,192,109111,1,8,0:0:0:0:
256,192,109206,1,8,0:0:0:0:
256,192,109396,1,8,0:0:0:0:
256,192,109491,1,8,0:0:0:0:
288,192,109586,1,8,0:0:0:0:
256,192,109776,5,0,0:0:0:0:
256,192,110155,1,8,0:0:0:0:
256,192,110345,1,0,0:0:0:0:
256,192,110440,1,8,0:0:0:0:
256,192,110535,1,0,0:0:0:0:
256,192,110725,1,0,0:0:0:0:
256,192,110915,1,8,0:0:0:0:
256,192,111105,1,8,0:0:0:0:
256,192,111200,1,8,0:0:0:0:
256,192,111295,1,0,0:0:0:0:
256,192,111484,1,0,0:0:0:0:
256,192,111674,1,8,0:0:0:0:
256,192,111864,1,0,0:0:0:0:
256,192,112054,1,8,0:0:0:0:
256,192,112244,1,8,0:0:0:0:
256,192,112434,1,8,0:0:0:0:
256,192,112624,1,8,0:0:0:0:
256,192,112719,1,8,0:0:0:0:
256,192,112814,1,0,0:0:0:0:
256,192,113003,1,8,0:0:0:0:
256,192,113193,1,0,0:0:0:0:
256,192,113383,1,8,0:0:0:0:
256,192,113573,1,0,0:0:0:0:
256,160,113668,1,0,0:0:0:0:
256,160,113763,1,0,0:0:0:0:
256,160,113858,1,0,0:0:0:0:
256,192,113953,1,0,0:0:0:0:
256,192,114143,1,8,0:0:0:0:
256,160,114238,1,8,0:0:0:0:
256,160,115852,1,4,0:0:0:0:
256,192,116231,1,4,0:0:0:0:
256,192,116611,1,4,0:0:0:0:
256,192,116991,1,0,0:0:0:0:
256,192,117750,5,12,0:0:0:0:
256,192,117940,1,0,0:0:0:0:
256,192,118035,1,8,0:0:0:0:
256,192,118130,1,0,0:0:0:0:
256,192,118320,1,0,0:0:0:0:
256,192,118510,1,8,0:0:0:0:
256,192,118700,1,8,0:0:0:0:
256,192,118890,1,4,0:0:0:0:
256,160,119269,1,0,0:0:0:0:
256,160,119459,1,8,0:0:0:0:
256,192,119649,1,0,0:0:0:0:
224,160,119744,1,8,0:0:0:0:
256,192,119934,1,8,0:0:0:0:
256,192,120029,1,0,0:0:0:0:
256,192,120219,1,8,0:0:0:0:
256,192,120409,1,0,0:0:0:0:
224,160,120598,1,0,0:0:0:0:
224,160,120693,1,0,0:0:0:0:
256,192,120788,1,8,0:0:0:0:
224,160,120978,1,0,0:0:0:0:
256,160,121168,1,8,0:0:0:0:
256,192,121358,1,8,0:0:0:0:
256,160,121453,1,8,0:0:0:0:
256,160,121548,1,8,0:0:0:0:
256,160,121738,1,8,0:0:0:0:
224,160,121927,5,4,0:0:0:0:
256,160,122307,1,8,0:0:0:0:
256,192,122497,1,0,0:0:0:0:
256,192,122592,1,0,0:0:0:0:
256,192,122687,1,8,0:0:0:0:
256,192,122877,1,0,0:0:0:0:
256,192,123067,1,8,0:0:0:0:
256,192,123257,1,0,0:0:0:0:
256,192,123352,1,8,0:0:0:0:
256,192,123446,1,0,0:0:0:0:
256,192,123636,1,0,0:0:0:0:
256,192,123826,1,8,0:0:0:0:
256,192,124016,1,8,0:0:0:0:
256,192,124111,1,8,0:0:0:0:
256,192,124206,1,0,0:0:0:0:
256,192,124396,1,0,0:0:0:0:
256,192,124586,1,8,0:0:0:0:
256,192,124965,1,4,0:0:0:0:
256,160,125345,1,0,0:0:0:0:
256,160,125535,1,8,0:0:0:0:
256,192,125725,1,0,0:0:0:0:
256,192,125820,1,8,0:0:0:0:
256,192,126010,1,8,0:0:0:0:
256,192,126105,1,0,0:0:0:0:
256,192,126295,1,8,0:0:0:0:
256,192,126484,1,0,0:0:0:0:
224,160,126674,1,0,0:0:0:0:
224,160,126769,1,0,0:0:0:0:
224,160,126864,1,8,0:0:0:0:
224,160,127054,1,0,0:0:0:0:
256,160,127244,1,8,0:0:0:0:
256,160,127434,1,8,0:0:0:0:
224,192,127529,1,8,0:0:0:0:
256,160,127624,1,0,0:0:0:0:
256,160,127719,1,0,0:0:0:0:
256,160,127814,1,8,0:0:0:0:
224,160,128003,5,4,0:0:0:0:
256,192,128288,1,8,0:0:0:0:
256,192,128383,1,0,0:0:0:0:
256,192,128573,1,8,0:0:0:0:
256,192,128763,1,0,0:0:0:0:
224,192,128953,1,8,0:0:0:0:
224,192,129048,1,8,0:0:0:0:
224,192,129143,1,8,0:0:0:0:
224,192,129333,1,8,0:0:0:0:
224,192,129522,1,0,0:0:0:0:
256,160,129902,1,0,0:0:0:0:
256,160,130092,1,0,0:0:0:0:
256,192,130187,1,0,0:0:0:0:
256,192,130282,1,8,0:0:0:0:
256,192,130472,1,12,0:0:0:0:
256,192,130852,1,12,0:0:0:0:
256,192,131041,1,0,0:0:0:0:
256,192,131326,1,0,0:0:0:0:
256,192,131421,1,8,0:0:0:0:
288,192,131611,1,8,0:0:0:0:
288,192,131801,1,0,0:0:0:0:
256,192,131991,1,8,0:0:0:0:
288,192,132086,1,8,0:0:0:0:
256,192,132181,1,0,0:0:0:0:
288,192,132371,1,8,0:0:0:0:
288,192,132560,1,0,0:0:0:0:
288,192,132750,1,0,0:0:0:0:
288,192,132845,1,0,0:0:0:0:
288,192,132940,1,8,0:0:0:0:
256,192,133035,1,8,0:0:0:0:
288,192,133130,1,0,0:0:0:0:
288,192,133320,1,0,0:0:0:0:
288,192,133510,1,12,0:0:0:0:
288,192,133700,1,12,0:0:0:0:
288,192,134079,5,4,0:0:0:0:
256,192,134364,1,8,0:0:0:0:
256,192,134459,1,0,0:0:0:0:
256,192,134649,1,8,0:0:0:0:
256,192,134839,1,0,0:0:0:0:
224,192,135029,1,8,0:0:0:0:
224,192,135124,1,8,0:0:0:0:
224,192,135219,1,8,0:0:0:0:
224,192,135409,1,8,0:0:0:0:
224,192,135598,1,0,0:0:0:0:
256,160,135978,1,0,0:0:0:0:
256,192,136168,1,8,0:0:0:0:
256,192,136263,1,8,0:0:0:0:
256,192,136358,1,0,0:0:0:0:
256,192,136548,1,12,0:0:0:0:
256,192,136927,1,12,0:0:0:0:
256,192,137117,1,0,0:0:0:0:
256,192,137402,1,0,0:0:0:0:
256,192,137497,1,8,0:0:0:0:
288,192,137687,1,0,0:0:0:0:
288,192,137877,1,8,0:0:0:0:
288,192,138067,1,8,0:0:0:0:
288,192,138162,1,8,0:0:0:0:
256,192,138257,1,0,0:0:0:0:
256,192,138446,1,8,0:0:0:0:
288,192,138636,1,0,0:0:0:0:
288,192,138826,1,8,0:0:0:0:
288,192,138921,1,8,0:0:0:0:
288,192,139016,1,0,0:0:0:0:
256,192,139111,1,0,0:0:0:0:
288,192,139206,1,8,0:0:0:0:
288,192,139396,1,0,0:0:0:0:
288,192,139586,1,12,0:0:0:0:
288,192,139776,1,12,0:0:0:0:
288,192,140155,5,4,0:0:0:0:
256,192,140440,1,8,0:0:0:0:
256,192,140535,1,0,0:0:0:0:
256,192,140725,1,8,0:0:0:0:
256,192,140915,1,0,0:0:0:0:
224,192,141105,1,8,0:0:0:0:
224,192,141200,1,0,0:0:0:0:
224,192,141295,1,8,0:0:0:0:
224,192,141484,1,8,0:0:0:0:
224,192,141674,1,0,0:0:0:0:
256,160,142054,1,0,0:0:0:0:
256,192,142244,1,0,0:0:0:0:
256,192,142339,1,8,0:0:0:0:
256,192,142434,1,0,0:0:0:0:
256,192,142624,1,12,0:0:0:0:
256,192,143003,1,12,0:0:0:0:
256,192,143193,1,0,0:0:0:0:
256,192,143478,1,0,0:0:0:0:
256,192,143573,1,8,0:0:0:0:
256,192,143763,1,0,0:0:0:0:
288,192,143953,1,8,0:0:0:0:
288,192,144143,1,0,0:0:0:0:
288,192,144238,1,0,0:0:0:0:
288,192,144333,1,8,0:0:0:0:
288,192,144522,1,8,0:0:0:0:
288,192,144712,1,0,0:0:0:0:
288,192,144902,1,8,0:0:0:0:
288,192,144997,1,8,0:0:0:0:
288,192,145092,1,0,0:0:0:0:
256,192,145187,1,0,0:0:0:0:
288,192,145282,1,8,0:0:0:0:
288,192,145472,1,0,0:0:0:0:
288,192,145662,1,12,0:0:0:0:
288,192,145852,1,12,0:0:0:0:
256,192,146231,5,4,0:0:0:0:
256,192,146516,1,8,0:0:0:0:
256,192,146611,1,0,0:0:0:0:
256,192,146801,1,8,0:0:0:0:
256,192,146991,1,0,0:0:0:0:
224,192,147181,1,8,0:0:0:0:
224,192,147276,1,8,0:0:0:0:
224,192,147371,1,8,0:0:0:0:
224,192,147560,1,8,0:0:0:0:
224,192,147750,1,0,0:0:0:0:
256,160,148130,1,0,0:0:0:0:
256,192,148320,1,0,0:0:0:0:
256,192,148415,1,8,0:0:0:0:
256,192,148510,1,0,0:0:0:0:
256,192,148700,1,12,0:0:0:0:
256,192,149079,1,12,0:0:0:0:
256,192,149269,1,4,0:0:0:0:
256,192,149459,1,4,0:0:0:0:
256,192,150029,1,4,0:0:0:0:
256,192,150219,1,4,0:0:0:0:
256,192,150598,1,4,0:0:0:0:
256,192,150978,1,0,0:0:0:0:
256,192,151168,1,0,0:0:0:0:
256,192,151358,1,0,0:0:0:0:
256,192,151453,1,0,0:0:0:0:
256,192,151548,1,8,0:0:0:0:
256,192,151738,1,8,0:0:0:0:
256,192,151927,1,12,0:0:0:0:
