osu file format v14

[General]
AudioFilename: audio.mp3
AudioLeadIn: 0
PreviewTime: 45345
Countdown: 0
SampleSet: Soft
StackLeniency: 0.7
Mode: 0
LetterboxInBreaks: 0
WidescreenStoryboard: 1

[Editor]
DistanceSpacing: 0.7
BeatDivisor: 4
GridSize: 16
TimelineZoom: 1.9

[Metadata]
Title:Chimera feat. Hatsune Miku
TitleUnicode:キメラ feat. 初音ミク
Artist:DECO*27
ArtistUnicode:DECO*27
Creator:Pho
Version:Normal
Source:
Tags:vocaloid 日本テレビ「ズームイン!!サタデー」 テーマソング nihon tv zoom in saturday theme song Rockwell 八三 83 hachisan OTOIRO DMYM yuka fujii Shimpei Oniki Iori Majima Yusuke Sato rock japanese Hokichi
BeatmapID:3551363
BeatmapSetID:1735531

[Difficulty]
HPDrainRate:4
CircleSize:3.5
OverallDifficulty:5
ApproachRate:6.5
SliderMultiplier:1.2
SliderTickRate:1

[Events]
//Background and Video events
0,0,"bg.jpg",0,0
//Break Periods
2,14126,15216
2,43560,44366
2,108938,110310
2,123738,125593
//Storyboard Layer 0 (Background)
//Storyboard Layer 1 (Fail)
//Storyboard Layer 2 (Pass)
//Storyboard Layer 3 (Foreground)
//Storyboard Layer 4 (Overlay)
//Storyboard Sound Samples

[TimingPoints]
342,283.018867924528,4,2,1,40,1,0
342,-111.111111111111,4,2,1,40,0,0
2818,-111.111111111111,4,2,1,5,0,0
2889,-111.111111111111,4,2,1,40,0,0
3879,-100,4,2,1,40,0,0
4304,-100,4,2,1,50,0,0
4587,-83.3333333333333,4,2,1,50,0,0
5011,-100,4,2,1,60,0,0
13360,-100,4,2,1,70,0,0
13926,-111.111111111111,4,2,1,40,0,0
16191,-111.111111111111,4,2,1,40,0,0
16403,-111.111111111111,4,2,1,5,0,0
16474,-111.111111111111,4,2,2,40,0,0
18455,-100,4,2,2,40,0,0
18667,-100,4,2,2,5,0,0
18738,-111.111111111111,4,2,2,40,0,0
20648,-111.111111111111,4,2,2,5,0,0
20719,-100,4,2,2,40,0,0
20931,-100,4,2,2,5,0,0
21002,-111.111111111111,4,2,2,40,0,0
22983,-111.111111111111,4,2,2,40,0,0
24115,-111.111111111111,4,2,1,60,0,0
24893,-111.111111111111,4,2,1,60,0,0
25247,-100,4,2,1,60,0,0
26591,-100,4,2,1,5,0,0
26662,-100,4,2,1,60,0,0
27724,-100,4,2,1,5,0,0
27794,-100,4,2,1,60,0,0
28856,-100,4,2,1,5,0,0
28926,-100,4,2,1,60,0,0
29139,-100,4,2,1,5,0,0
29209,-100,4,2,1,60,0,0
29422,-100,4,2,1,5,0,0
29492,-100,4,2,1,60,0,0
34304,-111.111111111111,4,2,1,50,0,0
35648,-111.111111111111,4,2,1,5,0,0
35719,-111.111111111111,4,2,1,50,0,0
40176,-111.111111111111,4,2,1,5,0,0
40247,-111.111111111111,4,2,1,50,0,0
41096,-111.111111111111,4,2,1,50,0,0
42794,-100,4,2,1,50,0,0
43219,-100,4,2,1,50,0,0
45200,-100,4,2,1,5,0,0
45341,-200,4,2,1,50,0,0
45554,-200,4,2,1,5,0,0
45625,-95.2380952380952,4,2,1,70,0,0
46827,-95.2380952380952,4,2,1,5,0,0
46898,-95.2380952380952,4,2,1,70,0,0
49091,-95.2380952380952,4,2,1,5,0,0
49162,-95.2380952380952,4,2,1,70,0,0
53620,-95.2380952380952,4,2,1,5,0,0
53691,-95.2380952380952,4,2,1,70,0,0
55742,-95.2380952380952,4,2,1,5,0,0
55813,-95.2380952380952,4,2,1,70,0,0
60271,-95.2380952380952,4,2,1,5,0,0
60341,-95.2380952380952,4,2,1,70,0,0
62606,-111.111111111111,4,2,1,40,0,0
63879,-100,4,2,1,60,0,0
65931,-100,4,2,1,5,0,0
66002,-100,4,2,1,60,0,0
68266,-111.111111111111,4,2,1,50,0,0
70389,-111.111111111111,4,2,1,70,0,0
70530,-111.111111111111,4,2,1,30,0,0
72794,-111.111111111111,4,2,2,45,0,0
79799,-111.111111111111,4,2,2,5,0,0
79870,-111.111111111111,4,2,2,40,0,0
80719,-111.111111111111,4,2,2,40,0,0
80860,-111.111111111111,4,2,2,40,0,0
81002,-111.111111111111,4,2,2,40,0,0
81143,-111.111111111111,4,2,2,40,0,0
81285,-111.111111111111,4,2,2,40,0,0
81851,-100,4,2,1,50,0,0
85247,-100,4,2,1,50,0,0
85459,-100,4,2,1,5,0,0
85530,-100,4,2,1,50,0,0
85742,-100,4,2,1,5,0,0
85813,-100,4,2,1,50,0,0
86025,-100,4,2,1,5,0,0
86096,-100,4,2,1,50,0,0
86521,-100,4,2,1,50,0,0
89775,-100,4,2,1,40,0,0
89988,-100,4,2,1,5,0,0
90058,-100,4,2,1,40,0,0
90271,-100,4,2,1,5,0,0
90341,-100,4,2,1,40,0,0
90483,-83.3333333333333,4,2,1,50,0,0
90908,-95.2380952380952,4,2,1,70,0,0
92110,-95.2380952380952,4,2,1,5,0,0
92181,-95.2380952380952,4,2,1,70,0,0
94375,-95.2380952380952,4,2,1,5,0,0
94445,-95.2380952380952,4,2,1,70,0,0
95931,-95.2380952380952,4,2,1,5,0,0
96002,-95.2380952380952,4,2,1,70,0,0
98903,-95.2380952380952,4,2,1,5,0,0
98974,-95.2380952380952,4,2,1,70,0,0
101025,-95.2380952380952,4,2,1,5,0,0
101096,-95.2380952380952,4,2,1,70,0,0
102441,-95.2380952380952,4,2,1,5,0,0
102511,-95.2380952380952,4,2,1,70,0,0
105554,-95.2380952380952,4,2,1,5,0,0
105625,-95.2380952380952,4,2,1,70,0,0
106969,-95.2380952380952,4,2,1,5,0,0
107040,-95.2380952380952,4,2,1,70,0,0
107889,-111.111111111111,4,2,1,40,0,0
109021,-111.111111111111,4,2,1,50,0,0
109233,-111.111111111111,4,2,1,5,0,0
109304,-111.111111111111,4,2,1,40,0,0
111285,-111.111111111111,4,2,1,50,0,0
111497,-111.111111111111,4,2,1,5,0,0
111568,-111.111111111111,4,2,1,50,0,0
112558,-111.111111111111,4,2,1,55,0,0
112983,-100,4,2,1,60,0,0
113549,-100,4,2,1,60,0,0
113761,-100,4,2,1,5,0,0
113832,-100,4,2,1,60,0,0
114044,-100,4,2,1,5,0,0
114115,-100,4,2,1,60,0,0
114327,-100,4,2,1,5,0,0
114398,-100,4,2,1,60,0,0
114893,-100,4,2,1,5,0,0
114964,-100,4,2,1,60,0,0
117511,-153.846153846153,4,2,1,30,0,0
118077,-100,4,2,1,60,0,0
118290,-100,4,2,1,5,0,0
118360,-100,4,2,1,60,0,0
118573,-100,4,2,1,5,0,0
118643,-100,4,2,1,60,0,0
118856,-100,4,2,1,5,0,0
118926,-100,4,2,1,60,0,0
119422,-100,4,2,1,5,0,0
119492,-100,4,2,1,60,0,0
121332,-83.3333333333333,4,2,1,70,0,0
121544,-83.3333333333333,4,2,1,5,0,0
121615,-100,4,2,1,70,0,0
122040,-83.3333333333333,4,2,1,70,0,0
122606,-100,4,2,1,30,0,0
126426,-111.111111111111,4,2,1,50,0,0
126922,-111.111111111111,4,2,1,5,0,0
126992,-111.111111111111,4,2,1,50,0,0
127134,-111.111111111111,4,2,1,50,0,0
127700,-111.111111111111,4,2,1,50,0,0
127912,-111.111111111111,4,2,1,5,0,0
127983,-111.111111111111,4,2,1,50,0,0
128266,-111.111111111111,4,2,1,50,0,0
129398,-111.111111111111,4,2,1,50,0,0
129610,-111.111111111111,4,2,1,5,0,0
129681,-111.111111111111,4,2,1,50,0,0
130389,-111.111111111111,4,2,1,55,0,0
130742,-111.111111111111,4,2,1,5,0,0
130813,-111.111111111111,4,2,1,60,0,0
131025,-111.111111111111,4,2,1,5,0,0
131096,-111.111111111111,4,2,1,65,0,0
131308,-111.111111111111,4,2,1,5,0,0
131379,-111.111111111111,4,2,1,55,0,0
132228,-111.111111111111,4,2,1,20,0,0
132511,-111.111111111111,4,2,1,50,0,0
132724,-111.111111111111,4,2,1,5,0,0
132794,-90.9090909090909,4,2,1,70,0,0
133997,-90.9090909090909,4,2,1,5,0,0
134068,-90.9090909090909,4,2,1,70,0,0
138525,-90.9090909090909,4,2,1,5,0,0
138596,-90.9090909090909,4,2,1,70,0,0
139799,-90.9090909090909,4,2,1,5,0,0
139870,-90.9090909090909,4,2,1,70,0,0
140790,-90.9090909090909,4,2,1,5,0,0
140860,-90.9090909090909,4,2,1,70,0,0
142912,-90.9090909090909,4,2,1,5,0,0
142983,-90.9090909090909,4,2,1,70,0,0
143620,-90.9090909090909,4,2,1,5,0,0
143691,-90.9090909090909,4,2,1,70,0,0
147441,-90.9090909090909,4,2,1,5,0,0
147511,-90.9090909090909,4,2,1,70,0,0
148148,-90.9090909090909,4,2,1,5,0,0
148219,-90.9090909090909,4,2,1,70,0,0
150837,-90.9090909090909,4,2,1,5,0,0
150908,-90.9090909090909,4,2,1,75,0,0
155436,-90.9090909090909,4,2,1,80,0,0
157700,-90.9090909090909,4,2,1,50,0,0
157983,-90.9090909090909,4,2,1,60,0,0
158266,-90.9090909090909,4,2,1,70,0,0
158549,-90.9090909090909,4,2,1,80,0,0
158832,-100,4,2,1,60,0,0
159115,-100,4,2,1,60,0,0
159964,-111.111111111111,4,2,1,40,0,0
160176,-111.111111111111,4,2,1,5,0,0
160247,-111.111111111111,4,2,1,30,0,0
160459,-111.111111111111,4,2,1,5,0,0
160530,-111.111111111111,4,2,1,30,0,0
160742,-111.111111111111,4,2,1,5,0,0
160813,-111.111111111111,4,2,1,30,0,0
161025,-111.111111111111,4,2,1,5,0,0
161096,-111.111111111111,4,2,1,30,0,0
162511,-111.111111111111,4,2,1,30,0,0
164492,-111.111111111111,4,2,1,5,0,0

[Colours]
Combo1 : 160,64,219
Combo2 : 252,12,96
Combo3 : 253,236,176
Combo4 : 95,192,136
Combo5 : 80,107,239
Combo6 : 52,211,204

[HitObjects]
91,42,342,6,0,P|130:39|224:121,1,161.999995056153,2|2,0:0|0:0,0:0:0:0:
273,229,1191,1,2,0:0:0:0:
341,176,1474,2,0,P|341:123|403:20,1,161.999995056153,2|2,0:0|0:0,0:0:0:0:
475,128,2323,1,2,0:0:0:0:
432,203,2606,6,0,P|381:199|274:246,2,161.999995056153,2|2|2,0:0|0:0|0:0,0:0:0:0:
482,273,3738,1,0,0:0:0:0:
432,341,4021,1,2,0:0:0:0:
432,341,4304,2,0,L|360:363,1,60,0|0,0:0|3:0,0:0:0:0:
321,335,4587,2,0,L|235:363,1,71.9999978027344,8|0,0:0|0:0,0:0:0:0:
121,350,5011,6,0,P|91:298|109:234,1,120,6|0,0:3|0:0,0:0:0:0:
142,213,5436,2,0,P|178:179|179:98,1,120,14|2,0:0|3:0,0:0:0:0:
162,69,5860,1,14,0:0:0:0:
71,35,6143,2,0,B|33:84|33:84|53:142,1,120,2|0,3:0|3:0,0:0:0:0:
71,182,6568,1,2,3:0:0:0:
12,258,6851,1,8,0:0:0:0:
84,329,7134,5,2,3:0:0:0:
84,329,7275,2,0,L|211:300,1,120,12|2,0:0|3:0,0:0:0:0:
229,341,7700,2,0,L|353:362,1,120,12|2,0:0|0:3,0:0:0:0:
381,327,8125,1,12,0:0:0:0:
476,320,8408,2,0,P|447:260|446:188,1,120,2|0,3:0|0:0,0:0:0:0:
469,167,8832,2,0,L|395:146,1,60,10|8,0:3|0:0,0:0:0:0:
387,108,9115,2,0,L|313:136,1,60,8|8,0:0|0:0,0:0:0:0:
304,169,9398,5,2,0:3:0:0:
228,262,9681,2,0,P|186:226|155:168,1,120,4|8,0:0|0:0,0:0:0:0:
176,125,10106,1,0,0:0:0:0:
176,125,10247,2,0,P|216:96|245:89,1,60,10|0,0:3|0:0,0:0:0:0:
241,47,10530,2,0,P|285:52|314:75,1,60,8|2,0:0|0:3,0:0:0:0:
340,37,10813,2,0,P|368:62|390:99,2,60,8|0|14,0:0|3:0|0:3,0:0:0:0:
294,148,11379,1,8,0:0:0:0:
425,192,11662,6,0,P|394:244|397:324,1,120,6|8,0:3|0:0,0:0:0:0:
367,346,12087,1,2,3:3:0:0:
367,346,12228,2,0,L|297:336,2,60,8|0|10,3:2|3:0|0:3,0:0:0:0:
459,371,12794,1,8,0:0:0:0:
500,284,13077,1,12,0:0:0:0:
410,249,13360,2,0,P|362:237|314:178,1,120,10|8,0:3|0:0,0:0:0:0:
302,139,13785,1,8,0:0:0:0:
302,139,13926,1,2,0:3:0:0:
296,164,16191,6,0,L|186:189,1,107.999996704102,4|8,3:2|0:0,0:0:0:0:
134,253,16757,1,0,0:0:0:0:
53,230,17040,2,0,B|70:177,1,53.9999983520508,8|0,0:0|3:0,0:0:0:0:
75,149,17323,2,0,P|41:106|45:32,1,107.999996704102,0|10,0:0|0:0,0:0:0:0:
123,58,17889,2,0,L|150:117,2,53.9999983520508,0|2|8,0:0|3:2|0:0,0:0:0:0:
242,59,18455,6,0,B|288:99|288:99|357:113,1,120,2|8,3:2|0:0,0:0:0:0:
412,56,19021,1,0,0:0:0:0:
483,104,19304,2,0,L|460:170,1,53.9999983520508,8|0,0:0|0:0,0:0:0:0:
424,176,19587,2,0,P|384:210|422:355,1,215.999993408203,0|0,3:0|0:0,0:0:0:0:
456,365,20294,1,0,3:0:0:0:
498,355,20436,1,8,0:0:0:0:
489,234,20719,6,0,L|352:268,1,120,2|8,3:2|0:0,0:0:0:0:
303,211,21285,2,0,P|276:235|253:311,1,107.999996704102,0|8,0:0|0:0,0:0:0:0:
276,337,21709,2,0,P|231:367|157:357,1,107.999996704102,0|0,3:0|3:0,0:0:0:0:
136,359,22134,1,8,0:0:0:0:
169,279,22417,1,0,0:0:0:0:
108,217,22700,1,8,0:0:0:0:
25,243,22983,6,0,B|35:279|35:279|64:311,2,80.9999975280763,2|0|0,3:2|0:0|0:0,0:0:0:0:
12,201,23549,2,0,P|43:170|47:92,1,107.999996704102,2|10,0:0|0:0,0:0:0:0:
65,22,24115,5,0,3:0:0:0:
65,22,24398,1,0,3:0:0:0:
65,22,24681,2,0,L|181:48,1,107.999996704102,0|0,3:0|3:0,0:0:0:0:
255,123,25247,6,0,L|272:265,1,120,4|8,0:0|0:0,0:0:0:0:
279,337,25813,1,0,3:0:0:0:
353,277,26096,2,0,P|394:271|420:280,1,60,8|2,0:0|0:0,0:0:0:0:
453,299,26379,2,0,P|480:257|479:187,1,120,0|8,3:0|0:0,0:0:0:0:
456,95,26945,1,0,3:0:0:0:
372,128,27228,2,0,L|305:114,1,60,8|2,0:0|0:0,0:0:0:0:
290,73,27511,6,0,L|168:120,1,120,0|8,3:0|0:0,0:0:0:0:
144,205,28077,1,0,3:0:0:0:
53,173,28360,2,0,L|62:234,1,60,8|2,0:0|0:0,0:0:0:0:
22,260,28643,2,0,P|37:333|91:369,1,120,2|10,3:2|0:0,0:0:0:0:
143,299,29209,2,0,P|161:251|230:223,1,120,2|10,3:2|0:0,0:0:0:0:
325,297,29775,6,0,L|420:328,2,90,0|0|2,3:0|0:0|0:0,0:0:0:0:
278,283,30341,2,0,L|260:142,1,120,0|8,3:0|0:0,0:0:0:0:
352,130,30908,1,0,3:0:0:0:
389,218,31191,1,8,0:0:0:0:
484,231,31474,2,0,B|461:163|461:163|473:100,1,120,0|8,3:0|0:0,0:0:0:0:
410,40,32040,6,0,P|452:16|497:20,2,90,0|0|2,3:0|0:0|0:0,0:0:0:0:
388,57,32606,2,0,B|379:136|316:160,1,120,0|8,3:0|0:0,0:0:0:0:
257,98,33172,1,2,3:2:0:0:
175,148,33455,1,10,0:0:0:0:
97,90,33738,2,0,L|82:168,1,60,2|8,3:2|0:0,0:0:0:0:
45,175,34021,2,0,L|69:259,1,60,10|0,0:0|3:0,0:0:0:0:
76,273,34304,6,0,P|126:292|227:231,1,161.999995056153,4|0,0:0|0:0,0:0:0:0:
235,205,34870,2,0,P|253:160|317:142,1,107.999996704102,12|0,0:0|0:0,0:0:0:0:
389,166,35436,2,0,B|409:201|409:201|398:234|398:234|414:270,1,107.999996704102,4|2,0:0|0:3,0:0:0:0:
429,308,35860,1,0,0:0:0:0:
429,308,36002,2,0,P|399:333|327:345,1,107.999996704102,12|2,0:3|0:3,0:0:0:0:
246,287,36568,5,4,0:0:0:0:
210,365,36851,1,2,0:3:0:0:
123,363,37134,1,12,0:0:0:0:
27,127,37700,2,0,B|51:86|51:86|35:17,1,107.999996704102,4|2,0:2|3:0,0:0:0:0:
127,58,38266,2,0,B|142:116|142:116|190:150,1,107.999996704102,8|0,0:0|3:0,0:0:0:0:
276,194,38832,6,0,B|438:158,1,161.999995056153,4|0,3:2|0:0,0:0:0:0:
477,158,39398,2,0,P|494:113|472:52,1,107.999996704102,12|2,0:0|0:3,0:0:0:0:
399,19,39964,2,0,B|361:25|361:25|332:18|332:18|274:31,1,107.999996704102,4|2,3:2|0:3,0:0:0:0:
232,88,40530,1,14,0:0:0:0:
151,57,40813,1,2,0:3:0:0:
83,116,41096,6,0,L|103:179,1,53.9999983520508,0|8,3:0|0:0,0:0:0:0:
177,204,41521,2,0,L|157:267,1,53.9999983520508,0|8,3:0|0:0,0:0:0:0:
209,326,41945,1,0,3:2:0:0:
209,326,42087,2,0,P|260:342|293:240,1,161.999995056153,12|14,0:0|0:0,0:0:0:0:
273,171,42794,1,8,0:0:0:0:
357,125,43077,2,0,L|430:100,2,60,10|10|0,0:0|0:0|3:0,0:0:0:0:
195,254,45341,5,0,3:0:0:0:
103,237,45625,2,0,L|60:98,1,125.999996154785,4|10,0:0|0:0,0:0:0:0:
58,21,46191,2,0,P|142:27|166:63,1,125.999996154785,2|10,3:2|0:0,0:0:0:0:
192,93,46615,2,0,L|320:107,1,125.999996154785,4|0,0:0|3:0,0:0:0:0:
358,77,47040,1,8,0:0:0:0:
409,163,47323,2,0,L|478:148,2,62.9999980773926,2|0|10,3:2|0:0|0:0,0:0:0:0:
304,236,47889,5,4,3:2:0:0:
339,316,48172,1,10,0:0:0:0:
425,330,48455,2,0,P|470:299|475:223,1,125.999996154785,2|10,3:2|0:0,0:0:0:0:
447,197,48879,2,0,B|406:175|406:175|311:195,1,125.999996154785,12|0,0:0|3:0,0:0:0:0:
304,236,49304,1,12,3:2:0:0:
215,283,49587,2,0,P|157:253|145:176,1,125.999996154785,2|8,3:2|0:0,0:0:0:0:
147,159,50011,1,8,0:0:0:0:
147,159,50153,6,0,B|182:102|182:102|174:26,1,125.999996154785,4|10,3:2|0:0,0:0:0:0:
84,20,50719,2,0,B|49:77|49:77|57:153,1,125.999996154785,2|10,3:2|0:0,0:0:0:0:
64,181,51143,1,4,3:2:0:0:
12,260,51426,1,0,3:0:0:0:
12,260,51568,1,8,0:0:0:0:
88,314,51851,2,0,P|146:293|221:315,1,125.999996154785,2|10,3:2|0:0,0:0:0:0:
250,341,52275,1,0,0:0:0:0:
250,341,52417,6,0,P|303:365|373:344,1,125.999996154785,4|10,3:2|0:0,0:0:0:0:
454,300,52983,1,2,3:2:0:0:
392,230,53266,1,10,0:0:0:0:
392,230,53408,2,0,B|349:210|349:210|329:120,1,125.999996154785,4|0,3:2|3:0,0:0:0:0:
326,86,53832,1,10,0:0:0:0:
423,61,54115,2,0,L|409:0,2,62.9999980773926,2|0|10,0:0|3:2|3:2,0:0:0:0:
501,139,54681,6,0,P|447:142|400:209,1,125.999996154785,6|8,0:0|0:0,0:0:0:0:
386,237,55106,2,0,P|335:232|286:178,1,125.999996154785,2|0,3:2|3:0,0:0:0:0:
269,135,55530,2,0,P|221:143|182:230,1,125.999996154785,10|0,0:0|3:0,0:0:0:0:
175,308,56096,1,10,0:0:0:0:
175,308,56238,2,0,B|134:335|134:335|42:320,1,125.999996154785,8|0,0:0|3:0,0:0:0:0:
37,274,56662,2,0,L|25:198,1,62.9999980773926,10|0,0:0|0:0,0:0:0:0:
50,170,56945,5,4,0:0:0:0:
119,105,57228,2,0,L|134:36,1,62.9999980773926,10|0,0:0|3:0,0:0:0:0:
203,106,57653,2,0,L|189:167,2,62.9999980773926,0|10|0,0:0|0:0|0:0,0:0:0:0:
234,70,58077,1,4,0:0:0:0:
322,102,58360,1,10,0:0:0:0:
295,192,58643,1,4,0:0:0:0:
380,231,58926,2,0,L|406:307,1,62.9999980773926,8|0,0:0|3:0,0:0:0:0:
455,348,59209,6,0,P|399:379|326:354,1,125.999996154785,6|8,0:0|0:0,0:0:0:0:
323,322,59634,2,0,P|276:289|195:325,1,125.999996154785,2|0,0:0|0:0,0:0:0:0:
186,339,60058,2,0,P|155:310|149:209,1,125.999996154785,10|0,0:0|3:0,0:0:0:0:
181,144,60625,1,10,0:0:0:0:
181,144,60766,2,0,P|178:98|98:62,1,125.999996154785,8|0,0:0|0:0,0:0:0:0:
97,103,61191,2,0,L|33:122,1,62.9999980773926,10|0,0:0|0:0,0:0:0:0:
13,162,61474,5,4,0:0:0:0:
21,260,61757,1,10,0:0:0:0:
21,260,61898,2,0,B|88:279|88:279|108:316|108:316|184:342,1,188.999994232178,0|10,3:0|0:0,0:0:0:0:
274,340,62606,1,8,0:0:0:0:
274,340,63879,6,0,P|300:286|275:215,1,120,6|0,3:0|3:0,0:0:0:0:
255,193,64304,2,0,P|239:140|276:62,1,120,14|2,0:0|3:0,0:0:0:0:
295,41,64728,1,12,0:0:0:0:
404,120,65153,1,8,0:0:0:0:
490,94,65436,2,0,L|510:31,2,60,6|0|8,3:0|3:0|0:0,0:0:0:0:
498,183,66002,5,2,3:0:0:0:
498,183,66143,2,0,P|433:200|402:249,1,120,12|2,0:0|3:0,0:0:0:0:
401,286,66568,2,0,P|361:339|286:340,1,120,12|2,0:0|3:0,0:0:0:0:
268,334,66992,1,12,0:0:0:0:
147,273,67417,1,8,0:0:0:0:
66,313,67700,2,0,L|47:243,1,60,14|8,0:3|0:0,0:0:0:0:
14,227,67983,2,0,L|32:149,1,60,0|0,3:0|3:0,0:0:0:0:
12,130,68266,6,0,L|132:140,1,107.999996704102,2|2,0:3|0:0,0:0:0:0:
127,219,68832,2,0,L|247:209,1,107.999996704102,2|2,0:0|0:3,0:0:0:0:
253,131,69398,2,0,L|373:141,1,107.999996704102,0|2,0:0|0:0,0:0:0:0:
371,220,69964,2,0,L|491:210,1,107.999996704102,2|2,0:0|0:0,0:0:0:0:
495,174,70389,1,8,0:0:0:0:
495,174,70530,6,0,L|476:115,1,53.9999983520508,2|0,0:0|0:0,0:0:0:0:
413,73,70955,2,0,L|341:100,1,53.9999983520508,2|0,0:3|0:0,0:0:0:0:
307,151,71379,6,0,L|288:210,1,53.9999983520508,2|0,0:3|0:0,0:0:0:0:
225,252,71804,2,0,L|153:225,1,53.9999983520508,2|0,0:3|0:0,0:0:0:0:
111,182,72228,2,0,P|135:136|56:52,1,161.999995056153,2|0,0:3|0:0,0:0:0:0:
40,69,72794,6,0,B|153:128|134:20|260:73,1,215.999993408203,0|8,3:0|0:0,0:0:0:0:
357,115,73785,1,0,0:0:0:0:
357,115,73926,2,0,P|322:170|366:303,1,215.999993408203,0|8,0:0|0:0,0:0:0:0:
488,196,75058,6,0,P|494:137|458:75,1,107.999996704102,0|0,3:0|3:0,0:0:0:0:
395,45,75625,2,0,P|349:132|331:141,1,107.999996704102,8|0,0:0|0:0,0:0:0:0:
253,152,76191,2,0,L|132:119,2,107.999996704102,0|0|10,0:0|3:0|0:0,0:0:0:0:
398,296,77323,6,0,B|295:237|305:340|191:283,1,215.999993408203,0|8,3:0|0:0,0:0:0:0:
84,339,78313,1,0,0:0:0:0:
84,339,78455,2,0,P|120:311|88:161,1,215.999993408203,0|8,0:0|0:0,0:0:0:0:
18,19,79587,2,0,P|69:32|139:22,2,107.999996704102,0|0|8,3:0|0:0|0:0,0:0:0:0:
4,98,80436,1,0,3:0:0:0:
79,127,80719,2,0,L|47:235,1,107.999996704102,8|8,0:0|0:0,0:0:0:0:
103,290,81285,2,0,L|114:343,2,53.9999983520508,0|0|0,3:3|3:3|3:3,0:0:0:0:
177,197,81851,6,0,P|219:211|295:194,1,120,2|8,0:0|3:0,0:0:0:0:
322,112,82417,1,0,0:0:0:0:
410,110,82700,1,8,0:0:0:0:
474,181,82983,2,0,P|493:276|385:364,1,240,0|0,3:0|3:0,0:0:0:0:
313,313,83832,2,0,L|238:336,1,60,8|2,0:0|0:0,0:0:0:0:
208,367,84115,6,0,L|178:237,1,120,0|8,3:0|0:0,0:0:0:0:
258,193,84681,2,0,L|284:65,1,120,0|8,3:0|0:0,0:0:0:0:
301,33,85106,1,2,0:0:0:0:
301,33,85247,2,0,P|381:37|434:8,1,120,2|10,3:2|0:0,0:0:0:0:
494,76,85813,1,2,3:2:0:0:
425,143,86096,2,0,L|410:209,1,60,10|0,0:0|0:0,0:0:0:0:
395,259,86379,6,0,P|410:303|463:347,2,90,0|0|2,3:0|0:0|0:0,0:0:0:0:
350,249,86945,2,0,L|222:287,1,120,0|10,3:0|0:0,0:0:0:0:
179,361,87511,2,0,P|135:318|59:309,1,120,0|8,3:0|0:0,0:0:0:0:
32,320,87936,1,2,0:0:0:0:
4,280,88077,1,0,3:0:0:0:
11,184,88360,1,10,0:0:0:0:
112,177,88643,6,0,P|123:142|129:82,2,90,0|0|2,3:0|0:0|0:0,0:0:0:0:
130,218,89209,2,0,P|178:231|208:228,1,60,0|2,3:0|0:0,0:0:0:0:
219,262,89492,2,0,P|259:242|284:218,1,60,8|2,0:0|0:0,0:0:0:0:
274,187,89775,2,0,P|307:144|379:148,1,120,2|2,0:3|0:3,0:0:0:0:
452,175,90341,1,2,0:3:0:0:
452,175,90483,2,0,L|470:100,1,71.9999978027344,8|10,0:0|0:0,0:0:0:0:
364,12,90908,6,0,P|302:40|219:38,1,125.999996154785,4|10,0:0|0:0,0:0:0:0:
178,118,91474,2,0,P|138:100|55:102,1,125.999996154785,2|10,3:2|0:0,0:0:0:0:
19,135,91898,1,4,3:2:0:0:
84,211,92181,1,0,3:0:0:0:
52,250,92323,2,0,L|75:327,1,62.9999980773926,10|0,0:0|0:0,0:0:0:0:
85,358,92606,2,0,P|147:353|199:319,1,125.999996154785,2|10,3:2|0:0,0:0:0:0:
237,197,93172,1,4,3:2:0:0:
291,281,93455,1,10,0:0:0:0:
365,218,93738,2,0,B|340:128|340:128|370:90,1,125.999996154785,2|10,3:2|0:0,0:0:0:0:
400,72,94162,6,0,P|452:88|472:165,1,125.999996154785,4|0,0:0|3:2,0:0:0:0:
488,199,94587,1,10,0:2:0:0:
486,299,94870,2,0,L|424:334,1,62.9999980773926,6|0,3:2|0:0,0:0:0:0:
393,364,95153,2,0,L|321:345,1,62.9999980773926,8|8,0:0|0:0,0:0:0:0:
304,305,95436,6,0,L|186:349,1,125.999996154785,4|10,0:0|0:0,0:0:0:0:
102,291,96002,2,0,P|148:255|161:172,1,125.999996154785,2|10,3:2|0:0,0:0:0:0:
143,146,96426,2,0,P|190:128|274:157,1,125.999996154785,4|0,3:2|3:0,0:0:0:0:
288,110,96851,2,0,L|315:41,1,62.9999980773926,10|0,0:0|0:0,0:0:0:0:
331,8,97134,1,2,3:2:0:0:
449,60,97417,1,10,0:0:0:0:
451,207,97700,6,0,P|387:233|316:198,1,125.999996154785,4|10,0:0|0:0,0:0:0:0:
259,149,98266,1,2,3:2:0:0:
222,245,98549,1,10,0:0:0:0:
222,245,98691,6,0,P|157:238|104:270,1,125.999996154785,4|0,3:2|3:0,0:0:0:0:
56,269,99115,2,0,B|73:207|73:207|41:139,1,125.999996154785,10|10,0:0|0:0,0:0:0:0:
59,51,99681,2,0,L|134:33,1,62.9999980773926,8|0,0:0|3:0,0:0:0:0:
197,30,99964,6,0,P|218:90|163:149,1,125.999996154785,6|8,3:2|0:0,0:0:0:0:
217,178,100389,2,0,P|154:211|87:190,1,125.999996154785,2|0,0:0|0:0,0:0:0:0:
74,241,100813,2,0,P|46:211|43:117,1,125.999996154785,10|0,0:0|3:0,0:0:0:0:
125,79,101379,5,10,0:0:0:0:
125,79,101521,2,0,L|159:208,1,125.999996154785,8|0,0:0|0:0,0:0:0:0:
204,217,101945,2,0,L|182:287,1,62.9999980773926,10|0,0:0|0:0,0:0:0:0:
174,326,102228,1,4,0:0:0:0:
260,371,102511,2,0,L|322:347,1,62.9999980773926,10|0,0:0|0:0,0:0:0:0:
396,283,102936,2,0,L|469:308,2,62.9999980773926,0|10|0,0:0|0:0|0:0,0:0:0:0:
368,240,103360,6,0,P|374:203|468:156,1,125.999996154785,4|10,0:0|0:0,0:0:0:0:
494,67,103926,1,2,3:2:0:0:
410,10,104209,2,0,L|332:33,1,62.9999980773926,8|8,0:0|0:0,0:0:0:0:
273,58,104492,6,0,P|261:101|312:161,1,125.999996154785,6|8,3:2|0:0,0:0:0:0:
293,208,104917,2,0,P|334:232|416:183,1,125.999996154785,2|0,0:0|0:0,0:0:0:0:
442,238,105341,2,0,P|468:200|448:112,1,125.999996154785,10|0,0:0|3:0,0:0:0:0:
380,58,105908,5,10,0:0:0:0:
380,58,106049,2,0,L|246:86,1,125.999996154785,8|0,0:0|0:0,0:0:0:0:
220,118,106474,2,0,L|148:98,1,62.9999980773926,10|0,0:0|0:0,0:0:0:0:
124,66,106757,1,4,0:0:0:0:
62,145,107040,1,10,0:0:0:0:
62,145,107181,1,0,3:0:0:0:
112,232,107464,2,0,L|86:296,2,62.9999980773926,0|10|0,3:0|0:0|0:0,0:0:0:0:
155,228,107889,6,0,B|252:259|181:314|281:343,1,161.999995056153,8|0,0:0|0:0,0:0:0:0:
292,359,108455,2,0,P|340:337|368:265,1,107.999996704102,0|0,0:0|0:0,0:0:0:0:
314,126,111285,6,0,B|361:152|361:152|392:139|392:139|429:171|483:162,2,161.999995056153,2|2|10,0:0|0:0|0:0,0:0:0:0:
275,48,112417,2,0,P|219:65|194:119,1,107.999996704102,2|8,0:0|0:0,0:0:0:0:
153,192,112983,2,0,L|68:214,1,60,10|0,0:2|3:0,0:0:0:0:
94,207,113549,6,0,B|120:284|120:284|168:313,1,120,4|2,0:0|0:3,0:0:0:0:
231,361,114115,2,0,B|257:284|257:284|305:255,1,120,12|2,0:0|0:3,0:0:0:0:
338,259,114540,1,8,0:0:0:0:
338,259,114681,2,0,B|367:281|367:281|408:278|456:219,1,120,6|2,3:2|3:0,0:0:0:0:
456,140,115247,2,0,L|478:79,2,60,14|8|2,0:3|0:0|0:3,0:0:0:0:
411,139,115672,1,2,0:3:0:0:
411,139,115813,6,0,P|369:158|290:126,1,120,4|2,3:2|0:3,0:0:0:0:
191,124,116379,1,12,0:0:0:0:
170,30,116662,1,2,0:3:0:0:
269,14,116945,2,0,P|299:50|295:122,1,120,12|2,0:3|3:0,0:0:0:0:
318,162,117370,1,0,3:0:0:0:
318,162,117511,6,0,P|302:198|307:240,1,77.9999964294435,2|2,0:0|0:0,0:0:0:0:
412,299,118077,6,0,B|384:333|384:333|291:349,1,120,4|2,3:2|0:3,0:0:0:0:
232,288,118643,2,0,B|204:254|204:254|129:241,1,120,12|2,0:0|0:3,0:0:0:0:
91,271,119068,1,8,0:0:0:0:
91,271,119209,2,0,B|61:233|61:233|70:199|70:199|51:162,1,120,4|2,0:0|3:0,0:0:0:0:
56,70,119775,1,10,0:3:0:0:
133,126,120058,1,2,3:0:0:0:
245,84,120341,6,0,L|270:16,2,60,4|8|8,0:0|0:0|0:0,0:0:0:0:
296,125,120766,1,0,3:0:0:0:
296,125,120908,2,0,L|273:201,2,60,8|8|0,0:0|0:0|3:0,0:0:0:0:
352,106,121332,2,0,B|375:143|375:143|442:129|482:174,1,143.999995605469,12|0,0:0|3:0,0:0:0:0:
492,202,121757,1,8,0:0:0:0:
421,292,122040,1,8,0:0:0:0:
323,229,122323,2,0,L|239:255,2,71.9999978027344,8|8|0,0:0|0:0|0:0,0:0:0:0:
236,353,126568,6,0,B|227:309|227:309|250:273|250:273|217:250|220:183,1,161.999995056153,0|0,3:0|3:0,0:0:0:0:
223,164,127134,2,0,P|273:168|240:50,1,215.999993408203,12|4,0:0|3:2,0:0:0:0:
175,30,127983,2,0,P|151:67|121:84,1,53.9999983520508,8|0,0:0|3:0,0:0:0:0:
103,88,128266,6,0,B|72:121|72:121|95:198,1,107.999996704102,6|0,3:0|0:0,0:0:0:0:
106,226,128691,1,8,0:0:0:0:
106,226,128832,2,0,P|66:232|14:291,1,107.999996704102,0|8,3:0|0:0,0:0:0:0:
116,361,129398,2,0,P|154:341|229:350,1,107.999996704102,2|0,3:0|0:0,0:0:0:0:
254,366,129823,1,8,0:0:0:0:
254,366,129964,2,0,P|298:369|349:320,1,107.999996704102,0|8,3:0|0:0,0:0:0:0:
278,220,130530,6,0,B|251:170|222:212|189:153,2,107.999996704102,6|0|2,3:0|3:0|3:0,0:0:0:0:
355,181,131379,2,0,P|370:138|364:113,1,53.9999983520508,8|8,0:0|0:0,0:0:0:0:
356,89,131662,1,8,0:0:0:0:
108,22,132511,5,0,3:0:0:0:
54,108,132794,2,0,P|101:149|197:153,1,132.00000402832,4|10,3:2|0:0,0:0:0:0:
217,137,133219,1,0,0:0:0:0:
217,137,133360,2,0,L|234:53,2,66.0000020141602,2|0|10,3:2|0:0|0:0,0:0:0:0:
248,179,133785,2,0,B|260:261|260:261|314:303,1,132.00000402832,4|0,3:2|3:0,0:0:0:0:
341,321,134209,1,10,0:0:0:0:
429,264,134492,2,0,L|511:283,2,66.0000020141602,2|0|10,3:2|0:0|0:0,0:0:0:0:
441,120,135058,6,0,P|410:90|314:92,1,132.00000402832,4|10,3:2|0:0,0:0:0:0:
295,124,135483,1,0,0:0:0:0:
295,124,135625,2,0,L|320:199,2,66.0000020141602,2|0|10,3:2|0:0|0:0,0:0:0:0:
216,100,136049,2,0,B|185:154|185:154|216:240,1,132.00000402832,12|0,0:0|3:0,0:0:0:0:
227,269,136474,1,10,0:0:0:0:
137,324,136757,1,2,0:0:0:0:
52,260,137040,2,0,L|34:174,1,66.0000020141602,10|8,0:0|0:0,0:0:0:0:
63,119,137323,6,0,P|123:149|205:147,1,132.00000402832,4|10,3:2|0:0,0:0:0:0:
229,120,137747,1,0,0:0:0:0:
229,120,137889,2,0,L|246:48,2,66.0000020141602,2|0|10,3:2|0:0|0:0,0:0:0:0:
267,155,138313,2,0,B|257:245|257:245|305:292,1,132.00000402832,4|0,3:2|0:0,0:0:0:0:
333,299,138738,1,10,0:0:0:0:
407,373,139021,2,0,P|441:354|461:320,1,66.0000020141602,2|0,3:2|3:0,0:0:0:0:
508,340,139304,2,0,P|512:296|489:255,1,66.0000020141602,10|0,0:0|0:0,0:0:0:0:
497,219,139587,6,0,P|457:194|375:205,1,132.00000402832,4|10,3:2|0:0,0:0:0:0:
286,147,140153,1,2,3:2:0:0:
309,46,140436,1,10,0:0:0:0:
309,46,140577,2,0,B|373:78|373:78|446:73,1,132.00000402832,4|0,3:2|3:0,0:0:0:0:
478,46,141002,1,14,0:0:0:0:
464,150,141285,2,0,L|444:294,1,132.00000402832,2|8,3:2|3:0,0:0:0:0:
330,369,141851,6,0,P|289:357|249:272,1,132.00000402832,6|8,0:0|0:0,0:0:0:0:
199,263,142275,2,0,P|194:216|121:164,1,132.00000402832,2|0,0:0|0:0,0:0:0:0:
148,113,142700,2,0,P|99:127|32:62,1,132.00000402832,10|0,0:0|3:0,0:0:0:0:
120,16,143266,1,10,0:0:0:0:
120,16,143408,2,0,L|258:59,1,132.00000402832,8|0,0:0|3:0,0:0:0:0:
294,75,143832,2,0,P|277:119|280:153,1,66.0000020141602,10|0,0:0|0:0,0:0:0:0:
295,186,144115,5,4,3:2:0:0:
260,285,144398,1,10,0:0:0:0:
260,285,144540,1,0,0:0:0:0:
162,245,144823,2,0,L|87:273,2,66.0000020141602,0|10|0,0:0|0:0|0:0,0:0:0:0:
199,207,145247,2,0,P|210:162|185:129,1,66.0000020141602,4|0,3:2|0:0,0:0:0:0:
154,124,145530,2,0,P|122:94|74:95,1,66.0000020141602,10|0,0:0|0:0,0:0:0:0:
62,125,145813,2,0,P|13:185|26:254,1,132.00000402832,8|8,0:0|0:0,0:0:0:0:
128,328,146379,6,0,P|180:313|251:360,1,132.00000402832,6|8,0:0|0:0,0:0:0:0:
281,311,146804,2,0,P|332:354|408:337,1,132.00000402832,2|0,0:0|0:0,0:0:0:0:
438,373,147228,2,0,P|422:320|460:256,1,132.00000402832,10|0,0:0|3:0,0:0:0:0:
498,161,147794,1,10,0:0:0:0:
498,161,147936,2,0,P|470:107|390:87,1,132.00000402832,8|0,0:0|0:0,0:0:0:0:
364,118,148360,2,0,L|292:88,1,66.0000020141602,10|0,0:0|0:0,0:0:0:0:
262,59,148643,5,4,0:0:0:0:
180,126,148926,1,10,0:0:0:0:
180,126,149068,1,0,3:0:0:0:
75,105,149351,2,0,L|52:187,2,66.0000020141602,0|10|0,3:2|0:0|3:0,0:0:0:0:
45,61,149775,2,0,P|92:20|174:42,1,132.00000402832,12|14,0:0|0:0,0:0:0:0:
246,84,150341,2,0,L|321:61,2,66.0000020141602,2|8|8,3:2|0:0|0:0,0:0:0:0:
117,152,150908,6,0,L|146:233,1,66.0000020141602,14|0,0:0|3:0,0:0:0:0:
152,265,151191,1,0,3:0:0:0:
152,265,151332,2,0,P|86:266|47:325,1,132.00000402832,14|2,0:3|3:0,0:0:0:0:
66,364,151757,1,14,0:3:0:0:
171,356,152040,2,0,L|318:374,1,132.00000402832,14|0,0:0|3:0,0:0:0:0:
347,345,152464,2,0,P|363:299|330:214,1,132.00000402832,12|0,0:0|3:0,0:0:0:0:
339,169,152889,6,0,P|376:143|411:145,2,66.0000020141602,12|0|14,0:2|0:0|0:0,0:0:0:0:
246,226,153455,2,0,P|208:213|177:184,1,66.0000020141602,2|14,3:2|0:0,0:0:0:0:
227,101,153879,1,0,3:0:0:0:
227,101,154021,2,0,P|204:62|202:24,1,66.0000020141602,14|2,0:0|3:2,0:0:0:0:
152,17,154304,2,0,P|114:23|49:89,1,132.00000402832,2|14,3:2|0:0,0:0:0:0:
129,155,154870,1,14,0:0:0:0:
35,204,155153,1,10,0:0:0:0:
97,320,155436,6,0,L|166:341,1,66.0000020141602,14|0,0:0|3:0,0:0:0:0:
190,382,155719,1,0,3:0:0:0:
190,382,155860,2,0,P|234:377|287:308,1,132.00000402832,14|2,0:3|3:3,0:0:0:0:
287,259,156285,1,14,0:3:0:0:
226,127,156568,6,0,P|274:115|311:126,1,66.0000020141602,12|0,0:0|3:0,0:0:0:0:
336,142,156851,1,0,3:0:0:0:
336,142,156992,2,0,P|350:196|432:235,1,132.00000402832,12|0,0:0|3:0,0:0:0:0:
458,210,157417,2,0,L|478:131,1,66.0000020141602,12|0,0:0|3:0,0:0:0:0:
487,94,157700,5,2,3:2:0:0:
399,12,157983,1,10,0:0:0:0:
355,130,158266,2,0,L|284:112,1,66.0000020141602,8|0,0:0|0:0,0:0:0:0:
273,63,158549,2,0,L|188:95,1,66.0000020141602,10|8,0:0|0:0,0:0:0:0:
184,126,158832,1,8,0:0:0:0:
142,101,158974,1,0,0:0:0:0:
101,75,159115,2,0,P|72:109|66:149,1,60,0|0,0:0|0:0,0:0:0:0:
25,146,159398,2,0,P|61:191|58:252,1,120,0|0,0:0|0:0,0:0:0:0:
87,330,159964,6,0,P|140:369|192:372,1,107.999996704102,0|0,0:0|0:0,0:0:0:0:
231,303,160530,2,0,P|275:286|342:322,2,107.999996704102,0|0|0,0:0|0:0|0:0,0:0:0:0:
157,258,161379,2,0,L|96:239,2,53.9999983520508,0|0|0,0:0|0:0|0:0,0:0:0:0:
226,206,161945,2,0,L|243:137,1,53.9999983520508,0|0,0:0|0:0,0:0:0:0:
247,111,162228,5,0,0:0:0:0:
319,63,162511,2,0,P|353:36|427:45,2,107.999996704102,0|0|0,0:0|0:0|0:0,0:0:0:0:
269,134,163360,2,0,P|215:142|162:108,1,107.999996704102,0|0,0:0|0:0,0:0:0:0:
139,86,163785,1,0,0:0:0:0:
139,86,163926,1,0,0:0:0:0:
74,143,164209,2,0,P|69:214|91:261,1,107.999996704102,0|0,0:0|0:0,0:0:0:0:
