osu file format v14

[General]
AudioFilename: audio.mp3
AudioLeadIn: 0
PreviewTime: 45345
Countdown: 0
SampleSet: Soft
StackLeniency: 0.7
Mode: 0
LetterboxInBreaks: 0
WidescreenStoryboard: 1

[Editor]
DistanceSpacing: 1.3
BeatDivisor: 4
GridSize: 16
TimelineZoom: 1.9

[Metadata]
Title:Chimera feat. Hatsune Miku
TitleUnicode:キメラ feat. 初音ミク
Artist:DECO*27
ArtistUnicode:DECO*27
Creator:Pho
Version:Insane
Source:
Tags:vocaloid 日本テレビ「ズームイン!!サタデー」 テーマソング nihon tv zoom in saturday theme song Rockwell 八三 83 hachisan OTOIRO DMYM yuka fujii Shimpei Oniki Iori Majima Yusuke Sato rock japanese Hokichi
BeatmapID:3548694
BeatmapSetID:1735531

[Difficulty]
HPDrainRate:6
CircleSize:4
OverallDifficulty:8.5
ApproachRate:9
SliderMultiplier:1.6
SliderTickRate:1

[Events]
//Background and Video events
0,0,"bg.jpg",0,0
//Break Periods
2,123738,125826
//Storyboard Layer 0 (Background)
//Storyboard Layer 1 (Fail)
//Storyboard Layer 2 (Pass)
//Storyboard Layer 3 (Foreground)
//Storyboard Layer 4 (Overlay)
//Storyboard Sound Samples

[TimingPoints]
342,283.018867924528,4,2,1,40,1,0
342,-111.111111111111,4,2,1,40,0,0
2818,-111.111111111111,4,2,1,5,0,0
2889,-111.111111111111,4,2,1,40,0,0
3879,-100,4,2,1,40,0,0
4304,-100,4,2,1,50,0,0
4587,-83.3333333333333,4,2,1,50,0,0
5011,-83.3333333333333,4,2,1,60,0,0
13360,-100,4,2,1,70,0,0
13926,-111.111111111111,4,2,1,40,0,0
16191,-83.3333333333333,4,2,1,40,0,0
16403,-83.3333333333333,4,2,1,5,0,0
16474,-111.111111111111,4,2,2,40,0,0
18455,-83.3333333333333,4,2,2,40,0,0
18667,-83.3333333333333,4,2,2,5,0,0
18738,-111.111111111111,4,2,2,40,0,0
20648,-111.111111111111,4,2,2,5,0,0
20719,-83.3333333333333,4,2,2,40,0,0
20931,-83.3333333333333,4,2,2,5,0,0
21002,-111.111111111111,4,2,2,40,0,0
22983,-83.3333333333333,4,2,2,40,0,0
24115,-83.3333333333333,4,2,1,60,0,0
24893,-83.3333333333333,4,2,1,60,0,0
25247,-83.3333333333333,4,2,1,60,0,0
26591,-83.3333333333333,4,2,1,5,0,0
26662,-83.3333333333333,4,2,1,60,0,0
27724,-83.3333333333333,4,2,1,5,0,0
27794,-83.3333333333333,4,2,1,60,0,0
28856,-83.3333333333333,4,2,1,5,0,0
28926,-83.3333333333333,4,2,1,60,0,0
29139,-83.3333333333333,4,2,1,5,0,0
29209,-83.3333333333333,4,2,1,60,0,0
29422,-83.3333333333333,4,2,1,5,0,0
29492,-83.3333333333333,4,2,1,60,0,0
34304,-125,4,2,1,50,0,0
35648,-125,4,2,1,5,0,0
35719,-125,4,2,1,50,0,0
40176,-125,4,2,1,5,0,0
40247,-125,4,2,1,50,0,0
41096,-111.111111111111,4,2,1,50,0,0
42794,-66.6666666666667,4,2,1,50,0,0
43219,-100,4,2,1,50,0,0
45200,-100,4,2,1,5,0,0
45341,-200,4,2,1,50,0,0
45554,-200,4,2,1,5,0,0
45625,-95.2380952380952,4,2,1,70,0,0
46827,-95.2380952380952,4,2,1,5,0,0
46898,-95.2380952380952,4,2,1,70,0,0
49091,-95.2380952380952,4,2,1,5,0,0
49162,-95.2380952380952,4,2,1,70,0,0
53620,-95.2380952380952,4,2,1,5,0,0
53691,-95.2380952380952,4,2,1,70,0,0
55742,-95.2380952380952,4,2,1,5,0,0
55813,-95.2380952380952,4,2,1,70,0,0
60271,-95.2380952380952,4,2,1,5,0,0
60341,-95.2380952380952,4,2,1,70,0,0
62606,-111.111111111111,4,2,1,40,0,0
63879,-100,4,2,1,60,0,0
65931,-100,4,2,1,5,0,0
66002,-100,4,2,1,60,0,0
68266,-133.333333333333,4,2,1,50,0,0
70389,-133.333333333333,4,2,1,70,0,0
70530,-133.333333333333,4,2,1,30,0,0
72794,-125,4,2,2,45,0,0
79799,-133.333333333333,4,2,2,5,0,0
79870,-133.333333333333,4,2,2,40,0,0
80719,-83.3333333333333,4,2,2,40,0,0
80860,-133.333333333333,4,2,2,40,0,0
81002,-83.3333333333333,4,2,2,40,0,0
81143,-133.333333333333,4,2,2,40,0,0
81285,-133.333333333333,4,2,2,40,0,0
81851,-100,4,2,1,50,0,0
85247,-100,4,2,1,50,0,0
85459,-100,4,2,1,5,0,0
85530,-100,4,2,1,50,0,0
85742,-100,4,2,1,5,0,0
85813,-100,4,2,1,50,0,0
86025,-100,4,2,1,5,0,0
86096,-100,4,2,1,50,0,0
86521,-100,4,2,1,50,0,0
89775,-100,4,2,1,40,0,0
89988,-100,4,2,1,5,0,0
90058,-100,4,2,1,40,0,0
90271,-100,4,2,1,5,0,0
90341,-100,4,2,1,40,0,0
90483,-83.3333333333333,4,2,1,50,0,0
90908,-95.2380952380952,4,2,1,70,0,0
92110,-95.2380952380952,4,2,1,5,0,0
92181,-95.2380952380952,4,2,1,70,0,0
93384,-95.2380952380952,4,2,1,5,0,0
93455,-95.2380952380952,4,2,1,70,0,0
94375,-95.2380952380952,4,2,1,5,0,0
94445,-95.2380952380952,4,2,1,70,0,0
95931,-95.2380952380952,4,2,1,5,0,0
96002,-95.2380952380952,4,2,1,70,0,0
98903,-95.2380952380952,4,2,1,5,0,0
98974,-95.2380952380952,4,2,1,70,0,0
101025,-95.2380952380952,4,2,1,5,0,0
101096,-95.2380952380952,4,2,1,70,0,0
102441,-95.2380952380952,4,2,1,5,0,0
102511,-95.2380952380952,4,2,1,70,0,0
105554,-95.2380952380952,4,2,1,5,0,0
105625,-95.2380952380952,4,2,1,70,0,0
106969,-95.2380952380952,4,2,1,5,0,0
107040,-95.2380952380952,4,2,1,70,0,0
107889,-111.111111111111,4,2,1,40,0,0
109021,-111.111111111111,4,2,1,50,0,0
109233,-111.111111111111,4,2,1,5,0,0
109304,-111.111111111111,4,2,1,40,0,0
111285,-111.111111111111,4,2,1,50,0,0
111497,-111.111111111111,4,2,1,5,0,0
111568,-111.111111111111,4,2,1,50,0,0
112558,-111.111111111111,4,2,1,55,0,0
112983,-66.6666666666667,4,2,1,60,0,0
113549,-100,4,2,1,60,0,0
113761,-100,4,2,1,5,0,0
113832,-100,4,2,1,60,0,0
114044,-100,4,2,1,5,0,0
114115,-100,4,2,1,60,0,0
114327,-100,4,2,1,5,0,0
114398,-100,4,2,1,60,0,0
114893,-100,4,2,1,5,0,0
114964,-100,4,2,1,60,0,0
117511,-222.222222222222,4,2,1,30,0,0
118077,-100,4,2,1,60,0,0
118290,-100,4,2,1,5,0,0
118360,-100,4,2,1,60,0,0
118573,-100,4,2,1,5,0,0
118643,-100,4,2,1,60,0,0
118856,-100,4,2,1,5,0,0
118926,-100,4,2,1,60,0,0
119422,-100,4,2,1,5,0,0
119492,-100,4,2,1,60,0,0
121332,-66.6666666666667,4,2,1,70,0,0
121544,-66.6666666666667,4,2,1,5,0,0
121615,-100,4,2,1,70,0,0
122040,-66.6666666666667,4,2,1,70,0,0
122606,-100,4,2,1,20,0,0
126426,-133.333333333333,4,2,1,50,0,0
126922,-133.333333333333,4,2,1,5,0,0
126992,-133.333333333333,4,2,1,50,0,0
127134,-166.666666666667,4,2,1,50,0,0
127700,-111.111111111111,4,2,1,50,0,0
127912,-111.111111111111,4,2,1,5,0,0
127983,-111.111111111111,4,2,1,50,0,0
128266,-133.333333333333,4,2,1,50,0,0
129398,-100,4,2,1,50,0,0
129610,-100,4,2,1,5,0,0
129681,-133.333333333333,4,2,1,50,0,0
130389,-125,4,2,1,55,0,0
130742,-125,4,2,1,5,0,0
130813,-100,4,2,1,60,0,0
131025,-100,4,2,1,5,0,0
131096,-83.3333333333333,4,2,1,65,0,0
131308,-83.3333333333333,4,2,1,5,0,0
131379,-133.333333333333,4,2,1,55,0,0
132228,-133.333333333333,4,2,1,20,0,0
132511,-166.666666666667,4,2,1,50,0,0
132724,-166.666666666667,4,2,1,5,0,0
132794,-90.9090909090909,4,2,1,70,0,0
133997,-90.9090909090909,4,2,1,5,0,0
134068,-90.9090909090909,4,2,1,70,0,0
138525,-90.9090909090909,4,2,1,5,0,0
138596,-90.9090909090909,4,2,1,70,0,0
139799,-90.9090909090909,4,2,1,5,0,0
139870,-90.9090909090909,4,2,1,70,0,0
140790,-90.9090909090909,4,2,1,5,0,0
140860,-90.9090909090909,4,2,1,70,0,0
142912,-90.9090909090909,4,2,1,5,0,0
142983,-90.9090909090909,4,2,1,70,0,0
143620,-90.9090909090909,4,2,1,5,0,0
143691,-90.9090909090909,4,2,1,70,0,0
147441,-90.9090909090909,4,2,1,5,0,0
147511,-90.9090909090909,4,2,1,70,0,0
148148,-90.9090909090909,4,2,1,5,0,0
148219,-90.9090909090909,4,2,1,70,0,0
149775,-76.9230769230769,4,2,1,70,0,0
150058,-66.6666666666667,4,2,1,70,0,0
150341,-90.9090909090909,4,2,1,70,0,0
150908,-90.9090909090909,4,2,1,75,0,0
155436,-90.9090909090909,4,2,1,80,0,0
157700,-90.9090909090909,4,2,1,50,0,0
157983,-90.9090909090909,4,2,1,60,0,0
158266,-66.6666666666667,4,2,1,70,0,0
158549,-66.6666666666667,4,2,1,80,0,0
158832,-100,4,2,1,60,0,0
159115,-100,4,2,1,60,0,0
159964,-133.333333333333,4,2,1,40,0,0
160176,-133.333333333333,4,2,1,5,0,0
160247,-133.333333333333,4,2,1,30,0,0
160459,-133.333333333333,4,2,1,5,0,0
160530,-133.333333333333,4,2,1,30,0,0
160742,-133.333333333333,4,2,1,5,0,0
160813,-133.333333333333,4,2,1,30,0,0
161025,-133.333333333333,4,2,1,5,0,0
161096,-133.333333333333,4,2,1,30,0,0
162511,-133.333333333333,4,2,1,30,0,0
164492,-133.333333333333,4,2,1,5,0,0

[Colours]
Combo1 : 160,64,219
Combo2 : 252,12,96
Combo3 : 253,236,176
Combo4 : 95,192,136
Combo5 : 80,107,239
Combo6 : 52,211,204

[HitObjects]
310,105,342,6,0,L|400:93,1,71.9999978027344,2|0,0:0|0:0,0:0:0:0:
461,31,625,1,0,0:0:0:0:
454,162,766,2,0,L|500:176,4,35.9999989013672,2|0|0|0|0,0:0|0:0|0:0|0:0|0:0,0:0:0:0:
380,213,1191,2,0,P|338:220|315:244,1,71.9999978027344,2|0,0:0|0:0,0:0:0:0:
191,368,1474,2,0,B|175:321|175:321|190:272|190:272|163:214,1,143.999995605469,2|0,0:0|0:0,0:0:0:0:
88,182,1898,2,0,L|54:171,4,35.9999989013672,2|0|0|0|0,0:0|0:0|0:0|0:0|0:0,0:0:0:0:
32,292,2323,2,0,P|85:288|110:269,1,71.9999978027344,2|0,0:0|0:0,0:0:0:0:
163,128,2606,6,0,P|220:129|256:190,1,107.999996704102,2|0,0:0|0:0,0:0:0:0:
262,186,2889,1,0,0:0:0:0:
346,250,3030,1,2,0:0:0:0:
346,250,3101,1,0,0:0:0:0:
346,250,3172,2,0,L|369:172,1,71.9999978027344,0|0,0:0|0:0,0:0:0:0:
454,80,3455,2,0,P|436:47|337:32,1,143.999995605469,2|0,0:0|0:0,0:0:0:0:
338,32,3879,1,2,0:0:0:0:
295,140,4021,2,0,L|201:166,1,80,0|2,0:0|0:0,0:0:0:0:
152,217,4304,1,0,0:0:0:0:
19,129,4445,5,0,3:0:0:0:
87,46,4587,2,0,B|120:85|120:85|103:165,1,95.9999970703126,8|0,0:0|0:0,0:0:0:0:
136,108,5011,6,0,L|164:-1,2,95.9999970703126,6|0|0,0:3|0:0|0:0,0:0:0:0:
158,235,5436,2,0,P|205:217|236:180,1,95.9999970703126,14|0,0:0|3:0,0:0:0:0:
47,152,5719,1,2,3:0:0:0:
76,248,5860,2,0,B|138:266|138:266|177:326|177:326|237:339,1,191.999994140625,14|2,0:0|3:0,0:0:0:0:
359,238,6285,1,8,0:0:0:0:
481,350,6426,1,0,3:0:0:0:
362,379,6568,1,2,3:0:0:0:
349,366,6709,1,0,3:0:0:0:
335,357,6851,2,0,L|357:250,1,95.9999970703126,8|0,0:0|0:0,0:0:0:0:
461,87,7134,5,2,3:0:0:0:
461,87,7275,2,0,P|393:127|284:95,1,191.999994140625,12|2,0:0|3:0,0:0:0:0:
212,229,7700,2,0,B|229:188|229:188|202:126,1,95.9999970703126,12|0,0:0|0:0,0:0:0:0:
137,10,7983,1,2,0:3:0:0:
137,10,8125,2,0,L|240:27,1,95.9999970703126,12|0,0:0|0:0,0:0:0:0:
402,44,8408,1,2,3:0:0:0:
317,77,8549,2,0,P|297:124|304:168,1,95.9999970703126,8|0,0:0|0:0,0:0:0:0:
312,187,8761,1,0,0:0:0:0:
312,187,8832,2,0,L|421:217,1,95.9999970703126,10|8,0:3|0:0,0:0:0:0:
299,365,9115,1,8,0:0:0:0:
213,222,9257,1,8,0:0:0:0:
140,315,9398,6,0,L|159:372,3,47.9999985351563,2|0|0|0,0:3|0:0|0:0|3:0,0:0:0:0:
116,347,9681,2,0,L|85:245,1,95.9999970703126,4|2,0:0|0:3,0:0:0:0:
195,239,9964,2,0,L|226:133,1,95.9999970703126,8|0,0:0|0:0,0:0:0:0:
33,198,10247,2,0,L|1:93,1,95.9999970703126,10|0,0:3|0:0,0:0:0:0:
176,25,10530,6,0,P|103:49|76:42,1,95.9999970703126,8|2,0:0|0:3,0:0:0:0:
240,124,10813,2,0,P|215:184|169:211,1,95.9999970703126,8|0,0:0|3:0,0:0:0:0:
168,219,11025,1,0,3:0:0:0:
168,219,11096,1,14,0:3:0:0:
72,319,11238,1,8,0:0:0:0:
72,319,11308,1,8,0:0:0:0:
72,319,11379,2,0,L|121:338,3,47.9999985351563,8|8|0|0,0:0|0:0|3:0|3:0,0:0:0:0:
127,362,11662,6,0,B|179:336|179:336|247:347,1,95.9999970703126,6|0,0:3|0:0,0:0:0:0:
342,374,11945,2,0,P|391:327|364:230,1,143.999995605469,8|0,0:0|0:0,0:0:0:0:
372,237,12228,2,0,L|269:214,1,95.9999970703126,8|0,3:2|3:0,0:0:0:0:
409,137,12511,2,0,B|467:144|467:144|529:106,2,95.9999970703126,10|0|8,0:3|3:0|0:0,0:0:0:0:
271,34,12936,1,2,3:0:0:0:
271,34,13007,1,0,0:0:0:0:
271,34,13077,2,0,P|224:9|175:21,1,95.9999970703126,12|0,0:0|0:0,0:0:0:0:
112,106,13360,1,10,0:3:0:0:
119,136,13502,1,0,3:0:0:0:
126,164,13643,1,8,0:0:0:0:
198,208,13785,1,8,0:0:0:0:
277,176,13926,6,0,P|304:231|279:315,1,143.999995605469,2|2,0:3|0:0,0:0:0:0:
284,308,14351,2,0,L|375:343,1,71.9999978027344,2|0,0:3|0:0,0:0:0:0:
482,279,14634,1,2,0:0:0:0:
482,279,14775,2,0,L|506:187,1,71.9999978027344,2|2,0:3|0:0,0:0:0:0:
445,357,15058,2,0,P|404:298|398:227,1,143.999995605469,0|0,0:0|0:0,0:0:0:0:
491,103,15483,1,0,0:0:0:0:
491,103,15625,2,0,P|447:128|435:155,1,71.9999978027344,2|0,0:3|0:0,0:0:0:0:
311,189,15908,2,0,P|363:210|382:247,1,71.9999978027344,2|0,0:0|0:0,0:0:0:0:
281,327,16191,6,0,L|136:304,1,143.999995605469,4|0,3:2|0:0,0:0:0:0:
118,316,16474,2,0,L|91:223,1,71.9999978027344,8|0,0:0|0:0,0:0:0:0:
77,149,16757,1,0,0:0:0:0:
93,160,16898,1,0,3:0:0:0:
203,114,17040,2,0,L|221:35,1,71.9999978027344,8|0,0:0|3:0,0:0:0:0:
245,21,17252,1,0,0:0:0:0:
245,21,17323,2,0,P|160:59|91:33,1,143.999995605469,0|10,0:0|0:0,0:0:0:0:
0,157,17747,1,2,0:0:0:0:
72,210,17889,2,0,L|164:167,1,71.9999978027344,0|2,0:0|3:2,0:0:0:0:
218,234,18172,1,8,0:0:0:0:
225,248,18313,1,0,0:0:0:0:
294,367,18455,6,0,P|333:320|418:323,1,143.999995605469,2|0,3:2|0:0,0:0:0:0:
438,333,18738,2,0,L|457:244,1,71.9999978027344,8|0,0:0|0:0,0:0:0:0:
465,222,18950,1,0,0:0:0:0:
465,222,19021,1,0,0:0:0:0:
379,234,19162,1,0,0:0:0:0:
300,182,19304,2,0,P|249:205|234:242,1,71.9999978027344,8|0,0:0|0:0,0:0:0:0:
331,325,19587,2,0,B|344:282|344:282|367:268|367:268|389:205,1,107.999996704102,0|0,3:0|0:0,0:0:0:0:
386,216,19870,2,0,L|367:134,1,71.9999978027344,10|2,0:0|0:0,0:0:0:0:
354,44,20153,1,0,0:0:0:0:
362,29,20294,1,2,3:2:0:0:
287,110,20436,2,0,P|249:85|227:10,1,107.999996704102,8|0,0:0|0:0,0:0:0:0:
228,9,20719,6,0,B|192:62|192:62|118:66|118:66|64:140,1,191.999994140625,2|8,3:2|0:0,0:0:0:0:
47,196,21143,1,0,0:0:0:0:
163,240,21285,2,0,L|215:253,2,35.9999989013672,0|0|0,0:0|0:0|3:0,0:0:0:0:
83,268,21568,1,8,0:0:0:0:
229,173,21709,2,0,P|267:206|267:299,1,143.999995605469,0|0,3:0|3:0,0:0:0:0:
199,331,22134,2,0,L|125:357,1,71.9999978027344,8|2,0:0|0:0,0:0:0:0:
37,270,22417,2,0,L|114:245,1,71.9999978027344,0|2,0:0|3:2,0:0:0:0:
119,212,22629,1,0,0:0:0:0:
119,212,22700,2,0,L|136:162,3,35.9999989013672,8|0|0|0,0:0|0:0|0:0|0:0,0:0:0:0:
87,116,22983,6,0,B|148:129|148:129|210:98,1,95.9999970703126,2|0,3:2|0:0,0:0:0:0:
189,99,23195,2,0,P|238:34|315:46,1,143.999995605469,0|0,0:0|0:0,0:0:0:0:
430,186,23549,2,0,L|494:209,3,47.9999985351563,2|2|2|2,0:0|0:0|3:0|0:0,0:0:0:0:
352,155,23832,2,0,L|321:165,6,23.9999992675781,10|2|2|2|2|2|2,0:0|0:0|0:0|0:0|0:0|0:0|0:0,0:0:0:0:
406,102,24115,6,0,L|426:-6,1,95.9999970703126,0|0,3:0|0:0,0:0:0:0:
288,182,24398,2,0,L|307:73,1,95.9999970703126,0|0,3:0|0:0,0:0:0:0:
169,241,24681,2,0,L|188:133,1,95.9999970703126,0|0,3:0|0:0,0:0:0:0:
130,83,24893,1,8,0:0:0:0:
130,83,24964,2,0,P|82:73|26:106,1,95.9999970703126,0|8,3:0|0:0,0:0:0:0:
74,263,25247,6,0,P|132:246|164:206,1,95.9999970703126,4|0,0:0|0:0,0:0:0:0:
199,138,25530,1,8,0:0:0:0:
259,329,25672,1,2,0:0:0:0:
341,270,25813,2,0,L|451:308,1,95.9999970703126,0|2,3:0|0:0,0:0:0:0:
369,189,26096,1,8,0:0:0:0:
271,350,26238,1,2,0:0:0:0:
175,272,26379,6,0,B|151:222|151:222|178:154|178:154|144:79,1,191.999994140625,0|8,3:0|0:0,0:0:0:0:
92,153,26804,1,2,0:0:0:0:
239,215,26945,2,0,P|280:200|307:154,1,95.9999970703126,0|2,3:0|0:0,0:0:0:0:
404,126,27228,2,0,P|390:64|350:35,1,95.9999970703126,8|2,0:0|0:0,0:0:0:0:
273,31,27511,6,0,L|329:181,1,143.999995605469,0|0,3:0|0:0,0:0:0:0:
338,194,27794,2,0,L|446:210,1,95.9999970703126,8|2,0:0|0:0,0:0:0:0:
501,290,28077,1,0,3:0:0:0:
492,320,28219,1,2,0:0:0:0:
372,344,28360,1,8,0:0:0:0:
365,375,28502,1,2,0:0:0:0:
277,262,28643,6,0,P|217:219|149:249,1,143.999995605469,2|0,3:2|0:0,0:0:0:0:
87,324,28926,2,0,P|154:293|168:217,1,143.999995605469,10|0,0:0|0:0,0:0:0:0:
129,112,29209,2,0,P|121:185|176:232,1,143.999995605469,2|0,3:2|0:0,0:0:0:0:
198,223,29492,2,0,L|303:180,1,95.9999970703126,10|0,0:0|0:0,0:0:0:0:
407,65,29775,6,0,L|307:31,1,95.9999970703126,0|0,3:0|0:0,0:0:0:0:
286,26,29988,1,0,0:0:0:0:
286,26,30058,1,8,0:0:0:0:
153,143,30200,1,2,0:0:0:0:
87,104,30341,2,0,L|54:8,2,95.9999970703126,0|2|8,3:0|0:0|0:0,0:0:0:0:
113,216,30766,6,0,P|166:172|286:203,1,191.999994140625,2|0,0:0|0:0,0:0:0:0:
329,266,31191,2,0,L|300:389,1,95.9999970703126,8|2,0:0|0:0,0:0:0:0:
166,319,31474,1,0,3:0:0:0:
166,319,31544,1,0,0:0:0:0:
166,319,31615,1,2,0:0:0:0:
95,368,31757,2,0,P|53:331|37:281,1,95.9999970703126,8|2,0:0|0:0,0:0:0:0:
16,158,32040,6,0,L|111:183,1,95.9999970703126,0|0,3:0|0:0,0:0:0:0:
130,208,32252,2,0,P|168:170|188:63,1,143.999995605469,0|2,0:0|0:0,0:0:0:0:
128,17,32606,1,0,3:0:0:0:
110,43,32747,1,2,0:0:0:0:
266,50,32889,1,8,0:0:0:0:
249,22,33030,1,2,0:0:0:0:
189,112,33172,6,0,L|299:151,1,95.9999970703126,2|0,3:2|0:0,0:0:0:0:
269,263,33455,2,0,L|365:210,1,95.9999970703126,10|0,0:0|0:0,0:0:0:0:
434,292,33738,2,0,L|477:194,1,95.9999970703126,2|8,3:2|0:0,0:0:0:0:
475,168,33950,1,8,0:0:0:0:
475,168,34021,2,0,L|448:113,3,47.9999985351563,10|8|0|0,0:0|0:0|3:0|3:0,0:0:0:0:
494,51,34304,6,0,P|445:80|369:58,1,128,4|2,3:2|0:3,0:0:0:0:
316,129,34870,2,0,P|266:88|204:92,1,128,12|2,0:0|0:3,0:0:0:0:
92,232,35294,1,8,0:0:0:0:
38,132,35436,2,0,B|70:126|70:126|146:167,1,96,4|0,0:0|0:0,0:0:0:0:
146,154,35719,2,0,L|175:234,1,64,2|0,0:3|0:0,0:0:0:0:
238,247,36002,2,0,L|219:322,1,64,12|8,0:3|0:0,0:0:0:0:
161,358,36285,1,2,0:3:0:0:
182,375,36426,1,0,0:0:0:0:
309,374,36568,6,0,B|384:350|384:350,1,64,4|0,0:0|0:0,0:0:0:0:
419,256,36851,2,0,P|419:214|396:182,1,64,2|0,0:3|3:0,0:0:0:0:
398,163,37063,1,0,3:0:0:0:
398,163,37134,2,0,P|452:136|512:170,1,128,12|2,0:0|0:3,0:0:0:0:
337,331,37700,1,4,0:2:0:0:
237,192,37983,2,0,P|182:187|133:245,1,128,2|8,3:0|0:0,0:0:0:0:
275,274,38408,1,8,0:0:0:0:
321,211,38549,2,0,L|306:127,1,64,0|8,3:0|0:0,0:0:0:0:
285,43,38832,6,0,P|242:14|165:32,1,128,4|2,3:2|0:3,0:0:0:0:
120,150,39398,2,0,P|52:131|24:64,1,128,12|2,0:0|0:3,0:0:0:0:
79,29,39823,1,8,0:0:0:0:
187,110,39964,2,0,B|160:144|160:144|180:217,1,96,4|0,3:2|0:0,0:0:0:0:
200,218,40247,2,0,P|233:218|276:198,1,64,2|0,0:3|0:0,0:0:0:0:
320,125,40530,1,14,0:0:0:0:
300,53,40672,1,0,0:0:0:0:
374,28,40813,2,0,L|420:22,2,32,2|0|2,0:3|0:0|0:0,0:0:0:0:
488,132,41096,6,0,L|404:107,1,71.9999978027344,0|8,3:0|0:0,0:0:0:0:
394,105,41308,1,0,0:0:0:0:
394,105,41379,1,8,0:0:0:0:
335,239,41521,2,0,L|419:214,1,71.9999978027344,0|8,3:0|0:0,0:0:0:0:
429,212,41733,1,0,0:0:0:0:
429,212,41804,1,8,0:0:0:0:
496,308,41945,1,0,3:2:0:0:
496,308,42087,6,0,P|421:310|378:377,1,143.999995605469,12|0,0:0|3:0,0:0:0:0:
302,380,42511,2,0,P|301:332|273:298,1,71.9999978027344,14|0,0:0|0:0,0:0:0:0:
184,266,42794,1,8,0:0:0:0:
257,176,42936,1,8,0:0:0:0:
103,164,43077,1,10,0:0:0:0:
155,80,43219,2,0,L|189:184,1,80,10|0,0:0|3:0,0:0:0:0:
256,192,44492,12,0,45341,3:0:0:0:
206,254,45625,6,0,P|148:249|79:129,1,167.999994873047,4|10,0:0|0:0,0:0:0:0:
94,30,46049,1,0,0:0:0:0:
161,93,46191,2,0,L|241:67,1,83.9999974365235,2|0,3:2|0:0,0:0:0:0:
324,38,46474,1,10,0:0:0:0:
447,237,46615,6,0,B|399:255|399:255|323:222,1,125.999996154785,4|0,0:0|0:0,0:0:0:0:
310,240,46898,2,0,L|295:136,1,83.9999974365235,0|10,3:0|0:0,0:0:0:0:
368,23,47181,1,0,0:0:0:0:
368,23,47323,2,0,P|410:46|430:90,1,83.9999974365235,2|0,3:2|0:0,0:0:0:0:
372,136,47606,1,10,0:0:0:0:
231,44,47747,5,0,0:0:0:0:
231,44,47818,1,0,0:0:0:0:
231,44,47889,2,0,P|160:27|81:96,1,167.999994873047,4|10,3:2|0:0,0:0:0:0:
147,202,48313,1,0,0:0:0:0:
79,257,48455,2,0,L|105:370,1,83.9999974365235,2|0,3:2|3:0,0:0:0:0:
270,375,48738,1,10,0:0:0:0:
164,381,48879,6,0,B|145:333|145:333|183:216,1,167.999994873047,12|0,0:0|3:0,0:0:0:0:
327,220,49304,1,10,0:0:0:0:
222,144,49445,1,4,3:2:0:0:
296,293,49587,2,0,P|347:299|389:273,1,83.9999974365235,2|0,3:2|3:0,0:0:0:0:
430,200,49870,2,0,L|480:187,3,41.9999987182618,8|8|8|8,0:0|0:0|0:0|0:0,0:0:0:0:
484,160,50153,6,0,L|513:275,1,83.9999974365235,4|0,3:2|0:0,0:0:0:0:
423,377,50436,2,0,L|386:270,1,83.9999974365235,10|0,0:0|0:0,0:0:0:0:
313,243,50719,1,2,3:2:0:0:
449,164,50860,1,0,0:0:0:0:
309,99,51002,1,10,0:0:0:0:
309,99,51143,6,0,P|262:102|215:77,1,83.9999974365235,4|0,3:2|0:0,0:0:0:0:
373,168,51426,2,0,P|425:183|470:174,1,83.9999974365235,0|10,3:0|0:0,0:0:0:0:
485,21,51709,1,0,0:0:0:0:
396,53,51851,2,0,L|370:168,1,83.9999974365235,2|0,3:2|3:0,0:0:0:0:
270,196,52134,1,10,0:0:0:0:
193,165,52275,1,0,0:0:0:0:
102,32,52417,5,4,3:2:0:0:
16,66,52558,1,0,0:0:0:0:
23,158,52700,2,0,P|82:160|130:232,1,125.999996154785,10|0,0:0|0:0,0:0:0:0:
130,232,52983,2,0,P|68:254|49:292,1,83.9999974365235,2|0,3:2|0:0,0:0:0:0:
151,375,53266,1,10,0:0:0:0:
228,327,53408,6,0,P|244:260|217:167,1,167.999994873047,4|0,3:2|3:0,0:0:0:0:
142,45,53832,2,0,L|253:16,1,83.9999974365235,14|8,0:0|3:2,0:0:0:0:
256,17,54044,1,8,0:0:0:0:
256,17,54115,2,0,P|280:76|311:108,1,83.9999974365235,2|8,3:2|0:0,0:0:0:0:
463,223,54398,2,0,L|491:181,3,41.9999987182618,8|0|0|0,0:0|3:0|3:0|3:0,0:0:0:0:
505,160,54681,6,0,P|445:142|397:154,1,83.9999974365235,6|0,0:0|0:0,0:0:0:0:
287,296,54964,1,8,0:0:0:0:
393,264,55106,2,0,P|347:272|297:258,1,83.9999974365235,2|0,3:2|0:0,0:0:0:0:
190,180,55389,1,0,3:0:0:0:
310,129,55530,2,0,P|256:123|177:174,1,125.999996154785,10|0,0:0|0:0,0:0:0:0:
176,172,55813,6,0,L|124:80,1,83.9999974365235,0|0,3:0|0:0,0:0:0:0:
0,38,56096,1,10,0:0:0:0:
124,23,56238,2,0,P|96:131|43:179,1,167.999994873047,8|0,0:0|3:0,0:0:0:0:
0,235,56662,1,10,0:0:0:0:
59,380,56804,1,0,0:0:0:0:
106,296,56945,6,0,P|156:261|206:261,1,83.9999974365235,4|0,0:0|0:0,0:0:0:0:
358,278,57228,1,10,0:0:0:0:
410,215,57370,2,0,P|370:190|319:188,1,83.9999974365235,0|2,3:0|0:0,0:0:0:0:
249,294,57653,2,0,L|265:386,2,83.9999974365235,0|10|0,0:0|0:0|0:0,0:0:0:0:
313,151,58077,5,4,0:0:0:0:
402,126,58219,1,0,0:0:0:0:
438,255,58360,5,10,0:0:0:0:
348,230,58502,1,0,0:0:0:0:
324,333,58643,6,0,P|376:366|427:356,1,83.9999974365235,4|8,0:0|0:0,0:0:0:0:
436,342,58856,1,8,0:0:0:0:
436,342,58926,2,0,L|454:391,2,41.9999987182618,8|8|0,0:0|0:0|3:0,0:0:0:0:
509,283,59209,6,0,L|480:194,1,83.9999974365235,6|0,0:0|0:0,0:0:0:0:
349,144,59492,1,8,0:0:0:0:
304,242,59634,2,0,L|336:148,1,83.9999974365235,2|0,0:0|3:0,0:0:0:0:
501,14,59917,1,0,0:0:0:0:
466,99,60058,2,0,P|407:102|342:52,1,125.999996154785,10|0,0:0|0:0,0:0:0:0:
336,43,60341,5,0,3:0:0:0:
263,101,60483,1,0,0:0:0:0:
175,71,60625,1,10,0:0:0:0:
105,131,60766,2,0,P|116:196|236:232,1,167.999994873047,8|0,0:0|0:0,0:0:0:0:
274,186,61191,1,10,0:0:0:0:
250,15,61332,1,0,0:0:0:0:
126,144,61474,6,0,L|219:113,1,83.9999974365235,4|0,0:0|3:0,0:0:0:0:
333,267,61757,1,10,0:0:0:0:
379,195,61898,2,0,L|286:164,1,83.9999974365235,0|2,3:0|3:2,0:0:0:0:
156,266,62181,1,0,3:0:0:0:
257,246,62323,1,10,0:0:0:0:
203,161,62464,1,0,0:0:0:0:
76,185,62606,5,8,0:0:0:0:
72,153,62747,1,0,0:0:0:0:
69,122,62889,2,0,P|130:121|146:132,1,71.9999978027344,0|0,0:0|0:0,0:0:0:0:
201,184,63172,2,0,B|252:103|182:120|232:37,1,143.999995605469,0|0,0:0|0:0,0:0:0:0:
238,32,63879,6,0,P|287:63|329:67,1,80,6|0,3:0|3:0,0:0:0:0:
392,30,64162,1,0,3:0:0:0:
435,107,64304,2,0,L|522:86,2,80,14|0|2,0:0|0:0|3:0,0:0:0:0:
338,241,64728,2,0,L|308:137,1,80,12|0,0:0|0:0,0:0:0:0:
235,131,65011,1,2,0:3:0:0:
235,131,65153,2,0,P|187:157|152:163,1,80,8|0,0:0|0:0,0:0:0:0:
41,230,65436,1,6,3:0:0:0:
30,259,65577,1,0,3:0:0:0:
21,288,65719,2,0,P|65:312|148:306,1,120,8|0,0:0|0:0,0:0:0:0:
160,291,66002,5,2,3:0:0:0:
255,324,66143,2,0,L|225:234,1,80,12|0,0:0|3:0,0:0:0:0:
271,156,66426,1,2,3:0:0:0:
326,256,66568,2,0,L|356:164,1,80,12|0,0:0|3:0,0:0:0:0:
497,324,66851,1,2,3:0:0:0:
423,367,66992,2,0,B|409:319|409:319|433:260|433:260|407:181,1,160,12|2,0:0|3:0,0:0:0:0:
349,147,67417,2,0,P|295:179|245:170,1,80,8|0,0:0|3:0,0:0:0:0:
244,107,67700,1,14,0:3:0:0:
375,38,67841,1,8,0:0:0:0:
375,38,67912,1,8,0:0:0:0:
375,38,67983,2,0,L|393:98,3,40,0|0|0|0,3:0|3:0|3:0|3:0,0:0:0:0:
450,124,68266,5,2,0:3:0:0:
458,127,68337,1,0,0:0:0:0:
466,130,68408,1,0,0:0:0:0:
474,133,68478,1,0,0:0:0:0:
482,136,68549,1,2,0:0:0:0:
436,276,68832,6,0,L|367:265,1,60.0000022888184,2|0,0:0|0:0,0:0:0:0:
345,180,69115,2,0,L|277:199,1,60.0000022888184,2|0,0:3|3:0,0:0:0:0:
238,289,69398,2,0,L|188:232,1,60.0000022888184,0|2,0:0|3:3,0:0:0:0:
146,157,69681,2,0,L|114:225,1,60.0000022888184,2|0,0:0|0:0,0:0:0:0:
80,291,69964,1,2,0:0:0:0:
0,261,70106,1,0,0:0:0:0:
21,246,70247,1,2,0:0:0:0:
51,165,70389,1,8,0:0:0:0:
73,147,70530,6,0,P|50:113|24:100,1,60.0000022888184,2|0,0:0|0:0,0:0:0:0:
149,85,70955,2,0,P|149:48|125:14,1,60.0000022888184,2|0,0:3|0:0,0:0:0:0:
246,236,71379,6,0,P|260:268|285:288,1,60.0000022888184,2|0,0:3|0:0,0:0:0:0:
305,363,71804,2,0,P|350:361|378:347,1,60.0000022888184,2|0,0:3|0:0,0:0:0:0:
453,357,72087,5,0,0:0:0:0:
453,357,72228,2,0,P|476:329|486:301,1,60.0000022888184,2|0,0:0|0:3,0:0:0:0:
508,193,72511,1,0,0:0:0:0:
478,191,72653,1,0,0:0:0:0:
465,213,72794,6,0,P|434:197|436:36,1,192,0|0,3:0|3:0,0:0:0:0:
414,56,73360,2,0,P|425:111|313:188,1,192,8|0,0:0|0:0,0:0:0:0:
277,136,73926,2,0,L|190:164,2,64,0|0|0,0:0|0:0|3:0,0:0:0:0:
307,39,74351,1,0,0:0:0:0:
298,23,74492,1,8,0:0:0:0:
200,15,74634,1,0,0:0:0:0:
209,31,74775,1,0,0:0:0:0:
147,95,74917,1,0,0:0:0:0:
135,77,75058,6,0,P|84:73|38:142,1,128,0|0,3:0|0:0,0:0:0:0:
87,193,75483,1,0,3:0:0:0:
87,193,75625,2,0,L|70:276,2,64,8|0|0,0:0|0:0|3:0,0:0:0:0:
141,332,76049,1,0,0:0:0:0:
141,332,76191,2,0,L|53:349,1,64,0|0,0:0|0:0,0:0:0:0:
15,244,76474,2,0,L|91:270,1,64,0|0,3:0|0:0,0:0:0:0:
223,315,76757,1,10,0:0:0:0:
23,98,77323,6,0,P|54:114|52:275,1,192,0|0,3:0|3:0,0:0:0:0:
73,254,77889,2,0,P|62:199|174:122,1,192,8|0,0:0|0:0,0:0:0:0:
221,159,78455,2,0,L|242:231,2,64,0|0|0,0:0|0:0|3:0,0:0:0:0:
287,62,78879,1,0,0:0:0:0:
305,57,79021,1,8,0:0:0:0:
368,144,79162,1,0,0:0:0:0:
350,139,79304,1,0,0:0:0:0:
295,236,79445,1,0,0:0:0:0:
316,230,79587,6,0,P|374:254|463:269,1,128,0|0,3:0|0:0,0:0:0:0:
472,204,80011,2,0,L|492:126,1,60.0000022888184,0|8,3:0|0:0,0:0:0:0:
423,80,80294,2,0,L|407:150,1,60.0000022888184,0|0,0:0|3:0,0:0:0:0:
339,156,80577,1,0,0:0:0:0:
210,72,80719,2,0,L|142:25,2,47.9999985351563,8|0|0,0:0|0:0|3:0,0:0:0:0:
293,55,81002,2,0,L|253:159,1,95.9999970703126,8|0,0:0|3:0,0:0:0:0:
301,254,81285,2,0,L|346:237,3,30.0000011444092,0|0|0|0,3:3|3:3|3:3|3:3,0:0:0:0:
388,284,81568,2,0,L|430:275,2,30.0000011444092,0|0|0,3:3|3:3|3:0,0:0:0:0:
212,371,81851,6,0,P|166:369|125:354,1,80,2|0,0:0|0:0,0:0:0:0:
108,275,82134,1,8,0:0:0:0:
259,228,82275,1,2,0:0:0:0:
234,340,82417,2,0,P|204:308|190:264,1,80,0|2,3:0|0:0,0:0:0:0:
240,148,82700,1,8,0:0:0:0:
415,242,82841,1,2,0:0:0:0:
273,342,82983,6,0,P|264:287|333:211,1,160,0|8,3:0|0:0,0:0:0:0:
467,310,83408,1,2,0:0:0:0:
467,310,83549,2,0,P|489:274|489:228,1,80,0|2,3:0|0:0,0:0:0:0:
502,155,83832,2,0,P|456:157|414:192,1,80,8|2,0:0|0:0,0:0:0:0:
354,282,84115,6,0,B|321:233|321:233|350:124,1,160,0|8,3:0|0:0,0:0:0:0:
376,30,84540,1,2,0:0:0:0:
286,73,84681,2,0,L|196:105,2,80,0|2|8,3:0|0:0|0:0,0:0:0:0:
386,12,85106,1,2,0:0:0:0:
485,138,85247,6,0,P|443:174|367:168,1,120,2|0,3:2|0:0,0:0:0:0:
339,182,85530,2,0,P|367:243|416:274,1,120,10|0,0:0|0:0,0:0:0:0:
293,267,85813,2,0,P|282:212|326:149,1,120,2|0,3:2|0:0,0:0:0:0:
339,145,86096,1,10,0:0:0:0:
364,51,86238,1,0,0:0:0:0:
223,13,86379,6,0,L|203:101,1,80,0|0,3:0|0:0,0:0:0:0:
197,122,86591,1,0,0:0:0:0:
197,122,86662,1,8,0:0:0:0:
161,283,86804,1,2,0:0:0:0:
101,220,86945,2,0,L|1:185,1,80,0|2,3:0|0:0,0:0:0:0:
26,20,87228,1,8,0:0:0:0:
26,20,87370,6,0,P|71:48|116:152,1,160,2|0,0:0|3:0,0:0:0:0:
207,181,87794,2,0,P|173:226|166:263,1,80,8|2,0:0|0:0,0:0:0:0:
208,363,88077,1,0,0:0:0:0:
104,305,88219,1,2,0:0:0:0:
104,305,88290,1,0,0:0:0:0:
104,305,88360,2,0,L|44:328,2,40,8|0|2,0:0|0:0|0:0,0:0:0:0:
258,254,88643,6,0,B|318:269|318:269|339:303,1,80,0|0,3:0|0:0,0:0:0:0:
338,302,88856,2,0,P|375:283|387:191,1,120,0|2,0:0|0:0,0:0:0:0:
372,51,89209,1,0,3:0:0:0:
304,80,89351,1,2,0:0:0:0:
362,125,89492,1,8,0:0:0:0:
434,99,89634,1,2,0:0:0:0:
285,71,89775,6,0,P|217:95|198:149,1,120,2|0,0:3|0:0,0:0:0:0:
194,249,90058,2,0,P|207:178|169:134,1,120,2|0,0:3|0:0,0:0:0:0:
89,139,90341,1,2,0:3:0:0:
88,138,90483,6,0,L|72:73,1,47.9999985351563,8|0,0:0|0:0,0:0:0:0:
85,19,90625,2,0,L|108:112,1,95.9999970703126,10|0,0:0|0:0,0:0:0:0:
196,259,90908,6,0,P|143:232|87:255,1,83.9999974365235,4|0,0:0|0:0,0:0:0:0:
92,261,91120,1,0,0:0:0:0:
92,261,91191,2,0,P|43:299|2:295,1,83.9999974365235,10|0,0:0|0:0,0:0:0:0:
0,139,91474,2,0,L|105:166,1,83.9999974365235,2|0,3:2|0:0,0:0:0:0:
113,234,91757,1,10,0:0:0:0:
246,169,91898,6,0,B|304:200|304:200|327:293,1,125.999996154785,4|0,3:2|0:0,0:0:0:0:
361,323,92181,2,0,L|338:210,1,83.9999974365235,0|10,3:0|0:0,0:0:0:0:
387,102,92464,1,0,0:0:0:0:
511,171,92606,1,2,3:2:0:0:
427,220,92747,1,0,0:0:0:0:
510,297,92889,2,0,P|449:323|417:313,1,83.9999974365235,10|0,0:0|0:0,0:0:0:0:
400,292,93101,1,0,0:0:0:0:
400,292,93172,6,0,P|346:278|296:316,1,83.9999974365235,4|0,3:2|0:0,0:0:0:0:
195,375,93455,1,10,0:0:0:0:
121,310,93596,2,0,L|21:349,2,83.9999974365235,0|2|0,0:0|3:2|0:0,0:0:0:0:
194,192,94021,1,10,0:0:0:0:
264,244,94162,6,0,B|313:142|209:165|288:57,1,167.999994873047,4|0,0:0|3:2,0:0:0:0:
289,54,94516,1,0,3:0:0:0:
289,54,94587,2,0,P|330:82|386:78,1,83.9999974365235,10|12,0:0|0:0,0:0:0:0:
220,159,94870,2,0,P|150:151|111:164,1,83.9999974365235,2|0,3:2|0:0,0:0:0:0:
28,309,95153,1,8,0:0:0:0:
24,296,95224,1,8,0:0:0:0:
20,283,95294,1,8,0:0:0:0:
16,270,95365,1,8,0:0:0:0:
14,257,95436,6,0,L|33:153,1,83.9999974365235,4|0,0:0|0:0,0:0:0:0:
45,84,95719,2,0,P|136:77|175:26,1,125.999996154785,10|0,0:0|0:0,0:0:0:0:
172,32,96002,1,2,3:2:0:0:
279,15,96143,1,0,0:0:0:0:
306,124,96285,1,10,0:0:0:0:
306,124,96426,6,0,L|396:93,1,83.9999974365235,4|0,3:2|0:0,0:0:0:0:
450,222,96709,2,0,P|410:213|372:159,1,83.9999974365235,0|10,3:0|0:0,0:0:0:0:
317,15,96992,1,0,0:0:0:0:
244,64,97134,2,0,L|230:174,1,83.9999974365235,2|0,3:2|3:0,0:0:0:0:
225,346,97417,2,0,P|274:317|260:222,1,125.999996154785,10|0,0:0|0:0,0:0:0:0:
270,236,97700,6,0,P|217:235|182:271,1,83.9999974365235,4|0,0:0|0:0,0:0:0:0:
113,343,97983,1,10,0:0:0:0:
34,314,98125,1,0,0:0:0:0:
74,239,98266,2,0,P|59:204|50:153,1,83.9999974365235,2|0,3:2|0:0,0:0:0:0:
113,21,98549,1,10,0:0:0:0:
151,202,98691,6,0,P|177:142|286:106,1,167.999994873047,4|0,3:2|3:0,0:0:0:0:
427,183,99115,2,0,P|468:155|483:119,1,83.9999974365235,10|8,0:0|0:0,0:0:0:0:
475,89,99327,1,8,0:0:0:0:
475,89,99398,1,10,0:0:0:0:
351,28,99540,1,8,0:0:0:0:
351,28,99610,1,8,0:0:0:0:
351,28,99681,2,0,L|318:94,3,41.9999987182618,8|8|0|0,0:0|0:0|3:0|3:0,0:0:0:0:
327,109,99964,6,0,L|212:79,1,83.9999974365235,6|0,3:2|0:0,0:0:0:0:
173,226,100247,1,8,0:0:0:0:
239,281,100389,2,0,L|327:242,1,83.9999974365235,2|0,0:0|3:0,0:0:0:0:
506,327,100672,1,0,0:0:0:0:
441,378,100813,2,0,L|281:351,1,125.999996154785,10|0,0:0|0:0,0:0:0:0:
293,371,101096,6,0,L|265:253,1,83.9999974365235,0|0,3:0|0:0,0:0:0:0:
113,183,101379,1,10,0:0:0:0:
58,239,101521,2,0,P|135:285|211:253,1,167.999994873047,8|0,0:0|0:0,0:0:0:0:
283,299,101945,2,0,P|307:250|298:214,1,83.9999974365235,10|0,0:0|0:0,0:0:0:0:
213,76,102228,6,0,P|184:104|115:128,1,83.9999974365235,4|0,0:0|0:0,0:0:0:0:
250,0,102511,1,10,0:0:0:0:
322,48,102653,2,0,P|381:59|439:55,1,83.9999974365235,0|2,0:0|3:2,0:0:0:0:
314,201,102936,2,0,L|287:116,2,83.9999974365235,0|10|0,0:0|0:0|0:0,0:0:0:0:
245,340,103360,5,4,0:0:0:0:
158,374,103502,1,0,0:0:0:0:
100,214,103643,5,10,0:0:0:0:
184,251,103785,1,8,0:0:0:0:
66,342,103926,6,0,L|42:286,3,41.9999987182618,2|0|8|8,3:2|0:0|0:0|0:0,0:0:0:0:
5,281,104209,2,0,L|29:225,3,41.9999987182618,8|8|8|8,0:0|0:0|0:0|0:0,0:0:0:0:
15,199,104492,6,0,P|79:200|117:176,1,83.9999974365235,6|0,3:2|0:0,0:0:0:0:
162,72,104775,1,8,0:0:0:0:
150,258,104917,2,0,P|200:200|203:165,1,83.9999974365235,2|0,0:0|3:0,0:0:0:0:
143,50,105200,1,0,0:0:0:0:
289,191,105341,2,0,P|288:124|242:52,1,125.999996154785,10|0,0:0|0:0,0:0:0:0:
242,52,105625,5,0,3:0:0:0:
187,125,105766,1,0,0:0:0:0:
100,134,105908,1,10,0:0:0:0:
48,59,106049,2,0,P|60:134|19:232,1,167.999994873047,8|0,0:0|0:0,0:0:0:0:
2,294,106474,1,10,0:0:0:0:
96,350,106615,1,0,0:0:0:0:
226,278,106757,6,0,L|198:177,1,83.9999974365235,4|0,0:0|0:0,0:0:0:0:
299,77,107040,1,10,0:0:0:0:
378,122,107181,2,0,L|349:222,1,83.9999974365235,0|2,3:0|3:2,0:0:0:0:
326,336,107464,1,0,3:0:0:0:
298,252,107606,1,10,0:0:0:0:
434,224,107747,1,0,0:0:0:0:
504,342,107889,5,8,0:0:0:0:
486,360,108030,1,0,0:0:0:0:
468,381,108172,2,0,P|432:363|403:324,1,71.9999978027344,0|0,0:0|0:0,0:0:0:0:
328,219,108455,2,0,P|287:250|329:338,1,143.999995605469,0|0,0:0|0:0,0:0:0:0:
437,256,109021,6,0,P|472:216|440:135,1,143.999995605469,0|8,0:0|0:0,0:0:0:0:
369,112,109445,1,0,0:0:0:0:
369,112,109516,1,0,0:0:0:0:
369,112,109587,2,0,L|312:134,2,35.9999989013672,0|0|0,0:0|0:0|0:0,0:0:0:0:
402,39,109870,2,0,P|364:30|315:7,1,71.9999978027344,8|0,0:0|0:0,0:0:0:0:
179,83,110153,6,0,L|194:238,1,143.999995605469,0|8,0:0|0:0,0:0:0:0:
273,188,110577,1,0,0:0:0:0:
273,188,110648,1,0,0:0:0:0:
273,188,110719,2,0,L|313:202,2,35.9999989013672,0|0|0,0:0|0:0|0:0,0:0:0:0:
163,116,111002,2,0,P|126:139|93:148,1,71.9999978027344,8|0,0:0|0:0,0:0:0:0:
16,269,111285,6,0,P|71:278|114:337,1,107.999996704102,2|0,0:0|0:0,0:0:0:0:
119,347,111568,1,8,0:0:0:0:
231,375,111709,2,0,B|243:336|243:336|220:287|220:287|241:222,1,143.999995605469,2|0,0:0|0:0,0:0:0:0:
270,169,112134,1,10,0:0:0:0:
203,124,112275,2,0,L|192:77,2,35.9999989013672,0|0|2,0:0|0:0|0:0,0:0:0:0:
336,220,112558,2,0,L|347:267,2,35.9999989013672,0|0|8,0:0|0:0|0:0,0:0:0:0:
151,223,112841,1,2,3:2:0:0:
151,223,112912,1,0,3:2:0:0:
151,223,112983,2,0,B|112:217|112:217|85:224|85:224|53:222|14:161,1,120.000004577637,10|0,0:2|3:0,0:0:0:0:
26,202,113549,6,0,P|30:148|85:103,1,120,4|0,0:0|0:0,0:0:0:0:
78,65,113832,2,0,P|125:68|150:90,1,80,2|0,0:3|0:0,0:0:0:0:
230,253,114115,2,0,P|291:235|326:182,1,120,12|0,0:0|0:0,0:0:0:0:
365,181,114398,2,0,P|365:152|319:103,1,80,2|8,0:3|0:0,0:0:0:0:
214,17,114681,6,0,B|202:52|202:52|226:79|226:79|188:112|185:166,1,160,6|2,3:2|3:0,0:0:0:0:
216,282,115106,1,0,0:0:0:0:
285,195,115247,1,14,0:3:0:0:
260,211,115389,1,8,0:0:0:0:
147,242,115530,1,2,0:3:0:0:
116,231,115672,1,2,0:3:0:0:
43,323,115813,5,4,3:2:0:0:
43,323,116096,2,0,L|136:364,1,80,2|0,0:3|3:0,0:0:0:0:
151,358,116308,1,0,3:0:0:0:
151,358,116379,2,0,B|205:329|205:329|244:367|311:366,1,160,12|2,0:0|0:3,0:0:0:0:
364,319,116804,1,8,0:3:0:0:
421,162,116945,6,0,B|460:129|460:129|500:183|456:255,1,160,12|2,0:3|3:0,0:0:0:0:
387,296,117370,1,0,3:0:0:0:
299,163,117511,6,0,B|296:134|296:134|301:118|301:118|290:94,1,71.9999978027344,2|2,0:0|0:0,0:0:0:0:
259,74,118077,6,0,P|311:35|386:61,1,120,4|0,3:2|0:0,0:0:0:0:
397,16,118360,2,0,P|437:61|433:110,1,80,2|0,0:3|0:0,0:0:0:0:
350,210,118643,2,0,P|301:191|237:221,1,120,12|0,0:0|0:0,0:0:0:0:
207,211,118926,2,0,P|190:265|209:304,1,80,2|8,0:3|0:0,0:0:0:0:
315,346,119209,6,0,B|339:366|339:366|366:361|366:361|414:394|480:368,1,160,4|2,0:0|3:0,0:0:0:0:
498,300,119634,1,0,0:0:0:0:
433,248,119775,1,10,0:3:0:0:
420,225,119917,1,0,3:0:0:0:
475,159,120058,1,2,3:0:0:0:
482,137,120200,1,0,0:3:0:0:
378,52,120341,5,4,0:0:0:0:
378,52,120483,2,0,L|392:113,2,40,8|8|8,0:0|0:0|0:0,0:0:0:0:
276,128,120766,1,0,3:0:0:0:
276,128,120908,2,0,L|293:72,2,40,8|8|8,0:0|0:0|0:0,0:0:0:0:
216,38,121191,5,0,3:0:0:0:
216,38,121332,2,0,P|128:72|120:153,1,180.000006866455,12|0,0:0|0:0,0:0:0:0:
126,162,121615,1,0,3:0:0:0:
200,199,121757,2,0,L|311:223,1,80,8|0,0:0|3:0,0:0:0:0:
478,245,122040,5,8,0:0:0:0:
439,378,122181,1,8,0:0:0:0:
340,274,122323,1,8,0:0:0:0:
419,304,122464,2,0,B|375:317|375:317|357:336|357:336|271:345,1,120.000004577637,8|0,0:0|0:0,0:0:0:0:
222,270,126426,5,0,3:0:0:0:
222,270,126497,1,0,3:0:0:0:
222,270,126568,2,0,B|189:299|151:290|151:290|134:325|134:325|107:332|57:323,1,180.000006866455,0|0,3:0|3:0,0:0:0:0:
16,140,127134,6,0,P|89:163|123:221,1,143.999995605469,12|0,0:0|0:0,0:0:0:0:
225,360,127700,2,0,P|219:320|256:263,1,107.999996704102,4|0,3:2|0:0,0:0:0:0:
276,247,127983,2,0,B|322:255|322:255|375:241,1,71.9999978027344,8|0,0:0|3:0,0:0:0:0:
481,94,128266,6,0,B|437:102|437:102|414:127|414:127|359:145,1,120.000004577637,6|0,3:0|0:0,0:0:0:0:
300,104,128691,1,8,0:0:0:0:
322,24,128832,1,0,3:0:0:0:
277,188,129115,1,8,0:0:0:0:
1,236,129398,6,0,B|36:255|71:253|71:253|95:278|95:278|126:277|150:296,1,160,2|0,3:0|0:0,0:0:0:0:
209,234,129823,1,8,0:0:0:0:
185,144,129964,1,0,3:0:0:0:
234,323,130247,1,8,0:0:0:0:
369,277,130389,5,0,0:0:0:0:
369,277,130459,1,0,0:0:0:0:
369,277,130530,2,0,P|440:299|467:279,1,96,6|0,3:0|0:0,0:0:0:0:
483,303,130813,2,0,P|490:253|440:190,1,120,0|0,3:0|0:0,0:0:0:0:
454,169,131096,2,0,P|397:182|369:284,1,143.999995605469,2|0,3:0|0:0,0:0:0:0:
313,337,131379,5,8,0:0:0:0:
300,345,131450,1,8,0:0:0:0:
284,345,131521,1,8,0:0:0:0:
271,353,131591,1,8,3:2:0:0:
256,354,131662,1,8,0:0:0:0:
255,23,132511,5,0,3:0:0:0:
255,23,132794,2,0,L|151:51,1,88.000002685547,4|0,3:2|0:0,0:0:0:0:
139,85,133007,1,0,0:0:0:0:
139,85,133077,2,0,P|123:149|90:180,1,88.000002685547,10|0,0:0|0:0,0:0:0:0:
21,229,133360,2,0,L|136:268,1,88.000002685547,2|0,3:2|0:0,0:0:0:0:
175,219,133643,1,10,0:0:0:0:
219,374,133785,6,0,B|233:328|233:328|266:305|266:305|285:225,1,132.00000402832,4|0,3:2|0:0,0:0:0:0:
282,242,134068,2,0,P|340:270|382:264,1,88.000002685547,0|10,3:0|0:0,0:0:0:0:
408,121,134351,1,0,0:0:0:0:
482,160,134492,2,0,P|503:207|496:274,1,88.000002685547,2|0,3:2|0:0,0:0:0:0:
407,336,134775,1,10,0:0:0:0:
306,171,134917,5,0,0:0:0:0:
306,171,134988,1,0,0:0:0:0:
306,171,135058,2,0,B|261:170|261:170|213:202,2,88.000002685547,4|0|10,3:2|0:0|0:0,0:0:0:0:
401,91,135483,2,0,B|439:62|439:62|445:17,2,88.000002685547,0|2|0,0:0|3:2|0:0,0:0:0:0:
304,75,135908,1,10,0:0:0:0:
465,173,136049,6,0,P|393:191|359:287,1,176.000005371094,12|0,0:0|3:0,0:0:0:0:
344,315,136403,1,0,3:0:0:0:
344,315,136474,2,0,P|296:332|239:329,1,88.000002685547,10|4,0:0|3:2,0:0:0:0:
454,375,136757,2,0,L|426:264,1,88.000002685547,2|0,0:0|3:0,0:0:0:0:
311,106,137040,2,0,L|296:166,3,44.0000013427735,8|8|8|8,0:0|0:0|0:0|0:0,0:0:0:0:
282,180,137323,6,0,P|228:194|189:232,1,88.000002685547,4|0,3:2|0:0,0:0:0:0:
100,343,137606,2,0,L|64:242,1,88.000002685547,10|0,0:0|0:0,0:0:0:0:
26,80,137889,1,2,3:2:0:0:
125,116,138030,1,0,0:0:0:0:
49,185,138172,1,10,0:0:0:0:
36,55,138313,6,0,P|99:74|171:65,1,132.00000402832,4|0,3:2|0:0,0:0:0:0:
193,85,138596,2,0,P|241:42|284:40,1,88.000002685547,0|10,0:0|0:0,0:0:0:0:
380,157,138879,1,0,0:0:0:0:
380,157,139021,2,0,L|414:250,1,88.000002685547,2|0,3:2|3:0,0:0:0:0:
472,119,139304,2,0,L|427:17,1,88.000002685547,10|0,0:0|0:0,0:0:0:0:
394,23,139516,1,0,0:0:0:0:
356,47,139587,6,0,B|324:95|324:95|252:125,1,132.00000402832,4|0,3:2|0:0,0:0:0:0:
231,145,139870,2,0,P|259:185|253:256,1,88.000002685547,10|0,0:0|0:0,0:0:0:0:
144,353,140153,1,2,3:2:0:0:
116,288,140294,1,0,0:0:0:0:
169,187,140436,1,10,0:0:0:0:
150,273,140577,6,0,B|205:312|205:312|336:330,1,176.000005371094,4|0,3:2|3:0,0:0:0:0:
462,276,141002,1,14,0:0:0:0:
360,187,141143,1,8,0:0:0:0:
360,187,141214,1,8,0:0:0:0:
360,187,141285,2,0,L|347:131,3,44.0000013427735,2|0|8|8,3:2|0:0|0:0|0:0,0:0:0:0:
386,116,141568,2,0,L|402:57,3,44.0000013427735,8|8|8|8,3:0|3:0|3:0|3:0,0:0:0:0:
407,40,141851,6,0,P|464:74|482:121,1,88.000002685547,6|0,0:0|0:0,0:0:0:0:
454,189,142134,1,8,0:0:0:0:
323,93,142275,2,0,P|299:150|245:169,1,88.000002685547,2|0,0:0|3:0,0:0:0:0:
151,202,142558,1,0,0:0:0:0:
250,35,142700,2,0,P|153:71|102:52,1,132.00000402832,10|0,0:0|0:0,0:0:0:0:
103,44,142983,6,0,P|53:47|8:94,1,88.000002685547,0|0,3:0|0:0,0:0:0:0:
0,278,143266,1,10,0:0:0:0:
79,228,143408,2,0,B|134:243|134:243|161:277|161:277|245:301,1,176.000005371094,8|0,0:0|3:0,0:0:0:0:
304,354,143832,1,10,0:0:0:0:
147,370,143974,1,0,0:0:0:0:
215,202,144115,6,0,P|256:243|254:292,1,88.000002685547,4|0,3:2|0:0,0:0:0:0:
431,134,144398,1,10,0:0:0:0:
358,85,144540,2,0,P|317:126|319:175,1,88.000002685547,0|2,0:0|3:2,0:0:0:0:
381,240,144823,2,0,L|471:261,2,88.000002685547,0|10|0,0:0|0:0|0:0,0:0:0:0:
289,228,145247,5,4,3:2:0:0:
263,312,145389,1,0,0:0:0:0:
157,360,145530,5,10,0:0:0:0:
128,276,145672,1,0,0:0:0:0:
8,242,145813,6,0,L|-5:312,3,44.0000013427735,8|8|8|8,0:0|0:0|0:0|0:0,0:0:0:0:
20,324,146096,2,0,L|89:351,3,44.0000013427735,8|8|8|8,0:0|0:0|0:0|0:0,0:0:0:0:
86,371,146379,6,0,P|119:318|117:260,1,88.000002685547,6|0,0:0|0:0,0:0:0:0:
55,141,146662,1,8,0:0:0:0:
219,263,146804,2,0,P|201:212|212:161,1,88.000002685547,2|0,0:0|3:0,0:0:0:0:
262,69,147087,1,0,0:0:0:0:
324,293,147228,2,0,P|370:240|374:157,1,132.00000402832,10|0,0:0|0:0,0:0:0:0:
376,155,147511,6,0,P|413:123|461:123,1,88.000002685547,0|0,3:0|0:0,0:0:0:0:
508,303,147794,1,10,0:0:0:0:
438,356,147936,2,0,L|406:252,1,88.000002685547,8|2,0:0|0:0,0:0:0:0:
280,182,148219,1,0,0:0:0:0:
215,231,148360,1,10,0:0:0:0:
142,176,148502,1,0,0:0:0:0:
79,249,148643,6,0,P|51:204|42:136,1,88.000002685547,4|0,0:0|0:0,0:0:0:0:
73,70,148926,1,10,0:0:0:0:
227,144,149068,2,0,P|251:99|256:59,1,88.000002685547,0|2,3:0|0:0,0:0:0:0:
175,20,149351,1,0,3:2:0:0:
247,164,149492,2,0,L|351:138,1,88.000002685547,10|0,0:0|3:0,0:0:0:0:
141,290,149775,6,0,L|245:261,1,103.999995239258,12|0,0:0|0:0,0:0:0:0:
25,125,150058,6,0,L|150:97,1,120.000004577637,14|0,0:0|0:0,0:0:0:0:
270,9,150341,5,2,3:2:0:0:
317,93,150483,1,8,0:0:0:0:
317,93,150554,1,0,3:0:0:0:
317,93,150625,2,0,P|344:129|391:152,1,88.000002685547,8|0,0:0|3:0,0:0:0:0:
483,263,150908,6,0,B|517:231|517:231|526:160,2,88.000002685547,14|0|0,0:0|3:0|3:0,0:0:0:0:
350,347,151332,1,14,0:3:0:0:
265,279,151474,1,2,3:0:0:0:
403,255,151615,1,2,3:0:0:0:
358,367,151757,2,0,L|255:354,1,88.000002685547,14|2,0:3|3:0,0:0:0:0:
44,268,152040,6,0,L|149:236,1,88.000002685547,14|0,0:0|3:0,0:0:0:0:
159,146,152323,1,0,3:0:0:0:
108,363,152464,2,0,B|181:337|181:337|255:239,1,176.000005371094,12|0,0:0|3:0,0:0:0:0:
236,162,152889,2,0,P|191:122|137:128,1,88.000002685547,12|0,0:2|0:0,0:0:0:0:
10,83,153172,6,0,P|62:46|117:50,1,88.000002685547,14|2,0:0|3:2,0:0:0:0:
173,196,153455,1,2,3:2:0:0:
266,236,153596,2,0,P|325:222|356:180,1,88.000002685547,14|0,0:0|3:0,0:0:0:0:
428,63,153879,2,0,L|521:95,2,88.000002685547,0|14|2,3:0|0:0|3:2,0:0:0:0:
291,51,154304,5,2,3:2:0:0:
249,148,154445,1,0,3:0:0:0:
177,41,154587,1,14,0:0:0:0:
157,167,154728,1,0,3:0:0:0:
71,99,154870,2,0,L|49:195,1,88.000002685547,14|0,0:0|3:0,0:0:0:0:
50,223,155082,1,0,3:0:0:0:
50,221,155153,1,10,0:0:0:0:
102,336,155294,5,8,0:0:0:0:
102,336,155365,1,8,0:0:0:0:
102,336,155436,2,0,P|55:369|8:375,2,88.000002685547,14|0|0,0:0|3:0|3:0,0:0:0:0:
188,250,155860,2,0,B|247:264|247:264|266:296|266:296|360:318,1,176.000005371094,14|2,0:3|3:3,0:0:0:0:
427,362,156285,2,0,P|445:317|428:264,1,88.000002685547,14|2,0:3|3:3,0:0:0:0:
308,156,156568,5,12,0:0:0:0:
356,277,156709,1,0,3:0:0:0:
470,202,156851,1,0,3:0:0:0:
297,176,156992,2,0,P|272:124|305:12,1,176.000005371094,12|0,0:0|3:0,0:0:0:0:
403,27,157417,2,0,P|444:85|447:124,1,88.000002685547,12|0,0:0|3:0,0:0:0:0:
416,257,157700,6,0,L|368:232,3,44.0000013427735,2|0|2|0,3:2|0:0|0:0|0:0,0:0:0:0:
321,164,157983,2,0,L|281:184,3,44.0000013427735,10|0|2|0,0:0|0:0|0:0|0:0,0:0:0:0:
245,266,158266,2,0,L|168:240,3,60.0000022888184,8|0|0|0,0:0|0:0|0:0|0:0,0:0:0:0:
158,164,158549,1,10,0:0:0:0:
134,182,158620,1,0,0:0:0:0:
103,182,158691,1,8,0:0:0:0:
83,204,158761,1,0,0:0:0:0:
45,206,158832,6,0,P|27:155|21:101,1,80,8|0,0:0|0:0,0:0:0:0:
100,27,159115,2,0,P|118:78|124:132,1,80,0|0,0:0|0:0,0:0:0:0:
189,173,159398,2,0,B|244:158|242:158|274:143,1,80,0|0,0:0|0:0,0:0:0:0:
296,239,159681,2,0,P|348:254|395:284,1,80,0|0,0:0|0:0,0:0:0:0:
452,316,159964,5,0,0:0:0:0:
466,335,160247,1,0,0:0:0:0:
458,357,160530,1,0,0:0:0:0:
434,357,160813,1,0,0:0:0:0:
422,335,161096,1,0,0:0:0:0:
477,196,161379,5,0,0:0:0:0:
414,156,161521,1,0,0:0:0:0:
342,187,161662,2,0,L|353:271,1,60.0000022888184,0|0,0:0|0:0,0:0:0:0:
275,337,161945,2,0,L|266:267,1,60.0000022888184,0|0,0:0|0:0,0:0:0:0:
165,186,162228,5,0,0:0:0:0:
165,186,162511,2,0,P|96:172|46:198,2,120.000004577637,0|0|0,0:0|0:0|0:0,0:0:0:0:
311,158,163360,2,0,P|360:165|426:127,1,120.000004577637,0|0,0:0|0:0,0:0:0:0:
323,6,163785,1,0,0:0:0:0:
254,63,163926,2,0,L|240:140,1,60.0000022888184,0|0,0:0|0:0,0:0:0:0:
154,171,164209,2,0,L|192:306,1,120.000004577637,0|0,0:0|0:0,0:0:0:0:
