osu file format v14

[General]
AudioFilename: audio.mp3
AudioLeadIn: 0
PreviewTime: 45345
Countdown: 0
SampleSet: Soft
StackLeniency: 0.7
Mode: 0
LetterboxInBreaks: 0
WidescreenStoryboard: 1

[Editor]
DistanceSpacing: 1.9
BeatDivisor: 4
GridSize: 16
TimelineZoom: 3.399999

[Metadata]
Title:Chimera feat. Hatsune Miku
TitleUnicode:キメラ feat. 初音ミク
Artist:DECO*27
ArtistUnicode:DECO*27
Creator:Pho
Version:Extra
Source:
Tags:vocaloid 日本テレビ「ズームイン!!サタデー」 テーマソング nihon tv zoom in saturday theme song Rockwell 八三 83 hachisan OTOIRO DMYM yuka fujii Shimpei Oniki Iori Majima Yusuke Sato rock japanese Hokichi
BeatmapID:3559277
BeatmapSetID:1735531

[Difficulty]
HPDrainRate:5.5
CircleSize:4
OverallDifficulty:9
ApproachRate:9.5
SliderMultiplier:1.8
SliderTickRate:1

[Events]
//Background and Video events
0,0,"bg.jpg",0,0
//Break Periods
2,123738,125901
//Storyboard Layer 0 (Background)
//Storyboard Layer 1 (Fail)
//Storyboard Layer 2 (Pass)
//Storyboard Layer 3 (Foreground)
//Storyboard Layer 4 (Overlay)
//Storyboard Sound Samples

[TimingPoints]
342,283.018867924528,4,2,1,30,1,0
342,-111.111111111111,4,2,1,30,0,0
2606,-83.3333333333333,4,2,1,30,0,0
2747,-111.111111111111,4,2,1,30,0,0
3879,-100,4,2,1,40,0,0
4304,-100,4,2,1,50,0,0
4587,-83.3333333333333,4,2,1,50,0,0
5011,-66.6666666666667,4,2,1,60,0,0
13926,-111.111111111111,4,2,1,40,0,0
16191,-83.3333333333333,4,2,1,40,0,0
16403,-83.3333333333333,4,2,1,5,0,0
16474,-111.111111111111,4,2,2,40,0,0
18455,-83.3333333333333,4,2,2,40,0,0
18667,-83.3333333333333,4,2,2,5,0,0
18738,-111.111111111111,4,2,2,40,0,0
20436,-200,4,2,2,40,0,0
20648,-111.111111111111,4,2,2,5,0,0
20719,-83.3333333333333,4,2,2,40,0,0
20931,-83.3333333333333,4,2,2,5,0,0
21002,-111.111111111111,4,2,2,40,0,0
22983,-83.3333333333333,4,2,2,40,0,0
23832,-55.5555555555556,4,2,2,40,0,0
24115,-83.3333333333333,4,2,1,60,0,0
24893,-83.3333333333333,4,2,1,60,0,0
25176,-83.3333333333333,4,2,1,5,0,0
25247,-83.3333333333333,4,2,1,60,0,0
26591,-83.3333333333333,4,2,1,5,0,0
26662,-83.3333333333333,4,2,1,60,0,0
27724,-83.3333333333333,4,2,1,5,0,0
27794,-83.3333333333333,4,2,1,60,0,0
28856,-83.3333333333333,4,2,1,5,0,0
28926,-83.3333333333333,4,2,1,60,0,0
29139,-83.3333333333333,4,2,1,5,0,0
29209,-83.3333333333333,4,2,1,60,0,0
34304,-133.333333333333,4,2,1,50,0,0
35648,-133.333333333333,4,2,1,5,0,0
35719,-133.333333333333,4,2,1,50,0,0
36568,-100,4,2,1,50,0,0
36709,-133.333333333333,4,2,1,50,0,0
37700,-100,4,2,1,50,0,0
37841,-133.333333333333,4,2,1,50,0,0
42794,-66.6666666666667,4,2,1,50,0,0
43219,-66.6666666666667,4,2,1,50,0,0
45200,-100,4,2,1,5,0,0
45341,-200,4,2,1,50,0,0
45554,-200,4,2,1,5,0,0
45625,-83.3333333333333,4,2,1,70,0,0
46827,-83.3333333333333,4,2,1,5,0,0
46898,-83.3333333333333,4,2,1,70,0,0
49091,-83.3333333333333,4,2,1,5,0,0
49162,-83.3333333333333,4,2,1,70,0,0
53620,-83.3333333333333,4,2,1,5,0,0
53691,-83.3333333333333,4,2,1,70,0,0
55742,-83.3333333333333,4,2,1,5,0,0
55813,-83.3333333333333,4,2,1,70,0,0
60271,-83.3333333333333,4,2,1,5,0,0
60341,-83.3333333333333,4,2,1,70,0,0
62606,-100,4,2,1,40,0,0
63879,-66.6666666666667,4,2,1,60,0,0
68266,-100,4,2,1,50,0,0
68549,-133.333333333333,4,2,1,50,0,0
70389,-133.333333333333,4,2,1,70,0,0
70530,-133.333333333333,4,2,1,30,0,0
72794,-133.333333333333,4,2,2,45,0,0
79799,-133.333333333333,4,2,2,5,0,0
79870,-133.333333333333,4,2,2,40,0,0
80719,-83.3333333333333,4,2,2,40,0,0
80860,-133.333333333333,4,2,2,40,0,0
81002,-83.3333333333333,4,2,2,40,0,0
81143,-133.333333333333,4,2,2,40,0,0
81285,-133.333333333333,4,2,2,40,0,0
81851,-111.111111111111,4,2,1,50,0,0
85247,-74.0740740740741,4,2,1,50,0,0
85813,-111.111111111111,4,2,1,50,0,0
86096,-83.3333333333333,4,2,1,50,0,0
86521,-111.111111111111,4,2,1,50,0,0
89775,-83.3333333333333,4,2,1,40,0,0
89988,-111.111111111111,4,2,1,5,0,0
90058,-83.3333333333333,4,2,1,40,0,0
90271,-111.111111111111,4,2,1,5,0,0
90341,-83.3333333333333,4,2,1,40,0,0
90483,-83.3333333333333,4,2,1,50,0,0
90837,-83.3333333333333,4,2,1,5,0,0
90908,-83.3333333333333,4,2,1,70,0,0
92110,-83.3333333333333,4,2,1,5,0,0
92181,-83.3333333333333,4,2,1,70,0,0
93455,-83.3333333333333,4,2,1,70,0,0
94375,-83.3333333333333,4,2,1,5,0,0
94445,-83.3333333333333,4,2,1,70,0,0
98903,-83.3333333333333,4,2,1,5,0,0
98974,-83.3333333333333,4,2,1,70,0,0
100176,-83.3333333333333,4,2,1,5,0,0
100247,-83.3333333333333,4,2,1,70,0,0
100601,-83.3333333333333,4,2,1,5,0,0
100672,-83.3333333333333,4,2,1,70,0,0
101025,-83.3333333333333,4,2,1,5,0,0
101096,-83.3333333333333,4,2,1,70,0,0
102441,-83.3333333333333,4,2,1,5,0,0
102511,-83.3333333333333,4,2,1,70,0,0
104705,-83.3333333333333,4,2,1,5,0,0
104775,-83.3333333333333,4,2,1,70,0,0
105129,-83.3333333333333,4,2,1,5,0,0
105200,-83.3333333333333,4,2,1,70,0,0
105554,-83.3333333333333,4,2,1,5,0,0
105625,-83.3333333333333,4,2,1,70,0,0
107889,-133.333333333333,4,2,1,40,0,0
109021,-111.111111111111,4,2,1,50,0,0
109233,-111.111111111111,4,2,1,5,0,0
109304,-111.111111111111,4,2,1,40,0,0
111285,-111.111111111111,4,2,1,50,0,0
112558,-111.111111111111,4,2,1,55,0,0
112983,-66.6666666666667,4,2,1,60,0,0
113549,-100,4,2,1,60,0,0
113761,-100,4,2,1,5,0,0
113832,-100,4,2,1,60,0,0
114044,-100,4,2,1,5,0,0
114115,-100,4,2,1,60,0,0
114327,-100,4,2,1,5,0,0
114398,-100,4,2,1,60,0,0
114893,-100,4,2,1,5,0,0
114964,-100,4,2,1,60,0,0
117511,-222.222222222222,4,2,1,30,0,0
118077,-100,4,2,1,60,0,0
118290,-100,4,2,1,5,0,0
118360,-100,4,2,1,60,0,0
118573,-100,4,2,1,5,0,0
118643,-100,4,2,1,60,0,0
118856,-100,4,2,1,5,0,0
118926,-100,4,2,1,60,0,0
119422,-100,4,2,1,5,0,0
119492,-100,4,2,1,60,0,0
121332,-66.6666666666667,4,2,1,70,0,0
121544,-66.6666666666667,4,2,1,5,0,0
121615,-100,4,2,1,70,0,0
122040,-66.6666666666667,4,2,1,70,0,0
122606,-100,4,2,1,20,0,0
126426,-133.333333333333,4,2,1,50,0,0
126922,-133.333333333333,4,2,1,5,0,0
126992,-133.333333333333,4,2,1,50,0,0
127134,-166.666666666667,4,2,1,50,0,0
127700,-111.111111111111,4,2,1,50,0,0
127912,-111.111111111111,4,2,1,5,0,0
127983,-111.111111111111,4,2,1,50,0,0
128266,-133.333333333333,4,2,1,50,0,0
129398,-100,4,2,1,50,0,0
129610,-100,4,2,1,5,0,0
129681,-133.333333333333,4,2,1,50,0,0
130389,-125,4,2,1,55,0,0
130742,-125,4,2,1,5,0,0
130813,-100,4,2,1,60,0,0
131025,-100,4,2,1,5,0,0
131096,-83.3333333333333,4,2,1,65,0,0
131308,-83.3333333333333,4,2,1,5,0,0
131379,-133.333333333333,4,2,1,55,0,0
132228,-133.333333333333,4,2,1,20,0,0
132511,-166.666666666667,4,2,1,50,0,0
132724,-166.666666666667,4,2,1,5,0,0
132794,-83.3333333333333,4,2,1,70,0,0
140790,-83.3333333333333,4,2,1,5,0,0
140860,-83.3333333333333,4,2,1,70,0,0
141002,-66.6666666666667,4,2,1,70,0,0
141143,-83.3333333333333,4,2,1,70,0,0
141851,-83.3333333333333,4,2,1,70,0,0
142912,-83.3333333333333,4,2,1,5,0,0
142983,-83.3333333333333,4,2,1,70,0,0
143620,-83.3333333333333,4,2,1,5,0,0
143691,-83.3333333333333,4,2,1,70,0,0
147441,-83.3333333333333,4,2,1,5,0,0
147511,-83.3333333333333,4,2,1,70,0,0
148148,-83.3333333333333,4,2,1,5,0,0
148219,-83.3333333333333,4,2,1,70,0,0
150908,-83.3333333333333,4,2,1,75,0,0
152676,-83.3333333333333,4,2,1,5,0,0
152747,-83.3333333333333,4,2,1,75,0,0
155436,-83.3333333333333,4,2,1,80,0,0
157700,-83.3333333333333,4,2,1,50,0,0
157983,-83.3333333333333,4,2,1,60,0,0
158266,-83.3333333333333,4,2,1,70,0,0
158549,-83.3333333333333,4,2,1,80,0,0
158832,-83.3333333333333,4,2,1,60,0,0
159115,-100,4,2,1,60,0,0
159964,-133.333333333333,4,2,1,40,0,0
160176,-133.333333333333,4,2,1,5,0,0
160247,-133.333333333333,4,2,1,30,0,0
160459,-133.333333333333,4,2,1,5,0,0
160530,-133.333333333333,4,2,1,30,0,0
160742,-133.333333333333,4,2,1,5,0,0
160813,-133.333333333333,4,2,1,30,0,0
161025,-133.333333333333,4,2,1,5,0,0
161096,-133.333333333333,4,2,1,30,0,0
162511,-166.666666666667,4,2,1,30,0,0
164492,-166.666666666667,4,2,1,5,0,0

[Colours]
Combo1 : 160,64,219
Combo2 : 252,12,96
Combo3 : 253,236,176
Combo4 : 95,192,136
Combo5 : 80,107,239
Combo6 : 52,211,204

[HitObjects]
146,170,342,6,0,L|259:153,1,80.9999975280763,2|0,0:0|0:0,0:0:0:0:
290,217,625,1,0,0:0:0:0:
376,145,766,1,2,0:0:0:0:
370,110,837,1,0,0:0:0:0:
389,84,908,1,0,0:0:0:0:
382,53,978,1,0,0:0:0:0:
399,26,1049,1,0,0:0:0:0:
261,71,1191,2,0,P|251:122|271:157,1,80.9999975280763,2|0,0:0|0:0,0:0:0:0:
365,261,1474,6,0,L|470:242,1,80.9999975280763,2|0,0:0|0:0,0:0:0:0:
482,166,1757,1,0,0:0:0:0:
370,338,1898,1,2,0:0:0:0:
338,344,1969,1,0,0:0:0:0:
310,326,2040,1,0,0:0:0:0:
278,330,2110,1,0,0:0:0:0:
251,310,2181,2,0,L|239:245,1,40.4999987640381,0|0,0:0|0:0,0:0:0:0:
236,190,2323,2,0,P|187:174|130:197,1,80.9999975280763,2|0,0:0|0:0,0:0:0:0:
113,347,2606,6,0,B|131:307|131:307|106:228,1,107.999996704102,2|0,0:0|0:0,0:0:0:0:
80,145,2889,1,0,0:0:0:0:
260,253,3030,2,0,B|242:213|242:213|260:155,1,80.9999975280763,2|0,0:0|0:0,0:0:0:0:
354,50,3313,1,0,0:0:0:0:
346,70,3384,1,0,0:0:0:0:
339,90,3455,1,2,0:0:0:0:
244,164,3596,6,0,L|142:204,1,80.9999975280763,0|0,0:0|0:0,0:0:0:0:
30,117,3879,1,2,0:0:0:0:
55,125,3950,1,0,0:0:0:0:
80,135,4021,1,0,0:0:0:0:
157,19,4162,1,2,0:0:0:0:
138,38,4233,1,0,0:0:0:0:
111,55,4304,1,0,0:0:0:0:
165,230,4445,1,0,3:0:0:0:
240,174,4587,2,0,L|264:33,1,107.999996704102,8|0,0:0|0:0,0:0:0:0:
265,59,5011,6,0,P|334:52|391:129,1,135.000005149842,6|0,0:3|0:0,0:0:0:0:
417,197,5294,1,0,0:0:0:0:
171,148,5436,2,0,P|100:181|76:245,1,135.000005149842,14|0,0:0|3:0,0:0:0:0:
210,372,5719,1,2,3:0:0:0:
310,320,5860,2,0,L|475:360,1,135.000005149842,14|0,0:0|0:0,0:0:0:0:
488,284,6143,5,2,3:0:0:0:
318,190,6285,1,8,0:0:0:0:
416,136,6426,1,0,3:0:0:0:
416,136,6497,1,0,0:0:0:0:
416,136,6568,1,2,3:0:0:0:
343,328,6709,1,0,3:0:0:0:
248,276,6851,2,0,P|171:281|118:233,1,135.000005149842,8|0,0:0|0:0,0:0:0:0:
2,170,7134,5,2,3:0:0:0:
94,356,7275,2,0,B|126:312|126:312|94:207,1,135.000005149842,12|0,0:0|3:0,0:0:0:0:
125,56,7558,1,2,3:0:0:0:
12,186,7700,2,0,B|-20:142|-20:142|12:37,1,135.000005149842,12|0,0:0|0:0,0:0:0:0:
136,33,7983,1,2,0:3:0:0:
237,190,8125,6,0,L|93:231,1,135.000005149842,12|0,0:0|0:0,0:0:0:0:
38,298,8408,1,2,3:0:0:0:
86,155,8549,1,8,0:0:0:0:
199,297,8691,1,0,0:0:0:0:
230,307,8761,1,0,0:0:0:0:
262,317,8832,1,10,0:3:0:0:
456,235,8974,1,8,0:0:0:0:
262,197,9115,1,8,0:0:0:0:
384,307,9257,1,8,0:0:0:0:
166,371,9398,5,2,0:3:0:0:
161,358,9469,1,0,0:0:0:0:
156,345,9540,1,0,0:0:0:0:
151,332,9610,1,0,3:0:0:0:
146,319,9681,6,0,L|180:182,1,135.000005149842,4|2,0:0|0:3,0:0:0:0:
238,118,9964,1,8,0:0:0:0:
96,195,10106,1,0,0:0:0:0:
247,314,10247,1,10,0:3:0:0:
309,192,10389,2,0,L|227:228,1,67.5000025749208,0|0,0:0|0:0,0:0:0:0:
121,173,10530,6,0,P|124:135|191:100,1,67.5000025749208,8|0,0:0|0:0,0:0:0:0:
269,25,10672,2,0,L|296:145,1,67.5000025749208,2|0,0:3|0:0,0:0:0:0:
247,238,10813,6,0,P|210:217|195:165,1,67.5000025749208,8|0,0:0|0:0,0:0:0:0:
126,35,10955,2,0,P|166:23|217:36,1,67.5000025749208,0|0,3:0|3:0,0:0:0:0:
362,89,11096,2,0,L|335:200,1,67.5000025749208,14|0,0:3|0:0,0:0:0:0:
320,323,11238,1,8,0:0:0:0:
373,349,11308,1,8,0:0:0:0:
433,343,11379,1,8,0:0:0:0:
470,295,11450,1,8,0:0:0:0:
474,234,11521,1,0,3:0:0:0:
430,192,11591,1,0,3:0:0:0:
370,179,11662,6,0,B|324:216|324:216|221:232,1,135.000005149842,6|0,0:3|0:0,0:0:0:0:
23,329,11945,2,0,L|101:308,1,67.5000025749208,8|0,0:0|0:0,0:0:0:0:
168,371,12087,1,2,3:3:0:0:
236,191,12228,2,0,L|149:170,1,67.5000025749208,8|0,3:2|0:0,0:0:0:0:
89,232,12370,1,0,3:0:0:0:
25,39,12511,2,0,L|113:15,1,67.5000025749208,10|0,0:3|0:0,0:0:0:0:
180,60,12653,1,0,3:0:0:0:
1,150,12794,5,8,0:0:0:0:
122,197,12936,1,2,3:0:0:0:
122,197,13007,1,0,0:0:0:0:
122,197,13077,2,0,L|86:101,1,67.5000025749208,12|0,0:0|0:0,0:0:0:0:
161,55,13219,2,0,L|190:141,1,67.5000025749208
231,203,13360,2,0,P|298:215|326:192,1,67.5000025749208,10|0,0:3|0:0,0:0:0:0:
320,141,13502,2,0,P|345:97|395:97,1,67.5000025749208,0|0,3:0|0:0,0:0:0:0:
463,79,13643,2,0,L|430:163,1,67.5000025749208,8|0,0:0|0:0,0:0:0:0:
397,266,13785,2,0,L|356:200,1,67.5000025749208,8|0,0:0|0:0,0:0:0:0:
242,106,13926,6,0,P|179:99|199:181,1,161.999995056153,2|2,0:3|0:0,0:0:0:0:
195,182,14351,2,0,P|213:237|192:280,1,80.9999975280763,2|0,0:3|0:0,0:0:0:0:
240,353,14634,2,0,P|177:359|143:330,1,80.9999975280763,2|2,0:0|0:3,0:0:0:0:
101,233,14917,1,2,0:0:0:0:
223,259,15058,6,0,P|261:230|309:236,1,80.9999975280763,0|2,0:0|0:0,0:0:0:0:
414,283,15341,1,0,0:0:0:0:
404,306,15483,1,0,0:0:0:0:
348,179,15625,1,2,0:3:0:0:
375,188,15766,1,0,0:0:0:0:
481,210,15908,2,0,P|497:137|491:116,1,80.9999975280763,2|0,0:0|0:0,0:0:0:0:
410,11,16191,6,0,P|377:64|265:48,1,161.999995056153,4|0,3:2|0:0,0:0:0:0:
257,38,16474,2,0,L|180:66,1,80.9999975280763,8|0,0:0|0:0,0:0:0:0:
86,122,16757,1,0,0:0:0:0:
53,18,16898,1,0,3:0:0:0:
185,99,17040,1,8,0:0:0:0:
185,99,17110,1,0,0:0:0:0:
185,99,17181,1,0,3:0:0:0:
64,46,17323,6,0,P|72:112|26:207,1,161.999995056153,0|10,0:0|0:0,0:0:0:0:
34,197,17747,2,0,P|102:180|137:191,2,80.9999975280763,2|0|2,0:0|0:0|3:2,0:0:0:0:
31,298,18172,1,8,0:0:0:0:
162,319,18313,1,0,0:0:0:0:
192,309,18384,1,0,0:0:0:0:
228,320,18455,6,0,P|285:280|262:185,1,161.999995056153,2|0,3:2|0:0,0:0:0:0:
257,192,18738,2,0,P|221:144|232:97,1,80.9999975280763,8|0,0:0|0:0,0:0:0:0:
269,30,19021,1,0,0:0:0:0:
297,43,19091,1,0,0:0:0:0:
329,37,19162,1,0,0:0:0:0:
356,54,19233,1,0,0:0:0:0:
390,50,19304,1,8,0:0:0:0:
367,73,19375,1,0,0:0:0:0:
362,104,19445,1,0,0:0:0:0:
375,133,19516,1,0,0:0:0:0:
402,150,19587,6,0,P|455:136|452:25,1,161.999995056153,0|10,3:0|0:0,0:0:0:0:
468,41,20011,1,2,0:0:0:0:
332,122,20153,2,0,P|316:161|323:205,1,80.9999975280763,0|2,0:0|3:2,0:0:0:0:
428,310,20436,2,0,L|441:223,1,67.5,8|0,0:0|0:0,0:0:0:0:
467,372,20719,6,0,B|434:313|434:313|445:253|445:253|379:145,1,215.999993408203,2|8,3:2|0:0,0:0:0:0:
321,75,21143,1,0,0:0:0:0:
235,171,21285,1,0,0:0:0:0:
204,183,21356,1,0,0:0:0:0:
171,184,21426,1,0,3:0:0:0:
139,175,21497,1,0,0:0:0:0:
117,150,21568,2,0,L|102:94,1,40.4999987640381,8|0,0:0|0:0,0:0:0:0:
62,32,21709,6,0,P|7:105|30:179,1,161.999995056153,0|0,3:0|3:0,0:0:0:0:
96,236,22134,1,8,0:0:0:0:
229,119,22275,1,2,0:0:0:0:
250,36,22417,1,0,0:0:0:0:
168,72,22558,1,2,3:2:0:0:
168,72,22629,1,0,0:0:0:0:
168,72,22700,2,0,L|186:115,1,40.4999987640381,8|0,0:0|0:0,0:0:0:0:
239,188,22841,1,0,0:0:0:0:
234,209,22912,1,0,0:0:0:0:
231,229,22983,6,0,P|172:214|120:265,1,107.999996704102,2|0,3:2|0:0,0:0:0:0:
1,319,23195,2,0,P|73:330|108:286,1,107.999996704102,0|0,0:0|0:0,0:0:0:0:
124,312,23408,2,0,L|99:238,1,53.9999983520508,0|0,0:0|0:0,0:0:0:0:
82,156,23549,1,2,0:0:0:0:
111,132,23620,1,2,0:0:0:0:
148,124,23691,1,2,3:0:0:0:
185,128,23761,1,2,0:0:0:0:
217,155,23832,6,0,P|219:189|236:216,1,40.4999987640381,10|2,0:0|0:0,0:0:0:0:
266,176,23903,2,0,P|276:202|304:221,1,40.4999987640381,2|2,0:0|0:0,0:0:0:0:
320,180,23974,2,0,P|346:198|369:205,1,40.4999987640381,2|2,0:0|0:0,0:0:0:0:
368,157,24044,2,0,P|406:151|426:127,1,40.4999987640381,2|2,0:0|0:0,0:0:0:0:
406,120,24115,6,0,L|428:-20,1,107.999996704102,0|0,3:0|0:0,0:0:0:0:
264,252,24398,2,0,L|286:112,1,107.999996704102,0|0,3:0|0:0,0:0:0:0:
460,322,24681,2,0,L|482:182,1,107.999996704102,0|0,3:0|0:0,0:0:0:0:
493,138,24893,1,8,0:0:0:0:
493,138,24964,1,0,3:0:0:0:
386,261,25106,1,8,0:0:0:0:
309,104,25247,6,0,L|189:139,1,107.999996704102,4|0,0:0|0:0,0:0:0:0:
108,82,25530,1,8,0:0:0:0:
0,217,25672,1,2,0:0:0:0:
85,381,25813,2,0,P|115:327|105:266,1,107.999996704102,0|2,3:0|0:0,0:0:0:0:
0,243,26096,1,8,0:0:0:0:
131,79,26238,1,2,0:0:0:0:
55,159,26379,6,0,B|107:212|107:212|166:198|166:198|245:263,1,215.999993408203,0|8,3:0|0:0,0:0:0:0:
261,326,26804,1,2,0:0:0:0:
391,178,26945,1,0,3:0:0:0:
343,257,27087,1,2,0:0:0:0:
162,147,27228,1,8,0:0:0:0:
201,228,27370,1,2,0:0:0:0:
316,80,27511,6,0,B|375:62|375:62|418:82|418:82|497:52,1,161.999995056153,0|0,3:0|0:0,0:0:0:0:
481,33,27794,2,0,P|499:101|463:154,1,107.999996704102,8|2,0:0|0:0,0:0:0:0:
400,242,28077,1,0,3:0:0:0:
322,159,28219,1,2,0:0:0:0:
338,327,28360,1,8,0:0:0:0:
479,239,28502,1,2,0:0:0:0:
325,243,28643,6,0,P|227:232|166:313,1,161.999995056153,2|0,3:2|0:0,0:0:0:0:
74,138,28926,2,0,P|149:191|156:293,1,161.999995056153,10|0,0:0|0:0,0:0:0:0:
42,371,29209,2,0,L|21:263,1,107.999996704102,2|0,3:2|0:0,0:0:0:0:
21,264,29492,2,0,L|110:238,1,53.9999983520508,10|0,0:0|0:0,0:0:0:0:
161,281,29634,2,0,L|259:249,1,53.9999983520508,0|0,0:0|0:0,0:0:0:0:
274,164,29775,6,0,P|290:89|272:46,1,107.999996704102,0|0,3:0|0:0,0:0:0:0:
258,24,29988,1,0,0:0:0:0:
258,24,30058,1,8,0:0:0:0:
136,148,30200,1,2,0:0:0:0:
35,39,30341,1,0,3:0:0:0:
149,125,30483,1,2,0:0:0:0:
7,187,30625,1,8,0:0:0:0:
146,92,30766,6,0,L|190:227,1,107.999996704102,2|0,0:0|3:0,0:0:0:0:
228,347,31049,1,0,0:0:0:0:
284,207,31191,1,8,0:0:0:0:
134,358,31332,1,2,0:0:0:0:
49,244,31474,2,0,L|123:259,1,53.9999983520508,0|0,3:0|0:0,0:0:0:0:
163,191,31615,1,2,0:0:0:0:
283,331,31757,2,0,L|345:307,1,53.9999983520508,8|0,0:0|0:0,0:0:0:0:
410,230,31898,2,0,P|435:241|463:267,1,53.9999983520508,2|0,0:0|0:0,0:0:0:0:
400,369,32040,6,0,P|360:322|359:243,1,107.999996704102,0|0,3:0|0:0,0:0:0:0:
415,211,32252,1,0,0:0:0:0:
435,196,32323,2,0,P|457:153|427:77,1,107.999996704102,8|2,0:0|0:0,0:0:0:0:
286,68,32606,1,0,3:0:0:0:
393,11,32747,1,2,0:0:0:0:
219,27,32889,1,8,0:0:0:0:
370,117,33030,1,2,0:0:0:0:
172,96,33172,6,0,L|42:119,1,107.999996704102,2|0,3:2|0:0,0:0:0:0:
326,203,33455,2,0,L|454:223,1,107.999996704102,10|0,0:0|0:0,0:0:0:0:
202,331,33738,2,0,L|70:366,1,107.999996704102,2|8,3:2|0:0,0:0:0:0:
46,319,33950,1,8,0:0:0:0:
48,264,34021,1,10,0:0:0:0:
86,226,34091,1,8,0:0:0:0:
138,212,34162,1,0,3:0:0:0:
189,229,34233,1,0,3:0:0:0:
219,263,34304,6,0,P|256:326|336:345,1,135.000005149842,4|2,3:2|0:3,0:0:0:0:
311,346,34870,2,0,L|403:323,1,67.5000025749208,12|0,0:0|0:0,0:0:0:0:
444,221,35153,2,0,L|365:240,1,67.5000025749208,2|8,0:3|0:0,0:0:0:0:
308,83,35436,6,0,B|272:116|272:116|294:198,1,101.250003862381,4|0,0:0|0:0,0:0:0:0:
296,192,35719,1,2,0:3:0:0:
370,159,35860,1,0,0:0:0:0:
425,218,36002,1,12,0:3:0:0:
382,286,36143,1,8,0:0:0:0:
205,253,36285,5,2,0:3:0:0:
169,325,36426,1,0,0:0:0:0:
252,358,36568,2,0,L|283:262,1,90,4|0,0:0|0:0,0:0:0:0:
205,142,36851,6,0,P|160:175|154:216,1,67.5000025749208,2|0,0:3|0:0,0:0:0:0:
152,212,37063,1,0,0:0:0:0:
152,211,37134,2,0,P|108:200|66:114,1,135.000005149842,12|2,0:0|0:3,0:0:0:0:
135,74,37558,1,8,0:0:0:0:
25,238,37700,6,0,P|76:212|137:226,1,90,4|0,0:2|0:0,0:0:0:0:
255,336,37983,1,2,3:0:0:0:
149,373,38125,1,0,0:0:0:0:
149,373,38195,1,0,0:0:0:0:
149,373,38266,2,0,B|96:361|96:361|63:373|63:373|6:357,1,135.000005149842,8|0,0:0|3:0,0:0:0:0:
19,360,38691,1,8,0:0:0:0:
31,261,38832,6,0,P|57:223|43:119,1,135.000005149842,4|2,3:2|0:3,0:0:0:0:
53,137,39398,2,0,L|138:109,1,67.5000025749208,12|0,0:0|0:0,0:0:0:0:
212,2,39681,2,0,L|137:30,1,67.5000025749208,2|8,0:3|0:0,0:0:0:0:
173,181,39964,2,0,B|221:196|221:196|241:231|241:231|302:248,1,135.000005149842,4|2,3:2|0:3,0:0:0:0:
347,191,40389,1,0,0:0:0:0:
445,215,40530,1,14,0:0:0:0:
481,83,40672,5,0,0:0:0:0:
449,58,40742,1,0,0:0:0:0:
408,59,40813,1,2,0:3:0:0:
371,76,40884,1,0,0:0:0:0:
348,109,40955,1,2,0:0:0:0:
158,254,41096,5,0,3:0:0:0:
264,359,41238,1,8,0:0:0:0:
267,319,41308,1,0,0:0:0:0:
290,285,41379,1,8,0:0:0:0:
186,98,41521,5,0,3:0:0:0:
402,173,41662,1,8,0:0:0:0:
368,195,41733,1,0,0:0:0:0:
327,197,41804,1,8,0:0:0:0:
113,154,41945,1,0,3:2:0:0:
163,8,42087,6,0,P|218:69|211:144,1,135.000005149842,12|0,0:0|3:0,0:0:0:0:
204,252,42511,1,14,0:0:0:0:
307,133,42653,1,0,0:0:0:0:
207,103,42794,6,0,L|192:169,1,67.5000025749208,8|0,0:0|0:0,0:0:0:0:
308,284,42936,2,0,L|322:219,1,67.5000025749208,8|0,0:0|0:0,0:0:0:0:
107,147,43077,2,0,L|123:213,1,67.5000025749208,10|0,0:0|0:0,0:0:0:0:
405,237,43219,6,0,L|373:84,1,135.000005149842,10|0,0:0|3:0,0:0:0:0:
256,192,44492,12,0,45200,0:0:0:0:
187,330,45341,6,0,L|199:263,1,67.5,0|0,3:0|0:0,0:0:0:0:
228,238,45625,6,0,P|172:192|91:208,1,107.999996704102,4|0,0:0|0:0,0:0:0:0:
64,246,45908,1,10,0:0:0:0:
12,97,46049,1,0,0:0:0:0:
151,56,46191,2,0,L|127:166,1,107.999996704102,2|0,3:2|0:0,0:0:0:0:
123,195,46403,1,0,0:0:0:0:
123,195,46474,1,10,0:0:0:0:
254,35,46615,6,0,B|297:85|297:85|317:183,1,161.999995056153,4|0,0:0|0:0,0:0:0:0:
336,210,46898,2,0,P|395:214|444:179,1,107.999996704102,0|10,3:0|0:0,0:0:0:0:
468,90,47181,1,0,0:0:0:0:
327,5,47323,1,2,3:2:0:0:
230,123,47464,1,0,0:0:0:0:
339,30,47606,1,10,0:0:0:0:
415,203,47747,1,0,0:0:0:0:
246,224,47889,6,0,P|234:295|266:341,1,107.999996704102,4|0,3:2|0:0,0:0:0:0:
434,229,48172,2,0,L|325:200,1,107.999996704102,10|0,0:0|0:0,0:0:0:0:
223,246,48455,1,2,3:2:0:0:
126,98,48596,1,0,3:0:0:0:
56,304,48738,1,10,0:0:0:0:
36,101,48879,6,0,B|4:148|4:148|37:229,1,107.999996704102,12|0,0:0|0:0,0:0:0:0:
132,274,49162,1,0,3:0:0:0:
145,250,49233,1,0,0:0:0:0:
138,217,49304,1,10,0:0:0:0:
218,90,49445,1,4,3:2:0:0:
291,143,49587,2,0,P|319:78|308:29,1,107.999996704102,2|0,3:2|3:0,0:0:0:0:
27,31,49870,5,8,0:0:0:0:
66,59,49941,1,8,0:0:0:0:
114,60,50011,1,8,0:0:0:0:
157,82,50082,1,8,0:0:0:0:
204,71,50153,2,0,P|249:32|320:28,1,107.999996704102,4|0,3:2|0:0,0:0:0:0:
463,143,50436,2,0,P|405:145|341:102,1,107.999996704102,10|0,0:0|0:0,0:0:0:0:
319,46,50719,1,2,3:2:0:0:
268,266,50860,1,0,0:0:0:0:
396,189,51002,1,10,0:0:0:0:
144,276,51143,6,0,L|268:298,1,107.999996704102,4|0,3:2|0:0,0:0:0:0:
464,370,51426,1,0,3:0:0:0:
354,251,51568,1,10,0:0:0:0:
319,344,51709,1,0,0:0:0:0:
471,216,51851,1,2,3:2:0:0:
275,145,51992,1,0,3:0:0:0:
333,237,52134,1,10,0:0:0:0:
449,42,52275,1,0,0:0:0:0:
365,108,52417,6,0,P|375:160|414:223,2,107.999996704102,4|0|10,3:2|0:0|0:0,0:0:0:0:
427,291,52841,1,0,0:0:0:0:
310,241,52983,2,0,B|267:232|267:232|197:268,1,107.999996704102,2|0,3:2|0:0,0:0:0:0:
5,216,53266,2,0,L|30:316,1,53.9999983520508,10|0,0:0|0:0,0:0:0:0:
56,376,53408,2,0,P|96:344|96:236,1,161.999995056153,4|0,3:2|0:0,0:0:0:0:
95,227,53691,2,0,L|162:198,1,53.9999983520508,0|0,3:0|0:0,0:0:0:0:
233,140,53832,2,0,L|203:54,1,53.9999983520508,10|0,0:0|0:0,0:0:0:0:
195,265,53974,2,0,L|233:338,1,53.9999983520508,12|8,3:2|0:0,0:0:0:0:
301,374,54115,5,2,3:2:0:0:
349,369,54186,1,0,0:0:0:0:
384,336,54257,1,8,0:0:0:0:
395,289,54327,1,8,0:0:0:0:
373,245,54398,1,8,0:0:0:0:
332,217,54469,1,0,3:0:0:0:
306,175,54540,1,0,3:0:0:0:
319,128,54610,1,0,3:0:0:0:
351,91,54681,6,0,P|405:116|468:102,1,107.999996704102,6|0,0:0|0:0,0:0:0:0:
209,131,54964,1,8,0:0:0:0:
273,50,55106,2,0,P|215:26|148:44,1,107.999996704102,2|0,3:2|0:0,0:0:0:0:
27,228,55389,1,0,3:0:0:0:
118,199,55530,2,0,P|159:138|131:13,1,161.999995056153,10|0,0:0|0:0,0:0:0:0:
138,43,55813,6,0,B|107:72|107:72|33:95,1,107.999996704102,0|0,3:0|0:0,0:0:0:0:
188,270,56096,1,10,0:0:0:0:
231,200,56238,2,0,B|306:225|306:225|334:280|334:280|430:313,1,215.999993408203,8|0,0:0|3:0,0:0:0:0:
403,211,56662,1,10,0:0:0:0:
275,340,56804,1,0,0:0:0:0:
81,227,56945,6,0,P|26:259|0:305,1,107.999996704102,4|0,0:0|0:0,0:0:0:0:
208,374,57228,1,10,0:0:0:0:
265,265,57370,2,0,P|339:286|373:329,1,107.999996704102,0|2,3:0|0:0,0:0:0:0:
176,281,57653,2,0,L|151:153,2,107.999996704102,0|10|0,0:0|0:0|0:0,0:0:0:0:
298,370,58077,5,4,0:0:0:0:
388,316,58219,1,0,0:0:0:0:
370,86,58360,1,10,0:0:0:0:
306,181,58502,1,0,0:0:0:0:
489,238,58643,2,0,L|400:256,1,53.9999983520508,4|0,0:0|0:0,0:0:0:0:
259,297,58785,1,8,0:0:0:0:
216,338,58856,1,8,0:0:0:0:
157,345,58926,1,8,0:0:0:0:
101,324,58997,1,8,0:0:0:0:
72,271,59068,1,0,3:0:0:0:
79,211,59139,1,0,3:0:0:0:
118,167,59209,6,0,P|51:133|3:149,1,107.999996704102,6|0,0:0|0:0,0:0:0:0:
263,176,59492,1,8,0:0:0:0:
186,236,59634,2,0,P|248:271|317:257,1,107.999996704102,2|0,0:0|3:0,0:0:0:0:
458,155,59917,1,0,0:0:0:0:
455,38,60058,2,0,P|401:82|358:198,1,161.999995056153,10|0,0:0|0:0,0:0:0:0:
364,190,60341,5,0,3:0:0:0:
440,241,60483,1,0,0:0:0:0:
382,364,60625,1,10,0:0:0:0:
258,286,60766,2,0,L|365:260,1,107.999996704102,8|2,0:0|3:2,0:0:0:0:
446,319,61049,1,0,0:0:0:0:
286,191,61191,1,10,0:0:0:0:
224,374,61332,1,0,0:0:0:0:
90,217,61474,5,4,0:0:0:0:
143,33,61615,1,0,3:0:0:0:
217,81,61757,5,10,0:0:0:0:
26,165,61898,1,0,3:0:0:0:
216,190,62040,6,0,L|187:261,1,53.9999983520508,2|0,3:2|0:0,0:0:0:0:
235,313,62181,2,0,L|164:313,1,53.9999983520508,0|0,3:0|0:0,0:0:0:0:
133,376,62323,2,0,L|89:316,1,53.9999983520508,10|0,0:0|0:0,0:0:0:0:
19,308,62464,2,0,L|60:253,1,53.9999983520508,0|0,0:0|0:0,0:0:0:0:
102,199,62606,5,8,0:0:0:0:
11,142,62747,1,0,0:0:0:0:
158,81,62889,5,0,0:0:0:0:
100,167,63030,1,0,0:0:0:0:
33,19,63172,6,0,B|134:24|87:100|182:114,1,180,0|0,0:0|0:0,0:0:0:0:
194,105,63879,6,0,P|228:43|322:21,1,135.000005149842,6|0,3:0|3:0,0:0:0:0:
435,43,64162,1,0,3:0:0:0:
285,239,64304,2,0,L|257:143,1,67.5000025749208,14|0,0:0|0:0,0:0:0:0:
293,99,64445,2,0,P|380:100|436:163,1,135.000005149842,0|2,0:0|3:0,0:0:0:0:
507,261,64728,6,0,B|462:272|462:272|439:306|439:306|363:325,1,135.000005149842,12|0,0:0|0:0,0:0:0:0:
260,368,65011,1,2,0:3:0:0:
305,243,65153,1,8,0:0:0:0:
48,281,65294,1,0,0:0:0:0:
114,214,65436,5,6,3:0:0:0:
176,344,65577,1,0,3:0:0:0:
194,162,65719,5,8,0:0:0:0:
96,347,65860,1,0,0:0:0:0:
233,268,66002,5,2,3:0:0:0:
170,323,66143,2,0,P|100:297|62:230,1,135.000005149842,12|0,0:0|3:0,0:0:0:0:
83,142,66426,1,2,3:0:0:0:
257,242,66568,2,0,P|323:199|341:105,1,135.000005149842,12|0,0:0|3:0,0:0:0:0:
330,59,66851,1,2,3:0:0:0:
256,331,66992,6,0,B|226:260|226:260|186:238|186:238|157:129,1,202.500007724762,12|0,0:0|0:0,0:0:0:0:
164,141,67275,1,2,3:0:0:0:
214,31,67417,1,8,0:0:0:0:
102,70,67558,1,0,3:0:0:0:
252,166,67700,1,14,0:3:0:0:
90,318,67841,1,8,0:0:0:0:
43,278,67912,1,8,0:0:0:0:
45,217,67983,1,0,3:0:0:0:
66,172,68054,5,0,3:0:0:0:
103,187,68125,1,0,3:0:0:0:
125,220,68195,1,0,3:0:0:0:
132,258,68266,2,0,L|206:270,1,45,2|0,0:3|0:0,0:0:0:0:
232,329,68408,2,0,L|292:339,1,45,0|0,0:0|0:0,0:0:0:0:
352,289,68549,5,2,0:0:0:0:
352,289,68832,2,0,P|401:251|425:250,1,67.5000025749208,2|0,0:0|0:0,0:0:0:0:
507,271,69115,1,2,0:3:0:0:
419,328,69257,1,0,3:0:0:0:
453,171,69398,5,0,0:0:0:0:
480,246,69540,1,2,3:3:0:0:
401,113,69681,5,2,0:0:0:0:
342,176,69823,1,0,0:0:0:0:
417,37,69964,5,2,0:0:0:0:
319,67,70106,1,0,0:0:0:0:
194,13,70247,1,2,0:0:0:0:
231,172,70389,1,8,0:0:0:0:
88,129,70530,6,0,P|26:143|1:135,2,67.5000025749208,2|0|0,0:0|0:0|0:0,0:0:0:0:
202,160,70955,2,0,P|219:202|222:236,1,67.5000025749208,2|0,0:3|0:0,0:0:0:0:
248,236,71379,2,0,P|232:281|245:319,1,67.5000025749208,2|0,0:3|0:0,0:0:0:0:
208,315,71804,2,0,P|222:358|217:388,1,67.5000025749208,2|0,0:3|0:0,0:0:0:0:
44,369,72087,1,0,0:0:0:0:
15,265,72228,1,2,0:3:0:0:
130,222,72370,1,0,0:0:0:0:
130,255,72511,1,0,0:0:0:0:
116,286,72653,1,0,0:0:0:0:
92,310,72794,6,0,P|153:271|140:360,1,202.500007724762,0|0,3:0|3:0,0:0:0:0:
184,197,73360,2,0,P|242:242|367:250,1,202.500007724762,8|0,0:0|0:0,0:0:0:0:
411,173,73926,2,0,P|393:142|391:93,2,67.5000025749208,0|0|0,0:0|0:0|3:0,0:0:0:0:
361,263,74351,1,0,0:0:0:0:
428,307,74492,1,8,0:0:0:0:
501,272,74634,1,0,0:0:0:0:
345,232,74775,1,0,0:0:0:0:
270,265,74917,1,0,0:0:0:0:
258,344,75058,6,0,P|223:344|190:328,1,67.5000025749208,0|0,3:0|0:0,0:0:0:0:
118,207,75341,1,0,0:0:0:0:
43,238,75483,2,0,P|8:264|-2:290,1,67.5000025749208,0|8,3:0|0:0,0:0:0:0:
78,368,75766,2,0,P|90:326|84:289,1,67.5000025749208,0|0,0:0|3:0,0:0:0:0:
32,148,76049,1,0,0:0:0:0:
32,148,76191,2,0,L|100:116,1,67.5000025749208,0|0,0:0|0:0,0:0:0:0:
171,161,76474,2,0,L|194:76,1,67.5000025749208,0|0,3:0|0:0,0:0:0:0:
23,41,76757,1,10,0:0:0:0:
23,41,77323,6,0,P|72:102|82:12,1,202.500007724762,0|0,3:0|3:0,0:0:0:0:
134,159,77889,2,0,P|194:122|340:149,1,202.500007724762,8|0,0:0|0:0,0:0:0:0:
279,206,78455,2,0,P|267:247|275:286,2,67.5000025749208,0|0|0,0:0|0:0|3:0,0:0:0:0:
406,157,78879,1,0,0:0:0:0:
454,91,79021,1,8,0:0:0:0:
404,27,79162,1,0,0:0:0:0:
273,97,79304,1,0,0:0:0:0:
192,106,79445,1,0,0:0:0:0:
145,39,79587,6,0,L|67:73,1,67.5000025749208,0|0,3:0|0:0,0:0:0:0:
36,170,79870,1,0,0:0:0:0:
36,170,80011,2,0,P|83:213|77:290,2,135.000005149842,0|0|0,3:0|0:0|0:0,0:0:0:0:
0,304,80719,2,0,P|31:290|102:316,1,107.999996704102,8|0,0:0|3:0,0:0:0:0:
261,180,81002,2,0,P|199:195|157:242,1,107.999996704102,8|0,0:0|3:0,0:0:0:0:
151,378,81285,1,0,3:3:0:0:
187,360,81356,1,0,3:3:0:0:
212,329,81426,1,0,3:3:0:0:
220,289,81497,1,0,3:3:0:0:
247,290,81568,5,0,3:3:0:0:
265,309,81639,1,0,3:3:0:0:
270,335,81709,1,0,3:0:0:0:
270,335,81851,6,0,L|293:240,1,80.9999975280763,2|0,0:0|0:0,0:0:0:0:
317,95,82134,2,0,L|366:109,1,40.4999987640381,8|0,0:0|0:0,0:0:0:0:
416,232,82275,2,0,L|467:205,1,40.4999987640381,2|0,0:0|0:0,0:0:0:0:
496,144,82417,2,0,L|475:52,1,80.9999975280763,0|2,3:0|0:0,0:0:0:0:
319,13,82700,2,0,L|299:79,1,40.4999987640381,8|0,0:0|0:0,0:0:0:0:
196,190,82841,2,0,L|168:134,1,40.4999987640381,2|0,0:0|0:0,0:0:0:0:
185,28,82983,6,0,P|231:71|263:173,1,161.999995056153,0|8,3:0|0:0,0:0:0:0:
224,257,83408,1,2,0:0:0:0:
109,205,83549,1,0,3:0:0:0:
11,300,83691,1,2,0:0:0:0:
131,222,83832,1,8,0:0:0:0:
88,373,83974,1,2,0:0:0:0:
265,343,84115,6,0,L|155:313,1,80.9999975280763,0|0,3:0|0:0,0:0:0:0:
21,222,84398,1,8,0:0:0:0:
82,337,84540,1,2,0:0:0:0:
178,147,84681,1,0,3:0:0:0:
93,255,84823,1,2,0:0:0:0:
266,224,84964,2,0,L|221:207,1,40.4999987640381,8|0,0:0|0:0,0:0:0:0:
163,139,85106,2,0,L|116:156,1,40.4999987640381,2|0,0:0|0:0,0:0:0:0:
48,144,85247,6,0,P|32:92|95:22,1,121.500000463486,2|0,3:2|0:0,0:0:0:0:
170,39,85459,1,0,0:0:0:0:
170,39,85530,2,0,P|198:103|158:174,1,121.500000463486,10|0,0:0|0:0,0:0:0:0:
256,311,85742,1,0,0:0:0:0:
256,311,85813,6,0,P|245:241|302:183,1,121.500000463486,2|0,3:2|0:0,0:0:0:0:
371,188,86096,2,0,P|391:223|392:249,1,53.9999983520508,10|0,0:0|0:0,0:0:0:0:
453,291,86238,2,0,P|435:329|402:345,1,53.9999983520508,0|0,0:0|0:0,0:0:0:0:
352,363,86379,6,0,L|325:253,1,107.999996704102,0|0,3:0|0:0,0:0:0:0:
320,240,86591,1,0,0:0:0:0:
319,241,86662,1,8,0:0:0:0:
370,107,86804,2,0,L|434:121,1,40.4999987640381,2|0,0:0|0:0,0:0:0:0:
480,51,86945,6,0,L|427:42,1,40.4999987640381,0|0,3:0|0:0,0:0:0:0:
345,112,87087,2,0,L|409:126,1,40.4999987640381,2|0,0:0|0:0,0:0:0:0:
481,213,87228,2,0,L|388:197,1,80.9999975280763,8|2,0:0|0:0,0:0:0:0:
241,220,87511,5,0,3:0:0:0:
176,143,87653,1,0,3:0:0:0:
273,73,87794,1,8,0:0:0:0:
167,45,87936,2,0,L|198:76,1,40.4999987640381,2|0,0:0|0:0,0:0:0:0:
253,148,88077,2,0,L|242:204,1,40.4999987640381,0|0,3:0|0:0,0:0:0:0:
342,103,88219,2,0,L|395:81,1,40.4999987640381,2|0,0:0|0:0,0:0:0:0:
341,187,88360,1,8,0:0:0:0:
279,45,88502,1,2,0:0:0:0:
177,165,88643,6,0,P|138:113|73:98,1,121.499996292114,0|0,3:0|0:0,0:0:0:0:
64,109,88926,2,0,P|45:165|48:195,1,80.9999975280763,8|2,0:0|0:0,0:0:0:0:
103,335,89209,2,0,L|165:323,1,40.4999987640381,0|0,3:0|0:0,0:0:0:0:
248,236,89351,2,0,L|200:246,1,40.4999987640381,2|0,0:0|0:0,0:0:0:0:
119,212,89492,2,0,L|132:268,1,40.4999987640381,8|0,0:0|0:0,0:0:0:0:
223,321,89634,2,0,L|235:359,1,40.4999987640381,2|0,0:0|0:0,0:0:0:0:
436,377,89775,6,0,B|464:329|464:329|341:356,1,161.999995056153,2|0,0:3|0:0,0:0:0:0:
277,274,90058,2,0,B|249:226|249:226|372:253,1,161.999995056153,2|0,0:3|0:0,0:0:0:0:
378,256,90341,1,2,0:3:0:0:
477,153,90483,2,0,P|457:139|406:153,1,53.9999983520508,8|0,0:0|0:0,0:0:0:0:
353,170,90625,2,0,P|307:123|341:28,1,161.999995056153,10|0,0:0|0:0,0:0:0:0:
339,12,90908,6,0,L|453:44,1,107.999996704102,4|0,0:0|0:0,0:0:0:0:
471,49,91120,1,0,0:0:0:0:
471,49,91191,1,10,0:0:0:0:
494,170,91332,1,0,0:0:0:0:
335,222,91474,2,0,B|279:248|279:248|264:304,1,107.999996704102,2|0,3:2|0:0,0:0:0:0:
321,371,91757,1,10,0:0:0:0:
454,284,91898,6,0,B|438:222|438:222|454:188|454:188|427:122,1,161.999995056153,4|0,3:2|0:0,0:0:0:0:
425,115,92181,2,0,P|384:145|354:145,1,53.9999983520508,0|0,3:0|0:0,0:0:0:0:
314,190,92323,2,0,P|270:157|261:87,1,107.999996704102,10|0,0:0|0:0,0:0:0:0:
298,35,92606,5,2,3:2:0:0:
174,92,92747,1,0,0:0:0:0:
40,23,92889,5,10,0:0:0:0:
157,59,93030,1,0,0:0:0:0:
105,169,93172,6,0,L|83:99,1,53.9999983520508,4|0,3:2|0:0,0:0:0:0:
1,99,93313,2,0,L|23:169,1,53.9999983520508
50,234,93455,1,10,0:0:0:0:
247,303,93596,6,0,L|269:233,1,53.9999983520508
201,178,93737,2,0,L|179:248,1,53.9999983520508,2|0,3:2|0:0,0:0:0:0:
164,318,93879,1,0,0:0:0:0:
332,216,94021,6,0,L|404:198,1,53.9999983520508,10|0,0:0|0:0,0:0:0:0:
463,222,94162,6,0,B|491:281|491:281|498:210|498:210|509:205|509:205|515:103,1,215.999993408203,4|0,0:0|0:0,0:0:0:0:
502,106,94516,1,0,3:0:0:0:
502,106,94587,2,0,P|426:116|388:85,1,107.999996704102,10|12,0:0|0:0,0:0:0:0:
337,14,94870,2,0,P|307:66|334:139,1,107.999996704102,2|0,3:2|0:0,0:0:0:0:
479,295,95153,5,8,0:0:0:0:
439,312,95224,1,8,0:0:0:0:
397,301,95294,1,8,0:0:0:0:
359,323,95365,1,8,0:0:0:0:
317,308,95436,2,0,L|187:269,1,107.999996704102,4|0,0:0|0:0,0:0:0:0:
0,316,95719,2,0,B|23:350|23:350|108:375,1,107.999996704102,10|0,0:0|0:0,0:0:0:0:
204,291,96002,1,2,3:2:0:0:
81,152,96143,1,0,0:0:0:0:
168,286,96285,1,10,0:0:0:0:
239,75,96426,6,0,P|251:138|235:190,1,107.999996704102,4|0,3:2|0:0,0:0:0:0:
158,251,96709,1,0,3:0:0:0:
112,39,96851,1,10,0:0:0:0:
325,11,96992,1,0,0:0:0:0:
358,225,97134,2,0,L|235:200,1,107.999996704102,2|0,3:2|3:0,0:0:0:0:
30,161,97417,1,10,0:0:0:0:
299,89,97558,5,0,0:0:0:0:
299,89,97629,1,0,0:0:0:0:
299,89,97700,2,0,B|246:112|246:112|171:111,2,107.999996704102,4|0|10,0:0|0:0|0:0,0:0:0:0:
448,129,98125,2,0,P|490:92|506:12,2,107.999996704102,0|2|0,0:0|3:2|0:0,0:0:0:0:
262,284,98549,2,0,P|291:283|336:313,1,53.9999983520508,10|0,0:0|0:0,0:0:0:0:
411,358,98691,2,0,B|353:273|456:285|381:178,1,161.999995056153,4|0,3:2|0:0,0:0:0:0:
383,181,98974,2,0,L|304:158,1,53.9999983520508,0|0,3:0|0:0,0:0:0:0:
313,47,99115,2,0,P|331:14|369:1,1,53.9999983520508,10|0,0:0|0:0,0:0:0:0:
479,44,99257,5,8,0:0:0:0:
440,81,99327,1,8,0:0:0:0:
386,91,99398,1,10,0:0:0:0:
331,90,99469,1,0,0:0:0:0:
281,69,99540,1,8,0:0:0:0:
230,85,99610,1,8,0:0:0:0:
200,130,99681,1,8,0:0:0:0:
200,184,99752,1,8,0:0:0:0:
228,229,99823,1,0,3:0:0:0:
281,231,99893,1,0,3:0:0:0:
306,183,99964,6,0,P|241:144|180:169,1,107.999996704102,6|0,3:2|0:0,0:0:0:0:
127,205,100247,1,8,0:0:0:0:
365,269,100389,2,0,P|435:253|485:296,1,107.999996704102,2|0,0:0|0:0,0:0:0:0:
512,365,100672,1,0,0:0:0:0:
250,316,100813,2,0,P|172:303|103:361,1,161.999995056153,10|0,0:0|0:0,0:0:0:0:
96,367,101096,6,0,B|69:338|69:338|82:256,1,107.999996704102,0|0,3:0|0:0,0:0:0:0:
226,117,101379,1,10,0:0:0:0:
149,56,101521,2,0,L|2:100,1,107.999996704102,8|2,0:0|3:2,0:0:0:0:
7,211,101804,1,0,0:0:0:0:
59,108,101945,1,10,0:0:0:0:
155,268,102087,1,0,0:0:0:0:
342,181,102228,6,0,P|339:128|315:81,1,107.999996704102,4|0,0:0|0:0,0:0:0:0:
228,299,102511,1,10,0:0:0:0:
130,239,102653,2,0,P|145:152|182:107,1,107.999996704102,0|2,0:0|3:2,0:0:0:0:
268,62,102936,1,0,0:0:0:0:
77,119,103077,1,10,0:0:0:0:
242,204,103219,1,0,0:0:0:0:
14,325,103360,5,4,0:0:0:0:
114,228,103502,1,0,0:0:0:0:
251,336,103643,1,10,0:0:0:0:
374,361,103785,1,8,0:0:0:0:
460,226,103926,5,2,3:2:0:0:
436,240,103997,1,0,0:0:0:0:
408,240,104068,1,8,0:0:0:0:
386,256,104139,1,8,0:0:0:0:
357,263,104209,5,8,0:0:0:0:
323,220,104280,1,8,0:0:0:0:
317,166,104351,1,8,0:0:0:0:
343,118,104422,1,8,0:0:0:0:
394,104,104492,6,0,P|415:181|451:214,1,107.999996704102,6|0,3:2|0:0,0:0:0:0:
507,252,104775,1,8,0:0:0:0:
291,43,104917,2,0,P|231:81|161:82,1,107.999996704102,2|0,0:0|0:0,0:0:0:0:
96,46,105200,1,0,0:0:0:0:
389,10,105341,2,0,P|334:92|312:195,1,161.999995056153,10|0,0:0|0:0,0:0:0:0:
319,168,105625,5,0,3:0:0:0:
227,212,105766,1,0,0:0:0:0:
342,311,105908,1,10,0:0:0:0:
159,368,106049,2,0,L|130:240,1,107.999996704102,8|2,0:0|3:2,0:0:0:0:
5,138,106332,1,0,0:0:0:0:
12,117,106474,1,10,0:0:0:0:
18,96,106615,1,0,0:0:0:0:
25,77,106757,6,0,L|107:88,1,53.9999983520508,4|0,0:0|0:0,0:0:0:0:
181,160,106898,2,0,L|119:153,1,53.9999983520508
167,26,107040,2,0,L|244:31,1,53.9999983520508,10|0,0:0|0:0,0:0:0:0:
333,29,107181,2,0,P|327:69|289:107,1,53.9999983520508,0|0,3:0|0:0,0:0:0:0:
290,220,107323,2,0,P|262:170|267:135,1,53.9999983520508,2|0,3:2|0:0,0:0:0:0:
349,16,107464,2,0,P|343:56|305:94,1,53.9999983520508,0|0,3:0|0:0,0:0:0:0:
251,220,107606,2,0,P|279:181|345:163,1,107.999996704102,10|0,0:0|0:0,0:0:0:0:
504,257,107889,5,8,0:0:0:0:
406,315,108030,1,0,0:0:0:0:
276,333,108172,5,0,0:0:0:0:
345,370,108313,1,0,0:0:0:0:
422,338,108455,2,0,B|385:259|455:285|412:196,1,135.000005149842,0|0,0:0|0:0,0:0:0:0:
320,72,109021,6,0,P|347:32|421:36,1,121.499996292114,0|0,0:0|0:0,0:0:0:0:
433,43,109304,1,8,0:0:0:0:
346,145,109445,1,0,0:0:0:0:
317,148,109516,1,0,0:0:0:0:
288,143,109587,1,0,0:0:0:0:
262,131,109658,1,0,0:0:0:0:
240,112,109728,1,0,0:0:0:0:
368,12,109870,2,0,P|343:58|306:74,1,80.9999975280763,8|0,0:0|0:0,0:0:0:0:
162,138,110153,6,0,P|152:87|57:24,1,161.999995056153,0|8,0:0|0:0,0:0:0:0:
67,24,110577,1,0,0:0:0:0:
93,49,110648,1,0,0:0:0:0:
127,61,110719,1,0,0:0:0:0:
163,60,110790,1,0,0:0:0:0:
196,46,110860,1,0,0:0:0:0:
174,138,111002,1,8,0:0:0:0:
248,193,111143,1,0,0:0:0:0:
122,229,111285,6,0,L|44:209,2,80.9999975280763,2|0|8,0:0|0:0|0:0,0:0:0:0:
186,360,111709,1,2,0:0:0:0:
186,360,111780,1,0,0:0:0:0:
186,360,111851,2,0,L|205:302,1,40.4999987640381,0|0,0:0|0:0,0:0:0:0:
272,281,111992,2,0,L|256:182,1,80.9999975280763,0|10,0:0|0:0,0:0:0:0:
294,94,112275,5,0,0:0:0:0:
329,84,112346,1,0,0:0:0:0:
363,96,112417,1,2,0:0:0:0:
157,173,112558,1,0,0:0:0:0:
122,160,112629,1,0,0:0:0:0:
96,134,112700,1,8,0:0:0:0:
224,5,112841,1,2,3:2:0:0:
259,14,112912,1,0,3:2:0:0:
288,44,112983,2,0,B|279:95|279:95|256:127|256:127|263:204,1,135.000005149842,10|0,0:2|3:0,0:0:0:0:
260,202,113549,6,0,P|358:249|388:232,1,135,4|0,0:0|0:0,0:0:0:0:
401,213,113832,2,0,B|428:297|428:297|382:351,1,135,2|0,0:3|0:0,0:0:0:0:
170,289,114115,2,0,B|128:245|128:245|145:168,1,135,12|0,0:0|0:0,0:0:0:0:
180,29,114398,2,0,P|205:92|188:139,1,90,2|8,0:3|0:0,0:0:0:0:
176,138,114610,1,0,0:0:0:0:
176,138,114681,6,0,B|151:146|151:146|110:138|110:138|90:189|32:199,1,135,6|0,3:2|0:0,0:0:0:0:
28,188,114964,1,2,3:0:0:0:
3,91,115106,1,0,0:0:0:0:
21,209,115247,1,14,0:3:0:0:
76,318,115389,1,8,0:0:0:0:
11,229,115530,1,2,0:3:0:0:
145,257,115672,1,2,0:3:0:0:
241,372,115813,6,0,P|310:364|346:323,1,90,4|0,3:2|0:0,0:0:0:0:
396,189,116096,2,0,P|446:214|465:262,1,90,2|0,0:3|3:0,0:0:0:0:
468,279,116308,1,0,3:0:0:0:
468,279,116379,2,0,B|406:297|406:297|352:268|352:268|276:283,1,180,12|2,0:0|0:3,0:0:0:0:
220,222,116804,1,8,0:3:0:0:
302,42,116945,2,0,B|345:3|345:3|314:148,1,180,12|2,0:3|3:0,0:0:0:0:
303,200,117370,1,0,3:0:0:0:
149,66,117511,6,0,B|180:82|180:82|203:77|203:77|226:89,1,80.9999975280763,2|2,0:0|0:0,0:0:0:0:
482,142,118077,6,0,P|416:140|378:211,1,135,4|0,3:2|0:0,0:0:0:0:
361,323,118360,2,0,B|397:288|397:288|407:204,1,135,2|0,0:3|0:0,0:0:0:0:
216,167,118643,2,0,B|177:116|177:116|171:13,1,135,12|0,0:0|0:0,0:0:0:0:
309,101,118926,2,0,P|263:142|226:148,1,90,2|8,0:3|0:0,0:0:0:0:
168,236,119139,1,0,0:0:0:0:
168,236,119209,6,0,B|148:204|148:204|116:205|116:205|101:170|32:153,1,135,4|0,0:0|0:0,0:0:0:0:
40,151,119492,1,2,3:0:0:0:
90,27,119634,1,0,0:0:0:0:
203,117,119775,5,10,0:3:0:0:
259,309,119917,1,0,3:0:0:0:
374,262,120058,5,2,3:0:0:0:
466,76,120200,1,0,0:3:0:0:
224,21,120341,6,0,L|155:39,1,45,4|0,0:0|0:0,0:0:0:0:
111,95,120483,1,8,0:0:0:0:
66,90,120554,1,8,0:0:0:0:
28,64,120625,1,8,0:0:0:0:
131,218,120766,2,0,L|144:165,1,45,0|0,3:0|0:0,0:0:0:0:
223,125,120908,1,8,0:0:0:0:
266,115,120978,1,8,0:0:0:0:
308,130,121049,1,8,0:0:0:0:
193,294,121191,2,0,L|223:361,1,45,0|0,3:0|0:0,0:0:0:0:
302,375,121332,6,0,P|360:338|261:290,1,202.500007724762,12|0,0:0|0:0,0:0:0:0:
271,284,121615,1,0,3:0:0:0:
190,368,121757,1,8,0:0:0:0:
138,184,121898,1,0,3:0:0:0:
68,304,122040,2,0,B|55:275|55:275|51:231,1,67.5000025749208,8|0,0:0|0:0,0:0:0:0:
115,107,122181,2,0,B|130:147|130:147|134:188,1,67.5000025749208,8|0,0:0|0:0,0:0:0:0:
241,274,122323,2,0,B|229:235|229:235|243:185,1,67.5000025749208,8|0,0:0|0:0,0:0:0:0:
337,154,122464,2,0,P|422:147|484:127,1,135.000005149842,8|0,0:0|0:0,0:0:0:0:
280,66,126426,5,0,3:0:0:0:
280,66,126497,1,0,3:0:0:0:
280,66,126568,2,0,P|235:102|144:111,1,135.000005149842,0|0,3:0|0:0,0:0:0:0:
22,32,126992,5,0,3:0:0:0:
22,32,127063,1,0,3:0:0:0:
22,32,127134,2,0,B|55:74|55:74|40:141|40:141|67:179,1,161.999995056153,12|0,0:0|0:0,0:0:0:0:
253,224,127700,2,0,B|216:260|216:260|199:334,1,121.499996292114,4|0,3:2|0:0,0:0:0:0:
201,358,127983,1,8,0:0:0:0:
107,373,128125,1,0,3:0:0:0:
15,271,128266,6,0,P|67:241|137:278,1,135.000005149842,6|0,3:0|0:0,0:0:0:0:
109,348,128691,1,8,0:0:0:0:
285,375,128832,1,0,3:0:0:0:
304,362,129115,1,8,0:0:0:0:
447,201,129257,5,0,0:0:0:0:
447,201,129327,1,0,0:0:0:0:
447,201,129398,2,0,P|380:190|331:252,1,135,2|0,3:0|0:0,0:0:0:0:
337,251,129681,1,0,0:0:0:0:
373,332,129823,1,8,0:0:0:0:
136,269,129964,1,0,3:0:0:0:
155,257,130247,2,0,B|174:170,1,67.5000025749208,8|0,0:0|0:0,0:0:0:0:
334,166,130530,6,0,L|301:40,1,108,6|0,3:0|0:0,0:0:0:0:
356,193,130813,6,0,B|333:152|333:152|347:117|347:117|318:64,1,135,0|0,3:0|0:0,0:0:0:0:
388,204,131096,6,0,B|384:175|354:152|354:152|369:110|369:110|344:84|345:36,1,161.999995056153,2|0,3:0|0:0,0:0:0:0:
253,6,131379,1,8,0:0:0:0:
193,18,131450,1,8,0:0:0:0:
172,75,131521,1,8,0:0:0:0:
120,105,131591,1,8,3:2:0:0:
65,80,131662,1,8,0:0:0:0:
48,36,132511,2,0,P|66:91|54:121,1,80.9999975280763,0|0,3:0|3:0,0:0:0:0:
46,135,132794,6,0,L|81:264,1,107.999996704102,4|0,3:2|0:0,0:0:0:0:
114,378,133077,1,10,0:0:0:0:
55,265,133219,1,0,0:0:0:0:
221,145,133360,1,2,3:2:0:0:
181,283,133502,1,0,0:0:0:0:
37,252,133643,1,10,0:0:0:0:
242,238,133785,6,0,B|291:269|291:269|352:275,1,107.999996704102,4|0,3:2|0:0,0:0:0:0:
491,126,134068,2,0,B|430:144|430:144|391:201,1,107.999996704102,0|10,3:0|0:0,0:0:0:0:
430,339,134351,1,0,0:0:0:0:
484,214,134492,1,2,3:2:0:0:
354,292,134634,1,0,0:0:0:0:
314,101,134775,1,10,0:0:0:0:
390,198,134917,1,0,0:0:0:0:
201,165,135058,5,4,3:2:0:0:
241,18,135200,1,0,0:0:0:0:
99,69,135341,1,10,0:0:0:0:
208,191,135483,1,0,0:0:0:0:
258,5,135625,1,2,3:2:0:0:
76,60,135766,1,0,0:0:0:0:
210,108,135908,2,0,L|269:85,1,53.9999983520508,10|0,0:0|0:0,0:0:0:0:
342,27,136049,6,0,P|354:86|411:143,1,107.999996704102,12|0,0:0|0:0,0:0:0:0:
500,183,136332,1,0,3:0:0:0:
506,169,136403,1,0,3:0:0:0:
510,153,136474,1,10,0:0:0:0:
378,222,136615,1,4,3:2:0:0:
228,121,136757,2,0,L|96:172,1,107.999996704102,2|0,0:0|3:0,0:0:0:0:
51,355,137040,1,8,0:0:0:0:
95,373,137110,1,8,0:0:0:0:
142,361,137181,1,8,0:0:0:0:
167,319,137252,1,8,0:0:0:0:
155,271,137323,6,0,B|105:241|105:241|19:273,1,107.999996704102,4|0,3:2|0:0,0:0:0:0:
0,140,137606,2,0,P|47:92|129:110,1,107.999996704102,10|0,0:0|0:0,0:0:0:0:
222,143,137889,1,2,3:2:0:0:
117,173,138030,1,0,0:0:0:0:
258,47,138172,1,10,0:0:0:0:
293,197,138313,6,0,P|274:257|298:329,1,107.999996704102,4|0,3:2|0:0,0:0:0:0:
376,332,138596,1,0,0:0:0:0:
446,148,138738,1,10,0:0:0:0:
368,204,138879,1,0,0:0:0:0:
219,37,139021,1,2,3:2:0:0:
274,126,139162,1,0,3:0:0:0:
447,58,139304,1,10,0:0:0:0:
469,276,139445,5,0,0:0:0:0:
469,276,139516,1,0,0:0:0:0:
469,276,139587,2,0,L|374:253,1,53.9999983520508,4|0,3:2|0:0,0:0:0:0:
243,207,139728,2,0,L|311:227,1,53.9999983520508,0|0,0:0|0:0,0:0:0:0:
338,295,139870,1,10,0:0:0:0:
11,309,140011,6,0,L|106:286,1,53.9999983520508,0|0,0:0|0:0,0:0:0:0:
237,240,140152,2,0,L|169:260,1,53.9999983520508,2|0,3:2|0:0,0:0:0:0:
142,328,140294,1,0,0:0:0:0:
402,347,140436,6,0,L|330:317,1,53.9999983520508,10|0,0:0|0:0,0:0:0:0:
252,257,140577,2,0,B|225:227|245:180|245:180|222:166|222:166|227:124|216:86,1,161.999995056153,4|0,3:2|0:0,0:0:0:0:
163,29,140860,2,0,P|126:46|103:84,1,53.9999983520508,0|0,3:0|0:0,0:0:0:0:
39,53,141002,2,0,P|22:99|60:156,1,67.5000025749208,14|0,0:0|0:0,0:0:0:0:
71,186,141143,5,8,0:0:0:0:
117,201,141214,1,8,0:0:0:0:
163,184,141285,1,2,3:2:0:0:
200,215,141356,1,0,0:0:0:0:
244,195,141426,1,8,0:0:0:0:
284,221,141497,1,8,0:0:0:0:
331,208,141568,1,8,3:0:0:0:
368,239,141639,1,8,3:0:0:0:
410,216,141709,1,8,3:0:0:0:
442,251,141780,1,8,3:0:0:0:
481,227,141851,6,0,L|520:357,1,107.999996704102,6|0,0:0|0:0,0:0:0:0:
420,375,142134,1,8,0:0:0:0:
279,237,142275,2,0,L|315:117,1,107.999996704102,2|0,0:0|3:0,0:0:0:0:
219,68,142558,1,0,0:0:0:0:
122,371,142700,2,0,P|64:324|50:210,1,161.999995056153,10|0,0:0|0:0,0:0:0:0:
56,205,142983,6,0,B|137:219|137:219|160:236,1,107.999996704102,0|0,3:0|0:0,0:0:0:0:
277,334,143266,1,10,0:0:0:0:
340,277,143408,2,0,P|364:226|357:172,1,107.999996704102,8|2,0:0|0:0,0:0:0:0:
258,26,143691,1,0,3:0:0:0:
284,122,143832,1,10,0:0:0:0:
365,60,143974,1,0,0:0:0:0:
183,123,144115,6,0,P|121:99|86:50,1,107.999996704102,4|0,3:2|0:0,0:0:0:0:
150,225,144398,1,10,0:0:0:0:
230,260,144540,2,0,P|259:198|247:139,1,107.999996704102,0|2,0:0|3:2,0:0:0:0:
288,10,144823,1,0,0:0:0:0:
420,35,144964,1,10,0:0:0:0:
349,104,145106,1,0,0:0:0:0:
487,134,145247,2,0,L|467:224,1,53.9999983520508,4|0,3:2|0:0,0:0:0:0:
455,290,145389,1,0,0:0:0:0:
392,190,145530,2,0,L|375:256,1,53.9999983520508,10|0,0:0|0:0,0:0:0:0:
330,364,145672,2,0,L|313:298,1,53.9999983520508,0|0,0:0|0:0,0:0:0:0:
239,187,145813,5,8,0:0:0:0:
185,175,145884,1,8,0:0:0:0:
145,212,145955,1,8,0:0:0:0:
128,262,146025,1,8,0:0:0:0:
76,279,146096,1,8,0:0:0:0:
24,262,146167,1,8,0:0:0:0:
3,212,146238,1,8,0:0:0:0:
22,162,146308,1,8,0:0:0:0:
70,137,146379,6,0,P|80:205|45:275,1,107.999996704102,6|0,0:0|0:0,0:0:0:0:
27,344,146662,1,8,0:0:0:0:
193,176,146804,2,0,P|177:119|178:54,1,107.999996704102,2|0,0:0|3:0,0:0:0:0:
249,26,147087,1,0,0:0:0:0:
316,297,147228,2,0,P|391:307|510:267,1,161.999995056153,10|0,0:0|0:0,0:0:0:0:
490,270,147511,5,0,3:0:0:0:
332,221,147653,1,0,0:0:0:0:
439,36,147794,1,10,0:0:0:0:
509,98,147936,2,0,L|321:144,1,161.999995056153,8|0,0:0|0:0,0:0:0:0:
318,116,148219,2,0,L|244:99,1,53.9999983520508,0|0,0:0|0:0,0:0:0:0:
234,203,148360,2,0,L|156:228,1,53.9999983520508,10|0,0:0|0:0,0:0:0:0:
147,106,148502,2,0,L|83:86,1,53.9999983520508,0|0,0:0|0:0,0:0:0:0:
15,154,148643,6,0,P|0:93|22:17,1,107.999996704102,4|0,0:0|0:0,0:0:0:0:
158,200,148926,1,10,0:0:0:0:
94,266,149068,2,0,P|147:291|234:284,1,107.999996704102,0|2,3:0|0:0,0:0:0:0:
249,230,149351,1,0,3:2:0:0:
396,284,149492,1,10,0:0:0:0:
311,360,149634,1,0,3:0:0:0:
297,275,149775,6,0,L|275:196,1,53.9999983520508,12|0,0:0|0:0,0:0:0:0:
261,112,149917,1,0,0:0:0:0:
368,209,150058,2,0,L|346:130,1,53.9999983520508,14|0,0:0|0:0,0:0:0:0:
382,26,150200,2,0,L|404:105,1,53.9999983520508,0|0,0:0|0:0,0:0:0:0:
471,123,150341,1,2,3:2:0:0:
300,25,150483,1,8,0:0:0:0:
300,25,150554,1,0,3:0:0:0:
300,25,150625,2,0,P|252:59|193:71,1,107.999996704102,8|0,0:0|3:0,0:0:0:0:
53,32,150908,5,14,0:0:0:0:
121,210,151049,1,0,3:0:0:0:
25,151,151191,1,0,3:0:0:0:
131,105,151332,5,14,0:3:0:0:
40,289,151474,1,2,3:0:0:0:
229,366,151615,1,2,3:0:0:0:
318,180,151757,1,14,0:3:0:0:
161,324,151898,1,2,3:0:0:0:
216,95,152040,5,14,0:0:0:0:
46,185,152181,1,0,3:0:0:0:
46,185,152252,1,0,0:0:0:0:
46,185,152323,1,0,3:0:0:0:
215,268,152464,2,0,P|273:256|372:357,1,161.999995056153,12|0,0:0|0:0,0:0:0:0:
369,330,152747,1,0,3:0:0:0:
446,153,152889,1,12,0:2:0:0:
489,240,153030,1,0,0:0:0:0:
324,140,153172,6,0,B|354:85|354:85|369:7,1,107.999996704102,14|2,0:0|3:2,0:0:0:0:
241,291,153455,1,2,3:2:0:0:
166,240,153596,2,0,B|137:202|137:202|109:102,1,107.999996704102,14|0,0:0|3:0,0:0:0:0:
121,40,153879,1,0,3:0:0:0:
315,113,154021,1,14,0:0:0:0:
197,141,154162,1,2,3:2:0:0:
326,6,154304,5,2,3:2:0:0:
299,99,154445,1,0,3:0:0:0:
42,155,154587,1,14,0:0:0:0:
76,247,154728,1,0,3:0:0:0:
76,247,154799,1,0,3:0:0:0:
76,247,154870,2,0,L|196:283,1,107.999996704102,14|0,0:0|3:0,0:0:0:0:
448,371,155153,1,10,0:0:0:0:
460,353,155224,1,8,0:0:0:0:
473,336,155294,1,8,0:0:0:0:
486,318,155365,1,8,0:0:0:0:
496,299,155436,5,14,0:0:0:0:
350,202,155577,1,0,3:0:0:0:
492,127,155719,1,0,3:0:0:0:
445,220,155860,5,14,0:3:0:0:
392,9,156002,1,2,3:3:0:0:
182,57,156143,1,2,3:3:0:0:
234,267,156285,1,14,0:3:0:0:
337,75,156426,1,2,3:0:0:0:
60,18,156568,2,0,L|27:104,1,53.9999983520508,12|0,0:0|0:0,0:0:0:0:
155,151,156709,2,0,L|89:125,1,53.9999983520508,0|0,3:0|0:0,0:0:0:0:
6,191,156851,2,0,L|70:212,1,53.9999983520508,0|0,3:0|0:0,0:0:0:0:
206,247,156992,6,0,P|141:253|143:381,1,215.999993408203,12|0,0:0|3:0,0:0:0:0:
364,337,157417,1,12,0:0:0:0:
233,171,157558,1,0,3:0:0:0:
442,229,157700,5,2,3:2:0:0:
458,188,157771,1,0,0:0:0:0:
447,146,157841,1,2,0:0:0:0:
413,118,157912,1,0,0:0:0:0:
395,78,157983,1,10,0:0:0:0:
407,36,158054,1,0,0:0:0:0:
444,14,158125,1,2,0:0:0:0:
485,25,158195,1,0,0:0:0:0:
509,61,158266,5,8,0:0:0:0:
467,87,158337,1,0,0:0:0:0:
418,88,158408,1,0,0:0:0:0:
383,121,158478,1,0,0:0:0:0:
334,112,158549,1,10,0:0:0:0:
294,141,158620,1,0,0:0:0:0:
248,123,158691,1,8,0:0:0:0:
220,162,158761,1,0,0:0:0:0:
174,143,158832,6,0,B|167:88|167:88|102:25,1,107.999996704102,8|0,0:0|0:0,0:0:0:0:
53,211,159115,2,0,B|60:266|60:266|115:320,1,90,0|0,0:0|0:0,0:0:0:0:
214,353,159398,1,0,0:0:0:0:
250,340,159540,1,0,0:0:0:0:
292,207,159681,1,0,0:0:0:0:
253,196,159823,1,0,0:0:0:0:
320,52,159964,6,0,P|390:50|419:89,1,101.250003862381,0|0,0:0|0:0,0:0:0:0:
439,71,160247,2,0,P|453:139|419:174,1,101.250003862381,0|0,0:0|0:0,0:0:0:0:
442,192,160530,2,0,P|376:217|336:191,1,101.250003862381,0|0,0:0|0:0,0:0:0:0:
326,224,160813,2,0,P|289:164|308:119,1,101.250003862381,0|0,0:0|0:0,0:0:0:0:
269,121,161096,6,0,P|234:98|191:98,1,67.5000025749208,0|0,0:0|0:0,0:0:0:0:
20,178,161379,1,0,0:0:0:0:
91,198,161521,1,0,0:0:0:0:
113,127,161662,1,0,0:0:0:0:
30,149,161804,1,0,0:0:0:0:
10,230,161945,1,0,0:0:0:0:
73,268,162087,1,0,0:0:0:0:
90,339,162228,1,0,0:0:0:0:
277,378,162511,6,0,P|336:368|390:307,2,107.999996704102,0|0|0,0:0|0:0|0:0,0:0:0:0:
83,258,163360,2,0,P|138:220|211:246,1,107.999996704102,0|0,0:0|0:0,0:0:0:0:
244,266,163785,1,0,0:0:0:0:
305,213,163926,2,0,L|282:132,1,53.9999983520508,0|0,0:0|0:0,0:0:0:0:
182,123,164209,2,0,L|206:-9,1,107.999996704102,0|0,0:0|0:0,0:0:0:0:
