osu file format v14

[General]
AudioFilename: audio.mp3
AudioLeadIn: 0
PreviewTime: 45345
Countdown: 0
SampleSet: Soft
StackLeniency: 0.7
Mode: 0
LetterboxInBreaks: 0
WidescreenStoryboard: 1

[Editor]
DistanceSpacing: 0.8
BeatDivisor: 4
GridSize: 16
TimelineZoom: 1.9

[Metadata]
Title:Chimera feat. Hatsune Miku
TitleUnicode:キメラ feat. 初音ミク
Artist:DECO*27
ArtistUnicode:DECO*27
Creator:Pho
Version:Easy
Source:
Tags:vocaloid 日本テレビ「ズームイン!!サタデー」 テーマソング nihon tv zoom in saturday theme song Rockwell 八三 83 hachisan OTOIRO DMYM yuka fujii Shimpei Oniki Iori Majima Yusuke Sato rock japanese Hokichi
BeatmapID:3551362
BeatmapSetID:1735531

[Difficulty]
HPDrainRate:2
CircleSize:3
OverallDifficulty:3
ApproachRate:4.5
SliderMultiplier:1
SliderTickRate:1

[Events]
//Background and Video events
0,0,"bg.jpg",0,0
//Break Periods
2,14126,14931
2,108938,110025
2,123738,125308
//Storyboard Layer 0 (Background)
//Storyboard Layer 1 (Fail)
//Storyboard Layer 2 (Pass)
//Storyboard Layer 3 (Foreground)
//Storyboard Layer 4 (Overlay)
//Storyboard Sound Samples

[TimingPoints]
342,283.018867924528,4,2,1,40,1,0
342,-111.111111111111,4,2,1,40,0,0
2818,-111.111111111111,4,2,1,5,0,0
2889,-111.111111111111,4,2,1,40,0,0
3879,-100,4,2,1,40,0,0
4304,-100,4,2,1,50,0,0
4587,-100,4,2,1,50,0,0
5011,-100,4,2,1,60,0,0
13360,-100,4,2,1,70,0,0
13926,-111.111111111111,4,2,1,40,0,0
16191,-111.111111111111,4,2,1,40,0,0
16403,-111.111111111111,4,2,1,5,0,0
16474,-111.111111111111,4,2,2,40,0,0
18455,-100,4,2,2,40,0,0
18667,-100,4,2,2,5,0,0
18738,-111.111111111111,4,2,2,40,0,0
20648,-111.111111111111,4,2,2,5,0,0
20719,-100,4,2,2,40,0,0
20931,-100,4,2,2,5,0,0
21002,-111.111111111111,4,2,2,40,0,0
22983,-111.111111111111,4,2,2,40,0,0
24115,-111.111111111111,4,2,1,60,0,0
24893,-111.111111111111,4,2,1,60,0,0
25247,-100,4,2,1,60,0,0
26591,-100,4,2,1,5,0,0
26662,-100,4,2,1,60,0,0
27724,-100,4,2,1,5,0,0
27794,-100,4,2,1,60,0,0
28856,-100,4,2,1,5,0,0
28926,-100,4,2,1,60,0,0
29139,-100,4,2,1,5,0,0
29209,-100,4,2,1,60,0,0
29422,-100,4,2,1,5,0,0
29492,-100,4,2,1,60,0,0
34304,-111.111111111111,4,2,1,50,0,0
35648,-111.111111111111,4,2,1,5,0,0
35719,-111.111111111111,4,2,1,50,0,0
40176,-111.111111111111,4,2,1,5,0,0
40247,-111.111111111111,4,2,1,50,0,0
41096,-111.111111111111,4,2,1,50,0,0
42794,-100,4,2,1,50,0,0
43219,-100,4,2,1,50,0,0
45200,-100,4,2,1,5,0,0
45341,-200,4,2,1,50,0,0
45554,-200,4,2,1,5,0,0
45625,-95.2380952380952,4,2,1,70,0,0
46827,-95.2380952380952,4,2,1,5,0,0
46898,-95.2380952380952,4,2,1,70,0,0
49091,-95.2380952380952,4,2,1,5,0,0
49162,-95.2380952380952,4,2,1,70,0,0
53620,-95.2380952380952,4,2,1,5,0,0
53691,-95.2380952380952,4,2,1,70,0,0
55742,-95.2380952380952,4,2,1,5,0,0
55813,-95.2380952380952,4,2,1,70,0,0
60271,-95.2380952380952,4,2,1,5,0,0
60341,-95.2380952380952,4,2,1,70,0,0
62606,-111.111111111111,4,2,1,40,0,0
63879,-100,4,2,1,60,0,0
65931,-100,4,2,1,5,0,0
66002,-100,4,2,1,60,0,0
68266,-111.111111111111,4,2,1,50,0,0
70389,-111.111111111111,4,2,1,70,0,0
70530,-111.111111111111,4,2,1,30,0,0
72794,-111.111111111111,4,2,2,45,0,0
79799,-111.111111111111,4,2,2,5,0,0
79870,-111.111111111111,4,2,2,40,0,0
80719,-111.111111111111,4,2,2,40,0,0
80860,-111.111111111111,4,2,2,40,0,0
81002,-111.111111111111,4,2,2,40,0,0
81143,-111.111111111111,4,2,2,40,0,0
81285,-111.111111111111,4,2,2,40,0,0
81851,-100,4,2,1,50,0,0
85247,-100,4,2,1,50,0,0
85459,-100,4,2,1,5,0,0
85530,-100,4,2,1,50,0,0
85742,-100,4,2,1,5,0,0
85813,-100,4,2,1,50,0,0
86025,-100,4,2,1,5,0,0
86096,-100,4,2,1,50,0,0
86521,-100,4,2,1,50,0,0
89775,-100,4,2,1,40,0,0
89988,-100,4,2,1,5,0,0
90058,-100,4,2,1,40,0,0
90271,-100,4,2,1,5,0,0
90341,-100,4,2,1,40,0,0
90483,-83.3333333333333,4,2,1,50,0,0
90908,-95.2380952380952,4,2,1,70,0,0
92110,-95.2380952380952,4,2,1,5,0,0
92181,-95.2380952380952,4,2,1,70,0,0
94375,-95.2380952380952,4,2,1,5,0,0
94445,-95.2380952380952,4,2,1,70,0,0
95931,-95.2380952380952,4,2,1,5,0,0
96002,-95.2380952380952,4,2,1,70,0,0
98903,-95.2380952380952,4,2,1,5,0,0
98974,-95.2380952380952,4,2,1,70,0,0
101025,-95.2380952380952,4,2,1,5,0,0
101096,-95.2380952380952,4,2,1,70,0,0
102441,-95.2380952380952,4,2,1,5,0,0
102511,-95.2380952380952,4,2,1,70,0,0
105554,-95.2380952380952,4,2,1,5,0,0
105625,-95.2380952380952,4,2,1,70,0,0
106969,-95.2380952380952,4,2,1,5,0,0
107040,-95.2380952380952,4,2,1,70,0,0
107889,-111.111111111111,4,2,1,40,0,0
109021,-111.111111111111,4,2,1,50,0,0
109233,-111.111111111111,4,2,1,5,0,0
109304,-111.111111111111,4,2,1,40,0,0
111285,-111.111111111111,4,2,1,50,0,0
111497,-111.111111111111,4,2,1,5,0,0
111568,-111.111111111111,4,2,1,50,0,0
112558,-111.111111111111,4,2,1,55,0,0
112983,-100,4,2,1,60,0,0
113549,-100,4,2,1,60,0,0
113761,-100,4,2,1,5,0,0
113832,-100,4,2,1,60,0,0
114044,-100,4,2,1,5,0,0
114115,-100,4,2,1,60,0,0
114327,-100,4,2,1,5,0,0
114398,-100,4,2,1,60,0,0
114893,-100,4,2,1,5,0,0
114964,-100,4,2,1,60,0,0
117511,-111.111111111111,4,2,1,30,0,0
118077,-100,4,2,1,60,0,0
118290,-100,4,2,1,5,0,0
118360,-100,4,2,1,60,0,0
118573,-100,4,2,1,5,0,0
118643,-100,4,2,1,60,0,0
118856,-100,4,2,1,5,0,0
118926,-100,4,2,1,60,0,0
119422,-100,4,2,1,5,0,0
119492,-100,4,2,1,60,0,0
121332,-100,4,2,1,70,0,0
121544,-100,4,2,1,5,0,0
121615,-100,4,2,1,70,0,0
122040,-83.3333333333333,4,2,1,70,0,0
122606,-100,4,2,1,20,0,0
126426,-111.111111111111,4,2,1,50,0,0
126922,-111.111111111111,4,2,1,5,0,0
126992,-111.111111111111,4,2,1,50,0,0
127134,-111.111111111111,4,2,1,50,0,0
127700,-111.111111111111,4,2,1,50,0,0
127912,-111.111111111111,4,2,1,5,0,0
127983,-111.111111111111,4,2,1,50,0,0
128266,-111.111111111111,4,2,1,50,0,0
129398,-111.111111111111,4,2,1,50,0,0
129610,-111.111111111111,4,2,1,5,0,0
129681,-111.111111111111,4,2,1,50,0,0
130389,-111.111111111111,4,2,1,55,0,0
130742,-111.111111111111,4,2,1,5,0,0
130813,-111.111111111111,4,2,1,60,0,0
131025,-111.111111111111,4,2,1,5,0,0
131096,-111.111111111111,4,2,1,65,0,0
131308,-111.111111111111,4,2,1,5,0,0
131379,-111.111111111111,4,2,1,55,0,0
132228,-111.111111111111,4,2,1,20,0,0
132511,-111.111111111111,4,2,1,50,0,0
132724,-111.111111111111,4,2,1,5,0,0
132794,-90.9090909090909,4,2,1,70,0,0
133997,-90.9090909090909,4,2,1,5,0,0
134068,-90.9090909090909,4,2,1,70,0,0
138525,-90.9090909090909,4,2,1,5,0,0
138596,-90.9090909090909,4,2,1,70,0,0
139799,-90.9090909090909,4,2,1,5,0,0
139870,-90.9090909090909,4,2,1,70,0,0
140790,-90.9090909090909,4,2,1,5,0,0
140860,-90.9090909090909,4,2,1,70,0,0
142912,-90.9090909090909,4,2,1,5,0,0
142983,-90.9090909090909,4,2,1,70,0,0
143620,-90.9090909090909,4,2,1,5,0,0
143691,-90.9090909090909,4,2,1,70,0,0
147441,-90.9090909090909,4,2,1,5,0,0
147511,-90.9090909090909,4,2,1,70,0,0
148148,-90.9090909090909,4,2,1,5,0,0
148219,-90.9090909090909,4,2,1,70,0,0
150837,-90.9090909090909,4,2,1,5,0,0
150908,-90.9090909090909,4,2,1,75,0,0
155436,-90.9090909090909,4,2,1,80,0,0
157700,-90.9090909090909,4,2,1,50,0,0
157983,-90.9090909090909,4,2,1,60,0,0
158266,-90.9090909090909,4,2,1,70,0,0
158549,-90.9090909090909,4,2,1,80,0,0
158832,-100,4,2,1,60,0,0
159115,-100,4,2,1,60,0,0
159964,-111.111111111111,4,2,1,40,0,0
160176,-111.111111111111,4,2,1,5,0,0
160247,-111.111111111111,4,2,1,30,0,0
160459,-111.111111111111,4,2,1,5,0,0
160530,-111.111111111111,4,2,1,30,0,0
160742,-111.111111111111,4,2,1,5,0,0
160813,-111.111111111111,4,2,1,30,0,0
161025,-111.111111111111,4,2,1,5,0,0
161096,-111.111111111111,4,2,1,30,0,0
162511,-111.111111111111,4,2,1,30,0,0
164492,-111.111111111111,4,2,1,5,0,0

[Colours]
Combo1 : 160,64,219
Combo2 : 252,12,96
Combo3 : 253,236,176
Combo4 : 95,192,136
Combo5 : 80,107,239
Combo6 : 52,211,204

[HitObjects]
204,86,342,6,0,P|241:68|337:97,2,134.999995880127,2|2|2,0:0|0:0|0:0,0:0:0:0:
147,144,1474,2,0,P|106:155|29:111,2,134.999995880127,2|2|2,0:0|0:0|0:0,0:0:0:0:
213,190,2606,2,0,B|228:240|228:240|217:269|217:269|233:335,2,134.999995880127,2|2|2,0:0|0:0|0:0,0:0:0:0:
314,41,4021,1,2,0:0:0:0:
385,77,4304,2,0,P|368:138|413:232,1,150,0|0,0:0|0:0,0:0:0:0:
442,282,5011,6,0,P|408:335|310:353,2,150,6|14|14,0:3|0:0|0:0,0:0:0:0:
461,163,6285,2,0,L|358:190,1,100,8|2,0:0|3:0,0:0:0:0:
308,259,6851,1,8,0:0:0:0:
185,203,7275,2,8,P|113:219|70:279,2,150,12|12|12,0:0|0:0|0:0,0:0:0:0:
292,120,8549,1,8,0:0:0:0:
381,117,8832,2,0,P|361:67|305:35,1,100,10|8,0:3|0:0,0:0:0:0:
145,32,9681,6,0,L|174:129,1,100,4|8,0:0|0:0,0:0:0:0:
132,198,10247,2,0,P|80:211|33:196,2,100,10|8|8,0:3|0:0|0:0,0:0:0:0:
191,251,11096,1,14,0:3:0:0:
327,181,11662,2,0,L|435:213,1,100,6|8,0:3|0:0,0:0:0:0:
491,250,12228,2,0,L|409:327,1,100,8|10,3:2|0:3,0:0:0:0:
350,360,12794,2,0,L|323:250,1,100,8|12,0:0|0:0,0:0:0:0:
269,207,13360,2,0,P|237:202|161:337,1,200,10|2,0:3|0:3,0:0:0:0:
167,374,16191,6,0,L|180:271,1,89.9999972534181,4|8,3:2|0:0,0:0:0:0:
245,240,16757,2,0,L|231:145,1,89.9999972534181,0|8,0:0|0:0,0:0:0:0:
204,74,17323,2,0,P|146:55|47:121,1,179.999994506836,0|0,0:0|0:0,0:0:0:0:
187,230,18455,2,0,B|241:249|241:249|266:292|266:292|360:326,1,200,2|0,3:2|0:0,0:0:0:0:
475,217,19587,1,0,3:0:0:0:
413,163,19870,1,10,0:0:0:0:
469,104,20153,2,0,L|443:5,1,89.9999972534181,0|8,0:0|0:0,0:0:0:0:
357,29,20719,6,0,P|333:68|186:91,1,200,2|0,3:2|0:0,0:0:0:0:
36,138,21851,2,0,B|15:212|15:212|66:310,1,179.999994506836,0|0,0:0|0:0,0:0:0:0:
220,269,22983,1,2,3:2:0:0:
345,166,23549,2,0,L|314:68,1,89.9999972534181,2|10,0:0|0:0,0:0:0:0:
239,102,24115,1,0,3:0:0:0:
203,175,24398,1,0,3:0:0:0:
265,227,24681,2,0,P|308:266|359:270,1,89.9999972534181,0|0,3:0|3:0,0:0:0:0:
427,266,25247,6,0,B|447:195|447:195|429:148|429:148|457:69,1,200,4|0,0:0|3:0,0:0:0:0:
286,11,26379,2,0,P|236:38|265:173,1,200,0|0,3:0|3:0,0:0:0:0:
399,261,27511,2,0,P|354:298|300:310,1,100,0|8,3:0|0:0,0:0:0:0:
250,370,28077,2,0,P|215:362|173:304,1,100,0|8,3:0|0:0,0:0:0:0:
149,228,28643,2,0,P|83:230|38:259,2,100,2|10|2,3:2|0:0|3:2,0:0:0:0:
237,209,29492,1,10,0:0:0:0:
237,209,29775,6,0,B|278:113|278:113|209:32,1,200,0|0,3:0|3:0,0:0:0:0:
36,56,30908,2,0,B|-5:152|-5:152|64:233,1,200,0|0,3:0|3:0,0:0:0:0:
166,367,32040,1,0,3:0:0:0:
207,197,32606,2,0,P|253:193|307:222,1,100,0|8,3:0|0:0,0:0:0:0:
371,271,33172,2,0,P|416:269|461:237,2,100,2|10|2,3:2|0:0|3:2,0:0:0:0:
389,182,34021,1,10,0:0:0:0:
327,120,34304,6,0,P|356:63|475:57,1,179.999994506836,4|12,3:2|0:0,0:0:0:0:
448,212,35436,2,0,B|409:239|409:239|370:222|370:222|336:258|282:261,1,179.999994506836,4|12,0:0|0:3,0:0:0:0:
224,214,36285,1,2,0:3:0:0:
158,261,36568,2,0,B|132:201|132:201|102:189|102:189|90:101,1,179.999994506836,4|12,0:0|0:0,0:0:0:0:
227,20,37700,2,0,B|254:84|254:84|284:103|284:103|276:151|302:178,1,179.999994506836,4|8,0:2|0:0,0:0:0:0:
337,245,38549,1,0,3:0:0:0:
292,312,38832,6,0,B|246:329|246:329|222:302|222:302|177:333|119:332,1,179.999994506836,4|12,3:2|0:0,0:0:0:0:
32,205,39964,2,0,B|78:188|78:188|102:215|102:215|147:184|205:185,1,179.999994506836,4|14,3:2|0:0,0:0:0:0:
263,221,40813,1,2,0:3:0:0:
333,181,41096,2,0,P|344:149|327:76,1,89.9999972534181,0|8,3:0|0:0,0:0:0:0:
341,13,41662,2,0,P|306:11|247:38,1,89.9999972534181,8|0,0:0|3:2,0:0:0:0:
244,69,42087,2,0,P|202:102|111:93,1,134.999995880127,12|14,0:0|0:0,0:0:0:0:
45,145,42794,1,8,0:0:0:0:
102,213,43077,2,0,L|86:274,2,50,10|10|0,0:0|0:0|3:0,0:0:0:0:
122,84,45341,5,0,3:0:0:0:
122,84,45625,2,0,P|161:113|219:115,1,104.999996795654,4|10,0:0|0:0,0:0:0:0:
279,60,46191,2,0,P|327:49|384:75,1,104.999996795654,2|10,3:2|0:0,0:0:0:0:
412,91,46615,2,0,B|393:180|393:180|326:231,1,157.499995193482,4|10,0:0|0:0,0:0:0:0:
288,286,47323,1,2,3:2:0:0:
339,352,47606,1,10,0:0:0:0:
422,348,47889,2,0,P|476:327|508:282,1,104.999996795654,4|10,3:2|0:0,0:0:0:0:
488,208,48455,1,2,3:2:0:0:
406,112,48879,2,0,P|339:128|284:198,1,157.499995193482,12|10,0:0|0:0,0:0:0:0:
206,225,49587,1,2,3:2:0:0:
158,155,49870,1,8,0:0:0:0:
74,146,50153,6,0,P|60:178|63:247,1,104.999996795654,4|10,3:2|0:0,0:0:0:0:
96,327,50719,2,0,P|133:337|203:309,1,104.999996795654,2|10,3:2|0:0,0:0:0:0:
221,284,51143,2,0,P|273:274|379:313,1,157.499995193482,4|10,3:2|0:0,0:0:0:0:
436,358,51851,1,2,3:2:0:0:
490,293,52134,1,10,0:0:0:0:
435,226,52417,2,0,L|414:120,1,104.999996795654,4|10,3:2|0:0,0:0:0:0:
334,96,52983,1,2,3:2:0:0:
285,213,53408,2,0,P|210:238|125:194,1,157.499995193482,4|10,3:2|0:0,0:0:0:0:
82,149,54115,1,2,3:2:0:0:
202,43,54681,6,0,P|255:48|322:138,2,157.499995193482,6|2|10,0:0|3:2|0:0,0:0:0:0:
121,68,55813,2,0,L|94:188,1,104.999996795654,0|10,3:0|0:0,0:0:0:0:
60,190,56238,2,0,L|108:347,1,157.499995193482,8|10,0:0|0:0,0:0:0:0:
182,374,56945,2,0,P|239:375|326:325,1,157.499995193482,4|2,0:0|3:0,0:0:0:0:
286,203,57794,1,10,0:0:0:0:
218,153,58077,2,0,P|194:106|190:41,2,104.999996795654,4|10|4,0:0|0:0|0:0,0:0:0:0:
297,124,58926,1,8,0:0:0:0:
363,175,59209,6,0,P|415:157|517:203,2,157.499995193482,6|2|10,0:0|0:0|0:0,0:0:0:0:
312,242,60341,2,0,P|276:243|209:191,1,104.999996795654,0|10,3:0|0:0,0:0:0:0:
176,229,60766,2,0,P|156:192|179:67,1,157.499995193482,8|10,0:0|0:0,0:0:0:0:
238,34,61474,2,0,B|351:52|351:52|396:33,1,157.499995193482,4|0,0:0|0:0,0:0:0:0:
433,154,62323,1,8,0:0:0:0:
365,213,62606,2,0,L|390:263,2,44.999998626709,8|0|0,0:0|0:0|0:0,0:0:0:0:
279,183,63172,2,0,L|178:215,1,89.9999972534181
71,156,63879,6,0,P|71:105|145:37,1,150,6|14,3:0|0:0,0:0:0:0:
236,105,64728,2,0,P|287:123|379:69,1,150,12|8,0:0|0:0,0:0:0:0:
414,17,65436,1,6,3:0:0:0:
495,154,66002,2,0,L|400:194,1,100,2|0,3:0|3:0,0:0:0:0:
388,271,66568,2,0,L|225:243,1,150,12|12,0:0|0:0,0:0:0:0:
140,312,67417,1,8,0:0:0:0:
68,346,67700,2,0,P|50:310|57:250,1,100,14|0,0:3|3:0,0:0:0:0:
31,174,68266,6,0,L|20:119,2,44.999998626709,2|0|2,0:3|0:0|0:0,0:0:0:0:
110,159,68832,2,0,L|208:135,1,89.9999972534181,2|2,0:0|0:3,0:0:0:0:
237,207,69398,2,0,L|334:232,1,89.9999972534181,0|2,0:0|0:0,0:0:0:0:
390,182,69964,1,2,0:0:0:0:
490,309,70530,1,2,0:0:0:0:
330,334,71096,1,0,0:0:0:0:
264,185,71662,1,0,0:0:0:0:
404,110,72228,2,0,P|430:158|434:202,1,89.9999972534181,2|0,0:3|0:0,0:0:0:0:
386,257,72794,6,0,B|317:334|289:241|217:331,1,179.999994506836,0|8,3:0|0:0,0:0:0:0:
87,237,73926,2,0,B|156:160|184:253|256:163,1,179.999994506836,0|8,0:0|0:0,0:0:0:0:
222,14,75058,2,0,P|158:15|71:110,1,179.999994506836,0|8,3:0|0:0,0:0:0:0:
97,168,75908,1,0,3:0:0:0:
157,222,76191,2,0,L|251:249,2,89.9999972534181,0|0|10,0:0|3:0|0:0,0:0:0:0:
21,310,77323,6,0,P|75:358|176:337,1,179.999994506836,0|8,3:0|0:0,0:0:0:0:
263,203,78455,2,0,P|318:182|413:253,1,179.999994506836,0|8,0:0|0:0,0:0:0:0:
258,299,79587,2,0,L|221:123,1,179.999994506836,0|8,3:0|0:0,0:0:0:0:
251,47,80436,1,0,3:0:0:0:
304,108,80719,2,0,P|362:133|395:128,1,89.9999972534181,8|8,0:0|0:0,0:0:0:0:
444,72,81285,2,0,L|496:63,2,44.999998626709,0|0|0,3:3|3:3|3:3,0:0:0:0:
377,11,81851,6,0,P|308:11|214:113,1,200,2|0,0:0|0:0,0:0:0:0:
213,187,82700,1,8,3:0:0:0:
193,274,82983,2,0,B|235:287|235:287|323:238|323:238|338:185,1,200,0|0,3:0|3:0,0:0:0:0:
272,17,84115,2,0,P|186:57|76:26,1,200,0|0,3:0|3:0,0:0:0:0:
7,196,85247,2,0,L|35:301,2,100,2|10|2,3:2|0:0|3:2,0:0:0:0:
60,123,86096,1,10,0:0:0:0:
136,170,86379,6,0,P|197:196|324:173,1,200,0|0,3:0|3:0,0:0:0:0:
367,93,87228,1,8,0:0:0:0:
437,149,87511,2,0,B|426:216|426:216|449:264|449:264|421:354,1,200,0|0,0:0|0:0,0:0:0:0:
245,337,88643,2,0,P|192:337|159:360,2,75,0|0|2,3:0|0:0|0:0,0:0:0:0:
286,355,89209,2,0,P|306:313|296:248,1,100,0|8,3:0|0:0,0:0:0:0:
253,184,89775,1,2,0:3:0:0:
93,267,90341,2,0,P|87:208|107:152,1,100,2|10,0:3|0:0,0:0:0:0:
152,105,90908,6,0,L|279:89,1,104.999996795654,4|10,0:0|0:0,0:0:0:0:
317,34,91474,2,0,L|422:59,1,104.999996795654,2|10,3:2|0:0,0:0:0:0:
460,51,91898,2,0,P|414:117|408:197,1,157.499995193482,4|10,3:2|0:0,0:0:0:0:
443,267,92606,1,2,3:2:0:0:
402,340,92889,1,10,0:0:0:0:
312,350,93172,2,0,B|250:339|250:339|228:297,1,104.999996795654,4|10,3:2|0:0,0:0:0:0:
255,221,93738,1,2,3:2:0:0:
131,245,94162,2,0,P|136:308|47:359,1,157.499995193482,4|10,0:0|0:0,0:0:0:0:
9,298,94870,1,2,3:2:0:0:
36,218,95153,1,8,0:0:0:0:
22,135,95436,6,0,P|68:95|126:87,1,104.999996795654,4|10,0:0|0:0,0:0:0:0:
187,53,96002,2,0,P|193:110|172:157,1,104.999996795654,2|8,3:2|0:0,0:0:0:0:
158,191,96426,2,0,B|203:250|203:250|298:282,1,157.499995193482,4|10,3:2|0:0,0:0:0:0:
363,257,97134,1,2,3:2:0:0:
437,218,97417,1,10,0:0:0:0:
410,138,97700,2,0,L|440:20,2,104.999996795654,4|10|2,0:0|0:0|3:2,0:0:0:0:
292,203,98691,2,0,P|296:297|356:345,1,157.499995193482,4|10,3:2|0:0,0:0:0:0:
419,314,99398,1,10,0:0:0:0:
399,232,99681,1,8,0:0:0:0:
462,177,99964,6,0,B|447:117|447:117|461:85|461:85|438:9,2,157.499995193482,6|2|10,3:2|0:0|0:0,0:0:0:0:
422,250,101096,2,0,P|349:264|303:252,1,104.999996795654,0|10,3:0|0:0,0:0:0:0:
293,291,101521,2,0,P|256:253|259:143,1,157.499995193482,8|10,0:0|0:0,0:0:0:0:
295,80,102228,2,0,L|144:28,1,157.499995193482,4|0,0:0|0:0,0:0:0:0:
23,86,103077,1,10,0:0:0:0:
31,169,103360,2,0,L|144:205,1,104.999996795654,4|10,0:0|0:0,0:0:0:0:
219,167,103926,2,0,P|193:208|192:271,1,104.999996795654,2|8,3:2|0:0,0:0:0:0:
223,354,104492,6,0,P|279:329|381:357,2,157.499995193482,6|2|10,3:2|0:0|0:0,0:0:0:0:
140,368,105625,2,0,L|20:333,1,104.999996795654,0|10,3:0|0:0,0:0:0:0:
1,321,106049,2,0,B|63:244|-23:252|45:159,1,157.499995193482,8|10,0:0|0:0,0:0:0:0:
116,192,106757,2,0,P|156:200|238:122,1,157.499995193482,4|0,0:0|0:0,0:0:0:0:
309,26,107606,1,10,0:0:0:0:
348,100,107889,2,0,B|412:60|412:60|529:100,1,179.999994506836,8|0,0:0|0:0,0:0:0:0:
487,174,108738,1,0,0:0:0:0:
172,295,111285,6,0,B|209:321|209:321|307:337,2,134.999995880127,2|2|10,0:0|0:0|0:0,0:0:0:0:
98,261,112417,2,0,B|121:211|121:211|112:122,1,134.999995880127,2|2,0:0|3:2,0:0:0:0:
74,107,112983,2,0,L|65:36,1,50,10|0,0:2|3:0,0:0:0:0:
193,8,113549,6,0,B|264:45|264:45|314:39|314:39|374:73,1,200,4|12,0:0|0:0,0:0:0:0:
451,120,114398,1,2,0:3:0:0:
372,163,114681,2,0,P|295:158|257:267,1,200,6|14,3:2|0:3,0:0:0:0:
338,287,115530,1,2,0:3:0:0:
412,236,115813,2,0,B|433:282|433:282|469:305|469:305|459:363|380:381,1,200,4|12,3:2|0:0,0:0:0:0:
221,299,116945,2,0,B|242:253|242:253|278:230|278:230|276:189|250:167,1,150,12|0,0:3|3:0,0:0:0:0:
239,156,117511,2,0,P|184:167|146:159,1,89.9999972534181,2|2,0:0|0:0,0:0:0:0:
94,91,118077,6,0,B|34:80|34:80|-8:143|6:198|34:224,1,200,4|12,3:2|0:0,0:0:0:0:
96,261,118926,1,2,0:3:0:0:
140,339,119209,2,0,P|91:363|37:360,2,100,4|2|10,0:0|3:0|0:3,0:0:0:0:
210,282,120058,1,2,3:0:0:0:
277,341,120341,2,0,B|316:294|316:294|294:215|294:215|321:204|336:165,1,200,4|8,0:0|0:0,0:0:0:0:
268,25,121332,2,0,P|218:21|160:105,1,150,12|8,0:0|0:0,0:0:0:0:
147,188,122040,2,0,P|84:199|32:151,1,119.999996337891,8|8,0:0|0:0,0:0:0:0:
22,124,122464,2,0,L|41:51,1,59.9999981689454,8|0,0:0|0:0,0:0:0:0:
85,53,126568,6,0,B|133:61|133:61|161:91|161:91|210:100,1,134.999995880127,0|0,3:0|3:0,0:0:0:0:
243,84,127134,2,0,P|232:122|286:256,1,179.999994506836,12|4,0:0|3:2,0:0:0:0:
356,232,127983,1,8,0:0:0:0:
431,262,128266,5,6,3:0:0:0:
311,370,128832,2,0,L|210:353,1,89.9999972534181,0|8,3:0|0:0,0:0:0:0:
182,284,129398,1,2,3:0:0:0:
239,132,129964,2,0,L|340:111,1,89.9999972534181,0|8,3:0|0:0,0:0:0:0:
357,38,130530,1,6,3:0:0:0:
479,144,131096,1,2,3:0:0:0:
329,207,131662,1,8,0:0:0:0:
329,207,132511,1,0,3:0:0:0:
254,160,132794,6,0,P|206:233|203:270,1,110.000003356934,4|10,3:2|0:0,0:0:0:0:
167,334,133360,2,0,L|41:320,1,110.000003356934,2|10,3:2|0:0,0:0:0:0:
23,349,133785,2,0,P|2:315|11:186,1,165.000005035401,4|10,3:2|0:0,0:0:0:0:
68,131,134492,1,2,3:2:0:0:
105,216,134775,1,10,0:0:0:0:
188,171,135058,2,0,P|242:150|310:161,1,110.000003356934,4|10,3:2|0:0,0:0:0:0:
367,201,135625,1,2,3:2:0:0:
496,162,136049,2,0,P|505:133|430:24,1,165.000005035401,12|10,0:0|0:0,0:0:0:0:
365,74,136757,1,2,0:0:0:0:
289,28,137040,1,8,0:0:0:0:
208,63,137323,6,0,P|209:124|198:185,1,110.000003356934,4|10,3:2|0:0,0:0:0:0:
267,230,137889,2,0,L|374:257,1,110.000003356934,2|8,3:2|0:0,0:0:0:0:
398,220,138313,2,0,P|457:270|434:369,1,165.000005035401,4|10,3:2|0:0,0:0:0:0:
364,373,139021,1,2,3:2:0:0:
291,322,139304,1,10,0:0:0:0:
215,367,139587,2,0,L|100:345,1,110.000003356934,4|10,3:2|0:0,0:0:0:0:
47,281,140153,1,2,3:2:0:0:
62,150,140577,2,0,P|119:197|218:193,1,165.000005035401,4|14,3:2|0:0,0:0:0:0:
285,237,141285,1,2,3:2:0:0:
246,314,141568,1,8,3:0:0:0:
328,347,141851,6,0,B|391:359|391:359|429:335|429:335|501:347,2,165.000005035401,6|2|10,0:0|0:0|0:0,0:0:0:0:
246,314,142983,2,0,P|246:266|303:218,1,110.000003356934,0|10,3:0|0:0,0:0:0:0:
330,222,143408,2,0,P|378:229|456:145,1,165.000005035401,8|10,0:0|0:0,0:0:0:0:
466,66,144115,2,0,B|430:36|430:36|306:66,1,165.000005035401,4|10,3:2|0:0,0:0:0:0:
256,182,144964,1,10,0:0:0:0:
178,224,145247,2,0,P|161:170|109:140,1,110.000003356934,4|10,3:2|0:0,0:0:0:0:
34,113,145813,1,8,0:0:0:0:
44,25,146096,1,8,0:0:0:0:
133,25,146379,6,0,B|186:55|186:55|238:50|238:50|295:77,2,165.000005035401,6|2|10,0:0|0:0|0:0,0:0:0:0:
47,44,147511,2,0,P|61:102|30:149,1,110.000003356934,0|10,3:0|0:0,0:0:0:0:
4,180,147936,1,10,0:0:0:0:
26,309,148360,1,8,0:0:0:0:
109,336,148643,2,0,B|119:290|96:259|96:259|147:259|175:195,1,165.000005035401,4|0,0:0|0:0,0:0:0:0:
275,143,149492,1,8,0:0:0:0:
296,228,149775,2,0,P|325:261|404:263,1,110.000003356934,12|14,0:0|0:0,0:0:0:0:
474,285,150341,2,0,L|498:340,2,55.0000016784668,2|8|8,3:2|0:0|0:0,0:0:0:0:
457,198,150908,6,0,B|470:142|470:142|499:122|499:122|514:31,2,165.000005035401,14|14|14,0:0|0:3|0:3,0:0:0:0:
371,192,152040,2,0,P|329:172|217:224,1,165.000005035401,14|12,0:0|0:0,0:0:0:0:
165,329,152889,1,12,0:2:0:0:
96,274,153172,2,0,B|119:223|119:223|99:160,1,110.000003356934,14|2,0:0|3:2,0:0:0:0:
63,152,153596,2,0,B|51:69|51:69|117:14,1,165.000005035401,14|14,0:0|0:0,0:0:0:0:
188,63,154304,1,2,3:2:0:0:
265,20,154587,2,0,P|307:33|359:85,1,110.000003356934,14|14,0:0|0:0,0:0:0:0:
351,165,155153,1,10,0:0:0:0:
415,225,155436,6,0,P|459:200|495:89,2,165.000005035401,14|14|14,0:0|0:3|0:3,0:0:0:0:
375,303,156568,2,0,P|326:270|207:269,1,165.000005035401,12|12,0:0|0:0,0:0:0:0:
113,340,157417,1,12,0:0:0:0:
42,286,157700,2,0,P|40:232|68:168,1,110.000003356934,2|10,3:2|0:0,0:0:0:0:
142,209,158266,1,8,0:0:0:0:
209,152,158549,1,10,0:0:0:0:
274,218,158832,2,0,L|370:245,1,100,8|0,0:0|0:0,0:0:0:0:
409,169,159398,2,0,L|514:132,1,100,0|0,0:0|0:0,0:0:0:0:
465,59,159964,6,0,P|431:30|302:43,1,179.999994506836,0|0,0:0|0:0,0:0:0:0:
193,159,161096,2,0,P|140:178|39:112,1,179.999994506836,0|0,0:0|0:0,0:0:0:0:
173,23,162228,1,0,0:0:0:0:
247,54,162511,2,0,P|294:57|347:31,2,89.9999972534181,0|0|0,0:0|0:0|0:0,0:0:0:0:
190,112,163360,2,0,B|198:176|198:176|230:219|230:219|214:288,1,179.999994506836,0|0,0:0|0:0,0:0:0:0:
273,335,164209,2,0,P|322:315|364:322,1,89.9999972534181,0|0,0:0|0:0,0:0:0:0:
