osu file format v14

[General]
AudioFilename: audio.mp3
AudioLeadIn: 0
PreviewTime: 45345
Countdown: 0
SampleSet: Soft
StackLeniency: 0.7
Mode: 0
LetterboxInBreaks: 0
WidescreenStoryboard: 0

[Editor]
DistanceSpacing: 1
BeatDivisor: 4
GridSize: 16
TimelineZoom: 3.399999

[Metadata]
Title:Chimera feat. Hatsune Miku
TitleUnicode:キメラ feat. 初音ミク
Artist:DECO*27
ArtistUnicode:DECO*27
Creator:Pho
Version:Chimera
Source:
Tags:vocaloid 日本テレビ「ズームイン!!サタデー」 テーマソング nihon tv zoom in saturday theme song Rockwell 八三 83 hachisan OTOIRO DMYM yuka fujii Shimpei Oniki Iori Majima Yusuke Sato rock japanese Hokichi
BeatmapID:3547162
BeatmapSetID:1735531

[Difficulty]
HPDrainRate:6
CircleSize:4.2
OverallDifficulty:9.5
ApproachRate:9.8
SliderMultiplier:2
SliderTickRate:1

[Events]
//Background and Video events
0,0,"bg.jpg",0,0
//Break Periods
2,123738,125901
//Storyboard Layer 0 (Background)
//Storyboard Layer 1 (Fail)
//Storyboard Layer 2 (Pass)
//Storyboard Layer 3 (Foreground)
//Storyboard Layer 4 (Overlay)
//Storyboard Sound Samples

[TimingPoints]
342,283.018867924528,4,2,1,40,1,0
342,-133.333333333333,4,2,1,40,0,0
3879,-100,4,2,1,40,0,0
4304,-100,4,2,1,50,0,0
4587,-83.3333333333333,4,2,1,70,0,0
5011,-66.6666666666667,4,2,1,80,0,0
13360,-100,4,2,1,80,0,0
13926,-111.111111111111,4,2,1,50,0,0
16191,-83.3333333333333,4,2,1,50,0,0
16403,-83.3333333333333,4,2,1,5,0,0
16474,-111.111111111111,4,2,2,50,0,0
18455,-83.3333333333333,4,2,2,50,0,0
18667,-83.3333333333333,4,2,2,5,0,0
18738,-111.111111111111,4,2,2,50,0,0
20648,-111.111111111111,4,2,2,5,0,0
20719,-83.3333333333333,4,2,2,50,0,0
20931,-83.3333333333333,4,2,2,5,0,0
21002,-111.111111111111,4,2,2,50,0,0
22983,-83.3333333333333,4,2,2,40,0,0
24115,-83.3333333333333,4,2,1,60,0,0
24893,-83.3333333333333,4,2,1,70,0,0
25035,-83.3333333333333,4,2,1,40,0,0
25106,-83.3333333333333,4,2,1,70,0,0
25176,-83.3333333333333,4,2,1,40,0,0
25247,-83.3333333333333,4,2,1,70,0,0
26591,-83.3333333333333,4,2,1,5,0,0
26662,-83.3333333333333,4,2,1,70,0,0
27724,-83.3333333333333,4,2,1,5,0,0
27794,-83.3333333333333,4,2,1,70,0,0
28856,-83.3333333333333,4,2,1,5,0,0
28926,-83.3333333333333,4,2,1,70,0,0
29139,-83.3333333333333,4,2,1,5,0,0
29209,-83.3333333333333,4,2,1,70,0,0
34304,-133.333333333333,4,2,1,60,0,0
35648,-133.333333333333,4,2,1,5,0,0
35719,-133.333333333333,4,2,1,60,0,0
42794,-66.6666666666667,4,2,1,60,0,0
43219,-100,4,2,1,60,0,0
45200,-100,4,2,1,5,0,0
45341,-200,4,2,1,50,0,0
45554,-200,4,2,1,5,0,0
45625,-83.3333333333333,4,2,1,80,0,0
46827,-83.3333333333333,4,2,1,5,0,0
46898,-83.3333333333333,4,2,1,80,0,0
49091,-83.3333333333333,4,2,1,5,0,0
49162,-83.3333333333333,4,2,1,80,0,0
53620,-83.3333333333333,4,2,1,5,0,0
53691,-83.3333333333333,4,2,1,80,0,0
55742,-83.3333333333333,4,2,1,5,0,0
55813,-83.3333333333333,4,2,1,80,0,0
60271,-83.3333333333333,4,2,1,5,0,0
60341,-83.3333333333333,4,2,1,80,0,0
62606,-133.333333333333,4,2,1,50,0,0
63879,-66.6666666666667,4,2,1,70,0,0
68266,-133.333333333333,4,2,1,50,0,0
70389,-133.333333333333,4,2,1,70,0,0
70530,-133.333333333333,4,2,1,30,0,0
72794,-133.333333333333,4,2,2,45,0,0
79799,-133.333333333333,4,2,2,5,0,0
79870,-133.333333333333,4,2,2,40,0,0
80719,-83.3333333333333,4,2,2,40,0,0
80860,-133.333333333333,4,2,2,40,0,0
81002,-83.3333333333333,4,2,2,40,0,0
81143,-133.333333333333,4,2,2,40,0,0
81285,-133.333333333333,4,2,2,40,0,0
81851,-111.111111111111,4,2,1,50,0,0
85247,-74.0740740740741,4,2,1,50,0,0
85813,-111.111111111111,4,2,1,50,0,0
86096,-83.3333333333333,4,2,1,50,0,0
86379,-83.3333333333333,4,2,1,50,0,0
86521,-83.3333333333333,4,2,1,50,0,0
87370,-111.111111111111,4,2,1,50,0,0
87511,-83.3333333333333,4,2,1,50,0,0
87653,-83.3333333333333,4,2,1,50,0,0
89775,-111.111111111111,4,2,1,40,0,0
89988,-111.111111111111,4,2,1,5,0,0
90058,-111.111111111111,4,2,1,40,0,0
90271,-111.111111111111,4,2,1,5,0,0
90341,-111.111111111111,4,2,1,40,0,0
90483,-83.3333333333333,4,2,1,50,0,0
90625,-71.4285714285714,4,2,1,50,0,0
90908,-83.3333333333333,4,2,1,70,0,0
92110,-83.3333333333333,4,2,1,5,0,0
92181,-83.3333333333333,4,2,1,70,0,0
93384,-83.3333333333333,4,2,1,5,0,0
93455,-83.3333333333333,4,2,1,70,0,0
94375,-83.3333333333333,4,2,1,5,0,0
94445,-83.3333333333333,4,2,1,70,0,0
98903,-83.3333333333333,4,2,1,5,0,0
98974,-83.3333333333333,4,2,1,70,0,0
101025,-83.3333333333333,4,2,1,5,0,0
101096,-83.3333333333333,4,2,1,70,0,0
102441,-83.3333333333333,4,2,1,5,0,0
102511,-83.3333333333333,4,2,1,70,0,0
105554,-83.3333333333333,4,2,1,5,0,0
105625,-83.3333333333333,4,2,1,70,0,0
106969,-83.3333333333333,4,2,1,5,0,0
107040,-83.3333333333333,4,2,1,70,0,0
107889,-133.333333333333,4,2,1,40,0,0
109021,-111.111111111111,4,2,1,50,0,0
109233,-111.111111111111,4,2,1,5,0,0
109304,-111.111111111111,4,2,1,40,0,0
111285,-111.111111111111,4,2,1,50,0,0
112558,-111.111111111111,4,2,1,55,0,0
112983,-66.6666666666667,4,2,1,60,0,0
113549,-100,4,2,1,60,0,0
113761,-100,4,2,1,5,0,0
113832,-100,4,2,1,60,0,0
114044,-100,4,2,1,5,0,0
114115,-100,4,2,1,60,0,0
114327,-100,4,2,1,5,0,0
114398,-100,4,2,1,60,0,0
114893,-100,4,2,1,5,0,0
114964,-100,4,2,1,60,0,0
117511,-222.222222222222,4,2,1,30,0,0
118077,-100,4,2,1,60,0,0
118290,-100,4,2,1,5,0,0
118360,-100,4,2,1,60,0,0
118573,-100,4,2,1,5,0,0
118643,-100,4,2,1,60,0,0
118856,-100,4,2,1,5,0,0
118926,-100,4,2,1,60,0,0
119422,-100,4,2,1,5,0,0
119492,-100,4,2,1,60,0,0
121332,-66.6666666666667,4,2,1,70,0,0
121544,-66.6666666666667,4,2,1,5,0,0
121615,-100,4,2,1,70,0,0
122040,-66.6666666666667,4,2,1,70,0,0
122606,-100,4,2,1,20,0,0
126426,-133.333333333333,4,2,1,50,0,0
126922,-133.333333333333,4,2,1,5,0,0
126992,-133.333333333333,4,2,1,50,0,0
127134,-166.666666666667,4,2,1,50,0,0
127700,-111.111111111111,4,2,1,50,0,0
127912,-111.111111111111,4,2,1,5,0,0
127983,-111.111111111111,4,2,1,50,0,0
128266,-133.333333333333,4,2,1,50,0,0
129398,-100,4,2,1,50,0,0
129610,-100,4,2,1,5,0,0
129681,-133.333333333333,4,2,1,50,0,0
130389,-125,4,2,1,55,0,0
130742,-125,4,2,1,5,0,0
130813,-100,4,2,1,60,0,0
131025,-100,4,2,1,5,0,0
131096,-83.3333333333333,4,2,1,65,0,0
131308,-83.3333333333333,4,2,1,5,0,0
131379,-133.333333333333,4,2,1,55,0,0
132228,-133.333333333333,4,2,1,20,0,0
132511,-250.000000000001,4,2,1,50,0,0
132724,-166.666666666667,4,2,1,5,0,0
132794,-83.3333333333333,4,2,1,70,0,0
140790,-83.3333333333333,4,2,1,5,0,0
140860,-83.3333333333333,4,2,1,70,0,0
141568,-50,4,2,1,70,0,0
141603,-50,4,2,1,5,0,0
141639,-50,4,2,1,70,0,0
141674,-50,4,2,1,5,0,0
141709,-50,4,2,1,70,0,0
141745,-50,4,2,1,5,0,0
141780,-50,4,2,1,70,0,0
141816,-50,4,2,1,5,0,0
141851,-83.3333333333333,4,2,1,70,0,0
142912,-83.3333333333333,4,2,1,5,0,0
142983,-83.3333333333333,4,2,1,70,0,0
143620,-83.3333333333333,4,2,1,5,0,0
143691,-83.3333333333333,4,2,1,70,0,0
147441,-83.3333333333333,4,2,1,5,0,0
147511,-83.3333333333333,4,2,1,70,0,0
148148,-83.3333333333333,4,2,1,5,0,0
148219,-83.3333333333333,4,2,1,70,0,0
150908,-83.3333333333333,4,2,1,75,0,0
155436,-83.3333333333333,4,2,1,80,0,0
157700,-83.3333333333333,4,2,1,50,0,0
157983,-83.3333333333333,4,2,1,60,0,0
158266,-83.3333333333333,4,2,1,70,0,0
158549,-83.3333333333333,4,2,1,80,0,0
158832,-83.3333333333333,4,2,1,60,0,0
159115,-111.111111111111,4,2,1,60,0,0
159964,-133.333333333333,4,2,1,40,0,0
160176,-133.333333333333,4,2,1,5,0,0
160247,-133.333333333333,4,2,1,30,0,0
160459,-133.333333333333,4,2,1,5,0,0
160530,-133.333333333333,4,2,1,30,0,0
160742,-133.333333333333,4,2,1,5,0,0
160813,-133.333333333333,4,2,1,30,0,0
161025,-133.333333333333,4,2,1,5,0,0
161096,-133.333333333333,4,2,1,30,0,0
161238,-133.333333333333,4,2,1,5,0,0
161379,-133.333333333333,4,2,1,30,0,0
162511,-166.666666666667,4,2,1,30,0,0
164492,-166.666666666667,4,2,1,5,0,0

[Colours]
Combo1 : 160,64,219
Combo2 : 252,12,96
Combo3 : 253,236,176
Combo4 : 95,192,136
Combo5 : 80,107,239
Combo6 : 52,211,204

[HitObjects]
190,44,342,6,0,P|240:81|284:83,1,75.0000028610231,2|0,0:0|0:0,0:0:0:0:
344,34,625,1,0,0:0:0:0:
390,119,767,1,2,0:0:0:0:
380,139,838,1,0,0:0:0:0:
384,160,908,1,0,0:0:0:0:
371,178,979,1,0,0:0:0:0:
374,200,1050,1,0,0:0:0:0:
450,254,1191,2,0,L|476:283,2,37.5000014305115,2|0|0,0:0|0:0|0:0,0:0:0:0:
260,260,1474,6,0,P|209:286|161:275,1,75.0000028610231,2|0,0:0|0:0,0:0:0:0:
131,229,1757,1,0,0:0:0:0:
63,370,1899,1,2,0:0:0:0:
51,350,1970,1,0,0:0:0:0:
55,328,2040,1,0,0:0:0:0:
38,312,2111,1,0,0:0:0:0:
43,290,2182,2,0,L|57:236,1,37.5000014305115
119,207,2323,2,0,P|114:148|82:122,1,75.0000028610231,2|0,0:0|0:0,0:0:0:0:
278,35,2606,6,0,P|262:106|273:132,1,75.0000028610231,2|0,0:0|0:0,0:0:0:0:
298,177,2889,1,0,0:0:0:0:
413,75,3030,1,2,0:0:0:0:
393,79,3101,1,0,0:0:0:0:
374,87,3172,1,0,0:0:0:0:
357,98,3242,1,0,0:0:0:0:
343,113,3313,1,0,0:0:0:0:
163,198,3455,1,2,0:0:0:0:
182,195,3525,1,0,0:0:0:0:
202,198,3596,2,0,L|228:280,1,75.0000028610231
156,373,3879,5,2,0:0:0:0:
156,373,3950,1,0,0:0:0:0:
156,373,4021,2,0,L|220:356,1,50
339,182,4162,2,0,L|292:196,1,50,2|0,0:0|0:0,0:0:0:0:
187,258,4304,2,0,L|256:276,1,50
345,368,4445,2,0,L|396:343,1,50,0|0,3:0|0:0,0:0:0:0:
457,292,4587,2,0,L|473:146,1,119.999996337891,8|0,0:0|0:0,0:0:0:0:
477,159,5011,6,0,P|437:175|400:174,1,75.0000028610231,6|0,0:3|0:0,0:0:0:0:
335,237,5153,2,0,B|306:186|306:186|316:147|316:147|296:91,1,150.000005722046
79,30,5436,6,0,L|57:134,1,75.0000028610231,14|0,0:0|0:0,0:0:0:0:
8,181,5577,2,0,P|107:216|179:172,1,150.000005722046,0|2,3:0|3:0,0:0:0:0:
211,50,5860,1,14,0:0:0:0:
330,294,6002,1,0,0:0:0:0:
392,118,6143,1,2,3:0:0:0:
189,378,6285,5,8,0:0:0:0:
127,210,6426,1,0,3:0:0:0:
217,364,6568,1,2,3:0:0:0:
23,273,6709,1,0,3:0:0:0:
217,65,6851,1,8,0:0:0:0:
501,241,6992,5,0,0:0:0:0:
501,241,7063,1,0,0:0:0:0:
501,241,7134,2,0,L|406:267,1,75.0000028610231,2|0,3:0|0:0,0:0:0:0:
401,353,7275,2,0,B|341:326|341:326|213:312,1,150.000005722046,12|0,0:0|3:0,0:0:0:0:
0,132,7558,2,0,L|95:158,1,75.0000028610231,2|0,3:0|0:0,0:0:0:0:
99,244,7699,2,0,B|157:207|157:207|277:185,1,150.000005722046,12|0,0:0|0:0,0:0:0:0:
445,74,7983,1,2,0:3:0:0:
325,342,8125,1,12,0:0:0:0:
155,83,8266,5,0,0:0:0:0:
220,320,8408,1,2,3:0:0:0:
475,248,8549,1,8,0:0:0:0:
350,82,8691,5,0,0:0:0:0:
350,82,8761,1,0,0:0:0:0:
350,82,8832,2,0,L|365:9,1,75.0000028610231,10|0,0:3|0:0,0:0:0:0:
225,101,8974,2,0,L|280:150,1,75.0000028610231,8|0,0:0|0:0,0:0:0:0:
328,245,9115,2,0,L|257:268,1,75.0000028610231,8|0,0:0|0:0,0:0:0:0:
409,321,9257,2,0,L|424:248,1,75.0000028610231,8|0,0:0|0:0,0:0:0:0:
488,97,9398,1,2,0:3:0:0:
481,82,9469,1,0,0:0:0:0:
475,67,9540,1,0,0:0:0:0:
469,53,9610,1,0,3:0:0:0:
462,34,9681,6,0,P|400:84|293:81,1,150.000005722046,4|2,0:0|0:3,0:0:0:0:
13,193,9964,2,0,B|44:167|44:167|74:123,1,75.0000028610231,8|0,0:0|0:0,0:0:0:0:
104,27,10106,1,0,0:0:0:0:
221,260,10247,6,0,B|230:228|230:228|227:186,1,75.0000028610231,10|0,0:3|0:0,0:0:0:0:
139,49,10389,1,0,0:0:0:0:
82,288,10530,6,0,B|108:251|108:251|129:196,1,75.0000028610231,8|0,0:0|0:0,0:0:0:0:
64,35,10672,2,0,L|110:139,1,75.0000028610231,2|0,0:3|0:0,0:0:0:0:
199,179,10813,2,0,B|234:178|234:178|290:159,1,75.0000028610231,8|0,0:0|0:0,0:0:0:0:
350,33,10955,2,0,B|332:72|332:72|330:105,1,75.0000028610231,0|0,3:0|3:0,0:0:0:0:
496,248,11096,6,0,L|404:224,1,75.0000028610231,14|0,0:3|0:0,0:0:0:0:
222,262,11238,1,8,0:0:0:0:
224,328,11308,1,8,0:0:0:0:
271,375,11379,1,8,0:0:0:0:
337,376,11450,5,8,0:0:0:0:
346,347,11521,1,0,3:0:0:0:
355,318,11591,1,0,3:0:0:0:
361,288,11662,6,0,B|299:250|299:250|175:270,1,150.000005722046,6|0,0:3|0:0,0:0:0:0:
86,333,11945,1,8,0:0:0:0:
22,145,12087,1,2,3:3:0:0:
209,246,12228,1,8,3:2:0:0:
289,60,12370,1,0,3:0:0:0:
133,201,12511,1,10,0:3:0:0:
50,17,12653,1,0,3:0:0:0:
240,205,12794,5,8,0:0:0:0:
135,354,12936,2,0,P|130:313|175:259,1,75.0000028610231,2|0,3:0|0:0,0:0:0:0:
212,218,13077,2,0,P|207:172|159:120,1,75.0000028610231,12|0,0:0|0:0,0:0:0:0:
58,226,13219,2,0,L|166:271,1,75.0000028610231
278,284,13360,6,0,L|269:349,1,50,10|0,0:3|0:0,0:0:0:0:
441,218,13502,2,0,L|456:135,1,50,0|0,3:0|0:0,0:0:0:0:
297,270,13643,6,0,L|292:343,1,50,8|0,0:0|0:0,0:0:0:0:
460,205,13785,2,0,L|478:119,1,50,8|0,0:0|0:0,0:0:0:0:
345,142,13926,6,0,B|324:253|407:222|388:335,1,179.999994506836,2|2,0:3|0:0,0:0:0:0:
390,309,14351,2,0,P|342:308|290:348,1,89.9999972534181,2|0,0:3|0:0,0:0:0:0:
239,380,14634,1,2,0:0:0:0:
135,256,14775,2,0,P|131:315|150:356,1,89.9999972534181,2|2,0:3|0:0,0:0:0:0:
295,232,15058,6,0,P|251:242|187:221,1,89.9999972534181,0|2,0:0|0:0,0:0:0:0:
73,202,15341,1,0,0:0:0:0:
61,175,15483,1,0,0:0:0:0:
196,87,15625,1,2,0:3:0:0:
184,114,15767,1,0,0:0:0:0:
9,51,15908,1,2,0:0:0:0:
96,13,16049,1,0,0:0:0:0:
84,108,16191,6,0,B|148:123|148:123|168:166|168:166|255:184,1,179.999994506836,4|0,3:2|0:0,0:0:0:0:
239,194,16474,2,0,P|269:183|300:123,1,89.9999972534181,8|0,0:0|0:0,0:0:0:0:
346,33,16757,2,0,P|406:60|422:102,1,89.9999972534181,0|0,0:0|3:0,0:0:0:0:
362,226,17040,1,8,0:0:0:0:
298,123,17181,1,0,3:0:0:0:
453,33,17323,6,0,P|430:86|443:212,1,179.999994506836,0|10,0:0|0:0,0:0:0:0:
484,315,17747,1,2,0:0:0:0:
279,373,17889,1,0,0:0:0:0:
321,218,18030,1,2,3:2:0:0:
250,377,18172,1,8,0:0:0:0:
409,370,18313,2,0,P|387:345|347:325,1,44.999998626709
334,247,18455,6,0,B|239:235|254:325|173:315,1,179.999994506836,2|0,3:2|0:0,0:0:0:0:
177,306,18738,2,0,L|163:247,1,44.999998626709,8|0,0:0|0:0,0:0:0:0:
221,197,18879,2,0,L|207:138,1,44.999998626709
254,40,19021,1,0,0:0:0:0:
275,34,19091,1,0,0:0:0:0:
296,40,19162,1,0,0:0:0:0:
313,51,19233,5,0,0:0:0:0:
288,77,19304,1,8,0:0:0:0:
252,80,19375,1,0,0:0:0:0:
216,74,19445,1,0,0:0:0:0:
190,47,19516,1,0,0:0:0:0:
151,18,19587,6,0,P|118:96|127:138,1,89.9999972534181,0|0,3:0|0:0,0:0:0:0:
141,235,19870,1,10,0:0:0:0:
219,151,20011,1,2,0:0:0:0:
163,330,20153,1,0,0:0:0:0:
58,228,20294,1,2,3:2:0:0:
232,290,20436,2,0,L|366:336,1,134.999995880127,8|0,0:0|0:0,0:0:0:0:
250,384,20719,6,0,B|272:321|272:321|318:302|318:302|353:192,1,179.999994506836,2|0,3:2|0:0,0:0:0:0:
345,208,21002,1,8,0:0:0:0:
249,142,21143,1,0,0:0:0:0:
351,22,21285,1,0,0:0:0:0:
365,49,21356,1,0,0:0:0:0:
378,77,21426,1,0,3:0:0:0:
390,106,21497,1,0,0:0:0:0:
404,133,21568,1,8,0:0:0:0:
440,16,21709,6,0,P|403:83|298:94,1,179.999994506836,0|0,3:0|3:0,0:0:0:0:
137,47,22134,1,8,0:0:0:0:
259,23,22275,1,2,0:0:0:0:
149,191,22417,2,0,L|84:174,1,44.999998626709
31,92,22558,1,2,3:2:0:0:
31,92,22629,1,0,0:0:0:0:
31,92,22700,1,8,0:0:0:0:
31,92,22771,1,0,0:0:0:0:
31,92,22841,2,0,L|48:169,1,44.999998626709
69,262,22983,6,0,P|151:244|205:298,1,119.999996337891,2|0,3:2|0:0,0:0:0:0:
231,378,23195,2,0,B|247:348|247:348|218:261,1,119.999996337891
300,141,23408,2,0,B|284:171|284:171|304:234,1,59.9999981689454
380,310,23549,1,2,0:0:0:0:
426,322,23620,1,2,0:0:0:0:
473,313,23691,1,2,3:0:0:0:
503,276,23761,1,2,0:0:0:0:
451,225,23832,6,2,L|409:214,1,29.9999990844727,10|2,0:0|0:0,0:0:0:0:
381,242,23903,2,2,L|342:234,1,29.9999990844727
349,307,23974,2,2,L|309:298,1,29.9999990844727
279,321,24044,2,2,L|245:313,1,29.9999990844727
217,279,24115,6,0,P|193:217|198:154,1,119.999996337891,0|0,3:0|0:0,0:0:0:0:
371,159,24398,2,0,P|381:85|355:15,1,119.999996337891,0|0,3:0|0:0,0:0:0:0:
52,338,24681,2,0,P|54:258|77:193,1,119.999996337891,0|0,3:0|0:0,0:0:0:0:
151,116,24893,1,8,0:0:0:0:
151,116,24964,2,0,L|159:196,1,59.9999981689454,0|0,3:0|0:0,0:0:0:0:
286,235,25106,2,0,L|275:159,1,59.9999981689454,8|0,0:0|0:0,0:0:0:0:
436,33,25247,6,0,P|372:75|306:74,1,119.999996337891,4|0,0:0|0:0,0:0:0:0:
155,27,25530,1,8,0:0:0:0:
360,205,25672,1,2,0:0:0:0:
244,308,25813,2,0,L|110:292,1,119.999996337891,0|2,3:0|0:0,0:0:0:0:
230,153,26096,1,8,0:0:0:0:
331,355,26238,1,2,0:0:0:0:
372,187,26379,6,0,P|448:191|485:293,1,179.999994506836,0|0,3:0|0:0,0:0:0:0:
472,292,26662,1,8,0:0:0:0:
278,238,26804,1,2,0:0:0:0:
330,32,26945,1,0,3:0:0:0:
407,103,27087,1,2,0:0:0:0:
130,176,27228,1,8,0:0:0:0:
53,48,27370,1,2,0:0:0:0:
315,8,27511,6,0,B|300:73|300:73|318:107|318:107|293:217,1,179.999994506836,0|0,3:0|0:0,0:0:0:0:
294,207,27794,2,0,L|171:238,1,119.999996337891,8|2,0:0|0:0,0:0:0:0:
78,322,28077,1,0,3:0:0:0:
179,109,28219,1,2,0:0:0:0:
24,257,28360,1,8,0:0:0:0:
221,365,28502,1,2,0:0:0:0:
371,137,28643,6,0,P|427:191|385:322,1,179.999994506836,2|0,3:2|0:0,0:0:0:0:
56,239,28926,2,0,P|77:154|154:115,1,179.999994506836,10|0,0:0|0:0,0:0:0:0:
247,228,29209,2,0,L|230:391,1,119.999996337891,2|0,3:2|0:0,0:0:0:0:
234,347,29492,2,0,L|151:335,1,59.9999981689454,10|0,0:0|0:0,0:0:0:0:
318,285,29634,2,0,L|394:264,1,59.9999981689454
467,194,29775,6,0,P|484:132|459:73,1,119.999996337891,0|0,3:0|0:0,0:0:0:0:
440,52,29988,1,0,0:0:0:0:
440,52,30058,1,8,0:0:0:0:
289,204,30200,1,2,0:0:0:0:
226,8,30341,1,0,3:0:0:0:
386,162,30483,1,2,0:0:0:0:
146,247,30625,1,8,0:0:0:0:
40,47,30766,6,0,P|109:94|182:90,1,119.999996337891,2|0,0:0|3:0,0:0:0:0:
306,61,31049,1,0,0:0:0:0:
214,285,31191,1,8,0:0:0:0:
26,174,31332,1,2,0:0:0:0:
26,174,31403,1,0,0:0:0:0:
26,174,31474,2,0,L|46:256,1,59.9999981689454,0|0,3:0|0:0,0:0:0:0:
88,291,31615,1,2,0:0:0:0:
158,96,31757,2,0,L|185:178,1,59.9999981689454,8|0,0:0|0:0,0:0:0:0:
184,321,31898,2,0,L|160:267,1,59.9999981689454,2|0,0:0|0:0,0:0:0:0:
243,185,32040,6,0,P|323:176|374:222,1,119.999996337891,0|0,3:0|0:0,0:0:0:0:
375,222,32252,1,0,0:0:0:0:
375,222,32323,1,8,0:0:0:0:
328,20,32464,2,0,L|299:98,1,59.9999981689454,2|0,0:0|0:0,0:0:0:0:
471,209,32606,2,0,L|442:131,1,59.9999981689454,0|0,3:0|0:0,0:0:0:0:
304,31,32747,2,0,L|275:109,1,59.9999981689454,2|0,0:0|0:0,0:0:0:0:
479,191,32889,2,0,L|450:113,1,59.9999981689454,8|0,0:0|0:0,0:0:0:0:
398,31,33030,5,2,0:0:0:0:
398,31,33101,1,0,0:0:0:0:
398,31,33172,2,0,P|379:83|368:156,1,119.999996337891,2|0,3:2|0:0,0:0:0:0:
127,153,33455,2,0,P|146:205|157:278,1,119.999996337891,10|0,0:0|0:0,0:0:0:0:
448,215,33738,2,0,P|429:267|418:351,1,119.999996337891,2|8,3:2|0:0,0:0:0:0:
304,369,33950,1,8,0:0:0:0:
233,347,34021,1,10,0:0:0:0:
200,277,34091,1,8,0:0:0:0:
141,246,34162,1,0,3:0:0:0:
75,256,34233,1,0,3:0:0:0:
36,316,34304,6,0,P|92:365|178:362,1,150.000005722046,4|2,3:2|0:3,0:0:0:0:
180,350,34870,2,0,L|191:251,1,75.0000028610231,12|0,0:0|0:0,0:0:0:0:
286,186,35153,2,0,L|275:285,1,75.0000028610231,2|8,0:3|0:0,0:0:0:0:
127,192,35436,2,0,B|108:161|108:161|122:79,1,112.500004291535,4|0,0:0|0:0,0:0:0:0:
124,66,35719,1,2,0:3:0:0:
204,83,35860,1,0,0:0:0:0:
253,16,36002,1,12,0:3:0:0:
404,31,36143,1,8,0:0:0:0:
358,100,36285,1,2,0:3:0:0:
404,167,36426,1,0,0:0:0:0:
486,156,36568,6,0,L|400:146,1,75.0000028610231,4|0,0:0|0:0,0:0:0:0:
225,253,36851,2,0,L|314:269,1,75.0000028610231,2|0,0:3|0:0,0:0:0:0:
323,273,37063,1,0,0:0:0:0:
323,273,37134,2,0,P|341:330|423:358,2,150.000005722046,12|2|4,0:0|0:3|0:2,0:0:0:0:
188,272,37983,2,0,P|161:339|91:358,1,150.000005722046,2|8,3:0|0:0,0:0:0:0:
35,290,38408,1,8,0:0:0:0:
44,177,38549,2,0,L|130:191,1,75.0000028610231,0|8,3:0|0:0,0:0:0:0:
309,39,38832,6,0,L|148:88,1,150.000005722046,4|2,3:2|0:3,0:0:0:0:
165,82,39398,2,0,P|185:133|189:172,1,75.0000028610231,12|0,0:0|0:0,0:0:0:0:
331,242,39681,2,0,P|310:190|309:150,1,75.0000028610231,2|8,0:3|0:0,0:0:0:0:
475,34,39964,2,0,B|474:70|474:70|459:82|459:82|481:135|431:190,1,150.000005722046,4|2,3:2|0:3,0:0:0:0:
418,292,40389,1,0,0:0:0:0:
273,173,40530,1,14,0:0:0:0:
309,378,40672,1,0,0:0:0:0:
317,338,40742,1,0,0:0:0:0:
347,310,40813,1,2,0:3:0:0:
345,268,40884,1,0,0:0:0:0:
372,237,40955,1,2,0:0:0:0:
188,158,41096,5,0,3:0:0:0:
344,29,41238,1,8,0:0:0:0:
316,58,41308,1,0,0:0:0:0:
278,77,41379,1,8,0:0:0:0:
104,29,41521,1,0,3:0:0:0:
46,211,41662,1,8,0:0:0:0:
87,214,41733,1,0,0:0:0:0:
122,234,41804,1,8,0:0:0:0:
157,347,41945,1,0,3:2:0:0:
272,177,42087,6,0,P|285:257|234:332,1,150.000005722046,12|0,0:0|3:0,0:0:0:0:
193,138,42511,2,0,L|205:87,1,37.5000014305115,14|0,0:0|0:0,0:0:0:0:
350,222,42653,2,0,L|329:282,1,37.5000014305115
73,247,42794,6,0,L|95:157,1,75.0000028610231,8|0,0:0|0:0,0:0:0:0:
454,150,42936,2,0,L|437:225,1,75.0000028610231,8|0,0:0|0:0,0:0:0:0:
173,339,43077,2,0,L|194:268,1,75.0000028610231,10|0,0:0|0:0,0:0:0:0:
346,44,43219,6,0,L|317:161,1,100,10|0,0:0|3:0,0:0:0:0:
256,192,44492,12,0,45200,0:0:0:0:
253,200,45341,6,0,L|178:228,1,75,0|0,3:0|0:0,0:0:0:0:
162,253,45625,6,0,L|143:110,1,119.999996337891,4|0,0:0|0:0,0:0:0:0:
132,22,45908,1,10,0:0:0:0:
71,239,46049,1,0,0:0:0:0:
71,239,46120,1,0,0:0:0:0:
71,239,46191,1,2,3:2:0:0:
257,107,46332,1,0,0:0:0:0:
333,354,46474,1,10,0:0:0:0:
498,316,46615,6,0,B|438:299|438:299|409:256|409:256|325:235,1,179.999994506836,4|0,0:0|0:0,0:0:0:0:
323,235,46898,1,0,3:0:0:0:
157,198,47040,1,10,0:0:0:0:
302,39,47181,1,0,0:0:0:0:
302,39,47252,1,0,0:0:0:0:
302,39,47323,2,0,L|429:14,1,119.999996337891,2|0,3:2|0:0,0:0:0:0:
216,257,47606,2,0,P|238:193|205:130,1,119.999996337891,10|0,0:0|0:0,0:0:0:0:
161,94,47818,1,0,0:0:0:0:
161,94,47889,6,0,B|103:122|103:122|39:113,1,119.999996337891,4|0,3:2|0:0,0:0:0:0:
103,279,48172,1,10,0:0:0:0:
308,173,48313,1,0,0:0:0:0:
380,364,48455,1,2,3:2:0:0:
229,121,48596,1,0,3:0:0:0:
58,368,48738,1,10,0:0:0:0:
46,159,48879,6,0,B|109:178|109:178|133:218|133:218|200:236,1,179.999994506836,12|0,0:0|0:0,0:0:0:0:
218,243,49162,2,0,P|224:196|278:161,1,59.9999981689454,0|0,3:0|0:0,0:0:0:0:
225,79,49304,2,0,P|281:87|307:130,1,59.9999981689454,10|0,0:0|0:0,0:0:0:0:
385,13,49445,2,0,P|398:46|381:111,1,59.9999981689454,4|0,3:2|0:0,0:0:0:0:
361,167,49587,5,2,3:2:0:0:
107,78,49728,1,0,3:0:0:0:
497,22,49870,1,8,0:0:0:0:
473,77,49941,1,8,0:0:0:0:
484,135,50011,1,8,0:0:0:0:
460,190,50082,1,8,0:0:0:0:
468,249,50153,6,0,P|410:235|357:167,1,119.999996337891,4|0,3:2|0:0,0:0:0:0:
272,37,50436,1,10,0:0:0:0:
128,216,50577,1,0,0:0:0:0:
353,56,50719,1,2,3:2:0:0:
132,145,50860,1,0,0:0:0:0:
258,286,51002,2,0,L|300:224,1,59.9999981689454,10|0,0:0|0:0,0:0:0:0:
277,124,51143,6,0,L|327:254,1,119.999996337891,4|0,3:2|0:0,0:0:0:0:
122,384,51426,2,0,L|72:254,1,119.999996337891,0|10,3:0|0:0,0:0:0:0:
44,96,51709,1,0,0:0:0:0:
238,305,51851,1,2,3:2:0:0:
298,107,51992,1,0,3:0:0:0:
24,211,52134,1,10,0:0:0:0:
251,283,52275,1,0,0:0:0:0:
406,41,52417,6,0,P|318:21|217:75,1,179.999994506836,4|0,3:2|0:0,0:0:0:0:
218,127,52700,2,0,P|171:165|85:149,1,119.999996337891,10|0,0:0|0:0,0:0:0:0:
279,262,52983,2,0,P|348:303|412:290,1,119.999996337891,2|0,3:2|0:0,0:0:0:0:
480,139,53266,1,10,0:0:0:0:
495,349,53408,6,0,B|429:313|429:313|314:353,1,179.999994506836,4|0,3:2|0:0,0:0:0:0:
299,360,53691,2,0,L|225:319,1,59.9999981689454,0|0,3:0|0:0,0:0:0:0:
190,261,53832,2,0,L|220:174,1,59.9999981689454,10|0,0:0|0:0,0:0:0:0:
314,180,53974,2,0,L|291:124,1,59.9999981689454,12|8,3:2|0:0,0:0:0:0:
216,12,54115,5,2,3:2:0:0:
17,180,54257,1,8,0:0:0:0:
33,236,54327,1,8,0:0:0:0:
86,263,54398,1,8,0:0:0:0:
144,250,54469,1,0,3:0:0:0:
197,278,54540,1,0,3:0:0:0:
207,336,54610,1,0,3:0:0:0:
171,369,54681,6,0,P|120:354|67:287,1,119.999996337891,6|0,0:0|0:0,0:0:0:0:
310,314,54964,1,8,0:0:0:0:
185,219,55106,2,0,P|172:167|204:87,1,119.999996337891,2|0,3:2|0:0,0:0:0:0:
324,0,55389,1,0,3:0:0:0:
330,155,55530,2,0,P|368:118|510:137,1,179.999994506836,10|0,0:0|0:0,0:0:0:0:
506,140,55813,6,0,P|473:82|465:19,1,119.999996337891,0|0,3:0|0:0,0:0:0:0:
269,112,56096,2,0,L|201:133,1,59.9999981689454,10|0,0:0|0:0,0:0:0:0:
175,212,56238,2,0,L|43:178,1,119.999996337891,8|2,0:0|0:0,0:0:0:0:
31,63,56521,1,0,3:0:0:0:
256,25,56662,1,10,0:0:0:0:
311,242,56804,1,0,0:0:0:0:
95,300,56945,6,0,B|61:256|61:256|47:189,1,119.999996337891,4|0,0:0|0:0,0:0:0:0:
126,111,57228,1,10,0:0:0:0:
232,355,57370,2,0,B|278:326|278:326|314:267,1,119.999996337891,0|2,3:0|0:0,0:0:0:0:
366,39,57653,1,0,0:0:0:0:
428,257,57794,1,10,0:0:0:0:
358,22,57936,1,0,0:0:0:0:
433,271,58077,5,4,0:0:0:0:
210,82,58219,1,0,0:0:0:0:
491,142,58360,1,10,0:0:0:0:
224,282,58502,1,0,0:0:0:0:
488,366,58643,2,0,P|500:326|488:294,1,59.9999981689454,4|0,0:0|0:0,0:0:0:0:
366,193,58785,5,8,0:0:0:0:
309,213,58856,1,8,0:0:0:0:
254,188,58926,1,8,0:0:0:0:
195,203,58997,1,8,0:0:0:0:
140,178,59068,1,0,3:0:0:0:
81,190,59139,1,0,3:0:0:0:
33,154,59209,6,0,P|46:89|105:37,1,119.999996337891,6|0,0:0|0:0,0:0:0:0:
140,262,59492,1,8,0:0:0:0:
216,108,59634,2,0,P|278:86|353:111,1,119.999996337891,2|0,0:0|3:0,0:0:0:0:
78,303,59917,1,0,0:0:0:0:
327,200,60058,2,8,P|376:243|391:363,1,179.999994506836,10|0,0:0|0:0,0:0:0:0:
379,367,60341,6,0,L|294:335,1,59.9999981689454,0|0,3:0|0:0,0:0:0:0:
272,263,60483,2,0,L|200:297,1,59.9999981689454
131,370,60625,1,10,0:0:0:0:
131,370,60766,2,0,P|110:323|98:246,1,119.999996337891,8|2,0:0|3:2,0:0:0:0:
125,96,61049,1,0,0:0:0:0:
209,204,61191,1,10,0:0:0:0:
294,17,61332,1,0,0:0:0:0:
376,240,61474,5,4,0:0:0:0:
227,122,61615,1,0,3:0:0:0:
481,98,61757,1,10,0:0:0:0:
433,344,61898,2,0,L|362:317,1,59.9999981689454,0|0,3:0|0:0,0:0:0:0:
228,228,62040,2,0,L|289:196,1,59.9999981689454,2|0,3:2|0:0,0:0:0:0:
468,113,62181,2,0,L|444:184,1,59.9999981689454,0|0,3:0|0:0,0:0:0:0:
360,296,62323,2,0,L|341:236,1,59.9999981689454,10|0,0:0|0:0,0:0:0:0:
201,93,62464,2,0,L|186:173,1,59.9999981689454
122,311,62606,5,8,0:0:0:0:
38,207,62747,1,0,0:0:0:0:
262,157,62889,5,0,0:0:0:0:
214,239,63030,1,0,0:0:0:0:
131,197,63172,6,0,B|90:116|166:118|99:34,1,150.000005722046
113,53,63879,6,0,L|204:71,1,75.0000028610231,6|0,3:0|0:0,0:0:0:0:
276,20,64021,2,0,P|343:85|425:99,1,150.000005722046,0|0,3:0|3:0,0:0:0:0:
249,237,64304,2,0,L|129:277,1,75.0000028610231,14|0,0:0|0:0,0:0:0:0:
108,211,64445,2,0,P|39:269|71:355,1,150.000005722046,0|2,0:0|3:0,0:0:0:0:
285,334,64728,5,12,0:0:0:0:
162,139,64870,1,0,0:0:0:0:
198,291,65011,1,2,0:3:0:0:
387,123,65153,1,8,0:0:0:0:
140,47,65294,1,0,0:0:0:0:
113,233,65436,1,6,3:0:0:0:
162,31,65577,1,0,3:0:0:0:
330,284,65719,1,8,0:0:0:0:
409,15,65860,1,0,0:0:0:0:
489,305,66002,6,0,P|429:308|349:254,1,150.000005722046,2|12,3:0|0:0,0:0:0:0:
226,111,66285,1,0,3:0:0:0:
101,363,66426,1,2,3:0:0:0:
46,262,66568,1,12,0:0:0:0:
196,321,66709,1,0,3:0:0:0:
343,153,66851,2,0,L|418:113,1,75.0000028610231,2|0,3:0|0:0,0:0:0:0:
456,185,66992,6,0,L|267:118,1,150.000005722046,12|0,0:0|0:0,0:0:0:0:
34,66,67275,1,2,3:0:0:0:
330,31,67417,1,8,0:0:0:0:
199,290,67558,1,0,3:0:0:0:
89,234,67700,2,0,L|102:132,1,75.0000028610231,14|0,0:3|0:0,0:0:0:0:
200,17,67841,1,8,0:0:0:0:
257,36,67912,1,8,0:0:0:0:
287,87,67983,1,0,3:0:0:0:
264,142,68054,1,0,3:0:0:0:
223,186,68125,1,0,3:0:0:0:
227,245,68195,1,0,3:0:0:0:
273,282,68266,5,2,0:3:0:0:
294,289,68337,1,0,0:0:0:0:
313,278,68408,1,0,0:0:0:0:
334,282,68478,1,0,0:0:0:0:
353,270,68549,1,2,0:0:0:0:
430,329,68691,1,2,0:3:0:0:
489,266,68832,2,0,L|464:186,1,75.0000028610231,2|0,0:0|0:0,0:0:0:0:
382,230,69115,2,0,L|357:150,1,75.0000028610231,2|0,0:3|3:0,0:0:0:0:
481,161,69398,6,0,L|456:81,1,75.0000028610231,0|2,0:0|3:3,0:0:0:0:
387,20,69681,1,2,0:0:0:0:
254,133,69823,1,0,0:0:0:0:
237,55,69964,1,2,0:0:0:0:
315,81,70106,1,0,0:0:0:0:
250,151,70247,1,2,0:0:0:0:
134,25,70389,1,8,0:0:0:0:
148,52,70530,6,0,L|66:30,2,75.0000028610231,2|0|0,0:0|0:0|0:0,0:0:0:0:
178,173,70955,2,0,L|278:142,1,75.0000028610231,2|0,0:3|0:0,0:0:0:0:
132,243,71379,2,0,L|228:280,1,75.0000028610231,2|0,0:3|0:0,0:0:0:0:
51,244,71804,2,0,L|74:343,1,75.0000028610231,2|0,0:3|0:0,0:0:0:0:
143,375,72087,1,0,0:0:0:0:
225,344,72228,1,2,0:3:0:0:
304,383,72370,1,0,0:0:0:0:
338,280,72511,1,0,0:0:0:0:
319,268,72653,1,0,0:0:0:0:
301,255,72794,6,0,P|246:256|313:176,1,225.000008583069,0|0,3:0|3:0,0:0:0:0:
401,127,73360,2,0,P|452:146|416:48,1,225.000008583069,8|0,0:0|0:0,0:0:0:0:
329,12,73926,2,0,P|327:62|342:100,2,75.0000028610231,0|0|0,0:0|0:0|3:0,0:0:0:0:
399,154,74351,5,0,0:0:0:0:
335,115,74492,1,8,0:0:0:0:
288,174,74634,1,0,0:0:0:0:
325,238,74775,1,0,0:0:0:0:
274,293,74917,1,0,0:0:0:0:
206,260,75058,5,0,3:0:0:0:
200,245,75200,1,0,0:0:0:0:
81,207,75341,1,0,0:0:0:0:
138,127,75483,2,0,L|226:152,1,75.0000028610231,0|8,3:0|0:0,0:0:0:0:
133,279,75766,2,0,L|45:317,1,75.0000028610231,0|0,0:0|3:0,0:0:0:0:
3,176,76049,1,0,0:0:0:0:
3,176,76191,2,0,P|55:179|85:209,1,75.0000028610231
134,301,76474,2,0,L|149:205,1,75.0000028610231,0|0,3:0|0:0,0:0:0:0:
161,87,76757,1,10,0:0:0:0:
467,310,77323,6,0,P|492:266|419:262,1,150.000005722046,0|0,3:0|0:0,0:0:0:0:
357,332,77747,1,0,3:0:0:0:
357,332,77889,2,0,P|293:360|317:292,1,150.000005722046,8|0,0:0|3:0,0:0:0:0:
240,235,78313,1,0,0:0:0:0:
240,235,78455,2,0,P|179:222|136:235,2,75.0000028610231,0|0|0,0:0|0:0|3:0,0:0:0:0:
318,126,78879,5,0,0:0:0:0:
196,93,79021,1,8,0:0:0:0:
336,100,79162,1,0,0:0:0:0:
179,75,79304,1,0,0:0:0:0:
339,67,79445,1,0,0:0:0:0:
184,54,79587,6,0,P|124:40|74:55,1,112.500004291535,0|0,3:0|0:0,0:0:0:0:
52,70,79870,2,0,L|81:168,1,75.0000028610231,0|0,0:0|3:0,0:0:0:0:
175,207,80153,2,0,L|156:304,1,75.0000028610231,8|0,0:0|0:0,0:0:0:0:
97,361,80436,1,0,3:0:0:0:
66,350,80577,1,0,0:0:0:0:
0,258,80719,6,0,L|96:227,1,59.9999981689454,8|0,0:0|0:0,0:0:0:0:
78,215,80860,2,0,L|140:241,1,37.5000014305115,0|0,3:0|0:0,0:0:0:0:
148,146,81002,6,0,L|248:184,1,59.9999981689454,8|0,0:0|0:0,0:0:0:0:
215,194,81143,2,0,L|261:170,1,37.5000014305115,0|0,3:0|0:0,0:0:0:0:
324,94,81285,5,0,3:3:0:0:
354,116,81356,1,0,3:3:0:0:
391,114,81426,1,0,3:3:0:0:
413,143,81497,1,0,3:3:0:0:
448,131,81568,1,0,3:3:0:0:
463,165,81639,1,0,3:3:0:0:
499,170,81709,1,0,3:0:0:0:
352,318,81851,6,0,L|383:222,1,89.9999972534181,2|0,0:0|0:0,0:0:0:0:
326,17,82134,2,0,L|312:62,1,44.999998626709,8|0,0:0|0:0,0:0:0:0:
342,141,82275,2,0,L|325:205,1,44.999998626709,2|0,0:0|0:0,0:0:0:0:
397,253,82417,2,0,P|456:232|477:197,1,89.9999972534181,0|2,3:0|0:0,0:0:0:0:
238,84,82700,1,8,0:0:0:0:
211,363,82841,2,0,L|145:355,1,44.999998626709,2|0,0:0|0:0,0:0:0:0:
68,318,82983,6,0,B|46:253|46:253|66:209|66:209|33:133,1,179.999994506836,0|8,3:0|0:0,0:0:0:0:
85,44,83408,1,2,0:0:0:0:
192,234,83549,1,0,3:0:0:0:
290,36,83691,1,2,0:0:0:0:
63,166,83832,1,8,0:0:0:0:
339,277,83974,1,2,0:0:0:0:
123,344,84115,6,0,P|141:282|182:258,1,89.9999972534181,0|0,3:0|0:0,0:0:0:0:
325,199,84398,2,0,P|315:149|269:110,1,89.9999972534181,8|2,0:0|0:0,0:0:0:0:
260,106,84610,1,0,0:0:0:0:
260,106,84681,1,0,3:0:0:0:
233,291,84823,2,0,L|287:306,1,44.999998626709,2|0,0:0|0:0,0:0:0:0:
437,325,84964,2,0,L|382:314,1,44.999998626709,8|0,0:0|0:0,0:0:0:0:
213,262,85106,2,0,L|277:280,1,44.999998626709,2|0,0:0|0:0,0:0:0:0:
468,354,85247,6,0,P|437:296|344:273,1,134.999995880127,2|0,3:2|0:0,0:0:0:0:
154,203,85459,1,0,0:0:0:0:
154,203,85530,2,0,P|225:187|292:249,1,134.999995880127,10|0,0:0|0:0,0:0:0:0:
448,97,85742,1,0,0:0:0:0:
448,97,85813,6,0,P|400:112|356:208,1,134.999995880127,2|0,3:2|0:0,0:0:0:0:
445,283,86096,2,0,L|425:227,1,59.9999981689454,10|0,0:0|0:0,0:0:0:0:
259,126,86238,2,0,L|289:206,1,59.9999981689454
318,302,86379,6,0,L|205:351,1,119.999996337891,0|0,3:0|0:0,0:0:0:0:
179,367,86591,1,0,0:0:0:0:
179,367,86662,1,8,0:0:0:0:
55,311,86804,2,0,L|75:243,1,59.9999981689454,2|0,0:0|0:0,0:0:0:0:
136,204,86945,2,0,P|104:159|2:150,1,119.999996337891,0|2,3:0|0:0,0:0:0:0:
18,158,87158,1,0,0:0:0:0:
5,165,87228,1,8,0:0:0:0:
173,65,87370,2,0,L|184:128,1,44.999998626709,2|0,0:0|0:0,0:0:0:0:
256,164,87511,6,0,P|279:125|264:24,1,119.999996337891,0|0,0:0|3:0,0:0:0:0:
112,10,87794,1,8,0:0:0:0:
183,241,87936,1,2,0:0:0:0:
200,248,88007,1,0,0:0:0:0:
224,257,88077,1,0,0:0:0:0:
412,120,88219,1,2,0:0:0:0:
395,133,88290,1,0,0:0:0:0:
377,148,88360,2,0,L|304:130,1,59.9999981689454,8|0,0:0|0:0,0:0:0:0:
282,53,88502,2,0,L|206:86,1,59.9999981689454,2|0,0:0|0:0,0:0:0:0:
129,201,88643,6,0,L|170:356,1,119.999996337891,0|0,3:0|0:0,0:0:0:0:
174,345,88856,1,0,0:0:0:0:
174,345,88926,1,8,0:0:0:0:
360,316,89068,2,0,L|268:364,1,59.9999981689454,2|0,0:0|0:0,0:0:0:0:
234,265,89209,2,0,L|209:192,1,59.9999981689454,0|0,3:0|0:0,0:0:0:0:
312,117,89351,2,0,L|289:174,1,59.9999981689454,2|0,0:0|0:0,0:0:0:0:
136,219,89492,6,0,L|55:173,1,59.9999981689454,8|0,0:0|0:0,0:0:0:0:
30,114,89634,2,0,L|91:57,1,59.9999981689454,2|0,0:0|0:0,0:0:0:0:
172,21,89775,6,0,P|218:65|206:135,1,134.999995880127,2|0,0:3|0:0,0:0:0:0:
188,128,90058,2,0,P|236:178|331:155,1,134.999995880127,2|0,0:3|0:0,0:0:0:0:
320,191,90341,2,0,L|342:137,1,44.999998626709,2|0,0:3|0:0,0:0:0:0:
493,262,90483,2,0,L|478:204,1,59.9999981689454,8|0,0:0|0:0,0:0:0:0:
420,349,90625,2,0,B|390:305|390:305|408:192,1,139.999995727539,10|0,0:0|0:0,0:0:0:0:
473,45,90908,6,0,P|400:81|333:52,1,119.999996337891,4|0,0:0|0:0,0:0:0:0:
329,47,91120,1,0,0:0:0:0:
329,47,91191,1,10,0:0:0:0:
70,129,91332,1,0,0:0:0:0:
230,289,91474,2,0,L|177:168,1,119.999996337891,2|0,3:2|0:0,0:0:0:0:
168,148,91686,1,0,0:0:0:0:
168,148,91757,1,10,0:0:0:0:
326,372,91898,6,0,B|373:341|373:341|394:211,1,179.999994506836,4|0,3:2|0:0,0:0:0:0:
391,186,92181,1,0,3:0:0:0:
474,358,92323,1,10,0:0:0:0:
248,272,92464,1,0,0:0:0:0:
397,26,92606,1,2,3:2:0:0:
470,212,92747,1,0,0:0:0:0:
190,112,92889,1,10,0:0:0:0:
118,338,93030,5,0,0:0:0:0:
125,345,93101,1,0,0:0:0:0:
125,345,93172,2,0,P|78:292|101:226,1,119.999996337891,4|0,3:2|0:0,0:0:0:0:
319,55,93455,1,10,0:0:0:0:
235,298,93596,1,0,0:0:0:0:
46,147,93738,1,2,3:2:0:0:
374,252,93879,1,0,0:0:0:0:
163,31,94021,1,10,0:0:0:0:
97,346,94162,6,0,B|110:280|110:280|154:251|154:251|178:147,1,179.999994506836,4|0,0:0|0:0,0:0:0:0:
189,106,94445,1,0,3:2:0:0:
224,80,94516,1,0,3:0:0:0:
256,86,94587,2,0,P|301:120|312:158,1,59.9999981689454,10|0,0:0|0:0,0:0:0:0:
416,193,94728,2,0,P|369:199|343:229,1,59.9999981689454,12|0,0:0|0:0,0:0:0:0:
286,304,94870,6,0,L|459:341,1,119.999996337891,2|0,3:2|0:0,0:0:0:0:
54,371,95153,1,8,0:0:0:0:
33,314,95224,1,8,0:0:0:0:
44,255,95294,1,8,0:0:0:0:
14,202,95365,1,8,0:0:0:0:
26,143,95436,6,0,P|78:96|160:84,1,119.999996337891,4|0,0:0|0:0,0:0:0:0:
415,110,95719,1,10,0:0:0:0:
171,235,95860,1,0,0:0:0:0:
240,58,96002,1,2,3:2:0:0:
391,348,96143,1,0,0:0:0:0:
492,207,96285,5,10,0:0:0:0:
492,207,96356,1,0,0:0:0:0:
492,207,96426,2,0,L|339:250,1,119.999996337891,4|0,3:2|0:0,0:0:0:0:
97,318,96709,1,0,3:0:0:0:
47,149,96851,1,10,0:0:0:0:
282,28,96992,1,0,0:0:0:0:
371,336,97134,1,2,3:2:0:0:
482,122,97275,1,0,3:0:0:0:
151,268,97417,1,10,0:0:0:0:
476,366,97558,5,0,0:0:0:0:
476,366,97629,1,0,0:0:0:0:
476,366,97700,2,0,L|442:271,1,59.9999981689454,4|0,0:0|0:0,0:0:0:0:
336,227,97841,2,0,L|355:144,1,59.9999981689454
432,67,97983,1,10,0:0:0:0:
366,309,98125,1,0,0:0:0:0:
140,222,98266,1,2,3:2:0:0:
464,144,98408,1,0,0:0:0:0:
226,14,98549,1,10,0:0:0:0:
13,143,98691,6,0,P|38:248|15:331,1,179.999994506836,4|0,3:2|0:0,0:0:0:0:
34,335,98974,2,0,P|94:329|126:290,1,59.9999981689454,0|0,3:0|0:0,0:0:0:0:
198,198,99115,2,0,P|242:209|277:251,1,59.9999981689454,10|0,0:0|0:0,0:0:0:0:
197,379,99257,5,8,0:0:0:0:
135,357,99327,1,8,0:0:0:0:
110,295,99398,1,10,0:0:0:0:
123,230,99469,1,0,0:0:0:0:
170,183,99540,1,8,0:0:0:0:
185,119,99610,1,8,0:0:0:0:
161,56,99681,1,8,0:0:0:0:
103,23,99752,1,8,0:0:0:0:
61,74,99823,1,0,3:0:0:0:
61,139,99893,1,0,3:0:0:0:
112,180,99964,6,0,L|259:135,1,119.999996337891,6|0,3:2|0:0,0:0:0:0:
265,33,100247,1,8,0:0:0:0:
355,277,100389,2,0,L|228:237,1,119.999996337891,2|0,0:0|3:0,0:0:0:0:
120,99,100672,1,0,0:0:0:0:
46,370,100813,2,0,B|113:358|113:358|148:326|148:326|256:312,1,179.999994506836,10|0,0:0|0:0,0:0:0:0:
239,353,101096,6,0,L|267:228,1,119.999996337891,0|0,3:0|0:0,0:0:0:0:
495,263,101379,2,0,L|468:193,1,59.9999981689454,10|0,0:0|0:0,0:0:0:0:
489,132,101521,2,0,P|406:139|358:187,1,119.999996337891,8|2,0:0|3:2,0:0:0:0:
236,259,101804,1,0,0:0:0:0:
160,42,101945,1,10,0:0:0:0:
364,201,102087,1,0,0:0:0:0:
422,81,102228,6,0,P|330:95|244:28,1,179.999994506836,4|0,0:0|0:0,0:0:0:0:
260,25,102511,2,0,P|270:88|259:119,1,59.9999981689454,10|0,0:0|0:0,0:0:0:0:
188,212,102653,2,0,L|139:41,1,119.999996337891,0|2,0:0|3:2,0:0:0:0:
35,32,102936,5,0,0:0:0:0:
262,154,103077,1,10,0:0:0:0:
43,315,103219,1,0,0:0:0:0:
308,237,103360,1,4,0:0:0:0:
25,130,103502,1,0,0:0:0:0:
321,260,103643,1,10,0:0:0:0:
7,105,103785,1,8,0:0:0:0:
335,282,103926,2,0,L|413:253,1,59.9999981689454,2|0,3:2|0:0,0:0:0:0:
490,76,104068,5,8,0:0:0:0:
434,31,104139,1,8,0:0:0:0:
363,22,104209,1,8,0:0:0:0:
301,60,104280,1,8,0:0:0:0:
269,125,104351,1,8,0:0:0:0:
286,195,104422,1,8,0:0:0:0:
347,232,104492,6,0,L|400:90,1,119.999996337891,6|0,3:2|0:0,0:0:0:0:
309,10,104775,1,8,0:0:0:0:
260,303,104917,6,0,L|183:170,1,119.999996337891,2|0,0:0|3:0,0:0:0:0:
95,86,105200,1,0,0:0:0:0:
49,364,105341,6,0,B|62:300|62:300|99:275|99:275|116:172,1,179.999994506836,10|0,0:0|0:0,0:0:0:0:
114,179,105625,5,0,3:0:0:0:
50,23,105766,1,0,0:0:0:0:
356,75,105908,1,10,0:0:0:0:
209,233,106049,2,0,L|249:73,1,119.999996337891,8|2,0:0|3:2,0:0:0:0:
341,55,106332,1,0,0:0:0:0:
134,153,106474,1,10,0:0:0:0:
394,268,106615,1,0,0:0:0:0:
49,301,106757,5,4,0:0:0:0:
153,81,106898,1,0,0:0:0:0:
216,363,107040,1,10,0:0:0:0:
453,330,107181,2,0,L|381:308,1,59.9999981689454,0|0,3:0|0:0,0:0:0:0:
246,257,107323,2,0,L|317:229,1,59.9999981689454,2|0,3:2|0:0,0:0:0:0:
451,156,107464,2,0,L|374:137,1,59.9999981689454,0|0,3:0|0:0,0:0:0:0:
262,78,107606,2,0,P|238:114|237:162,1,59.9999981689454,10|0,0:0|0:0,0:0:0:0:
396,313,107747,2,0,P|405:296|407:231,1,59.9999981689454
395,69,107889,5,8,0:0:0:0:
306,139,108031,1,0,0:0:0:0:
492,221,108172,5,0,0:0:0:0:
419,147,108314,1,0,0:0:0:0:
337,258,108455,6,0,B|284:345|269:282|221:345,1,150.000005722046
37,132,109021,6,0,P|23:185|73:253,1,134.999995880127
81,256,109304,1,8,0:0:0:0:
203,226,109445,1,0,0:0:0:0:
200,204,109516,1,0,0:0:0:0:
191,185,109587,1,0,0:0:0:0:
176,170,109658,1,0,0:0:0:0:
158,161,109728,1,0,0:0:0:0:
263,151,109870,1,8,0:0:0:0:
132,227,110011,1,0,0:0:0:0:
316,223,110153,6,0,P|260:254|205:240,1,89.9999972534181
115,219,110436,1,8,0:0:0:0:
267,167,110577,1,0,0:0:0:0:
286,170,110648,1,0,0:0:0:0:
304,178,110719,1,0,0:0:0:0:
320,190,110790,1,0,0:0:0:0:
333,205,110860,1,0,0:0:0:0:
473,190,111002,2,0,L|404:147,1,44.999998626709,8|0,0:0|0:0,0:0:0:0:
387,279,111143,2,0,L|422:225,1,44.999998626709
492,154,111285,6,0,P|437:109|411:61,1,89.9999972534181,2|0,0:0|0:0,0:0:0:0:
339,15,111568,1,8,0:0:0:0:
241,151,111709,1,2,0:0:0:0:
272,149,111780,1,0,0:0:0:0:
295,127,111851,1,0,0:0:0:0:
326,130,111922,1,0,0:0:0:0:
345,105,111992,1,0,0:0:0:0:
432,230,112134,1,10,0:0:0:0:
293,314,112275,5,0,0:0:0:0:
301,283,112346,1,0,0:0:0:0:
309,252,112417,1,2,0:0:0:0:
137,126,112558,1,0,0:0:0:0:
154,162,112629,1,0,0:0:0:0:
174,196,112700,1,8,0:0:0:0:
20,351,112841,1,2,3:2:0:0:
43,312,112912,1,0,3:2:0:0:
70,276,112983,6,0,B|67:246|67:246|43:222|43:222|55:184|13:117,1,150.000005722046,10|0,0:2|3:0,0:0:0:0:
27,140,113549,6,0,B|126:118|126:118|170:79,1,150,4|0,0:0|0:0,0:0:0:0:
161,30,113832,2,0,L|206:188,1,150,2|0,0:3|0:0,0:0:0:0:
283,256,114115,2,0,P|367:217|333:175,1,150,12|0,0:0|0:0,0:0:0:0:
301,68,114398,2,0,P|292:160|319:175,1,100,2|8,0:3|0:0,0:0:0:0:
326,182,114610,1,0,0:0:0:0:
326,182,114681,6,0,B|374:177|394:197|394:197|431:190|431:190|452:209|459:237|459:237,1,150,6|0,3:2|0:0,0:0:0:0:
458,249,114964,1,2,3:0:0:0:
197,284,115106,1,0,0:0:0:0:
383,80,115247,1,14,0:3:0:0:
343,371,115389,1,8,0:0:0:0:
133,177,115530,1,2,0:3:0:0:
448,274,115672,1,2,0:3:0:0:
307,357,115813,6,0,B|269:369|269:369|187:349,1,100,4|0,3:2|0:0,0:0:0:0:
341,252,116096,2,0,B|362:221|362:221|388:141,1,100,2|0,0:3|3:0,0:0:0:0:
411,134,116308,1,0,3:0:0:0:
411,134,116379,2,0,P|360:94|283:102,1,100,12|0,0:0|0:0,0:0:0:0:
188,157,116662,1,2,0:3:0:0:
141,19,116804,1,8,0:3:0:0:
311,186,116945,2,0,B|296:233|296:233|330:252|330:252|315:299|368:357,1,200,12|2,0:3|3:0,0:0:0:0:
462,369,117370,1,0,3:0:0:0:
475,160,117511,6,0,B|441:164|441:164|434:188|434:188|394:208,1,89.9999972534181,2|2,0:0|0:0,0:0:0:0:
264,350,118077,6,0,B|223:314|223:314|176:331|112:321,1,150,4|0,3:2|0:0,0:0:0:0:
111,336,118360,2,0,P|136:273|111:196,1,150,2|0,0:3|0:0,0:0:0:0:
30,93,118643,2,0,B|11:129|11:129|119:93,1,150,12|0,0:0|0:0,0:0:0:0:
261,52,118926,2,0,B|215:20|215:20|151:19,1,100,2|8,0:3|0:0,0:0:0:0:
141,58,119139,1,0,0:0:0:0:
141,58,119209,6,0,B|142:94|121:117|121:117|144:152|144:152|116:208|108:225,1,150,4|0,0:0|0:0,0:0:0:0:
115,223,119492,1,2,3:0:0:0:
351,332,119634,1,0,0:0:0:0:
264,102,119775,1,10,0:3:0:0:
160,360,119917,1,0,3:0:0:0:
63,62,120058,1,2,3:0:0:0:
241,290,120200,1,0,0:3:0:0:
443,24,120341,6,0,L|421:96,1,50,4|0,0:0|0:0,0:0:0:0:
381,155,120483,1,8,0:0:0:0:
389,194,120554,1,8,0:0:0:0:
409,228,120625,1,8,0:0:0:0:
80,175,120766,6,0,L|157:149,1,50,0|0,3:0|0:0,0:0:0:0:
202,88,120908,1,8,0:0:0:0:
227,57,120978,1,8,0:0:0:0:
223,17,121049,1,8,0:0:0:0:
275,250,121191,6,0,L|289:189,1,50,0|0,3:0|0:0,0:0:0:0:
319,119,121332,2,0,P|435:152|390:290,1,225.000008583069,12|0,0:0|0:0,0:0:0:0:
429,263,121615,1,0,3:0:0:0:
135,345,121757,1,8,0:0:0:0:
393,365,121898,1,0,3:0:0:0:
117,173,122040,6,0,B|123:231|123:231|139:265,1,75.0000028610231,8|0,0:0|0:0,0:0:0:0:
356,288,122181,2,0,B|354:255|354:255|329:215,1,75.0000028610231,8|0,0:0|0:0,0:0:0:0:
250,60,122323,2,0,B|240:109|240:109|242:151,1,75.0000028610231,8|0,0:0|0:0,0:0:0:0:
216,273,122464,2,0,B|182:291|182:291|146:276|146:276|119:317|52:318,1,150.000005722046,8|0,0:0|0:0,0:0:0:0:
285,242,126426,5,0,3:0:0:0:
285,242,126497,1,0,3:0:0:0:
285,242,126568,2,0,B|327:262|327:262|361:227|361:227|416:257|460:220,1,187.500007152558,0|0,3:0|0:0,0:0:0:0:
400,69,126992,5,0,3:0:0:0:
400,69,127063,1,0,3:0:0:0:
400,69,127134,2,0,B|358:42|358:42|409:175,1,179.999994506836,12|0,0:0|0:0,0:0:0:0:
290,361,127700,2,0,P|297:296|239:250,1,134.999995880127,4|0,3:2|0:0,0:0:0:0:
221,259,127983,1,8,0:0:0:0:
144,309,128125,1,0,3:0:0:0:
78,247,128266,6,0,B|92:194|92:194|121:163|121:163|135:97,1,150.000005722046,6|0,3:0|0:0,0:0:0:0:
301,41,128691,1,8,0:0:0:0:
242,114,128832,2,0,P|171:103|136:17,1,150.000005722046,0|8,3:0|0:0,0:0:0:0:
304,229,129398,6,0,P|384:212|437:259,1,150,2|0,3:0|0:0,0:0:0:0:
441,273,129681,1,0,0:0:0:0:
508,190,129823,1,8,0:0:0:0:
457,46,129964,2,0,L|427:126,1,75.0000028610231,0|0,3:0|0:0,0:0:0:0:
324,207,130247,1,8,0:0:0:0:
120,95,130389,5,0,0:0:0:0:
120,95,130459,1,0,0:0:0:0:
120,95,130530,2,0,B|175:232,1,120,6|0,3:0|0:0,0:0:0:0:
141,112,130813,6,0,B|155:173|155:173|186:204|186:204|198:281,1,150,0|0,3:0|0:0,0:0:0:0:
157,123,131096,6,0,B|176:173|201:189|201:189|178:239|178:239|212:274|216:313,1,179.999994506836,2|0,3:0|0:0,0:0:0:0:
284,362,131379,1,8,0:0:0:0:
304,305,131450,1,8,0:0:0:0:
260,267,131521,1,8,0:0:0:0:
207,295,131591,1,8,3:2:0:0:
217,354,131662,1,8,0:0:0:0:
36,153,132511,6,0,B|67:171|67:171|109:168,1,60,0|0,3:0|3:0,3:0:0:0:
148,216,132794,6,0,B|191:171|191:171|219:84,1,119.999996337891,4|0,3:2|0:0,0:0:0:0:
169,22,133077,1,10,0:0:0:0:
399,224,133219,1,0,0:0:0:0:
148,299,133360,1,2,3:2:0:0:
249,65,133502,1,0,0:0:0:0:
370,338,133643,1,10,0:0:0:0:
463,127,133785,6,0,P|384:122|331:162,1,119.999996337891,4|0,3:2|0:0,0:0:0:0:
111,348,134068,2,0,L|232:300,1,119.999996337891,0|10,3:0|0:0,0:0:0:0:
368,51,134351,1,0,0:0:0:0:
52,170,134492,1,2,3:2:0:0:
393,338,134634,1,0,0:0:0:0:
171,54,134775,1,10,0:0:0:0:
411,222,134917,5,0,0:0:0:0:
411,222,134988,1,0,0:0:0:0:
411,222,135058,1,4,3:2:0:0:
384,27,135200,1,0,0:0:0:0:
211,160,135341,1,10,0:0:0:0:
436,227,135483,5,0,0:0:0:0:
358,6,135625,1,2,3:2:0:0:
204,192,135766,1,0,0:0:0:0:
459,80,135908,6,0,P|422:70|398:70,1,59.9999981689454,10|0,0:0|0:0,0:0:0:0:
276,109,136049,2,0,P|307:122|333:125,1,59.9999981689454,12|0,0:0|0:0,0:0:0:0:
385,203,136191,1,0,0:0:0:0:
102,290,136332,1,0,3:0:0:0:
102,290,136403,1,0,3:0:0:0:
102,290,136474,2,0,L|80:204,1,59.9999981689454,10|0,0:0|0:0,0:0:0:0:
173,84,136615,2,0,L|194:12,1,59.9999981689454,4|0,3:2|0:0,0:0:0:0:
109,146,136757,5,2,0:0:0:0:
370,49,136898,1,0,3:0:0:0:
484,339,137040,1,8,0:0:0:0:
429,362,137110,1,8,0:0:0:0:
369,369,137181,1,8,0:0:0:0:
312,348,137252,1,8,0:0:0:0:
270,304,137323,6,0,L|288:229,1,59.9999981689454,4|0,3:2|0:0,0:0:0:0:
416,191,137464,2,0,L|320:173,1,59.9999981689454
229,168,137606,2,0,B|206:201|206:201|111:236,1,119.999996337891,10|0,0:0|0:0,0:0:0:0:
18,179,137889,1,2,3:2:0:0:
237,95,138030,1,0,0:0:0:0:
12,40,138172,1,10,0:0:0:0:
205,244,138313,6,0,P|206:310|145:364,1,119.999996337891,4|0,3:2|0:0,0:0:0:0:
59,303,138596,1,0,0:0:0:0:
212,29,138738,1,10,0:0:0:0:
295,314,138879,1,0,0:0:0:0:
480,114,139021,1,2,3:2:0:0:
361,364,139162,1,0,3:0:0:0:
31,197,139304,1,10,0:0:0:0:
147,323,139445,5,0,0:0:0:0:
147,323,139516,1,0,0:0:0:0:
147,323,139587,2,0,L|168:218,1,59.9999981689454,4|0,3:2|0:0,0:0:0:0:
247,192,139728,2,0,L|219:124,1,59.9999981689454
141,11,139870,1,10,0:0:0:0:
26,206,140011,5,0,0:0:0:0:
26,206,140082,1,0,0:0:0:0:
26,206,140153,2,0,P|64:234|96:238,1,59.9999981689454,2|0,3:2|0:0,0:0:0:0:
169,296,140294,2,0,P|208:295|235:279,1,59.9999981689454
264,192,140436,2,0,P|297:166|321:123,1,59.9999981689454,10|0,0:0|0:0,0:0:0:0:
460,14,140577,6,0,P|496:81|481:191,1,179.999994506836,4|0,3:2|0:0,0:0:0:0:
465,204,140860,2,0,L|389:183,1,59.9999981689454,0|0,3:0|0:0,0:0:0:0:
317,300,141002,2,0,L|341:209,1,59.9999981689454,14|0,0:0|0:0,0:0:0:0:
345,70,141143,5,8,0:0:0:0:
280,37,141214,1,8,0:0:0:0:
207,37,141285,1,2,3:2:0:0:
141,66,141356,1,0,0:0:0:0:
109,130,141426,1,8,0:0:0:0:
112,202,141497,1,8,0:0:0:0:
156,258,141568,6,0,P|186:253|221:207,1,50,8|0,3:0|0:0,0:0:0:0:
175,234,141639,2,0,P|201:225|232:189,1,50,8|0,3:0|0:0,0:0:0:0:
182,205,141709,2,0,P|199:191|219:147,1,50,8|0,3:0|0:0,0:0:0:0:
178,175,141780,2,0,P|186:148|173:104,1,50,8|0,3:0|0:0,0:0:0:0:
106,144,141851,6,0,P|39:161|-14:223,1,119.999996337891,6|0,0:0|0:0,0:0:0:0:
300,324,142134,1,8,0:0:0:0:
193,363,142275,2,0,P|167:307|185:239,1,119.999996337891,2|0,0:0|3:0,0:0:0:0:
342,22,142558,1,0,0:0:0:0:
226,120,142700,2,0,P|329:172|432:150,1,179.999994506836,10|0,0:0|0:0,0:0:0:0:
405,62,142983,6,0,B|439:104|439:104|416:216,1,119.999996337891,0|0,3:0|0:0,0:0:0:0:
318,346,143266,1,10,0:0:0:0:
481,335,143408,2,0,B|416:322|416:322|382:278|382:278|296:262,1,179.999994506836,8|0,0:0|0:0,0:0:0:0:
309,243,143691,2,0,L|219:283,1,59.9999981689454,0|0,3:0|0:0,0:0:0:0:
200,363,143832,2,0,L|136:345,1,59.9999981689454,10|0,0:0|0:0,0:0:0:0:
90,259,143974,2,0,L|6:288,1,59.9999981689454
88,101,144115,6,0,P|148:164|161:213,1,119.999996337891,4|0,3:2|0:0,0:0:0:0:
218,10,144398,1,10,0:0:0:0:
260,103,144540,2,0,P|238:158|150:208,1,119.999996337891,0|2,0:0|3:2,0:0:0:0:
23,340,144823,1,0,0:0:0:0:
276,346,144964,1,10,0:0:0:0:
74,201,145106,1,0,0:0:0:0:
199,366,145247,5,4,3:2:0:0:
283,144,145389,1,0,0:0:0:0:
442,317,145530,5,10,0:0:0:0:
348,44,145672,1,0,0:0:0:0:
512,218,145813,5,8,0:0:0:0:
454,184,145884,1,8,0:0:0:0:
389,197,145955,1,8,0:0:0:0:
344,244,146025,1,8,0:0:0:0:
336,309,146096,1,8,0:0:0:0:
284,350,146167,1,8,0:0:0:0:
218,357,146238,1,8,0:0:0:0:
160,326,146308,1,8,0:0:0:0:
144,278,146379,6,0,P|121:208|74:161,1,119.999996337891,6|0,0:0|0:0,0:0:0:0:
0,95,146662,1,8,0:0:0:0:
292,176,146804,2,0,P|296:98|340:32,1,119.999996337891,2|0,0:0|3:0,0:0:0:0:
407,2,147087,1,0,0:0:0:0:
242,348,147228,2,0,P|230:273|175:128,1,179.999994506836,10|0,0:0|0:0,0:0:0:0:
181,142,147511,5,0,3:0:0:0:
338,262,147653,1,0,0:0:0:0:
452,66,147794,1,10,0:0:0:0:
272,79,147936,2,0,B|318:122|318:122|446:142,1,179.999994506836,8|0,0:0|0:0,0:0:0:0:
456,143,148219,2,0,L|435:234,1,59.9999981689454
356,343,148360,2,0,L|333:271,1,59.9999981689454,10|0,0:0|0:0,0:0:0:0:
230,156,148502,2,0,L|205:233,1,59.9999981689454
113,321,148643,6,0,P|57:274|31:189,1,119.999996337891,4|0,0:0|0:0,0:0:0:0:
246,303,148926,1,10,0:0:0:0:
122,136,149068,2,0,P|148:73|200:36,1,119.999996337891,0|2,3:0|0:0,0:0:0:0:
368,221,149351,1,0,3:2:0:0:
453,43,149492,1,10,0:0:0:0:
196,155,149634,1,0,3:0:0:0:
285,274,149775,5,12,0:0:0:0:
335,51,149917,1,0,0:0:0:0:
278,290,150058,5,14,0:0:0:0:
339,31,150200,1,0,0:0:0:0:
266,304,150341,6,0,P|202:311|146:343,1,119.999996337891,2|8,3:2|0:0,0:0:0:0:
74,372,150554,1,0,3:0:0:0:
16,315,150625,2,0,P|-3:240|15:185,1,119.999996337891,8|0,0:0|3:0,0:0:0:0:
127,13,150908,5,14,0:0:0:0:
416,278,151050,1,0,3:0:0:0:
0,130,151191,1,0,3:0:0:0:
485,222,151332,5,14,0:3:0:0:
93,349,151474,1,2,3:0:0:0:
482,124,151615,1,2,3:0:0:0:
104,88,151757,2,0,L|126:162,1,59.9999981689454,14|0,0:3|0:0,0:0:0:0:
343,302,151898,2,0,L|320:223,1,59.9999981689454,2|0,3:0|0:0,0:0:0:0:
356,19,152040,5,14,0:0:0:0:
481,254,152181,1,0,3:0:0:0:
270,121,152323,1,0,3:0:0:0:
41,334,152464,5,12,0:0:0:0:
251,219,152606,1,0,3:0:0:0:
406,373,152747,2,0,L|378:319,1,59.9999981689454,0|0,3:0|0:0,0:0:0:0:
134,218,152889,2,0,L|180:316,1,59.9999981689454,12|0,0:2|0:0,0:0:0:0:
421,173,153030,2,0,L|442:113,1,59.9999981689454
465,29,153172,6,0,L|321:58,1,119.999996337891,14|2,0:0|3:2,0:0:0:0:
194,304,153455,1,2,3:2:0:0:
31,166,153596,2,0,L|160:192,1,119.999996337891,14|0,0:0|3:0,0:0:0:0:
352,319,153879,1,0,3:0:0:0:
445,96,154021,1,14,0:0:0:0:
248,356,154162,1,2,3:2:0:0:
122,77,154304,5,2,3:2:0:0:
495,166,154445,1,0,3:0:0:0:
97,68,154587,1,14,0:0:0:0:
495,166,154728,1,0,3:0:0:0:
495,166,154799,1,0,3:0:0:0:
495,166,154870,2,0,P|456:205|427:216,1,59.9999981689454,14|0,0:0|0:0,0:0:0:0:
378,311,155011,2,0,P|338:298|309:266,1,59.9999981689454,0|0,3:0|3:0,0:0:0:0:
223,153,155153,1,10,0:0:0:0:
164,140,155224,1,8,0:0:0:0:
106,156,155294,1,8,0:0:0:0:
61,196,155365,1,8,0:0:0:0:
1,184,155436,5,14,0:0:0:0:
197,24,155577,1,0,3:0:0:0:
390,326,155719,1,0,3:0:0:0:
73,321,155860,5,14,0:3:0:0:
339,41,156002,1,2,3:3:0:0:
51,337,156143,5,2,3:3:0:0:
362,29,156285,1,14,0:3:0:0:
23,334,156426,5,2,3:3:0:0:
98,54,156568,2,0,L|89:142,1,59.9999981689454,12|0,0:0|0:0,0:0:0:0:
248,364,156709,2,0,L|263:269,1,59.9999981689454,0|0,3:0|0:0,0:0:0:0:
393,39,156851,2,0,L|409:130,1,59.9999981689454,0|0,3:0|0:0,0:0:0:0:
480,320,156992,2,0,P|418:271|343:276,1,119.999996337891,12|0,0:0|3:0,0:0:0:0:
121,335,157275,5,0,3:0:0:0:
198,3,157417,1,12,0:0:0:0:
447,237,157558,1,0,3:0:0:0:
97,133,157700,5,2,3:2:0:0:
138,81,157771,1,0,0:0:0:0:
202,80,157841,1,2,0:0:0:0:
257,119,157912,1,0,0:0:0:0:
270,184,157983,1,10,0:0:0:0:
266,250,158054,1,0,0:0:0:0:
307,301,158125,1,2,0:0:0:0:
367,326,158195,1,0,0:0:0:0:
428,314,158266,1,8,0:0:0:0:
472,273,158337,1,0,0:0:0:0:
481,213,158408,1,0,0:0:0:0:
409,211,158478,1,0,0:0:0:0:
351,254,158549,1,10,0:0:0:0:
278,249,158620,1,0,0:0:0:0:
215,284,158691,1,8,0:0:0:0:
144,271,158761,1,0,0:0:0:0:
80,304,158832,6,0,P|30:289|-13:239,1,119.999996337891,8|0,0:0|0:0,0:0:0:0:
96,131,159115,2,0,L|206:158,1,89.9999972534181
392,12,159398,2,0,L|279:37,1,89.9999972534181
261,151,159681,1,0,0:0:0:0:
271,182,159823,1,0,0:0:0:0:
281,215,159964,6,0,P|335:225|381:184,1,112.500004291535
418,197,160247,2,0,P|437:145|404:93,1,112.500004291535
412,56,160530,2,0,P|364:28|307:50,1,112.500004291535
273,33,160813,2,0,P|237:74|248:138,1,112.500004291535
240,169,161096,2,0,L|158:207,1,75.0000028610231
52,361,161379,5,0,0:0:0:0:
125,379,161521,1,0,0:0:0:0:
165,316,161662,1,0,0:0:0:0:
122,253,161804,1,0,0:0:0:0:
47,259,161945,1,0,0:0:0:0:
15,190,162087,1,0,0:0:0:0:
72,142,162228,1,0,0:0:0:0:
363,178,162511,6,0,P|433:175|471:132,2,119.999996337891
221,79,163360,2,0,P|161:72|111:127,1,119.999996337891
173,260,163785,1,0,0:0:0:0:
233,216,163926,2,0,L|303:243,1,59.9999981689454
483,302,164209,2,0,L|350:352,1,119.999996337891
