osu file format v14

[General]
AudioFilename: audio.ogg
AudioLeadIn: 0
PreviewTime: 45311
Countdown: 0
SampleSet: Normal
StackLeniency: 0.7
Mode: 1
LetterboxInBreaks: 0
WidescreenStoryboard: 1

[Editor]
DistanceSpacing: 1
BeatDivisor: 2
GridSize: 4
TimelineZoom: 0.9319998

[Metadata]
Title:Chimera feat. Hatsune Miku
TitleUnicode:キメラ feat. 初音ミク
Artist:DECO*27
ArtistUnicode:DECO*27
Creator:Miyoi
Version:Kantan
Source:
Tags:Midnaait Reficul Chromoxx TKS Rock Japanese Electronic Jrock J-Rock Vocaloid デコニーナ Deco Niina DECO27 Rockwell KARENT
BeatmapID:3602509
BeatmapSetID:1740454

[Difficulty]
HPDrainRate:7
CircleSize:2
OverallDifficulty:3
ApproachRate:9
SliderMultiplier:1.4
SliderTickRate:1

[Events]
//Background and Video events
0,0,"97354562_p0.png",0,0
//Break Periods
//Storyboard Layer 0 (Background)
//Storyboard Layer 1 (Fail)
//Storyboard Layer 2 (Pass)
//Storyboard Layer 3 (Foreground)
//Storyboard Layer 4 (Overlay)
//Storyboard Sound Samples

[TimingPoints]
340,283.018867924528,4,1,0,85,1,0
45304,-100,4,1,0,85,0,0
45623,-100,4,1,0,85,0,1
62604,-100,4,1,0,85,0,0
90906,-100,4,1,0,85,0,1
107887,-100,4,1,0,85,0,0
117474,-100,4,1,0,40,0,0
118040,-100,4,1,0,85,0,0
123736,283.018867924528,4,1,0,85,1,0
132792,-100,4,1,0,85,0,1
159962,-100,4,1,0,85,0,0

[HitObjects]
205,152,340,5,0,0:0:0:0:
229,127,1472,1,0,0:0:0:0:
333,144,2038,1,0,0:0:0:0:
255,131,2604,1,8,0:0:0:0:
215,114,3736,1,8,0:0:0:0:
223,103,4302,1,8,0:0:0:0:
131,171,5009,1,4,0:0:0:0:
251,167,5434,1,8,0:0:0:0:
219,195,5858,1,8,0:0:0:0:
263,193,6566,1,8,0:0:0:0:
358,150,7273,1,4,0:0:0:0:
265,141,7698,1,8,0:0:0:0:
267,133,8123,1,8,0:0:0:0:
230,141,8830,1,8,0:0:0:0:
313,197,9679,1,12,0:0:0:0:
292,130,10245,1,8,0:0:0:0:
133,153,10528,1,0,0:0:0:0:
239,137,11094,1,8,0:0:0:0:
212,128,11377,1,8,0:0:0:0:
222,122,11660,1,4,0:0:0:0:
188,170,12509,1,8,0:0:0:0:
293,134,13075,1,0,0:0:0:0:
319,171,13358,1,8,0:0:0:0:
245,148,13641,1,8,0:0:0:0:
199,159,13924,1,4,0:0:0:0:
246,130,16189,1,4,0:0:0:0:
255,134,16755,1,8,0:0:0:0:
301,160,17321,1,0,0:0:0:0:
275,228,17887,1,8,0:0:0:0:
298,209,18170,1,8,0:0:0:0:
206,173,18453,1,0,0:0:0:0:
194,161,19019,1,8,0:0:0:0:
164,156,19585,1,0,0:0:0:0:
351,227,19868,1,0,0:0:0:0:
371,118,20151,1,8,0:0:0:0:
243,76,20717,1,8,0:0:0:0:
263,197,21707,1,0,0:0:0:0:
282,191,22132,1,0,0:0:0:0:
282,191,22415,1,8,0:0:0:0:
359,189,22981,1,0,0:0:0:0:
213,160,23547,1,8,0:0:0:0:
299,142,23830,1,8,0:0:0:0:
319,126,24113,1,0,0:0:0:0:
290,124,24396,1,0,0:0:0:0:
290,124,24679,1,8,0:0:0:0:
249,124,25245,1,4,0:0:0:0:
368,130,26094,1,8,0:0:0:0:
335,105,26377,1,0,0:0:0:0:
93,169,26943,1,8,0:0:0:0:
343,159,27226,1,8,0:0:0:0:
239,148,27509,1,0,0:0:0:0:
244,195,28075,1,8,0:0:0:0:
259,155,28641,1,0,0:0:0:0:
280,200,28924,1,0,0:0:0:0:
337,165,29207,1,8,0:0:0:0:
295,122,29773,1,0,0:0:0:0:
304,123,30764,1,8,0:0:0:0:
304,123,31189,1,8,0:0:0:0:
385,120,31472,1,0,0:0:0:0:
324,162,32038,1,8,0:0:0:0:
339,156,32604,1,0,0:0:0:0:
260,179,33170,1,8,0:0:0:0:
260,179,33453,1,8,0:0:0:0:
260,179,33736,1,8,0:0:0:0:
343,168,34302,1,4,0:0:0:0:
308,179,35434,1,8,0:0:0:0:
319,97,36000,1,8,0:0:0:0:
275,158,36566,1,4,0:0:0:0:
324,158,37132,1,8,0:0:0:0:
277,158,37698,1,0,0:0:0:0:
286,194,37981,1,0,0:0:0:0:
296,150,38264,1,8,0:0:0:0:
265,113,38830,1,4,0:0:0:0:
278,180,39962,1,8,0:0:0:0:
297,194,40528,1,8,0:0:0:0:
293,207,40811,1,8,0:0:0:0:
256,171,41094,1,0,0:0:0:0:
352,187,41377,1,8,0:0:0:0:
344,139,41943,1,8,0:0:0:0:
271,102,42509,1,0,0:0:0:0:
191,159,42792,1,8,0:0:0:0:
191,159,43075,1,8,0:0:0:0:
261,139,45623,1,4,0:0:0:0:
356,180,46189,1,8,0:0:0:0:
294,278,46613,1,8,0:0:0:0:
237,132,47038,1,8,0:0:0:0:
396,203,47321,1,0,0:0:0:0:
211,127,47887,1,4,0:0:0:0:
208,127,48453,1,8,0:0:0:0:
233,222,48877,1,0,0:0:0:0:
341,140,49302,1,0,0:0:0:0:
281,103,49585,1,8,0:0:0:0:
234,163,50151,1,4,0:0:0:0:
248,144,51141,1,0,0:0:0:0:
186,132,51566,1,0,0:0:0:0:
386,199,51849,1,8,0:0:0:0:
212,110,52415,1,4,0:0:0:0:
225,111,52981,1,8,0:0:0:0:
225,111,53406,1,8,0:0:0:0:
249,179,53830,1,0,0:0:0:0:
326,151,54113,1,0,0:0:0:0:
213,151,54679,1,12,0:0:0:0:
223,192,55811,1,8,0:0:0:0:
142,203,56236,1,8,0:0:0:0:
316,147,56660,1,0,0:0:0:0:
292,136,56943,1,12,0:0:0:0:
285,112,57368,1,8,0:0:0:0:
283,175,58075,1,0,0:0:0:0:
227,183,58358,1,0,0:0:0:0:
363,182,58641,1,8,0:0:0:0:
253,163,59207,1,12,0:0:0:0:
265,223,60339,1,8,0:0:0:0:
324,135,60764,1,8,0:0:0:0:
368,215,61189,1,0,0:0:0:0:
213,146,61472,1,12,0:0:0:0:
172,209,61896,1,8,0:0:0:0:
257,127,62321,1,0,0:0:0:0:
257,127,62604,1,8,0:0:0:0:
131,171,63877,1,4,0:0:0:0:
251,167,64302,1,8,0:0:0:0:
219,195,64726,1,8,0:0:0:0:
263,193,65434,1,8,0:0:0:0:
358,150,66141,1,4,0:0:0:0:
265,141,66566,1,8,0:0:0:0:
267,133,66990,1,8,0:0:0:0:
230,141,67698,1,8,0:0:0:0:
243,163,68264,1,0,0:0:0:0:
313,197,68830,1,8,0:0:0:0:
133,153,69113,1,0,0:0:0:0:
212,128,69679,1,0,0:0:0:0:
239,137,69962,1,8,0:0:0:0:
222,122,70528,1,0,0:0:0:0:
188,170,71377,1,8,0:0:0:0:
199,159,72792,1,0,0:0:0:0:
351,156,73641,1,0,0:0:0:0:
205,141,74490,1,0,0:0:0:0:
385,201,75056,1,8,0:0:0:0:
252,183,75906,1,8,0:0:0:0:
252,183,76755,1,8,0:0:0:0:
287,183,77321,1,0,0:0:0:0:
287,183,78170,1,0,0:0:0:0:
302,182,79019,1,0,0:0:0:0:
310,191,79585,1,8,0:0:0:0:
314,197,80434,1,8,0:0:0:0:
341,203,80717,1,0,0:0:0:0:
251,122,81849,1,4,0:0:0:0:
370,128,82415,1,8,0:0:0:0:
337,103,82981,1,0,0:0:0:0:
95,167,83547,1,8,0:0:0:0:
345,157,83830,1,8,0:0:0:0:
241,146,84113,1,0,0:0:0:0:
246,193,84679,1,8,0:0:0:0:
261,153,85245,1,0,0:0:0:0:
282,198,85528,1,0,0:0:0:0:
339,163,85811,1,8,0:0:0:0:
297,120,86377,1,0,0:0:0:0:
306,121,87368,1,8,0:0:0:0:
306,121,87792,1,0,0:0:0:0:
387,118,88075,1,8,0:0:0:0:
326,160,88641,1,8,0:0:0:0:
341,154,89207,1,0,0:0:0:0:
262,177,89490,5,0,0:0:0:0:
262,177,89773,1,8,0:0:0:0:
260,142,90906,5,4,0:0:0:0:
355,183,91472,1,8,0:0:0:0:
293,281,91896,1,0,0:0:0:0:
236,135,92321,1,0,0:0:0:0:
395,206,92604,1,8,0:0:0:0:
210,130,93170,1,4,0:0:0:0:
207,130,93736,1,0,0:0:0:0:
232,225,94160,1,8,0:0:0:0:
340,143,94585,1,0,0:0:0:0:
280,106,94868,1,8,0:0:0:0:
233,166,95434,1,4,0:0:0:0:
247,147,96424,1,8,0:0:0:0:
185,135,96849,1,8,0:0:0:0:
385,202,97132,1,0,0:0:0:0:
211,113,97698,1,4,0:0:0:0:
224,114,98264,1,8,0:0:0:0:
224,114,98689,1,0,0:0:0:0:
248,182,99113,1,8,0:0:0:0:
325,154,99396,1,0,0:0:0:0:
212,154,99962,1,12,0:0:0:0:
222,195,101094,1,8,0:0:0:0:
141,206,101519,1,8,0:0:0:0:
315,150,101943,1,0,0:0:0:0:
291,139,102226,1,12,0:0:0:0:
284,115,102792,1,8,0:0:0:0:
282,178,103358,1,0,0:0:0:0:
226,186,103641,1,0,0:0:0:0:
362,185,103924,1,8,0:0:0:0:
252,166,104490,1,12,0:0:0:0:
264,226,105623,1,8,0:0:0:0:
323,138,106047,1,8,0:0:0:0:
367,218,106472,1,0,0:0:0:0:
212,149,106755,1,12,0:0:0:0:
171,212,107179,1,8,0:0:0:0:
256,130,107604,1,0,0:0:0:0:
256,130,107887,1,8,0:0:0:0:
309,196,109019,5,0,0:0:0:0:
305,190,110151,1,8,0:0:0:0:
305,190,111283,1,0,0:0:0:0:
242,200,111707,1,0,0:0:0:0:
244,196,112132,1,0,0:0:0:0:
256,120,112415,1,8,0:0:0:0:
310,148,112981,1,8,0:0:0:0:
343,168,113547,1,4,0:0:0:0:
308,179,114679,1,8,0:0:0:0:
319,97,115245,1,8,0:0:0:0:
275,158,115811,1,4,0:0:0:0:
324,158,116377,1,8,0:0:0:0:
277,158,116943,1,0,0:0:0:0:
286,194,117226,1,0,0:0:0:0:
265,113,118075,1,4,0:0:0:0:
278,180,119207,1,8,0:0:0:0:
297,194,119773,1,8,0:0:0:0:
293,207,120056,1,8,0:0:0:0:
256,171,120339,1,0,0:0:0:0:
352,187,120623,1,8,0:0:0:0:
344,139,121189,1,8,0:0:0:0:
271,102,121755,1,0,0:0:0:0:
191,159,122038,1,8,0:0:0:0:
191,159,122321,1,8,0:0:0:0:
297,248,123736,5,8,0:0:0:0:
297,248,124868,1,8,0:0:0:0:
297,244,125434,1,8,0:0:0:0:
297,244,126000,1,0,0:0:0:0:
293,171,127132,1,4,0:0:0:0:
307,151,127698,1,12,0:0:0:0:
194,167,128264,1,4,0:0:0:0:
261,207,129113,1,8,0:0:0:0:
261,207,129396,1,0,0:0:0:0:
325,167,129962,1,8,0:0:0:0:
238,158,130528,1,0,0:0:0:0:
238,158,130811,1,0,0:0:0:0:
348,175,131094,1,0,0:0:0:0:
348,175,131377,1,0,0:0:0:0:
373,174,131660,1,8,0:0:0:0:
261,139,132792,1,4,0:0:0:0:
356,180,133358,1,8,0:0:0:0:
294,278,133783,1,8,0:0:0:0:
237,132,134207,1,0,0:0:0:0:
396,203,134490,1,8,0:0:0:0:
211,127,135056,1,4,0:0:0:0:
208,127,135622,1,8,0:0:0:0:
233,222,135905,1,8,0:0:0:0:
217,144,136188,1,0,0:0:0:0:
341,140,136471,1,0,0:0:0:0:
281,103,136754,1,8,0:0:0:0:
234,163,137320,1,4,0:0:0:0:
248,144,138311,1,0,0:0:0:0:
186,132,138736,1,8,0:0:0:0:
386,199,139019,1,0,0:0:0:0:
212,110,139585,1,12,0:0:0:0:
225,111,140151,1,0,0:0:0:0:
225,111,140434,1,0,0:0:0:0:
186,134,140717,1,8,0:0:0:0:
249,179,141000,1,8,0:0:0:0:
326,151,141283,1,0,0:0:0:0:
213,151,141849,1,12,0:0:0:0:
223,192,142981,1,8,0:0:0:0:
142,203,143405,1,8,0:0:0:0:
316,147,143830,1,0,0:0:0:0:
292,136,144113,1,12,0:0:0:0:
285,112,144537,1,8,0:0:0:0:
156,121,144962,1,8,0:0:0:0:
283,175,145245,1,0,0:0:0:0:
227,183,145528,1,0,0:0:0:0:
363,182,145811,1,8,0:0:0:0:
253,163,146377,1,12,0:0:0:0:
265,223,147509,1,8,0:0:0:0:
324,135,147934,1,8,0:0:0:0:
368,215,148358,1,0,0:0:0:0:
213,146,148641,1,12,0:0:0:0:
172,209,149066,1,8,0:0:0:0:
257,127,149490,1,0,0:0:0:0:
257,127,149773,1,8,0:0:0:0:
199,126,150339,1,0,0:0:0:0:
248,99,150905,5,12,0:0:0:0:
259,112,152037,1,0,0:0:0:0:
193,150,152462,1,0,0:0:0:0:
371,179,152886,1,0,0:0:0:0:
257,138,153169,1,8,0:0:0:0:
294,222,153594,1,8,0:0:0:0:
357,139,154019,1,8,0:0:0:0:
161,119,154302,1,0,0:0:0:0:
364,139,154585,1,0,0:0:0:0:
323,130,154868,1,8,0:0:0:0:
273,129,155434,1,12,0:0:0:0:
205,168,156566,1,8,0:0:0:0:
262,208,156990,1,8,0:0:0:0:
262,208,157415,1,8,0:0:0:0:
286,169,157698,1,0,0:0:0:0:
335,151,158122,1,0,0:0:0:0:
307,135,158547,1,0,0:0:0:0:
202,184,158830,1,8,0:0:0:0:
231,141,159962,1,0,0:0:0:0:
200,143,160528,1,8,0:0:0:0:
200,143,161094,1,0,0:0:0:0:
269,115,161660,1,8,0:0:0:0:
269,115,161943,1,8,0:0:0:0:
273,131,162226,1,0,0:0:0:0:
273,131,162792,1,8,0:0:0:0:
273,131,163358,1,0,0:0:0:0:
273,131,163924,1,8,0:0:0:0:
273,131,164207,1,8,0:0:0:0:
