osu file format v14

[General]
AudioFilename: audio.ogg
AudioLeadIn: 0
PreviewTime: 45311
Countdown: 0
SampleSet: Normal
StackLeniency: 0.7
Mode: 1
LetterboxInBreaks: 0
WidescreenStoryboard: 0

[Editor]
DistanceSpacing: 1
BeatDivisor: 4
GridSize: 4
TimelineZoom: 2

[Metadata]
Title:Chimera feat. Hatsune Miku
TitleUnicode:キメラ feat. 初音ミク
Artist:DECO*27
ArtistUnicode:DECO*27
Creator:Miyoi
Version:Inner Oni
Source:
Tags:Midnaait Reficul Chromoxx TKS Rock Japanese Electronic Jrock J-Rock Vocaloid デコニーナ Deco Niina DECO27 Rockwell KARENT
BeatmapID:3557959
BeatmapSetID:1740454

[Difficulty]
HPDrainRate:5.5
CircleSize:2
OverallDifficulty:6.5
ApproachRate:9
SliderMultiplier:1.4
SliderTickRate:1

[Events]
//Background and Video events
0,0,"97354562_p0.png",0,0
//Break Periods
//Storyboard Layer 0 (Background)
//Storyboard Layer 1 (Fail)
//Storyboard Layer 2 (Pass)
//Storyboard Layer 3 (Foreground)
//Storyboard Layer 4 (Overlay)
//Storyboard Sound Samples

[TimingPoints]
340,283.018867924528,4,1,0,85,1,0
45623,-100,4,1,0,85,0,1
62604,-100,4,1,0,85,0,0
68330,-100.4848071014,4,1,0,85,0,0
68401,-100.974337861946,4,1,0,85,0,0
68471,-101.46166574738,4,1,0,85,0,0
68542,-101.960784313725,4,1,0,85,0,0
68825,-104,4,1,0,85,0,0
68967,-105.054254711593,4,1,0,85,0,0
69108,-106.122448979592,4,1,0,85,0,0
69250,-107.220400728597,4,1,0,85,0,0
69325,-109.477756286267,4,1,0,85,0,0
69674,-110.63829787234,4,1,0,85,0,0
69816,-111.832206094688,4,1,0,85,0,0
69957,-113.04347826087,4,1,0,85,0,0
70099,-114.290152221187,4,1,0,85,0,0
70240,-115.555555555556,4,1,0,85,0,0
70523,-118.181818181818,4,1,0,85,0,0
70665,-119.545085296507,4,1,0,85,0,0
70948,-122.358027770849,4,1,0,85,0,0
71089,-123.809523809524,4,1,0,85,0,0
71372,-126.829268292683,4,1,0,85,0,0
71514,-128.400663118402,4,1,0,85,0,0
71589,-131.651458221507,4,1,0,85,0,0
71938,-133.333333333333,4,1,0,85,0,0
72509,-200,4,1,0,85,0,0
73212,-202.33676975945,4,1,0,85,0,0
73353,-203.124137550367,4,1,0,85,0,0
73636,-204.723095324191,4,1,0,85,0,0
73778,-205.534921388478,4,1,0,85,0,0
73919,-206.347426264439,4,1,0,85,0,0
74202,-207.997739155009,4,1,0,85,0,0
74485,-209.674662412398,4,1,0,85,0,0
74768,-211.378844883541,4,1,0,85,0,0
74910,-212.24442714191,4,1,0,85,0,0
75051,-213.110956682882,4,1,0,85,0,0
75476,-215.766175134121,4,1,0,85,0,0
75618,-216.668138596956,4,1,0,85,0,0
75901,-218.488392804132,4,1,0,85,0,0
76042,-219.406767029364,4,1,0,85,0,0
76153,-221.273525344237,4,1,0,85,0,0
76467,-222.222222222222,4,1,0,85,0,0
76613,-80,4,1,0,85,0,0
77316,-222.222222222222,4,1,0,85,0,0
77740,-224.635083226633,4,1,0,85,0,0
77882,-225.454919296803,4,1,0,85,0,0
78165,-227.106796116505,4,1,0,85,0,0
78306,-227.938883691924,4,1,0,85,0,0
78448,-228.783057743467,4,1,0,85,0,0
78731,-230.484248141044,4,1,0,85,0,0
79014,-232.210927573062,4,1,0,85,0,0
79155,-233.080908728577,4,1,0,85,0,0
79297,-233.963673219001,4,1,0,85,0,0
79438,-234.846862283144,4,1,0,85,0,0
79580,-235.743079817253,4,1,0,85,0,0
80004,-238.460283803621,4,1,0,85,0,0
80146,-239.384346687043,4,1,0,85,0,0
80429,-241.247490443057,4,1,0,85,0,0
80712,-243.139863628804,4,1,0,85,0,0
80853,-244.09383087069,4,1,0,85,0,0
80995,-245.062159519486,4,1,0,85,0,0
81136,-246.031300835811,4,1,0,85,0,0
81278,-247.015093489525,4,1,0,85,0,0
81349,-247.509946107615,4,1,0,85,0,0
81419,-247.999773826016,4,1,0,85,0,0
81490,-248.498583569405,4,1,0,85,0,0
81561,-248.999403900196,4,1,0,85,0,0
81632,-249.50224699926,4,1,0,85,0,0
81702,-250,4,1,0,85,0,0
81849,-100,4,1,0,85,0,0
90906,-100,4,1,0,85,0,1
107887,-100,4,1,0,85,0,0
123736,283.018867924528,4,1,0,85,1,0
132439,-108.108108108108,4,1,0,85,0,0
132792,-93.0232558139535,4,1,0,85,0,1
159608,-96.408773198361,4,1,0,85,0,1
159962,-100,4,1,0,85,0,0

[HitObjects]
241,147,340,5,8,0:0:0:0:
248,147,623,1,0,0:0:0:0:
241,147,764,1,8,0:0:0:0:
241,147,835,1,8,0:0:0:0:
241,147,906,1,0,0:0:0:0:
243,151,1047,1,0,0:0:0:0:
241,147,1189,1,8,0:0:0:0:
237,151,1330,1,0,0:0:0:0:
241,147,1472,1,8,0:0:0:0:
238,151,1613,1,0,0:0:0:0:
241,147,1684,1,8,0:0:0:0:
244,153,1755,1,0,0:0:0:0:
241,147,1896,1,8,0:0:0:0:
248,165,2038,1,0,0:0:0:0:
252,161,2108,1,0,0:0:0:0:
259,158,2179,1,8,0:0:0:0:
259,158,2250,1,8,0:0:0:0:
241,147,2321,1,0,0:0:0:0:
256,158,2462,1,0,0:0:0:0:
241,147,2604,1,8,0:0:0:0:
241,147,2887,1,0,0:0:0:0:
241,147,3028,1,8,0:0:0:0:
240,149,3099,1,8,0:0:0:0:
239,149,3170,1,8,0:0:0:0:
241,147,3311,1,0,0:0:0:0:
241,147,3453,1,8,0:0:0:0:
258,148,3594,1,0,0:0:0:0:
226,147,3736,1,8,0:0:0:0:
266,141,3806,1,0,0:0:0:0:
235,147,3877,1,8,0:0:0:0:
239,151,3948,1,8,0:0:0:0:
238,155,4019,1,0,0:0:0:0:
228,142,4160,1,8,0:0:0:0:
220,144,4302,1,0,0:0:0:0:
228,142,4443,1,0,0:0:0:0:
228,142,4585,1,8,0:0:0:0:
214,135,4726,1,0,0:0:0:0:
226,147,5009,1,12,0:0:0:0:
171,153,5151,1,0,0:0:0:0:
218,135,5292,1,0,0:0:0:0:
226,147,5434,1,12,0:0:0:0:
209,131,5575,1,0,0:0:0:0:
218,135,5717,1,0,0:0:0:0:
226,147,5858,1,12,0:0:0:0:
218,135,6141,1,0,0:0:0:0:
218,135,6283,1,8,0:0:0:0:
225,134,6424,1,8,0:0:0:0:
218,130,6495,1,8,0:0:0:0:
218,135,6566,1,0,0:0:0:0:
218,135,6707,1,0,0:0:0:0:
215,135,6849,1,8,0:0:0:0:
218,135,7132,1,0,0:0:0:0:
204,126,7273,1,12,0:0:0:0:
219,128,7415,1,0,0:0:0:0:
219,128,7556,1,0,0:0:0:0:
204,126,7698,1,12,0:0:0:0:
210,130,7839,1,0,0:0:0:0:
217,129,7981,1,0,0:0:0:0:
204,126,8123,1,12,0:0:0:0:
205,117,8406,1,0,0:0:0:0:
203,117,8547,1,8,0:0:0:0:
205,117,8689,1,0,0:0:0:0:
205,117,8759,1,0,0:0:0:0:
205,117,8830,1,8,0:0:0:0:
205,117,8972,1,0,0:0:0:0:
205,117,9113,1,0,0:0:0:0:
205,117,9255,1,8,0:0:0:0:
200,89,9396,1,0,0:0:0:0:
200,89,9467,1,0,0:0:0:0:
200,89,9538,1,0,0:0:0:0:
200,89,9608,1,0,0:0:0:0:
208,91,9679,1,12,0:0:0:0:
205,117,9962,1,0,0:0:0:0:
205,117,10104,1,0,0:0:0:0:
205,117,10245,1,8,0:0:0:0:
209,115,10387,1,0,0:0:0:0:
209,115,10670,1,0,0:0:0:0:
205,117,10811,1,8,0:0:0:0:
205,117,10953,1,0,0:0:0:0:
211,107,11023,1,0,0:0:0:0:
211,107,11094,1,8,0:0:0:0:
211,107,11236,1,8,0:0:0:0:
211,107,11306,1,8,0:0:0:0:
211,107,11377,1,0,0:0:0:0:
217,111,11519,1,8,0:0:0:0:
215,111,11660,1,4,0:0:0:0:
211,102,11943,1,8,0:0:0:0:
211,107,12085,1,0,0:0:0:0:
219,104,12226,1,0,0:0:0:0:
218,104,12368,1,0,0:0:0:0:
220,104,12509,1,8,0:0:0:0:
220,104,12651,1,0,0:0:0:0:
220,104,12934,1,0,0:0:0:0:
220,104,13005,1,0,0:0:0:0:
220,104,13075,1,8,0:0:0:0:
224,101,13217,1,0,0:0:0:0:
218,104,13358,1,0,0:0:0:0:
220,104,13500,1,0,0:0:0:0:
220,104,13641,1,8,0:0:0:0:
220,104,13783,1,8,0:0:0:0:
220,104,13924,1,4,0:0:0:0:
213,130,14207,1,0,0:0:0:0:
226,107,14490,1,0,0:0:0:0:
199,115,14773,1,0,0:0:0:0:
176,119,14915,1,8,0:0:0:0:
212,104,15198,1,8,0:0:0:0:
197,102,15339,1,8,0:0:0:0:
188,118,15623,1,8,0:0:0:0:
197,102,15906,1,8,0:0:0:0:
197,102,16189,1,4,0:0:0:0:
175,106,16472,1,8,0:0:0:0:
175,106,16755,1,0,0:0:0:0:
161,111,16896,1,0,0:0:0:0:
175,106,17038,1,8,0:0:0:0:
163,103,17179,1,8,0:0:0:0:
175,106,17321,1,0,0:0:0:0:
175,106,17604,1,8,0:0:0:0:
171,93,17745,1,0,0:0:0:0:
172,111,17816,1,0,0:0:0:0:
167,92,17887,1,8,0:0:0:0:
163,126,18028,1,0,0:0:0:0:
163,126,18170,1,8,0:0:0:0:
169,112,18240,1,8,0:0:0:0:
163,126,18311,1,0,0:0:0:0:
163,126,18453,1,0,0:0:0:0:
163,126,18736,1,8,0:0:0:0:
163,126,18877,1,8,0:0:0:0:
163,126,19019,1,0,0:0:0:0:
163,126,19160,1,8,0:0:0:0:
163,126,19443,1,8,0:0:0:0:
163,126,19585,1,0,0:0:0:0:
148,131,19868,1,8,0:0:0:0:
148,131,20009,1,8,0:0:0:0:
152,118,20080,1,0,0:0:0:0:
148,131,20151,1,8,0:0:0:0:
154,118,20222,1,8,0:0:0:0:
91,134,20292,1,0,0:0:0:0:
148,131,20434,1,8,0:0:0:0:
148,131,20717,1,0,0:0:0:0:
148,131,21000,1,8,0:0:0:0:
148,131,21141,1,8,0:0:0:0:
151,133,21212,1,8,0:0:0:0:
148,131,21283,1,0,0:0:0:0:
148,131,21424,1,0,0:0:0:0:
148,131,21566,1,8,0:0:0:0:
148,131,21707,1,0,0:0:0:0:
148,131,21990,1,0,0:0:0:0:
148,131,22132,1,8,0:0:0:0:
148,131,22273,1,8,0:0:0:0:
148,131,22415,1,0,0:0:0:0:
148,131,22556,1,0,0:0:0:0:
143,129,22698,1,8,0:0:0:0:
148,131,22769,1,8,0:0:0:0:
154,133,22839,1,8,0:0:0:0:
148,131,22910,1,8,0:0:0:0:
154,133,22981,1,0,0:0:0:0:
154,133,23193,1,8,0:0:0:0:
128,132,23264,1,0,0:0:0:0:
154,133,23406,1,8,0:0:0:0:
154,133,23547,1,0,0:0:0:0:
144,148,23618,1,0,0:0:0:0:
154,133,23689,1,0,0:0:0:0:
146,140,23759,1,0,0:0:0:0:
154,133,23830,1,8,0:0:0:0:
159,132,23901,1,0,0:0:0:0:
154,133,23972,1,8,0:0:0:0:
122,146,24019,1,8,0:0:0:0:
159,132,24066,1,8,0:0:0:0:
154,133,24113,1,0,0:0:0:0:
154,133,24255,1,8,0:0:0:0:
154,133,24396,1,0,0:0:0:0:
154,133,24538,1,8,0:0:0:0:
154,133,24679,1,0,0:0:0:0:
168,130,24750,1,8,0:0:0:0:
159,132,24891,1,8,0:0:0:0:
154,133,24962,1,0,0:0:0:0:
154,133,25104,1,8,0:0:0:0:
154,133,25245,1,4,0:0:0:0:
164,131,25528,1,8,0:0:0:0:
156,119,25670,1,8,0:0:0:0:
160,124,25740,1,8,0:0:0:0:
164,131,25811,1,0,0:0:0:0:
160,124,25953,1,0,0:0:0:0:
164,131,26094,1,8,0:0:0:0:
160,124,26236,1,8,0:0:0:0:
160,124,26306,1,8,0:0:0:0:
164,131,26377,1,0,0:0:0:0:
158,123,26519,1,0,0:0:0:0:
153,124,26660,1,8,0:0:0:0:
152,123,26802,1,0,0:0:0:0:
154,123,26873,1,8,0:0:0:0:
152,123,26943,1,0,0:0:0:0:
154,115,27085,1,0,0:0:0:0:
156,117,27156,1,0,0:0:0:0:
154,115,27226,1,8,0:0:0:0:
160,124,27297,1,8,0:0:0:0:
154,115,27368,1,0,0:0:0:0:
160,121,27509,1,8,0:0:0:0:
160,121,27651,1,0,0:0:0:0:
168,118,27722,1,0,0:0:0:0:
160,121,27792,1,8,0:0:0:0:
160,121,27934,1,0,0:0:0:0:
160,121,28075,1,8,0:0:0:0:
163,96,28146,1,0,0:0:0:0:
160,121,28217,1,8,0:0:0:0:
164,117,28288,1,8,0:0:0:0:
161,116,28358,1,0,0:0:0:0:
160,121,28500,1,8,0:0:0:0:
160,121,28783,1,0,0:0:0:0:
160,121,28924,1,8,0:0:0:0:
160,121,29066,1,8,0:0:0:0:
160,121,29207,1,0,0:0:0:0:
165,111,29278,1,0,0:0:0:0:
165,111,29349,1,0,0:0:0:0:
166,105,29420,1,0,0:0:0:0:
160,121,29490,1,8,0:0:0:0:
160,121,29632,1,0,0:0:0:0:
160,121,29773,1,8,0:0:0:0:
160,121,29915,1,0,0:0:0:0:
160,121,29986,1,8,0:0:0:0:
160,121,30127,1,8,0:0:0:0:
160,121,30198,1,0,0:0:0:0:
160,121,30339,1,8,0:0:0:0:
160,121,30481,1,8,0:0:0:0:
160,121,30623,1,0,0:0:0:0:
160,121,30764,1,8,0:0:0:0:
156,114,30835,1,8,0:0:0:0:
155,105,30906,1,0,0:0:0:0:
157,115,30976,1,8,0:0:0:0:
160,121,31047,1,0,0:0:0:0:
160,121,31189,1,8,0:0:0:0:
160,121,31330,1,0,0:0:0:0:
160,121,31472,1,8,0:0:0:0:
160,121,31755,1,8,0:0:0:0:
160,121,31896,1,0,0:0:0:0:
160,121,32038,1,8,0:0:0:0:
174,112,32108,1,0,0:0:0:0:
160,121,32250,1,0,0:0:0:0:
160,121,32321,1,8,0:0:0:0:
160,121,32462,1,0,0:0:0:0:
155,124,32604,1,8,0:0:0:0:
153,124,32674,1,0,0:0:0:0:
153,124,32745,1,8,0:0:0:0:
153,124,32816,1,0,0:0:0:0:
153,124,32887,1,8,0:0:0:0:
153,124,33028,1,0,0:0:0:0:
153,124,33170,1,8,0:0:0:0:
153,124,33311,1,0,0:0:0:0:
153,124,33453,1,8,0:0:0:0:
155,124,33594,1,8,0:0:0:0:
153,124,33736,1,0,0:0:0:0:
153,124,33877,1,0,0:0:0:0:
153,124,33948,1,0,0:0:0:0:
153,124,34019,1,8,0:0:0:0:
153,124,34160,1,0,0:0:0:0:
153,124,34302,1,4,0:0:0:0:
159,130,34585,1,0,0:0:0:0:
159,130,34868,1,8,0:0:0:0:
159,130,35151,1,0,0:0:0:0:
202,124,35292,1,8,0:0:0:0:
159,130,35434,1,0,0:0:0:0:
159,130,35717,1,0,0:0:0:0:
159,130,35858,1,0,0:0:0:0:
159,130,36000,1,8,0:0:0:0:
159,130,36141,1,8,0:0:0:0:
159,130,36283,1,0,0:0:0:0:
159,130,36424,1,8,0:0:0:0:
159,130,36566,1,0,0:0:0:0:
159,130,36849,1,0,0:0:0:0:
77,136,36990,1,0,0:0:0:0:
184,142,37061,1,0,0:0:0:0:
159,130,37132,1,8,0:0:0:0:
159,130,37415,1,0,0:0:0:0:
108,125,37556,1,8,0:0:0:0:
104,136,37698,1,0,0:0:0:0:
105,147,37839,1,0,0:0:0:0:
159,130,37981,1,8,0:0:0:0:
133,130,38123,1,0,0:0:0:0:
133,130,38170,1,0,0:0:0:0:
134,131,38217,1,0,0:0:0:0:
159,130,38264,1,8,0:0:0:0:
73,160,38406,1,0,0:0:0:0:
178,123,38689,1,0,0:0:0:0:
159,130,38830,1,4,0:0:0:0:
159,130,39113,1,0,0:0:0:0:
159,130,39396,1,8,0:0:0:0:
159,130,39679,1,0,0:0:0:0:
158,135,39821,1,8,0:0:0:0:
159,130,39962,1,0,0:0:0:0:
159,130,40245,1,0,0:0:0:0:
159,130,40387,1,0,0:0:0:0:
159,130,40528,1,8,0:0:0:0:
159,130,40670,1,0,0:0:0:0:
159,130,40811,1,8,0:0:0:0:
159,130,40953,1,8,0:0:0:0:
159,130,41094,1,0,0:0:0:0:
161,142,41236,1,8,0:0:0:0:
167,132,41306,1,8,0:0:0:0:
159,130,41377,1,8,0:0:0:0:
203,138,41519,1,0,0:0:0:0:
147,140,41660,1,8,0:0:0:0:
177,146,41731,1,8,0:0:0:0:
196,126,41802,1,8,0:0:0:0:
147,140,41943,1,0,0:0:0:0:
236,111,42085,1,8,0:0:0:0:
155,138,42368,1,0,0:0:0:0:
169,127,42509,1,8,0:0:0:0:
176,136,42651,1,0,0:0:0:0:
158,137,42792,1,8,0:0:0:0:
158,137,42934,1,8,0:0:0:0:
158,137,43075,1,8,0:0:0:0:
153,138,43217,1,8,0:0:0:0:
153,138,45339,1,0,0:0:0:0:
144,153,45623,1,12,0:0:0:0:
151,143,45835,1,8,0:0:0:0:
163,144,45906,1,0,0:0:0:0:
217,157,46047,1,0,0:0:0:0:
223,155,46189,1,8,0:0:0:0:
217,157,46330,1,0,0:0:0:0:
217,157,46401,1,8,0:0:0:0:
217,157,46472,1,0,0:0:0:0:
217,157,46613,1,12,0:0:0:0:
212,135,46755,1,0,0:0:0:0:
189,120,46825,1,0,0:0:0:0:
201,146,46896,1,8,0:0:0:0:
201,146,46967,1,0,0:0:0:0:
201,146,47038,1,8,0:0:0:0:
201,146,47108,1,8,0:0:0:0:
214,160,47179,1,0,0:0:0:0:
201,146,47321,1,8,0:0:0:0:
96,140,47462,1,0,0:0:0:0:
201,146,47533,1,0,0:0:0:0:
201,146,47604,1,8,0:0:0:0:
159,146,47745,1,0,0:0:0:0:
201,146,47887,1,4,0:0:0:0:
189,149,48099,1,0,0:0:0:0:
201,146,48170,1,8,0:0:0:0:
189,149,48311,1,0,0:0:0:0:
201,146,48453,1,8,0:0:0:0:
184,149,48523,1,8,0:0:0:0:
184,149,48594,1,0,0:0:0:0:
184,149,48665,1,0,0:0:0:0:
201,146,48736,1,8,0:0:0:0:
201,146,48877,1,4,0:0:0:0:
201,146,49160,1,0,0:0:0:0:
213,141,49231,1,0,0:0:0:0:
201,146,49302,1,8,0:0:0:0:
201,146,49443,1,8,0:0:0:0:
201,146,49585,1,0,0:0:0:0:
168,130,49726,1,0,0:0:0:0:
201,146,49868,1,8,0:0:0:0:
201,146,49939,1,8,0:0:0:0:
196,144,50009,1,8,0:0:0:0:
196,144,50080,1,8,0:0:0:0:
201,146,50151,1,4,0:0:0:0:
204,138,50363,1,0,0:0:0:0:
201,146,50434,1,8,0:0:0:0:
200,137,50575,1,0,0:0:0:0:
200,135,50717,1,8,0:0:0:0:
200,135,50858,1,0,0:0:0:0:
200,135,50929,1,8,0:0:0:0:
201,146,51000,1,0,0:0:0:0:
201,146,51141,1,12,0:0:0:0:
178,122,51283,1,0,0:0:0:0:
187,128,51354,1,8,0:0:0:0:
201,146,51424,1,0,0:0:0:0:
200,135,51495,1,0,0:0:0:0:
201,146,51566,1,8,0:0:0:0:
187,128,51637,1,8,0:0:0:0:
201,146,51707,1,0,0:0:0:0:
201,146,51849,1,8,0:0:0:0:
196,140,51990,1,0,0:0:0:0:
201,146,52132,1,8,0:0:0:0:
201,146,52415,1,4,0:0:0:0:
194,140,52627,1,0,0:0:0:0:
201,146,52698,1,8,0:0:0:0:
190,140,52839,1,8,0:0:0:0:
201,146,52981,1,0,0:0:0:0:
188,135,53052,1,0,0:0:0:0:
188,135,53123,1,0,0:0:0:0:
188,135,53193,1,8,0:0:0:0:
201,146,53264,1,0,0:0:0:0:
201,146,53406,1,12,0:0:0:0:
201,146,53689,1,0,0:0:0:0:
201,146,53830,1,8,0:0:0:0:
191,134,53901,1,0,0:0:0:0:
201,146,53972,1,8,0:0:0:0:
197,133,54042,1,8,0:0:0:0:
201,146,54113,1,0,0:0:0:0:
200,135,54255,1,0,0:0:0:0:
204,140,54325,1,0,0:0:0:0:
201,146,54396,1,8,0:0:0:0:
200,135,54467,1,8,0:0:0:0:
200,135,54538,1,0,0:0:0:0:
201,146,54679,1,12,0:0:0:0:
192,134,54821,1,0,0:0:0:0:
192,134,54891,1,0,0:0:0:0:
196,137,54962,1,0,0:0:0:0:
194,136,55104,1,8,0:0:0:0:
194,136,55245,1,0,0:0:0:0:
194,136,55316,1,0,0:0:0:0:
194,136,55387,1,0,0:0:0:0:
260,141,55528,1,8,0:0:0:0:
240,146,55811,1,8,0:0:0:0:
201,131,55953,1,0,0:0:0:0:
240,146,56094,1,8,0:0:0:0:
239,146,56236,1,8,0:0:0:0:
243,140,56306,1,8,0:0:0:0:
237,140,56377,1,8,0:0:0:0:
239,146,56519,1,8,0:0:0:0:
240,146,56660,1,0,0:0:0:0:
243,140,56731,1,8,0:0:0:0:
240,146,56802,1,0,0:0:0:0:
228,143,56943,1,12,0:0:0:0:
227,143,57226,1,0,0:0:0:0:
218,138,57368,1,8,0:0:0:0:
218,138,57651,1,0,0:0:0:0:
218,138,57792,1,8,0:0:0:0:
192,136,57863,1,0,0:0:0:0:
218,138,57934,1,8,0:0:0:0:
218,138,58075,1,4,0:0:0:0:
218,138,58217,1,0,0:0:0:0:
218,138,58358,1,8,0:0:0:0:
218,138,58500,1,0,0:0:0:0:
218,138,58641,1,8,0:0:0:0:
110,136,58712,1,0,0:0:0:0:
212,129,58783,1,8,0:0:0:0:
204,128,58854,1,8,0:0:0:0:
218,138,58924,1,8,0:0:0:0:
211,128,58995,1,8,0:0:0:0:
211,128,59066,1,0,0:0:0:0:
202,128,59207,1,12,0:0:0:0:
222,119,59349,1,0,0:0:0:0:
232,110,59420,1,0,0:0:0:0:
225,119,59490,1,0,0:0:0:0:
218,138,59632,1,8,0:0:0:0:
225,119,59773,1,0,0:0:0:0:
224,114,59844,1,0,0:0:0:0:
223,114,59915,1,0,0:0:0:0:
219,134,60056,1,8,0:0:0:0:
185,171,60339,1,8,0:0:0:0:
192,136,60410,1,8,0:0:0:0:
190,173,60481,1,0,0:0:0:0:
191,173,60623,1,8,0:0:0:0:
191,172,60764,1,8,0:0:0:0:
192,172,61047,1,8,0:0:0:0:
192,172,61189,1,8,0:0:0:0:
192,172,61330,1,0,0:0:0:0:
190,173,61472,1,12,0:0:0:0:
190,165,61613,1,0,0:0:0:0:
191,172,61755,1,0,0:0:0:0:
192,172,61896,1,12,0:0:0:0:
192,172,62179,1,0,0:0:0:0:
192,172,62321,1,8,0:0:0:0:
190,173,62462,1,0,0:0:0:0:
126,183,62604,1,8,0:0:0:0:
226,147,63877,1,12,0:0:0:0:
171,153,64019,1,0,0:0:0:0:
218,135,64160,1,0,0:0:0:0:
226,147,64302,1,12,0:0:0:0:
209,131,64443,1,0,0:0:0:0:
218,135,64585,1,0,0:0:0:0:
226,147,64726,1,12,0:0:0:0:
218,135,65009,1,0,0:0:0:0:
218,135,65151,1,8,0:0:0:0:
225,134,65292,1,8,0:0:0:0:
218,130,65363,1,8,0:0:0:0:
218,135,65434,1,0,0:0:0:0:
218,135,65575,1,0,0:0:0:0:
215,135,65717,1,8,0:0:0:0:
218,135,66000,1,0,0:0:0:0:
204,126,66141,1,12,0:0:0:0:
219,128,66283,1,0,0:0:0:0:
219,128,66424,1,0,0:0:0:0:
204,126,66566,1,12,0:0:0:0:
210,130,66707,1,0,0:0:0:0:
217,129,66849,1,0,0:0:0:0:
204,126,66990,1,12,0:0:0:0:
205,117,67273,1,0,0:0:0:0:
203,117,67415,1,8,0:0:0:0:
205,117,67556,1,0,0:0:0:0:
205,117,67698,1,12,0:0:0:0:
205,117,67839,1,8,0:0:0:0:
205,117,67910,1,8,0:0:0:0:
205,117,67981,1,8,0:0:0:0:
229,99,68052,1,8,0:0:0:0:
205,117,68123,1,0,0:0:0:0:
200,89,68264,1,0,0:0:0:0:
176,120,68335,1,0,0:0:0:0:
200,89,68406,1,0,0:0:0:0:
200,89,68476,1,0,0:0:0:0:
208,91,68547,1,8,0:0:0:0:
205,117,68830,1,0,0:0:0:0:
223,123,68972,1,0,0:0:0:0:
205,117,69113,1,8,0:0:0:0:
209,115,69255,1,0,0:0:0:0:
209,115,69538,1,0,0:0:0:0:
205,117,69679,1,8,0:0:0:0:
220,122,69821,1,0,0:0:0:0:
211,107,69962,1,8,0:0:0:0:
211,107,70104,1,8,0:0:0:0:
211,107,70245,1,0,0:0:0:0:
215,111,70528,1,0,0:0:0:0:
211,102,70670,1,0,0:0:0:0:
211,107,70953,1,8,0:0:0:0:
219,104,71094,1,8,0:0:0:0:
220,104,71377,1,0,0:0:0:0:
220,104,71519,1,0,0:0:0:0:
220,104,71802,1,8,0:0:0:0:
220,104,71943,1,8,0:0:0:0:
241,113,72792,1,0,0:0:0:0:
241,113,73217,1,0,0:0:0:0:
241,113,73358,1,8,0:0:0:0:
241,113,73641,1,0,0:0:0:0:
237,109,73783,1,8,0:0:0:0:
237,109,73924,1,0,0:0:0:0:
241,113,74207,1,0,0:0:0:0:
241,113,74490,1,8,0:0:0:0:
241,113,74773,1,8,0:0:0:0:
241,113,74915,1,8,0:0:0:0:
241,113,75056,1,0,0:0:0:0:
241,113,75481,1,0,0:0:0:0:
241,113,75623,1,8,0:0:0:0:
241,113,75906,1,0,0:0:0:0:
241,113,76047,1,0,0:0:0:0:
194,122,76330,1,0,0:0:0:0:
241,113,76472,1,0,0:0:0:0:
241,113,76755,1,8,0:0:0:0:
199,119,77321,1,0,0:0:0:0:
199,119,77745,1,0,0:0:0:0:
199,119,77887,1,8,0:0:0:0:
199,119,78170,1,0,0:0:0:0:
213,124,78311,1,8,0:0:0:0:
208,125,78453,1,0,0:0:0:0:
199,119,78736,1,0,0:0:0:0:
199,119,79019,1,8,0:0:0:0:
202,128,79160,1,0,0:0:0:0:
199,119,79302,1,8,0:0:0:0:
199,119,79443,1,8,0:0:0:0:
199,119,79585,1,0,0:0:0:0:
199,119,80009,1,0,0:0:0:0:
199,119,80151,1,8,0:0:0:0:
199,119,80434,1,0,0:0:0:0:
199,119,80717,1,8,0:0:0:0:
225,152,80858,1,8,0:0:0:0:
199,119,81000,1,0,0:0:0:0:
199,119,81141,1,0,0:0:0:0:
199,119,81283,1,8,0:0:0:0:
199,119,81354,1,8,0:0:0:0:
199,119,81424,1,8,0:0:0:0:
178,126,81495,1,8,0:0:0:0:
175,126,81566,1,8,0:0:0:0:
199,119,81637,1,8,0:0:0:0:
199,119,81707,1,8,0:0:0:0:
156,134,81849,1,0,0:0:0:0:
164,131,82132,1,8,0:0:0:0:
201,127,82203,1,0,0:0:0:0:
156,119,82273,1,8,0:0:0:0:
160,124,82344,1,8,0:0:0:0:
164,131,82415,1,0,0:0:0:0:
160,124,82556,1,0,0:0:0:0:
164,131,82698,1,8,0:0:0:0:
182,123,82769,1,0,0:0:0:0:
160,124,82839,1,8,0:0:0:0:
160,124,82910,1,8,0:0:0:0:
164,131,82981,1,0,0:0:0:0:
158,123,83123,1,0,0:0:0:0:
153,124,83264,1,8,0:0:0:0:
152,123,83406,1,0,0:0:0:0:
154,123,83476,1,8,0:0:0:0:
152,123,83547,1,0,0:0:0:0:
154,115,83689,1,8,0:0:0:0:
156,117,83759,1,0,0:0:0:0:
154,115,83830,1,8,0:0:0:0:
160,124,83901,1,0,0:0:0:0:
154,115,83972,1,8,0:0:0:0:
160,121,84113,1,0,0:0:0:0:
168,118,84325,1,0,0:0:0:0:
160,121,84396,1,8,0:0:0:0:
160,121,84538,1,8,0:0:0:0:
160,121,84679,1,0,0:0:0:0:
163,96,84750,1,0,0:0:0:0:
160,121,84821,1,8,0:0:0:0:
164,117,84891,1,8,0:0:0:0:
161,116,84962,1,0,0:0:0:0:
160,121,85104,1,8,0:0:0:0:
160,121,85387,1,0,0:0:0:0:
160,121,85528,1,8,0:0:0:0:
160,121,85670,1,8,0:0:0:0:
160,121,85811,1,0,0:0:0:0:
165,111,85882,1,0,0:0:0:0:
165,111,85953,1,0,0:0:0:0:
166,105,86023,1,0,0:0:0:0:
160,121,86094,1,8,0:0:0:0:
160,121,86236,1,0,0:0:0:0:
160,121,86377,1,8,0:0:0:0:
160,121,86519,1,0,0:0:0:0:
160,121,86589,1,8,0:0:0:0:
160,121,86731,1,8,0:0:0:0:
160,121,86802,1,0,0:0:0:0:
160,121,86943,1,8,0:0:0:0:
160,121,87085,1,8,0:0:0:0:
160,121,87226,1,0,0:0:0:0:
160,121,87368,1,8,0:0:0:0:
156,114,87439,1,8,0:0:0:0:
155,105,87509,1,0,0:0:0:0:
157,115,87580,1,0,0:0:0:0:
160,121,87651,1,8,0:0:0:0:
160,121,87792,1,8,0:0:0:0:
160,121,87934,1,8,0:0:0:0:
160,121,88075,1,0,0:0:0:0:
160,121,88358,1,8,0:0:0:0:
160,121,88500,1,0,0:0:0:0:
160,121,88641,1,8,0:0:0:0:
174,112,88712,1,0,0:0:0:0:
160,121,88854,1,0,0:0:0:0:
160,121,88924,1,8,0:0:0:0:
160,121,89066,1,0,0:0:0:0:
155,124,89207,1,8,0:0:0:0:
153,124,89278,1,8,0:0:0:0:
153,124,89349,1,0,0:0:0:0:
153,124,89420,1,0,0:0:0:0:
153,124,89490,1,8,0:0:0:0:
153,124,89632,1,8,0:0:0:0:
153,124,89773,1,0,0:0:0:0:
177,124,89915,1,0,0:0:0:0:
177,133,90056,1,8,0:0:0:0:
176,124,90198,1,8,0:0:0:0:
177,133,90339,1,0,0:0:0:0:
153,124,90481,1,12,0:0:0:0:
153,124,90623,1,12,0:0:0:0:
161,121,90906,1,4,0:0:0:0:
151,143,91118,1,8,0:0:0:0:
163,144,91189,1,0,0:0:0:0:
217,157,91330,1,0,0:0:0:0:
223,155,91472,1,8,0:0:0:0:
196,140,91542,1,0,0:0:0:0:
217,157,91613,1,0,0:0:0:0:
217,157,91684,1,8,0:0:0:0:
217,157,91755,1,0,0:0:0:0:
217,157,91896,1,12,0:0:0:0:
201,146,92179,1,8,0:0:0:0:
201,146,92250,1,0,0:0:0:0:
201,146,92321,1,8,0:0:0:0:
201,146,92391,1,8,0:0:0:0:
214,160,92462,1,0,0:0:0:0:
173,111,92533,1,0,0:0:0:0:
201,146,92604,1,8,0:0:0:0:
96,140,92745,1,0,0:0:0:0:
201,146,92887,1,8,0:0:0:0:
201,146,92957,1,8,0:0:0:0:
159,146,93028,1,0,0:0:0:0:
201,146,93170,1,4,0:0:0:0:
189,149,93382,1,8,0:0:0:0:
201,146,93453,1,0,0:0:0:0:
189,149,93594,1,8,0:0:0:0:
201,146,93736,1,0,0:0:0:0:
184,149,93806,1,0,0:0:0:0:
184,149,93877,1,8,0:0:0:0:
184,149,93948,1,8,0:0:0:0:
201,146,94019,1,0,0:0:0:0:
201,146,94160,1,12,0:0:0:0:
201,146,94443,1,0,0:0:0:0:
213,141,94514,1,0,0:0:0:0:
201,146,94585,1,8,0:0:0:0:
201,146,94726,1,8,0:0:0:0:
201,146,94868,1,0,0:0:0:0:
184,135,94939,1,0,0:0:0:0:
168,130,95009,1,0,0:0:0:0:
201,146,95151,1,8,0:0:0:0:
201,146,95222,1,8,0:0:0:0:
196,144,95292,1,8,0:0:0:0:
196,144,95363,1,8,0:0:0:0:
201,146,95434,1,4,0:0:0:0:
204,138,95646,1,0,0:0:0:0:
201,146,95717,1,8,0:0:0:0:
200,137,95858,1,0,0:0:0:0:
200,135,96000,1,8,0:0:0:0:
216,129,96071,1,0,0:0:0:0:
200,135,96141,1,8,0:0:0:0:
200,135,96212,1,8,0:0:0:0:
201,146,96283,1,0,0:0:0:0:
201,146,96424,1,12,0:0:0:0:
201,146,96707,1,0,0:0:0:0:
201,146,96849,1,8,0:0:0:0:
187,128,96920,1,8,0:0:0:0:
201,146,96990,1,0,0:0:0:0:
200,135,97061,1,0,0:0:0:0:
201,146,97132,1,8,0:0:0:0:
196,140,97273,1,0,0:0:0:0:
201,146,97415,1,8,0:0:0:0:
251,167,97627,1,8,0:0:0:0:
201,146,97698,1,0,0:0:0:0:
165,143,97839,1,0,0:0:0:0:
194,140,97910,1,0,0:0:0:0:
201,146,97981,1,8,0:0:0:0:
190,140,98123,1,8,0:0:0:0:
201,146,98264,1,0,0:0:0:0:
188,135,98335,1,0,0:0:0:0:
188,135,98406,1,0,0:0:0:0:
188,135,98476,1,0,0:0:0:0:
201,146,98547,1,8,0:0:0:0:
201,146,98689,1,4,0:0:0:0:
201,146,98972,1,0,0:0:0:0:
201,146,99113,1,8,0:0:0:0:
191,134,99184,1,0,0:0:0:0:
201,146,99255,1,8,0:0:0:0:
197,133,99325,1,8,0:0:0:0:
201,146,99396,1,0,0:0:0:0:
200,135,99538,1,0,0:0:0:0:
204,140,99608,1,0,0:0:0:0:
201,146,99679,1,8,0:0:0:0:
200,135,99750,1,8,0:0:0:0:
200,135,99821,1,0,0:0:0:0:
201,146,99962,1,12,0:0:0:0:
192,134,100104,1,0,0:0:0:0:
192,134,100174,1,0,0:0:0:0:
196,137,100245,1,0,0:0:0:0:
194,136,100387,1,8,0:0:0:0:
194,136,100528,1,0,0:0:0:0:
194,136,100599,1,0,0:0:0:0:
194,136,100670,1,0,0:0:0:0:
260,141,100811,1,8,0:0:0:0:
240,146,101094,1,8,0:0:0:0:
201,131,101236,1,0,0:0:0:0:
240,146,101377,1,8,0:0:0:0:
239,146,101519,1,8,0:0:0:0:
243,140,101589,1,8,0:0:0:0:
237,140,101660,1,8,0:0:0:0:
239,146,101802,1,8,0:0:0:0:
240,146,101943,1,0,0:0:0:0:
243,140,102014,1,8,0:0:0:0:
240,146,102085,1,0,0:0:0:0:
228,143,102226,1,12,0:0:0:0:
227,143,102509,1,0,0:0:0:0:
218,138,102651,1,8,0:0:0:0:
218,138,102934,1,0,0:0:0:0:
218,138,103075,1,8,0:0:0:0:
218,138,103217,1,8,0:0:0:0:
218,138,103358,1,0,0:0:0:0:
218,138,103500,1,0,0:0:0:0:
218,138,103641,1,8,0:0:0:0:
218,138,103783,1,0,0:0:0:0:
218,138,103924,1,8,0:0:0:0:
159,140,103995,1,8,0:0:0:0:
212,129,104066,1,0,0:0:0:0:
204,128,104137,1,0,0:0:0:0:
218,138,104207,1,8,0:0:0:0:
211,128,104278,1,8,0:0:0:0:
211,128,104349,1,0,0:0:0:0:
202,128,104490,1,12,0:0:0:0:
222,119,104632,1,0,0:0:0:0:
232,110,104703,1,0,0:0:0:0:
225,119,104773,1,0,0:0:0:0:
218,138,104915,1,8,0:0:0:0:
225,119,105056,1,0,0:0:0:0:
224,114,105127,1,0,0:0:0:0:
223,114,105198,1,0,0:0:0:0:
219,134,105339,1,8,0:0:0:0:
185,171,105623,1,0,0:0:0:0:
190,173,105764,1,0,0:0:0:0:
191,173,105906,1,8,0:0:0:0:
191,172,106047,1,8,0:0:0:0:
192,172,106330,1,8,0:0:0:0:
192,172,106472,1,8,0:0:0:0:
192,172,106613,1,0,0:0:0:0:
190,173,106755,1,12,0:0:0:0:
176,160,106896,1,0,0:0:0:0:
191,172,107038,1,0,0:0:0:0:
192,172,107179,1,12,0:0:0:0:
192,172,107462,1,0,0:0:0:0:
192,172,107604,1,8,0:0:0:0:
190,173,107745,1,0,0:0:0:0:
149,161,107887,1,8,0:0:0:0:
197,172,109019,1,0,0:0:0:0:
248,147,109302,1,8,0:0:0:0:
241,147,109443,1,0,0:0:0:0:
241,147,109514,1,8,0:0:0:0:
241,147,109585,1,0,0:0:0:0:
243,151,109726,1,0,0:0:0:0:
241,147,109868,1,8,0:0:0:0:
237,151,110009,1,8,0:0:0:0:
92,80,110151,1,0,0:0:0:0:
237,153,110292,1,0,0:0:0:0:
244,153,110434,1,8,0:0:0:0:
241,147,110575,1,0,0:0:0:0:
252,161,110646,1,0,0:0:0:0:
298,148,110717,1,8,0:0:0:0:
259,158,110788,1,8,0:0:0:0:
259,158,110858,1,0,0:0:0:0:
241,147,111000,1,8,0:0:0:0:
256,158,111141,1,8,0:0:0:0:
241,147,111283,1,0,0:0:0:0:
241,147,111566,1,8,0:0:0:0:
241,147,111707,1,8,0:0:0:0:
240,149,111778,1,0,0:0:0:0:
239,149,111849,1,8,0:0:0:0:
241,147,111920,1,8,0:0:0:0:
241,147,111990,1,0,0:0:0:0:
241,147,112132,1,8,0:0:0:0:
234,144,112273,1,0,0:0:0:0:
226,147,112415,1,8,0:0:0:0:
235,147,112556,1,0,0:0:0:0:
239,151,112627,1,0,0:0:0:0:
238,155,112698,1,8,0:0:0:0:
228,142,112839,1,0,0:0:0:0:
220,153,112887,1,0,0:0:0:0:
220,153,112934,1,0,0:0:0:0:
220,144,112981,1,8,0:0:0:0:
228,142,113123,1,8,0:0:0:0:
153,124,113547,1,4,0:0:0:0:
159,130,113830,1,0,0:0:0:0:
159,130,114113,1,8,0:0:0:0:
159,130,114396,1,0,0:0:0:0:
202,124,114538,1,8,0:0:0:0:
159,130,114679,1,0,0:0:0:0:
159,130,114962,1,0,0:0:0:0:
159,130,115104,1,0,0:0:0:0:
159,130,115245,1,8,0:0:0:0:
159,130,115387,1,8,0:0:0:0:
159,130,115528,1,0,0:0:0:0:
159,130,115670,1,8,0:0:0:0:
159,130,115811,1,0,0:0:0:0:
159,130,116094,1,0,0:0:0:0:
77,136,116236,1,0,0:0:0:0:
184,142,116306,1,0,0:0:0:0:
159,130,116377,1,8,0:0:0:0:
159,130,116660,1,0,0:0:0:0:
108,125,116802,1,8,0:0:0:0:
104,136,116943,1,0,0:0:0:0:
105,147,117085,1,0,0:0:0:0:
159,130,117226,1,8,0:0:0:0:
73,160,117368,1,0,0:0:0:0:
159,130,118075,1,4,0:0:0:0:
159,130,118358,1,0,0:0:0:0:
159,130,118641,1,8,0:0:0:0:
159,130,118924,1,0,0:0:0:0:
158,135,119066,1,8,0:0:0:0:
159,130,119207,1,0,0:0:0:0:
159,130,119490,1,0,0:0:0:0:
159,130,119632,1,0,0:0:0:0:
159,130,119773,1,8,0:0:0:0:
159,130,119915,1,0,0:0:0:0:
159,130,120056,1,8,0:0:0:0:
159,130,120198,1,8,0:0:0:0:
159,130,120339,1,0,0:0:0:0:
161,142,120481,1,8,0:0:0:0:
167,132,120552,1,8,0:0:0:0:
159,130,120623,1,8,0:0:0:0:
203,138,120764,1,0,0:0:0:0:
147,140,120906,1,8,0:0:0:0:
177,146,120976,1,8,0:0:0:0:
196,126,121047,1,8,0:0:0:0:
147,140,121189,1,0,0:0:0:0:
236,111,121330,1,8,0:0:0:0:
155,138,121613,1,0,0:0:0:0:
169,127,121755,1,8,0:0:0:0:
198,141,121896,1,0,0:0:0:0:
158,137,122038,1,8,0:0:0:0:
158,137,122179,1,8,0:0:0:0:
158,137,122321,1,8,0:0:0:0:
153,138,122462,1,8,0:0:0:0:
192,131,123453,1,0,0:0:0:0:
192,131,123736,1,8,0:0:0:0:
192,131,124019,1,0,0:0:0:0:
192,131,124302,1,8,0:0:0:0:
192,131,124585,1,0,0:0:0:0:
192,131,124726,1,8,0:0:0:0:
192,131,125009,1,8,0:0:0:0:
192,131,125292,1,8,0:0:0:0:
192,131,125434,1,0,0:0:0:0:
185,135,125717,1,8,0:0:0:0:
185,135,126000,1,0,0:0:0:0:
185,135,126283,1,8,0:0:0:0:
185,135,126424,1,0,0:0:0:0:
185,135,126495,1,0,0:0:0:0:
185,135,126566,1,8,0:0:0:0:
185,135,126849,1,8,0:0:0:0:
185,135,126990,1,8,0:0:0:0:
185,125,127061,1,8,0:0:0:0:
156,144,127132,1,0,0:0:0:0:
185,135,127273,1,8,0:0:0:0:
185,135,127415,1,0,0:0:0:0:
185,135,127556,1,0,0:0:0:0:
185,135,127698,1,8,0:0:0:0:
187,114,127910,1,0,0:0:0:0:
187,121,127981,1,8,0:0:0:0:
185,135,128122,1,8,0:0:0:0:
185,135,128264,1,4,0:0:0:0:
165,120,128547,1,0,0:0:0:0:
165,120,128688,1,8,0:0:0:0:
166,120,128830,1,0,0:0:0:0:
166,120,129113,1,8,0:0:0:0:
166,120,129254,1,0,0:0:0:0:
160,135,129396,1,8,0:0:0:0:
165,120,129537,1,8,0:0:0:0:
166,120,129820,1,8,0:0:0:0:
166,120,129962,1,0,0:0:0:0:
166,120,130245,1,8,0:0:0:0:
165,120,130528,1,4,0:0:0:0:
166,120,130811,1,8,0:0:0:0:
166,120,131094,1,8,0:0:0:0:
165,120,131377,1,8,0:0:0:0:
165,120,131519,1,0,0:0:0:0:
105,120,131589,1,0,0:0:0:0:
166,120,131660,1,8,0:0:0:0:
195,124,132509,1,0,0:0:0:0:
245,119,132792,1,12,0:0:0:0:
151,143,133004,1,8,0:0:0:0:
163,144,133075,1,0,0:0:0:0:
217,157,133217,1,0,0:0:0:0:
223,155,133358,1,8,0:0:0:0:
217,157,133500,1,0,0:0:0:0:
217,157,133570,1,8,0:0:0:0:
217,157,133641,1,0,0:0:0:0:
217,157,133783,1,12,0:0:0:0:
212,135,133924,1,0,0:0:0:0:
189,120,133995,1,8,0:0:0:0:
201,146,134066,1,0,0:0:0:0:
201,146,134136,1,0,0:0:0:0:
201,146,134207,1,8,0:0:0:0:
201,146,134278,1,0,0:0:0:0:
214,160,134349,1,8,0:0:0:0:
201,146,134490,1,8,0:0:0:0:
102,138,134561,1,8,0:0:0:0:
96,140,134632,1,0,0:0:0:0:
201,146,134702,1,0,0:0:0:0:
201,146,134773,1,8,0:0:0:0:
159,146,134915,1,0,0:0:0:0:
201,146,135056,1,4,0:0:0:0:
189,149,135269,1,0,0:0:0:0:
201,146,135339,1,8,0:0:0:0:
189,149,135481,1,0,0:0:0:0:
201,146,135622,1,8,0:0:0:0:
184,149,135693,1,8,0:0:0:0:
184,149,135764,1,0,0:0:0:0:
184,149,135835,1,0,0:0:0:0:
201,146,135905,1,8,0:0:0:0:
201,146,136047,1,4,0:0:0:0:
201,146,136330,1,0,0:0:0:0:
213,141,136401,1,0,0:0:0:0:
201,146,136471,1,8,0:0:0:0:
186,132,136542,1,0,0:0:0:0:
201,146,136613,1,8,0:0:0:0:
183,132,136684,1,8,0:0:0:0:
201,146,136754,1,0,0:0:0:0:
168,130,136896,1,0,0:0:0:0:
201,146,137037,1,8,0:0:0:0:
201,146,137108,1,8,0:0:0:0:
196,144,137179,1,8,0:0:0:0:
196,144,137250,1,8,0:0:0:0:
201,146,137320,1,4,0:0:0:0:
204,138,137533,1,0,0:0:0:0:
201,146,137603,1,8,0:0:0:0:
200,137,137745,1,0,0:0:0:0:
179,159,137816,1,0,0:0:0:0:
200,135,137886,1,8,0:0:0:0:
195,140,137957,1,0,0:0:0:0:
200,135,138028,1,8,0:0:0:0:
200,135,138099,1,8,0:0:0:0:
201,146,138169,1,0,0:0:0:0:
201,146,138311,1,12,0:0:0:0:
209,149,138452,1,0,0:0:0:0:
187,128,138523,1,8,0:0:0:0:
201,146,138594,1,0,0:0:0:0:
201,146,138735,1,8,0:0:0:0:
187,128,138806,1,8,0:0:0:0:
201,146,138877,1,0,0:0:0:0:
200,135,138948,1,0,0:0:0:0:
201,146,139019,1,8,0:0:0:0:
196,140,139160,1,0,0:0:0:0:
201,146,139302,1,8,0:0:0:0:
195,139,139372,1,8,0:0:0:0:
196,136,139443,1,8,0:0:0:0:
201,146,139585,1,4,0:0:0:0:
194,140,139797,1,0,0:0:0:0:
201,146,139868,1,8,0:0:0:0:
190,140,140009,1,0,0:0:0:0:
201,146,140151,1,8,0:0:0:0:
188,135,140221,1,0,0:0:0:0:
188,135,140292,1,0,0:0:0:0:
188,135,140363,1,0,0:0:0:0:
201,146,140434,1,8,0:0:0:0:
201,146,140575,1,4,0:0:0:0:
201,146,140858,1,0,0:0:0:0:
201,146,141000,1,8,0:0:0:0:
191,134,141070,1,0,0:0:0:0:
201,146,141141,1,8,0:0:0:0:
197,133,141212,1,8,0:0:0:0:
201,146,141283,1,0,0:0:0:0:
200,135,141424,1,0,0:0:0:0:
204,140,141495,1,0,0:0:0:0:
201,146,141566,1,8,0:0:0:0:
200,135,141636,1,8,0:0:0:0:
200,135,141707,1,0,0:0:0:0:
201,146,141849,1,12,0:0:0:0:
192,134,141990,1,0,0:0:0:0:
192,134,142061,1,0,0:0:0:0:
196,137,142132,1,0,0:0:0:0:
179,159,142202,1,0,0:0:0:0:
194,136,142273,1,8,0:0:0:0:
194,136,142415,1,0,0:0:0:0:
194,136,142485,1,0,0:0:0:0:
194,136,142556,1,0,0:0:0:0:
195,138,142627,1,0,0:0:0:0:
260,141,142698,1,8,0:0:0:0:
240,146,142981,1,8,0:0:0:0:
201,131,143122,1,0,0:0:0:0:
240,146,143264,1,8,0:0:0:0:
243,140,143335,1,0,0:0:0:0:
239,146,143405,1,8,0:0:0:0:
237,140,143547,1,0,0:0:0:0:
239,146,143688,1,8,0:0:0:0:
240,146,143830,1,0,0:0:0:0:
243,140,143901,1,8,0:0:0:0:
240,146,143971,1,0,0:0:0:0:
228,143,144113,1,12,0:0:0:0:
227,143,144396,1,0,0:0:0:0:
218,138,144537,1,8,0:0:0:0:
218,138,144820,1,0,0:0:0:0:
218,138,144962,1,8,0:0:0:0:
218,138,145103,1,8,0:0:0:0:
218,138,145245,1,0,0:0:0:0:
218,138,145386,1,0,0:0:0:0:
218,138,145528,1,8,0:0:0:0:
218,138,145669,1,0,0:0:0:0:
218,138,145811,1,8,0:0:0:0:
179,149,145882,1,8,0:0:0:0:
212,129,145952,1,8,0:0:0:0:
204,128,146023,1,0,0:0:0:0:
218,138,146094,1,8,0:0:0:0:
211,128,146165,1,8,0:0:0:0:
211,128,146235,1,0,0:0:0:0:
202,128,146377,1,12,0:0:0:0:
222,119,146519,1,0,0:0:0:0:
232,110,146589,1,0,0:0:0:0:
225,119,146660,1,8,0:0:0:0:
229,131,146731,1,8,0:0:0:0:
218,138,146802,1,0,0:0:0:0:
225,119,146943,1,8,0:0:0:0:
224,114,147014,1,8,0:0:0:0:
223,114,147085,1,0,0:0:0:0:
233,123,147155,1,0,0:0:0:0:
219,134,147226,1,8,0:0:0:0:
207,129,147368,1,0,0:0:0:0:
185,171,147509,1,8,0:0:0:0:
190,173,147651,1,0,0:0:0:0:
191,173,147792,1,8,0:0:0:0:
191,172,147934,1,8,0:0:0:0:
192,172,148217,1,8,0:0:0:0:
192,172,148358,1,8,0:0:0:0:
192,172,148500,1,0,0:0:0:0:
190,173,148641,1,12,0:0:0:0:
191,172,148924,1,0,0:0:0:0:
192,172,149066,1,12,0:0:0:0:
192,172,149349,1,0,0:0:0:0:
192,172,149490,1,8,0:0:0:0:
190,173,149632,1,0,0:0:0:0:
126,183,149773,1,12,0:0:0:0:
201,169,149915,1,0,0:0:0:0:
201,169,150056,1,12,0:0:0:0:
201,169,150198,1,0,0:0:0:0:
201,169,150339,1,0,0:0:0:0:
190,173,150410,1,0,0:0:0:0:
201,169,150481,1,8,0:0:0:0:
201,169,150622,1,8,0:0:0:0:
163,167,150764,1,0,0:0:0:0:
216,161,150905,1,8,0:0:0:0:
222,165,150976,1,8,0:0:0:0:
216,161,151047,1,8,0:0:0:0:
222,165,151118,1,8,0:0:0:0:
215,159,151188,1,0,0:0:0:0:
283,158,151259,1,0,0:0:0:0:
216,161,151330,1,8,0:0:0:0:
216,161,151401,1,8,0:0:0:0:
216,161,151471,1,8,0:0:0:0:
217,161,151542,1,8,0:0:0:0:
217,161,151613,1,0,0:0:0:0:
216,161,151684,1,0,0:0:0:0:
216,161,151754,1,8,0:0:0:0:
216,161,151896,1,0,0:0:0:0:
208,161,152037,1,8,0:0:0:0:
208,161,152179,1,0,0:0:0:0:
208,161,152320,1,8,0:0:0:0:
213,151,152391,1,0,0:0:0:0:
208,161,152462,1,8,0:0:0:0:
208,161,152603,1,0,0:0:0:0:
208,161,152745,1,0,0:0:0:0:
184,160,152816,1,0,0:0:0:0:
209,161,152886,1,8,0:0:0:0:
208,161,153028,1,0,0:0:0:0:
208,161,153169,1,12,0:0:0:0:
208,161,153311,1,0,0:0:0:0:
212,162,153452,1,0,0:0:0:0:
214,163,153594,1,12,0:0:0:0:
218,163,153877,1,0,0:0:0:0:
219,164,154019,1,8,0:0:0:0:
219,164,154160,1,8,0:0:0:0:
228,158,154231,1,8,0:0:0:0:
220,164,154302,1,0,0:0:0:0:
222,166,154443,1,0,0:0:0:0:
223,166,154585,1,8,0:0:0:0:
223,168,154726,1,0,0:0:0:0:
221,166,154797,1,0,0:0:0:0:
223,169,154868,1,8,0:0:0:0:
224,169,155151,1,0,0:0:0:0:
225,169,155292,1,0,0:0:0:0:
233,175,155363,1,0,0:0:0:0:
225,169,155434,1,8,0:0:0:0:
218,142,155504,1,8,0:0:0:0:
215,159,155575,1,0,0:0:0:0:
209,169,155646,1,0,0:0:0:0:
207,162,155717,1,0,0:0:0:0:
207,162,155787,1,0,0:0:0:0:
207,165,155858,1,8,0:0:0:0:
230,161,155929,1,8,0:0:0:0:
207,165,156000,1,0,0:0:0:0:
211,175,156070,1,0,0:0:0:0:
211,174,156141,1,0,0:0:0:0:
260,123,156212,1,0,0:0:0:0:
212,176,156283,1,8,0:0:0:0:
212,176,156424,1,0,0:0:0:0:
212,176,156566,1,8,0:0:0:0:
165,143,156636,1,8,0:0:0:0:
202,152,156707,1,0,0:0:0:0:
202,152,156849,1,0,0:0:0:0:
202,152,156990,1,12,0:0:0:0:
202,152,157273,1,0,0:0:0:0:
202,152,157415,1,12,0:0:0:0:
202,152,157556,1,0,0:0:0:0:
214,169,157698,1,8,0:0:0:0:
214,169,157769,1,0,0:0:0:0:
214,169,157839,1,0,0:0:0:0:
214,169,157910,1,0,0:0:0:0:
214,169,157981,1,8,0:0:0:0:
214,169,158052,1,0,0:0:0:0:
214,169,158122,1,8,0:0:0:0:
214,169,158193,1,8,0:0:0:0:
214,169,158264,1,0,0:0:0:0:
214,169,158335,1,0,0:0:0:0:
214,169,158405,1,8,0:0:0:0:
214,169,158476,1,0,0:0:0:0:
214,169,158547,1,8,0:0:0:0:
214,169,158618,1,8,0:0:0:0:
214,169,158688,1,8,0:0:0:0:
214,169,158759,1,8,0:0:0:0:
214,169,158830,1,0,0:0:0:0:
214,169,158971,1,0,0:0:0:0:
214,169,159113,1,8,0:0:0:0:
214,169,159254,1,8,0:0:0:0:
203,156,159396,1,0,0:0:0:0:
203,156,159679,1,8,0:0:0:0:
203,156,159962,1,0,0:0:0:0:
203,156,160245,1,0,0:0:0:0:
203,156,160528,1,8,0:0:0:0:
203,156,160811,1,8,0:0:0:0:
203,156,161094,1,0,0:0:0:0:
203,156,161377,1,8,0:0:0:0:
203,156,161519,1,8,0:0:0:0:
203,156,161660,1,0,0:0:0:0:
203,156,161802,1,0,0:0:0:0:
203,156,161943,1,8,0:0:0:0:
203,156,162085,1,8,0:0:0:0:
203,156,162226,1,0,0:0:0:0:
203,156,162509,1,8,0:0:0:0:
203,156,162792,1,8,0:0:0:0:
203,156,163075,1,8,0:0:0:0:
203,156,163358,1,0,0:0:0:0:
203,156,163641,1,8,0:0:0:0:
203,156,163783,1,0,0:0:0:0:
203,156,163924,1,8,0:0:0:0:
203,156,164207,1,8,0:0:0:0:
