osu file format v14

[General]
AudioFilename: audio.ogg
AudioLeadIn: 0
PreviewTime: 45311
Countdown: 0
SampleSet: Normal
StackLeniency: 0.7
Mode: 1
LetterboxInBreaks: 0
WidescreenStoryboard: 1

[Editor]
DistanceSpacing: 1
BeatDivisor: 12
GridSize: 4
TimelineZoom: 1.299999

[Metadata]
Title:Chimera feat. Hatsune Miku
TitleUnicode:キメラ feat. 初音ミク
Artist:DECO*27
ArtistUnicode:DECO*27
Creator:Miyoi
Version:Futsuu
Source:
Tags:Midnaait Reficul Chromoxx TKS Rock Japanese Electronic Jrock J-Rock Vocaloid デコニーナ Deco Niina DECO27 Rockwell KARENT
BeatmapID:3602508
BeatmapSetID:1740454

[Difficulty]
HPDrainRate:6.5
CircleSize:2
OverallDifficulty:4
ApproachRate:9
SliderMultiplier:1.4
SliderTickRate:1

[Events]
//Background and Video events
0,0,"97354562_p0.png",0,0
//Break Periods
//Storyboard Layer 0 (Background)
//Storyboard Layer 1 (Fail)
//Storyboard Layer 2 (Pass)
//Storyboard Layer 3 (Foreground)
//Storyboard Layer 4 (Overlay)
//Storyboard Sound Samples

[TimingPoints]
340,283.018867924528,4,1,0,85,1,0
45304,-100,4,1,0,85,0,0
45623,-100,4,1,0,85,0,1
62604,-100,4,1,0,85,0,0
90906,-100,4,1,0,85,0,1
107887,-100,4,1,0,85,0,0
117474,-100,4,1,0,40,0,0
118040,-100,4,1,0,85,0,0
123736,283.018867924528,4,1,0,85,1,0
132792,-100,4,1,0,85,0,1
159962,-100,4,1,0,85,0,0

[HitObjects]
205,152,340,5,0,0:0:0:0:
229,127,764,1,0,0:0:0:0:
229,127,1189,1,8,0:0:0:0:
217,195,1472,1,0,0:0:0:0:
217,195,1755,1,0,0:0:0:0:
333,144,2038,1,8,0:0:0:0:
255,131,2604,1,8,0:0:0:0:
215,114,3028,1,8,0:0:0:0:
215,114,3453,1,0,0:0:0:0:
319,149,3736,1,8,0:0:0:0:
319,149,4019,1,8,0:0:0:0:
223,103,4302,1,0,0:0:0:0:
131,171,5009,1,4,0:0:0:0:
339,137,5434,1,8,0:0:0:0:
251,167,5858,1,8,0:0:0:0:
219,195,6283,1,8,0:0:0:0:
235,189,6566,1,0,0:0:0:0:
235,189,6707,1,0,0:0:0:0:
263,193,6849,1,8,0:0:0:0:
152,168,7132,1,0,0:0:0:0:
358,150,7273,1,0,0:0:0:0:
265,141,7698,1,8,0:0:0:0:
267,133,8123,1,8,0:0:0:0:
224,201,8547,1,8,0:0:0:0:
230,141,8830,1,0,0:0:0:0:
213,220,9396,1,0,0:0:0:0:
379,203,9538,1,0,0:0:0:0:
313,197,9679,1,8,0:0:0:0:
164,179,9962,1,0,0:0:0:0:
292,130,10245,1,8,0:0:0:0:
272,139,10387,1,0,0:0:0:0:
133,153,10670,1,0,0:0:0:0:
133,153,10811,1,8,0:0:0:0:
239,137,11094,1,0,0:0:0:0:
212,128,11377,1,8,0:0:0:0:
222,122,11660,1,0,0:0:0:0:
188,170,12085,1,8,0:0:0:0:
188,170,12509,1,8,0:0:0:0:
255,140,12792,1,0,0:0:0:0:
293,134,13075,1,8,0:0:0:0:
319,171,13358,1,0,0:0:0:0:
319,171,13500,1,0,0:0:0:0:
245,148,13641,1,8,0:0:0:0:
199,159,13924,1,4,0:0:0:0:
246,130,16189,1,4,0:0:0:0:
234,119,16472,1,8,0:0:0:0:
255,134,16755,1,0,0:0:0:0:
255,134,17038,1,8,0:0:0:0:
301,160,17321,1,0,0:0:0:0:
301,160,17745,1,0,0:0:0:0:
275,228,17887,1,0,0:0:0:0:
298,209,18170,1,8,0:0:0:0:
206,173,18453,1,0,0:0:0:0:
299,143,18736,1,8,0:0:0:0:
194,161,19019,1,0,0:0:0:0:
341,148,19160,1,8,0:0:0:0:
274,110,19443,1,8,0:0:0:0:
164,156,19585,1,0,0:0:0:0:
351,227,19868,1,8,0:0:0:0:
371,118,20151,1,0,0:0:0:0:
243,76,20717,1,8,0:0:0:0:
263,197,21000,1,0,0:0:0:0:
235,94,21141,1,8,0:0:0:0:
263,197,21283,1,8,0:0:0:0:
236,106,21566,1,0,0:0:0:0:
263,197,21707,1,0,0:0:0:0:
282,191,22132,1,0,0:0:0:0:
282,191,22415,1,8,0:0:0:0:
359,189,22981,1,8,0:0:0:0:
220,131,23264,1,0,0:0:0:0:
213,160,23547,1,8,0:0:0:0:
299,142,23689,1,8,0:0:0:0:
299,142,23830,1,8,0:0:0:0:
319,126,24113,1,0,0:0:0:0:
290,124,24396,1,0,0:0:0:0:
290,124,24679,1,8,0:0:0:0:
249,124,25245,1,4,0:0:0:0:
225,163,25528,1,8,0:0:0:0:
368,130,25811,1,0,0:0:0:0:
250,235,26094,1,8,0:0:0:0:
335,105,26377,1,0,0:0:0:0:
152,94,26802,1,8,0:0:0:0:
93,169,26943,1,8,0:0:0:0:
277,99,27226,1,0,0:0:0:0:
239,148,27368,1,8,0:0:0:0:
239,148,27509,1,0,0:0:0:0:
343,159,27792,1,8,0:0:0:0:
244,195,28075,1,0,0:0:0:0:
190,218,28217,1,8,0:0:0:0:
370,207,28500,1,8,0:0:0:0:
259,155,28641,1,0,0:0:0:0:
280,200,28924,1,8,0:0:0:0:
337,165,29207,1,0,0:0:0:0:
295,122,29773,1,8,0:0:0:0:
225,153,30056,1,0,0:0:0:0:
365,209,30198,1,0,0:0:0:0:
365,209,30339,1,8,0:0:0:0:
363,204,30623,1,8,0:0:0:0:
304,123,30764,1,8,0:0:0:0:
304,123,31189,1,8,0:0:0:0:
385,120,31472,1,0,0:0:0:0:
324,162,32038,1,8,0:0:0:0:
301,176,32321,1,8,0:0:0:0:
339,156,32604,1,0,0:0:0:0:
295,194,32745,1,0,0:0:0:0:
295,194,32887,1,8,0:0:0:0:
260,179,33170,1,0,0:0:0:0:
260,179,33453,1,8,0:0:0:0:
297,145,33594,1,8,0:0:0:0:
260,179,33736,1,0,0:0:0:0:
275,142,34019,1,8,0:0:0:0:
343,168,34302,1,4,0:0:0:0:
306,174,34868,1,8,0:0:0:0:
308,179,35434,1,0,0:0:0:0:
191,138,35717,1,0,0:0:0:0:
319,97,36000,1,8,0:0:0:0:
308,179,36283,1,8,0:0:0:0:
275,158,36566,1,4,0:0:0:0:
324,158,37132,1,8,0:0:0:0:
239,128,37556,1,0,0:0:0:0:
277,158,37698,1,8,0:0:0:0:
286,194,37981,1,0,0:0:0:0:
296,150,38264,1,8,0:0:0:0:
191,150,38406,1,0,0:0:0:0:
265,113,38830,1,4,0:0:0:0:
217,140,39396,1,8,0:0:0:0:
278,180,39962,1,0,0:0:0:0:
350,192,40245,1,0,0:0:0:0:
297,194,40528,1,8,0:0:0:0:
293,207,40811,1,8,0:0:0:0:
256,171,41094,1,0,0:0:0:0:
256,171,41236,1,0,0:0:0:0:
352,187,41377,1,8,0:0:0:0:
362,130,41660,1,0,0:0:0:0:
344,139,41943,1,8,0:0:0:0:
306,199,42085,1,8,0:0:0:0:
271,102,42509,1,0,0:0:0:0:
191,159,42792,1,8,0:0:0:0:
191,159,42934,1,8,0:0:0:0:
191,159,43075,1,8,0:0:0:0:
191,159,43217,1,8,0:0:0:0:
209,166,45339,1,8,0:0:0:0:
261,139,45623,1,4,0:0:0:0:
278,153,45906,1,8,0:0:0:0:
356,180,46189,1,8,0:0:0:0:
293,285,46472,1,0,0:0:0:0:
294,278,46613,1,8,0:0:0:0:
237,132,46896,1,8,0:0:0:0:
276,152,47179,1,8,0:0:0:0:
396,203,47321,1,0,0:0:0:0:
371,221,47604,1,8,0:0:0:0:
211,127,47887,1,4,0:0:0:0:
243,188,48170,1,0,0:0:0:0:
208,127,48453,1,8,0:0:0:0:
218,239,48736,1,8,0:0:0:0:
233,222,48877,1,0,0:0:0:0:
363,146,49160,1,8,0:0:0:0:
341,140,49302,1,0,0:0:0:0:
341,140,49443,1,0,0:0:0:0:
281,103,49585,1,8,0:0:0:0:
234,163,50151,1,4,0:0:0:0:
246,159,50434,1,8,0:0:0:0:
268,156,50717,1,0,0:0:0:0:
237,131,51000,1,8,0:0:0:0:
248,144,51141,1,0,0:0:0:0:
202,144,51424,1,0,0:0:0:0:
310,160,51707,1,0,0:0:0:0:
386,199,51849,1,8,0:0:0:0:
299,156,52132,1,8,0:0:0:0:
212,110,52415,1,4,0:0:0:0:
271,155,52698,1,0,0:0:0:0:
225,111,52981,1,8,0:0:0:0:
271,155,53264,1,8,0:0:0:0:
225,111,53406,1,0,0:0:0:0:
249,179,53689,1,0,0:0:0:0:
258,183,53830,1,8,0:0:0:0:
326,151,53972,1,8,0:0:0:0:
326,151,54113,1,0,0:0:0:0:
213,151,54679,1,12,0:0:0:0:
211,166,55104,1,8,0:0:0:0:
211,166,55528,1,8,0:0:0:0:
223,192,55811,1,0,0:0:0:0:
142,203,56094,1,8,0:0:0:0:
142,203,56236,1,8,0:0:0:0:
179,132,56519,1,0,0:0:0:0:
316,147,56660,1,0,0:0:0:0:
292,136,56943,1,12,0:0:0:0:
269,162,57368,1,8,0:0:0:0:
304,155,57651,1,0,0:0:0:0:
325,119,57792,1,0,0:0:0:0:
283,175,58075,1,8,0:0:0:0:
283,175,58217,1,8,0:0:0:0:
227,183,58358,1,0,0:0:0:0:
340,166,58500,1,0,0:0:0:0:
363,182,58641,1,8,0:0:0:0:
253,163,59207,1,12,0:0:0:0:
253,163,59632,1,8,0:0:0:0:
253,163,60056,1,8,0:0:0:0:
265,223,60339,1,0,0:0:0:0:
253,137,60623,1,8,0:0:0:0:
324,135,60764,1,8,0:0:0:0:
220,114,61047,1,0,0:0:0:0:
368,215,61189,1,0,0:0:0:0:
213,146,61472,1,12,0:0:0:0:
172,209,61896,1,8,0:0:0:0:
257,127,62179,1,0,0:0:0:0:
257,127,62321,1,0,0:0:0:0:
257,127,62604,1,8,0:0:0:0:
131,171,63877,1,4,0:0:0:0:
339,137,64302,1,8,0:0:0:0:
251,167,64726,1,8,0:0:0:0:
219,195,65151,1,8,0:0:0:0:
235,189,65434,1,0,0:0:0:0:
235,189,65575,1,0,0:0:0:0:
263,193,65717,1,8,0:0:0:0:
244,119,66000,1,0,0:0:0:0:
152,168,66141,1,0,0:0:0:0:
313,139,66566,1,8,0:0:0:0:
210,210,66990,1,8,0:0:0:0:
224,201,67415,1,8,0:0:0:0:
230,141,67698,1,0,0:0:0:0:
213,220,68264,1,0,0:0:0:0:
379,203,68406,1,0,0:0:0:0:
313,197,68547,1,8,0:0:0:0:
164,179,68830,1,0,0:0:0:0:
292,130,69113,1,8,0:0:0:0:
272,139,69255,1,0,0:0:0:0:
133,153,69538,1,0,0:0:0:0:
133,153,69679,1,0,0:0:0:0:
239,137,69962,1,8,0:0:0:0:
222,122,70528,1,0,0:0:0:0:
264,171,70953,1,8,0:0:0:0:
272,170,71377,1,0,0:0:0:0:
273,169,71802,1,8,0:0:0:0:
230,211,72792,1,0,0:0:0:0:
220,180,73358,1,8,0:0:0:0:
351,156,74207,1,0,0:0:0:0:
351,156,74490,1,8,0:0:0:0:
385,201,75056,1,0,0:0:0:0:
227,172,75623,1,8,0:0:0:0:
252,183,75906,1,0,0:0:0:0:
252,183,76472,1,0,0:0:0:0:
252,183,76755,1,8,0:0:0:0:
287,183,77321,1,0,0:0:0:0:
287,183,77887,1,8,0:0:0:0:
302,182,78736,1,0,0:0:0:0:
302,182,79019,1,8,0:0:0:0:
310,191,79585,1,0,0:0:0:0:
314,197,80151,1,8,0:0:0:0:
314,197,80434,1,8,0:0:0:0:
341,203,80717,1,0,0:0:0:0:
232,199,81849,1,4,0:0:0:0:
225,163,82132,1,8,0:0:0:0:
368,130,82415,1,0,0:0:0:0:
250,235,82698,1,8,0:0:0:0:
335,105,82981,1,0,0:0:0:0:
152,94,83406,1,8,0:0:0:0:
93,169,83547,1,8,0:0:0:0:
277,99,83830,1,0,0:0:0:0:
239,148,83972,1,8,0:0:0:0:
239,148,84113,1,0,0:0:0:0:
343,159,84396,1,8,0:0:0:0:
244,195,84679,1,0,0:0:0:0:
190,218,84821,1,0,0:0:0:0:
370,207,85104,1,8,0:0:0:0:
280,200,85528,1,8,0:0:0:0:
337,165,85811,1,0,0:0:0:0:
295,122,86377,1,0,0:0:0:0:
225,153,86660,1,8,0:0:0:0:
365,209,86943,1,0,0:0:0:0:
365,209,87085,1,0,0:0:0:0:
363,204,87226,1,8,0:0:0:0:
333,210,87368,1,8,0:0:0:0:
304,123,87792,1,8,0:0:0:0:
385,120,88075,1,0,0:0:0:0:
324,162,88641,1,0,0:0:0:0:
301,176,88924,1,8,0:0:0:0:
339,156,89207,1,0,0:0:0:0:
295,194,89349,1,0,0:0:0:0:
295,194,89490,1,8,0:0:0:0:
260,179,89773,1,0,0:0:0:0:
290,113,90481,1,8,0:0:0:0:
290,113,90623,1,8,0:0:0:0:
261,139,90906,1,4,0:0:0:0:
278,153,91189,1,8,0:0:0:0:
356,180,91472,1,0,0:0:0:0:
293,285,91755,1,8,0:0:0:0:
294,278,91896,1,0,0:0:0:0:
237,132,92179,1,0,0:0:0:0:
276,152,92321,1,8,0:0:0:0:
276,152,92462,1,8,0:0:0:0:
396,203,92604,1,0,0:0:0:0:
371,221,92887,1,8,0:0:0:0:
211,127,93170,1,4,0:0:0:0:
243,188,93453,1,0,0:0:0:0:
208,127,93736,1,8,0:0:0:0:
218,239,94019,1,0,0:0:0:0:
233,222,94160,1,0,0:0:0:0:
363,146,94443,1,8,0:0:0:0:
341,140,94585,1,0,0:0:0:0:
341,140,94726,1,0,0:0:0:0:
281,103,94868,1,8,0:0:0:0:
234,163,95434,1,4,0:0:0:0:
246,159,95717,1,8,0:0:0:0:
268,156,96000,1,0,0:0:0:0:
237,131,96283,1,0,0:0:0:0:
248,144,96424,1,8,0:0:0:0:
202,144,96707,1,8,0:0:0:0:
310,160,96990,1,8,0:0:0:0:
386,199,97132,1,0,0:0:0:0:
299,156,97415,1,8,0:0:0:0:
212,110,97698,1,4,0:0:0:0:
271,155,97981,1,0,0:0:0:0:
225,111,98264,1,8,0:0:0:0:
271,155,98547,1,8,0:0:0:0:
225,111,98689,1,0,0:0:0:0:
249,179,98972,1,0,0:0:0:0:
258,183,99113,1,8,0:0:0:0:
326,151,99255,1,8,0:0:0:0:
326,151,99396,1,0,0:0:0:0:
213,151,99962,1,12,0:0:0:0:
211,166,100387,1,8,0:0:0:0:
211,166,100811,1,8,0:0:0:0:
223,192,101094,1,0,0:0:0:0:
142,203,101377,1,8,0:0:0:0:
142,203,101519,1,8,0:0:0:0:
149,126,101802,1,0,0:0:0:0:
316,147,101943,1,0,0:0:0:0:
292,136,102226,1,12,0:0:0:0:
269,162,102651,1,8,0:0:0:0:
304,155,102934,1,0,0:0:0:0:
325,119,103075,1,0,0:0:0:0:
283,175,103358,1,8,0:0:0:0:
283,175,103500,1,8,0:0:0:0:
227,183,103641,1,0,0:0:0:0:
340,166,103783,1,0,0:0:0:0:
255,171,103924,1,8,0:0:0:0:
253,163,104490,1,12,0:0:0:0:
253,163,104915,1,8,0:0:0:0:
253,163,105339,1,8,0:0:0:0:
265,223,105623,1,8,0:0:0:0:
347,122,105764,1,8,0:0:0:0:
253,137,105906,1,0,0:0:0:0:
324,135,106047,1,8,0:0:0:0:
368,215,106472,1,0,0:0:0:0:
213,146,106755,1,12,0:0:0:0:
172,209,107179,1,8,0:0:0:0:
257,127,107462,1,0,0:0:0:0:
257,127,107604,1,0,0:0:0:0:
257,127,107887,1,8,0:0:0:0:
309,196,109019,1,0,0:0:0:0:
305,190,109443,1,0,0:0:0:0:
305,190,109868,1,0,0:0:0:0:
305,190,110151,1,8,0:0:0:0:
305,190,110575,1,8,0:0:0:0:
305,190,111000,1,8,0:0:0:0:
305,190,111283,1,0,0:0:0:0:
242,200,111707,1,8,0:0:0:0:
244,196,112132,1,0,0:0:0:0:
256,120,112415,1,8,0:0:0:0:
226,162,112839,1,0,0:0:0:0:
310,148,112981,1,8,0:0:0:0:
310,148,113123,1,8,0:0:0:0:
343,168,113547,1,4,0:0:0:0:
306,174,114113,1,8,0:0:0:0:
308,179,114679,1,0,0:0:0:0:
191,138,114962,1,0,0:0:0:0:
319,97,115245,1,8,0:0:0:0:
316,142,115528,1,8,0:0:0:0:
275,158,115811,1,4,0:0:0:0:
236,168,116236,1,0,0:0:0:0:
324,158,116377,1,8,0:0:0:0:
239,128,116802,1,8,0:0:0:0:
277,158,116943,1,0,0:0:0:0:
277,158,117226,1,8,0:0:0:0:
265,113,118075,1,4,0:0:0:0:
217,140,118641,1,8,0:0:0:0:
278,180,119207,1,0,0:0:0:0:
350,192,119490,1,0,0:0:0:0:
297,194,119773,1,8,0:0:0:0:
265,160,120056,1,8,0:0:0:0:
256,171,120339,1,0,0:0:0:0:
256,171,120481,1,0,0:0:0:0:
352,187,120623,1,8,0:0:0:0:
362,130,120906,1,0,0:0:0:0:
344,139,121189,1,8,0:0:0:0:
306,199,121330,1,8,0:0:0:0:
271,102,121755,1,0,0:0:0:0:
191,159,122038,1,8,0:0:0:0:
191,159,122179,1,8,0:0:0:0:
191,159,122321,1,8,0:0:0:0:
191,159,122462,1,8,0:0:0:0:
297,248,123736,1,8,0:0:0:0:
297,248,124302,1,8,0:0:0:0:
297,244,124726,1,8,0:0:0:0:
297,244,125151,1,8,0:0:0:0:
297,244,125434,1,8,0:0:0:0:
297,244,126000,1,0,0:0:0:0:
212,207,126566,1,0,0:0:0:0:
307,151,126990,1,8,0:0:0:0:
293,171,127132,1,4,0:0:0:0:
307,151,127698,1,12,0:0:0:0:
194,167,128264,1,4,0:0:0:0:
194,167,128547,1,8,0:0:0:0:
306,184,128830,1,0,0:0:0:0:
261,207,129113,1,8,0:0:0:0:
261,207,129254,1,0,0:0:0:0:
325,167,129537,1,0,0:0:0:0:
325,167,129820,1,0,0:0:0:0:
325,167,129962,1,8,0:0:0:0:
238,158,130245,1,8,0:0:0:0:
238,158,130528,1,0,0:0:0:0:
348,175,130811,1,0,0:0:0:0:
348,175,131094,1,0,0:0:0:0:
348,175,131377,1,0,0:0:0:0:
409,163,131519,1,0,0:0:0:0:
373,174,131660,1,8,0:0:0:0:
217,140,132509,1,8,0:0:0:0:
261,139,132792,1,4,0:0:0:0:
278,153,133075,1,8,0:0:0:0:
356,180,133358,1,0,0:0:0:0:
293,285,133641,1,8,0:0:0:0:
294,278,133783,1,8,0:0:0:0:
237,132,134066,1,0,0:0:0:0:
276,152,134207,1,8,0:0:0:0:
276,152,134349,1,8,0:0:0:0:
396,203,134490,1,0,0:0:0:0:
371,221,134773,1,8,0:0:0:0:
211,127,135056,1,4,0:0:0:0:
243,188,135339,1,0,0:0:0:0:
208,127,135622,1,8,0:0:0:0:
218,239,135905,1,0,0:0:0:0:
233,222,136047,1,0,0:0:0:0:
363,146,136330,1,8,0:0:0:0:
341,140,136471,1,0,0:0:0:0:
341,140,136613,1,0,0:0:0:0:
281,103,136754,1,8,0:0:0:0:
234,163,137320,1,4,0:0:0:0:
246,159,137603,1,8,0:0:0:0:
268,156,137886,1,0,0:0:0:0:
237,131,138169,1,0,0:0:0:0:
248,144,138311,1,8,0:0:0:0:
202,144,138594,1,8,0:0:0:0:
310,160,138877,1,8,0:0:0:0:
386,199,139019,1,0,0:0:0:0:
299,156,139302,1,8,0:0:0:0:
212,110,139585,1,4,0:0:0:0:
271,155,139868,1,0,0:0:0:0:
225,111,140151,1,8,0:0:0:0:
271,155,140434,1,8,0:0:0:0:
225,111,140575,1,0,0:0:0:0:
249,179,140858,1,0,0:0:0:0:
258,183,141000,1,8,0:0:0:0:
326,151,141141,1,8,0:0:0:0:
326,151,141283,1,0,0:0:0:0:
213,151,141849,1,12,0:0:0:0:
211,166,142273,1,8,0:0:0:0:
211,166,142698,1,8,0:0:0:0:
223,192,142981,1,0,0:0:0:0:
142,203,143264,1,0,0:0:0:0:
142,203,143405,1,8,0:0:0:0:
166,129,143688,1,8,0:0:0:0:
316,147,143830,1,0,0:0:0:0:
292,136,144113,1,12,0:0:0:0:
269,162,144537,1,8,0:0:0:0:
304,155,144820,1,0,0:0:0:0:
325,119,144962,1,0,0:0:0:0:
283,175,145245,1,8,0:0:0:0:
283,175,145386,1,8,0:0:0:0:
227,183,145528,1,0,0:0:0:0:
325,119,145669,1,0,0:0:0:0:
255,171,145811,1,8,0:0:0:0:
253,163,146377,1,12,0:0:0:0:
253,163,146802,1,8,0:0:0:0:
253,163,147226,1,8,0:0:0:0:
265,223,147509,1,8,0:0:0:0:
347,122,147651,1,8,0:0:0:0:
253,137,147792,1,0,0:0:0:0:
324,135,147934,1,0,0:0:0:0:
347,122,148217,1,0,0:0:0:0:
368,215,148358,1,0,0:0:0:0:
213,146,148641,1,12,0:0:0:0:
172,209,149066,1,8,0:0:0:0:
257,127,149349,1,0,0:0:0:0:
257,127,149490,1,0,0:0:0:0:
257,127,149773,1,8,0:0:0:0:
402,161,149915,1,8,0:0:0:0:
385,160,150056,1,0,0:0:0:0:
329,157,150339,1,8,0:0:0:0:
248,99,150905,1,12,0:0:0:0:
316,189,151330,1,8,0:0:0:0:
397,160,151613,1,0,0:0:0:0:
216,202,151754,1,8,0:0:0:0:
259,112,152037,1,0,0:0:0:0:
268,103,152320,1,8,0:0:0:0:
193,150,152462,1,8,0:0:0:0:
252,145,152745,1,8,0:0:0:0:
371,179,152886,1,0,0:0:0:0:
379,170,153028,1,0,0:0:0:0:
257,138,153169,1,8,0:0:0:0:
236,222,153452,1,0,0:0:0:0:
294,222,153594,1,8,0:0:0:0:
173,113,153877,1,8,0:0:0:0:
357,139,154019,1,0,0:0:0:0:
161,119,154302,1,8,0:0:0:0:
173,113,154443,1,8,0:0:0:0:
364,139,154585,1,0,0:0:0:0:
294,149,154726,1,0,0:0:0:0:
323,130,154868,1,8,0:0:0:0:
273,129,155434,1,12,0:0:0:0:
327,144,155858,1,8,0:0:0:0:
259,142,156141,1,0,0:0:0:0:
292,149,156283,1,8,0:0:0:0:
205,168,156566,1,8,0:0:0:0:
262,208,156707,1,8,0:0:0:0:
246,151,156849,1,0,0:0:0:0:
262,208,156990,1,8,0:0:0:0:
262,208,157273,1,8,0:0:0:0:
262,208,157415,1,0,0:0:0:0:
286,169,157698,1,8,0:0:0:0:
223,162,157981,1,0,0:0:0:0:
335,151,158122,1,8,0:0:0:0:
183,155,158405,1,8,0:0:0:0:
307,135,158547,1,0,0:0:0:0:
307,135,158688,1,0,0:0:0:0:
202,184,158830,1,8,0:0:0:0:
231,141,159962,1,0,0:0:0:0:
200,143,160528,1,8,0:0:0:0:
200,143,161094,1,0,0:0:0:0:
343,177,161377,1,0,0:0:0:0:
225,105,161519,1,0,0:0:0:0:
269,115,161660,1,8,0:0:0:0:
269,115,161943,1,8,0:0:0:0:
273,131,162226,1,0,0:0:0:0:
273,131,162792,1,8,0:0:0:0:
273,131,163358,1,0,0:0:0:0:
273,131,163641,1,0,0:0:0:0:
273,131,163924,1,8,0:0:0:0:
273,131,164207,1,8,0:0:0:0:
