osu file format v14

[General]
AudioFilename: audio.ogg
AudioLeadIn: 0
PreviewTime: 45311
Countdown: 0
SampleSet: Normal
StackLeniency: 0.7
Mode: 1
LetterboxInBreaks: 0
WidescreenStoryboard: 1

[Editor]
DistanceSpacing: 1
BeatDivisor: 4
GridSize: 4
TimelineZoom: 2.299999

[Metadata]
Title:Chimera feat. Hatsune Miku
TitleUnicode:キメラ feat. 初音ミク
Artist:DECO*27
ArtistUnicode:DECO*27
Creator:Miyoi
Version:Chromoxx' Muzukashii
Source:
Tags:Midnaait Reficul Chromoxx TKS Rock Japanese Electronic Jrock J-Rock Vocaloid デコニーナ Deco Niina DECO27 Rockwell KARENT
BeatmapID:3590005
BeatmapSetID:1740454

[Difficulty]
HPDrainRate:6
CircleSize:6.9
OverallDifficulty:5
ApproachRate:6.9
SliderMultiplier:1.4
SliderTickRate:1

[Events]
//Background and Video events
0,0,"97354562_p0.png",0,0
//Break Periods
//Storyboard Layer 0 (Background)
//Storyboard Layer 1 (Fail)
//Storyboard Layer 2 (Pass)
//Storyboard Layer 3 (Foreground)
//Storyboard Layer 4 (Overlay)
//Storyboard Sound Samples

[TimingPoints]
340,283.018867924528,4,1,0,85,1,0
45304,-100,4,1,0,85,0,0
45623,-100,4,1,0,85,0,1
62604,-100,4,1,0,85,0,0
90906,-100,4,1,0,85,0,1
107887,-100,4,1,0,85,0,0
117474,-100,4,1,0,40,0,0
118040,-100,4,1,0,85,0,0
123736,283.018867924528,4,1,0,85,1,0
132792,-100,4,1,0,85,0,1
159962,-100,4,1,0,85,0,0

[HitObjects]
288,248,340,5,4,0:0:0:0:
256,262,764,1,8,0:0:0:0:
256,262,1047,1,0,0:0:0:0:
256,262,1330,1,8,0:0:0:0:
293,203,1613,1,0,0:0:0:0:
293,203,1755,1,8,0:0:0:0:
166,207,2038,1,0,0:0:0:0:
234,248,2604,1,12,0:0:0:0:
265,279,3028,1,0,0:0:0:0:
265,279,3311,1,8,0:0:0:0:
265,279,3594,1,0,0:0:0:0:
181,208,3877,1,8,0:0:0:0:
181,208,4019,1,0,0:0:0:0:
253,286,4302,1,8,0:0:0:0:
210,277,4443,1,0,0:0:0:0:
210,277,4585,1,8,0:0:0:0:
364,258,5009,1,4,0:0:0:0:
187,207,5292,1,0,0:0:0:0:
158,211,5434,1,8,0:0:0:0:
195,258,5575,1,0,0:0:0:0:
251,216,5717,1,0,0:0:0:0:
251,216,5858,1,8,0:0:0:0:
234,242,6141,1,0,0:0:0:0:
291,202,6283,1,8,0:0:0:0:
274,202,6566,1,0,0:0:0:0:
274,202,6707,1,0,0:0:0:0:
249,188,6849,1,8,0:0:0:0:
343,252,7273,1,12,0:0:0:0:
228,235,7556,1,8,0:0:0:0:
183,219,7698,1,0,0:0:0:0:
223,242,7839,1,8,0:0:0:0:
200,202,7981,1,8,0:0:0:0:
305,192,8123,1,0,0:0:0:0:
289,231,8406,1,8,0:0:0:0:
289,195,8547,1,0,0:0:0:0:
261,249,8830,1,8,0:0:0:0:
261,249,8972,1,8,0:0:0:0:
265,200,9113,1,0,0:0:0:0:
304,194,9255,1,8,0:0:0:0:
306,181,9396,1,0,0:0:0:0:
195,149,9467,1,0,0:0:0:0:
146,135,9538,1,0,0:0:0:0:
205,165,9679,1,12,0:0:0:0:
336,238,9962,1,0,0:0:0:0:
199,235,10245,1,8,0:0:0:0:
221,234,10387,1,0,0:0:0:0:
355,273,10670,1,0,0:0:0:0:
355,273,10811,1,8,0:0:0:0:
251,249,11094,1,8,0:0:0:0:
211,267,11236,1,8,0:0:0:0:
147,221,11306,1,8,0:0:0:0:
151,166,11377,1,8,0:0:0:0:
261,269,11660,1,4,0:0:0:0:
291,212,11943,1,8,0:0:0:0:
311,237,12085,1,0,0:0:0:0:
311,237,12368,1,0,0:0:0:0:
311,237,12509,1,8,0:0:0:0:
237,240,12792,1,0,0:0:0:0:
200,231,13075,1,8,0:0:0:0:
190,187,13358,1,0,0:0:0:0:
190,187,13500,1,0,0:0:0:0:
250,236,13641,1,8,0:0:0:0:
250,236,13783,1,8,0:0:0:0:
296,243,13924,1,0,0:0:0:0:
242,253,16189,1,4,0:0:0:0:
249,267,16472,1,8,0:0:0:0:
235,245,16755,1,0,0:0:0:0:
64,187,16896,1,0,0:0:0:0:
235,245,17038,1,8,0:0:0:0:
202,204,17321,1,0,0:0:0:0:
202,204,17604,1,8,0:0:0:0:
202,204,17745,1,8,0:0:0:0:
251,151,17887,1,0,0:0:0:0:
233,161,18028,1,0,0:0:0:0:
223,160,18170,1,8,0:0:0:0:
295,228,18453,1,0,0:0:0:0:
197,221,18736,1,8,0:0:0:0:
302,243,19019,1,0,0:0:0:0:
161,200,19160,1,0,0:0:0:0:
208,261,19302,1,8,0:0:0:0:
328,259,19585,1,0,0:0:0:0:
181,123,19868,1,8,0:0:0:0:
209,115,20009,1,8,0:0:0:0:
121,217,20151,1,0,0:0:0:0:
224,304,20717,1,8,0:0:0:0:
239,290,21000,1,0,0:0:0:0:
251,184,21283,1,8,0:0:0:0:
251,184,21424,1,8,0:0:0:0:
251,184,21566,1,0,0:0:0:0:
231,182,21849,1,8,0:0:0:0:
231,182,22132,1,0,0:0:0:0:
231,182,22273,1,0,0:0:0:0:
231,182,22415,1,8,0:0:0:0:
231,182,22556,1,8,0:0:0:0:
159,156,22698,1,0,0:0:0:0:
159,156,22981,1,8,0:0:0:0:
266,261,23264,1,0,0:0:0:0:
284,237,23547,1,8,0:0:0:0:
150,112,23618,1,8,0:0:0:0:
197,222,23689,1,8,0:0:0:0:
197,222,23830,1,0,0:0:0:0:
207,279,23972,1,0,0:0:0:0:
173,229,24113,1,8,0:0:0:0:
199,242,24396,1,8,0:0:0:0:
199,242,24679,1,8,0:0:0:0:
237,257,25245,1,4,0:0:0:0:
274,230,25528,1,8,0:0:0:0:
201,215,25670,1,8,0:0:0:0:
129,207,25811,1,0,0:0:0:0:
201,215,25953,1,0,0:0:0:0:
277,154,26094,1,8,0:0:0:0:
150,242,26377,1,0,0:0:0:0:
212,243,26660,1,8,0:0:0:0:
315,321,26802,1,0,0:0:0:0:
398,274,26943,1,8,0:0:0:0:
390,272,27085,1,8,0:0:0:0:
201,270,27226,1,0,0:0:0:0:
255,238,27368,1,8,0:0:0:0:
255,238,27509,1,0,0:0:0:0:
163,189,27792,1,8,0:0:0:0:
258,176,27934,1,8,0:0:0:0:
268,193,28075,1,0,0:0:0:0:
327,192,28217,1,0,0:0:0:0:
156,135,28358,1,8,0:0:0:0:
239,224,28641,1,0,0:0:0:0:
236,175,28924,1,8,0:0:0:0:
191,206,29066,1,8,0:0:0:0:
170,186,29207,1,0,0:0:0:0:
193,242,29773,1,8,0:0:0:0:
270,239,30056,1,0,0:0:0:0:
191,146,30198,1,0,0:0:0:0:
161,135,30339,1,8,0:0:0:0:
161,135,30481,1,8,0:0:0:0:
161,140,30623,1,0,0:0:0:0:
185,237,30906,1,8,0:0:0:0:
185,237,31189,1,0,0:0:0:0:
109,210,31330,1,8,0:0:0:0:
109,210,31472,1,0,0:0:0:0:
257,257,31613,1,0,0:0:0:0:
257,257,31755,1,8,0:0:0:0:
176,209,31896,1,0,0:0:0:0:
181,194,32038,1,8,0:0:0:0:
208,189,32321,1,0,0:0:0:0:
161,186,32462,1,0,0:0:0:0:
165,194,32604,1,8,0:0:0:0:
220,175,32745,1,8,0:0:0:0:
220,175,32887,1,0,0:0:0:0:
247,202,33170,1,8,0:0:0:0:
247,202,33453,1,8,0:0:0:0:
247,202,33736,1,8,0:0:0:0:
250,233,33877,1,8,0:0:0:0:
200,220,33948,1,8,0:0:0:0:
172,213,34019,1,8,0:0:0:0:
167,169,34160,1,8,0:0:0:0:
166,181,34302,1,4,0:0:0:0:
203,189,34868,1,8,0:0:0:0:
203,184,35292,1,8,0:0:0:0:
203,184,35434,1,0,0:0:0:0:
203,184,35575,1,0,0:0:0:0:
296,266,35717,1,8,0:0:0:0:
162,256,36000,1,0,0:0:0:0:
181,215,36141,1,0,0:0:0:0:
225,216,36566,1,12,0:0:0:0:
265,221,36990,1,0,0:0:0:0:
265,221,37061,1,0,0:0:0:0:
180,197,37132,1,0,0:0:0:0:
248,257,37556,1,8,0:0:0:0:
223,215,37698,1,0,0:0:0:0:
223,215,37839,1,0,0:0:0:0:
229,178,38123,1,8,0:0:0:0:
207,162,38193,1,8,0:0:0:0:
203,215,38264,1,8,0:0:0:0:
207,162,38406,1,8,0:0:0:0:
300,254,38689,1,8,0:0:0:0:
218,261,38830,1,4,0:0:0:0:
272,254,39396,1,8,0:0:0:0:
325,191,39538,1,0,0:0:0:0:
325,191,39821,1,0,0:0:0:0:
231,194,39962,1,8,0:0:0:0:
231,194,40104,1,8,0:0:0:0:
169,156,40245,1,0,0:0:0:0:
218,174,40528,1,8,0:0:0:0:
235,218,40670,1,0,0:0:0:0:
248,211,41094,1,8,0:0:0:0:
248,211,41236,1,8,0:0:0:0:
170,176,41306,1,8,0:0:0:0:
165,160,41377,1,8,0:0:0:0:
165,160,41519,1,0,0:0:0:0:
134,209,41660,1,8,0:0:0:0:
193,242,41731,1,8,0:0:0:0:
250,200,41802,1,8,0:0:0:0:
154,207,41943,1,0,0:0:0:0:
212,166,42085,1,8,0:0:0:0:
208,269,42509,1,8,0:0:0:0:
208,269,42651,1,0,0:0:0:0:
304,246,42792,1,8,0:0:0:0:
304,246,42934,1,8,0:0:0:0:
304,246,43075,1,8,0:0:0:0:
304,246,43217,1,8,0:0:0:0:
288,210,45339,1,8,0:0:0:0:
231,238,45623,1,4,0:0:0:0:
221,219,45906,1,8,0:0:0:0:
158,165,46189,1,4,0:0:0:0:
256,91,46472,1,0,0:0:0:0:
253,97,46613,1,12,0:0:0:0:
251,254,46896,1,0,0:0:0:0:
222,221,47038,1,8,0:0:0:0:
222,221,47179,1,8,0:0:0:0:
130,129,47321,1,0,0:0:0:0:
160,121,47604,1,0,0:0:0:0:
273,268,47887,1,12,0:0:0:0:
266,200,48170,1,0,0:0:0:0:
276,270,48453,1,12,0:0:0:0:
309,162,48736,1,8,0:0:0:0:
288,172,48877,1,4,0:0:0:0:
139,194,49160,1,8,0:0:0:0:
157,208,49302,1,0,0:0:0:0:
157,208,49443,1,0,0:0:0:0:
199,264,49585,1,8,0:0:0:0:
277,229,49726,1,0,0:0:0:0:
280,156,49868,1,8,0:0:0:0:
184,148,49939,1,8,0:0:0:0:
280,156,50009,1,8,0:0:0:0:
265,226,50151,1,4,0:0:0:0:
253,226,50434,1,8,0:0:0:0:
231,220,50717,1,4,0:0:0:0:
250,255,51000,1,0,0:0:0:0:
245,239,51141,1,12,0:0:0:0:
288,256,51424,1,0,0:0:0:0:
194,201,51566,1,8,0:0:0:0:
194,201,51707,1,8,0:0:0:0:
138,136,51849,1,0,0:0:0:0:
202,209,52132,1,0,0:0:0:0:
266,284,52415,1,12,0:0:0:0:
228,220,52698,1,0,0:0:0:0:
254,278,52981,1,12,0:0:0:0:
228,220,53264,1,8,0:0:0:0:
254,278,53406,1,4,0:0:0:0:
257,206,53689,1,8,0:0:0:0:
250,199,53830,1,0,0:0:0:0:
175,203,53972,1,8,0:0:0:0:
105,170,54042,1,8,0:0:0:0:
175,203,54113,1,8,0:0:0:0:
252,202,54255,1,0,0:0:0:0:
164,178,54325,1,0,0:0:0:0:
252,202,54396,1,0,0:0:0:0:
280,245,54679,1,12,0:0:0:0:
256,193,54962,1,0,0:0:0:0:
288,232,55104,1,12,0:0:0:0:
256,193,55387,1,0,0:0:0:0:
288,232,55528,1,12,0:0:0:0:
286,204,55811,1,0,0:0:0:0:
213,226,55953,1,0,0:0:0:0:
366,224,56094,1,8,0:0:0:0:
366,224,56236,1,0,0:0:0:0:
183,210,56660,1,8,0:0:0:0:
201,230,56943,1,4,0:0:0:0:
210,207,57226,1,8,0:0:0:0:
233,214,57368,1,4,0:0:0:0:
197,208,57651,1,8,0:0:0:0:
164,233,57792,1,0,0:0:0:0:
164,233,57934,1,0,0:0:0:0:
224,197,58075,1,8,0:0:0:0:
224,197,58217,1,8,0:0:0:0:
279,210,58358,1,0,0:0:0:0:
249,211,58641,1,8,0:0:0:0:
168,184,58712,1,8,0:0:0:0:
127,173,58783,1,8,0:0:0:0:
153,161,58924,1,0,0:0:0:0:
99,171,58995,1,0,0:0:0:0:
153,161,59066,1,0,0:0:0:0:
248,219,59207,1,12,0:0:0:0:
233,182,59490,1,0,0:0:0:0:
248,219,59632,1,12,0:0:0:0:
233,182,59915,1,0,0:0:0:0:
248,219,60056,1,12,0:0:0:0:
259,159,60339,1,0,0:0:0:0:
145,222,60481,1,8,0:0:0:0:
238,243,60623,1,8,0:0:0:0:
171,219,60764,1,0,0:0:0:0:
160,128,61189,1,8,0:0:0:0:
278,250,61472,1,4,0:0:0:0:
178,133,61755,1,8,0:0:0:0:
340,207,61896,1,4,0:0:0:0:
231,251,62179,1,0,0:0:0:0:
231,251,62321,1,8,0:0:0:0:
231,251,62462,1,8,0:0:0:0:
231,251,62604,1,0,0:0:0:0:
364,258,63877,1,4,0:0:0:0:
187,207,64160,1,0,0:0:0:0:
158,211,64302,1,8,0:0:0:0:
195,258,64443,1,0,0:0:0:0:
251,216,64585,1,0,0:0:0:0:
251,216,64726,1,8,0:0:0:0:
234,242,65009,1,0,0:0:0:0:
291,202,65151,1,8,0:0:0:0:
274,202,65434,1,0,0:0:0:0:
274,202,65575,1,0,0:0:0:0:
249,188,65717,1,8,0:0:0:0:
343,252,66141,1,12,0:0:0:0:
228,235,66424,1,8,0:0:0:0:
183,219,66566,1,0,0:0:0:0:
223,242,66707,1,8,0:0:0:0:
200,202,66849,1,8,0:0:0:0:
305,192,66990,1,0,0:0:0:0:
289,231,67273,1,8,0:0:0:0:
289,195,67415,1,0,0:0:0:0:
261,249,67698,1,8,0:0:0:0:
261,249,67839,1,8,0:0:0:0:
265,200,67981,1,0,0:0:0:0:
304,194,68123,1,8,0:0:0:0:
306,181,68264,1,0,0:0:0:0:
195,149,68335,1,0,0:0:0:0:
146,135,68406,1,0,0:0:0:0:
205,165,68547,1,12,0:0:0:0:
336,238,68830,1,0,0:0:0:0:
199,235,69113,1,8,0:0:0:0:
221,234,69255,1,0,0:0:0:0:
355,273,69538,1,0,0:0:0:0:
355,273,69679,1,8,0:0:0:0:
251,249,69962,1,8,0:0:0:0:
211,267,70104,1,8,0:0:0:0:
147,221,70174,1,8,0:0:0:0:
151,166,70245,1,8,0:0:0:0:
261,269,70528,1,0,0:0:0:0:
240,208,70953,1,8,0:0:0:0:
233,206,71377,1,0,0:0:0:0:
231,206,71802,1,0,0:0:0:0:
287,184,72792,1,0,0:0:0:0:
285,216,73217,1,0,0:0:0:0:
285,216,73358,1,8,0:0:0:0:
105,168,73641,1,0,0:0:0:0:
154,189,74207,1,8,0:0:0:0:
154,189,74490,1,0,0:0:0:0:
139,135,75056,1,8,0:0:0:0:
275,221,75481,1,8,0:0:0:0:
275,221,75623,1,0,0:0:0:0:
256,201,75906,1,8,0:0:0:0:
256,201,76472,1,0,0:0:0:0:
256,201,76755,1,8,0:0:0:0:
224,188,77321,1,0,0:0:0:0:
224,188,77745,1,0,0:0:0:0:
224,188,77887,1,8,0:0:0:0:
209,183,78170,1,0,0:0:0:0:
209,183,78736,1,8,0:0:0:0:
209,183,79019,1,0,0:0:0:0:
205,172,79585,1,8,0:0:0:0:
204,165,80009,1,8,0:0:0:0:
204,165,80151,1,0,0:0:0:0:
204,165,80434,1,8,0:0:0:0:
181,149,80717,1,12,0:0:0:0:
280,194,81849,1,4,0:0:0:0:
274,230,82132,1,8,0:0:0:0:
201,215,82273,1,8,0:0:0:0:
129,207,82415,1,0,0:0:0:0:
201,215,82556,1,0,0:0:0:0:
277,154,82698,1,8,0:0:0:0:
150,242,82981,1,0,0:0:0:0:
212,243,83264,1,8,0:0:0:0:
315,321,83406,1,0,0:0:0:0:
398,274,83547,1,8,0:0:0:0:
390,272,83689,1,8,0:0:0:0:
201,270,83830,1,0,0:0:0:0:
255,238,83972,1,8,0:0:0:0:
255,238,84113,1,0,0:0:0:0:
163,189,84396,1,8,0:0:0:0:
258,176,84538,1,8,0:0:0:0:
268,193,84679,1,0,0:0:0:0:
327,192,84821,1,0,0:0:0:0:
156,135,84962,1,8,0:0:0:0:
239,224,85245,1,0,0:0:0:0:
236,175,85528,1,8,0:0:0:0:
191,206,85670,1,8,0:0:0:0:
170,186,85811,1,0,0:0:0:0:
193,242,86377,1,8,0:0:0:0:
270,239,86660,1,0,0:0:0:0:
191,146,86802,1,0,0:0:0:0:
161,135,86943,1,8,0:0:0:0:
161,135,87085,1,8,0:0:0:0:
161,140,87226,1,0,0:0:0:0:
185,237,87509,1,8,0:0:0:0:
185,237,87792,1,0,0:0:0:0:
109,210,87934,1,8,0:0:0:0:
109,210,88075,1,0,0:0:0:0:
257,257,88217,1,0,0:0:0:0:
257,257,88358,1,8,0:0:0:0:
176,209,88500,1,0,0:0:0:0:
181,194,88641,1,8,0:0:0:0:
208,189,88924,1,0,0:0:0:0:
161,186,89066,1,0,0:0:0:0:
165,194,89207,1,8,0:0:0:0:
220,175,89349,1,8,0:0:0:0:
220,175,89490,1,0,0:0:0:0:
247,202,89773,1,8,0:0:0:0:
80,195,90056,1,8,0:0:0:0:
160,209,90339,1,0,0:0:0:0:
195,252,90481,1,12,0:0:0:0:
195,252,90623,1,12,0:0:0:0:
231,238,90906,1,4,0:0:0:0:
221,219,91189,1,8,0:0:0:0:
158,165,91472,1,4,0:0:0:0:
256,91,91755,1,0,0:0:0:0:
253,97,91896,1,12,0:0:0:0:
251,254,92179,1,0,0:0:0:0:
222,221,92321,1,8,0:0:0:0:
222,221,92462,1,8,0:0:0:0:
130,129,92604,1,0,0:0:0:0:
160,121,92887,1,0,0:0:0:0:
273,268,93170,1,12,0:0:0:0:
266,200,93453,1,0,0:0:0:0:
276,270,93736,1,12,0:0:0:0:
309,162,94019,1,8,0:0:0:0:
288,172,94160,1,4,0:0:0:0:
139,194,94443,1,8,0:0:0:0:
157,208,94585,1,0,0:0:0:0:
157,208,94726,1,0,0:0:0:0:
199,264,94868,1,8,0:0:0:0:
277,229,95009,1,0,0:0:0:0:
280,156,95151,1,8,0:0:0:0:
184,148,95222,1,8,0:0:0:0:
280,156,95292,1,8,0:0:0:0:
265,226,95434,1,4,0:0:0:0:
253,226,95717,1,8,0:0:0:0:
231,220,96000,1,4,0:0:0:0:
250,255,96283,1,0,0:0:0:0:
245,239,96424,1,12,0:0:0:0:
288,256,96707,1,0,0:0:0:0:
194,201,96849,1,8,0:0:0:0:
194,201,96990,1,8,0:0:0:0:
138,136,97132,1,0,0:0:0:0:
202,209,97415,1,0,0:0:0:0:
266,284,97698,1,12,0:0:0:0:
228,220,97981,1,0,0:0:0:0:
254,278,98264,1,12,0:0:0:0:
228,220,98547,1,8,0:0:0:0:
254,278,98689,1,4,0:0:0:0:
257,206,98972,1,8,0:0:0:0:
250,199,99113,1,0,0:0:0:0:
175,203,99255,1,8,0:0:0:0:
105,170,99325,1,8,0:0:0:0:
175,203,99396,1,8,0:0:0:0:
252,202,99538,1,0,0:0:0:0:
164,178,99608,1,0,0:0:0:0:
252,202,99679,1,0,0:0:0:0:
280,245,99962,1,12,0:0:0:0:
256,193,100245,1,0,0:0:0:0:
288,232,100387,1,12,0:0:0:0:
256,193,100670,1,0,0:0:0:0:
288,232,100811,1,12,0:0:0:0:
286,204,101094,1,0,0:0:0:0:
213,226,101236,1,0,0:0:0:0:
366,224,101377,1,8,0:0:0:0:
366,224,101519,1,0,0:0:0:0:
183,210,101943,1,8,0:0:0:0:
201,230,102226,1,4,0:0:0:0:
210,207,102509,1,8,0:0:0:0:
233,214,102651,1,4,0:0:0:0:
197,208,102934,1,8,0:0:0:0:
164,233,103075,1,0,0:0:0:0:
164,233,103217,1,0,0:0:0:0:
224,197,103358,1,8,0:0:0:0:
224,197,103500,1,8,0:0:0:0:
279,210,103641,1,0,0:0:0:0:
249,211,103924,1,8,0:0:0:0:
168,184,103995,1,8,0:0:0:0:
127,173,104066,1,8,0:0:0:0:
153,161,104207,1,0,0:0:0:0:
99,171,104278,1,0,0:0:0:0:
153,161,104349,1,0,0:0:0:0:
248,219,104490,1,12,0:0:0:0:
233,182,104773,1,0,0:0:0:0:
248,219,104915,1,12,0:0:0:0:
233,182,105198,1,0,0:0:0:0:
248,219,105339,1,12,0:0:0:0:
259,159,105623,1,0,0:0:0:0:
145,222,105764,1,8,0:0:0:0:
238,243,105906,1,8,0:0:0:0:
171,219,106047,1,0,0:0:0:0:
160,128,106472,1,8,0:0:0:0:
278,250,106755,1,4,0:0:0:0:
178,133,107038,1,8,0:0:0:0:
340,207,107179,1,4,0:0:0:0:
231,251,107462,1,0,0:0:0:0:
231,251,107604,1,8,0:0:0:0:
231,251,107745,1,8,0:0:0:0:
231,251,107887,1,0,0:0:0:0:
208,168,109019,1,0,0:0:0:0:
209,175,109443,1,8,0:0:0:0:
209,175,109868,1,0,0:0:0:0:
209,175,110151,1,8,0:0:0:0:
209,175,110575,1,8,0:0:0:0:
209,175,111000,1,8,0:0:0:0:
209,175,111283,1,0,0:0:0:0:
1,212,111566,1,8,0:0:0:0:
272,189,111707,1,0,0:0:0:0:
272,189,111990,1,0,0:0:0:0:
268,192,112132,1,8,0:0:0:0:
229,258,112415,1,0,0:0:0:0:
272,230,112698,1,8,0:0:0:0:
272,230,112839,1,0,0:0:0:0:
189,212,112981,1,12,0:0:0:0:
189,212,113123,1,12,0:0:0:0:
166,181,113547,1,4,0:0:0:0:
203,189,114113,1,8,0:0:0:0:
203,184,114538,1,8,0:0:0:0:
203,184,114679,1,0,0:0:0:0:
203,184,114821,1,0,0:0:0:0:
296,266,114962,1,8,0:0:0:0:
162,256,115245,1,0,0:0:0:0:
181,215,115387,1,0,0:0:0:0:
225,216,115811,1,12,0:0:0:0:
265,221,116236,1,0,0:0:0:0:
265,221,116306,1,0,0:0:0:0:
180,197,116377,1,0,0:0:0:0:
248,257,116802,1,8,0:0:0:0:
223,215,116943,1,0,0:0:0:0:
223,215,117085,1,0,0:0:0:0:
165,171,117368,1,8,0:0:0:0:
218,261,118075,1,4,0:0:0:0:
272,254,118641,1,8,0:0:0:0:
325,191,118783,1,0,0:0:0:0:
325,191,119066,1,0,0:0:0:0:
231,194,119207,1,8,0:0:0:0:
231,194,119349,1,8,0:0:0:0:
169,156,119490,1,0,0:0:0:0:
218,174,119773,1,8,0:0:0:0:
235,218,119915,1,0,0:0:0:0:
248,211,120339,1,8,0:0:0:0:
248,211,120481,1,8,0:0:0:0:
170,176,120552,1,8,0:0:0:0:
165,160,120623,1,8,0:0:0:0:
165,160,120764,1,0,0:0:0:0:
134,209,120906,1,8,0:0:0:0:
193,242,120976,1,8,0:0:0:0:
250,200,121047,1,8,0:0:0:0:
154,207,121189,1,0,0:0:0:0:
212,166,121330,1,8,0:0:0:0:
208,269,121755,1,8,0:0:0:0:
208,269,121896,1,0,0:0:0:0:
304,246,122038,1,8,0:0:0:0:
304,246,122179,1,8,0:0:0:0:
304,246,122321,1,8,0:0:0:0:
304,246,122462,1,8,0:0:0:0:
239,124,123736,1,8,0:0:0:0:
239,124,124302,1,8,0:0:0:0:
237,128,124726,1,8,0:0:0:0:
237,128,125009,1,8,0:0:0:0:
237,128,125434,1,8,0:0:0:0:
237,128,125717,1,8,0:0:0:0:
237,128,126000,1,8,0:0:0:0:
302,194,126566,1,8,0:0:0:0:
284,241,126990,1,8,0:0:0:0:
193,210,127132,1,4,0:0:0:0:
193,210,127698,1,12,0:0:0:0:
304,238,128264,1,0,0:0:0:0:
304,238,128547,1,8,0:0:0:0:
206,180,128688,1,8,0:0:0:0:
206,180,128830,1,0,0:0:0:0:
257,176,129113,1,8,0:0:0:0:
257,176,129396,1,0,0:0:0:0:
182,189,129537,1,8,0:0:0:0:
182,189,129820,1,8,0:0:0:0:
182,189,129962,1,0,0:0:0:0:
260,230,130245,1,8,0:0:0:0:
260,230,130528,1,0,0:0:0:0:
164,173,130811,1,8,0:0:0:0:
164,173,131094,1,0,0:0:0:0:
164,173,131377,1,8,0:0:0:0:
164,173,131448,1,8,0:0:0:0:
103,161,131519,1,8,0:0:0:0:
141,164,131660,1,0,0:0:0:0:
272,254,132509,1,8,0:0:0:0:
231,238,132792,1,4,0:0:0:0:
221,219,133075,1,8,0:0:0:0:
158,165,133358,1,4,0:0:0:0:
256,91,133641,1,0,0:0:0:0:
253,97,133783,1,12,0:0:0:0:
251,254,134066,1,0,0:0:0:0:
222,221,134207,1,8,0:0:0:0:
222,221,134349,1,8,0:0:0:0:
130,129,134490,1,0,0:0:0:0:
160,121,134773,1,0,0:0:0:0:
273,268,135056,1,12,0:0:0:0:
266,200,135339,1,0,0:0:0:0:
276,270,135622,1,12,0:0:0:0:
309,162,135905,1,8,0:0:0:0:
288,172,136047,1,4,0:0:0:0:
139,194,136330,1,8,0:0:0:0:
157,208,136471,1,0,0:0:0:0:
157,208,136613,1,0,0:0:0:0:
199,264,136754,1,8,0:0:0:0:
277,229,136896,1,0,0:0:0:0:
280,156,137037,1,8,0:0:0:0:
184,148,137108,1,8,0:0:0:0:
280,156,137179,1,8,0:0:0:0:
265,226,137320,1,4,0:0:0:0:
253,226,137603,1,8,0:0:0:0:
231,220,137886,1,4,0:0:0:0:
250,255,138169,1,0,0:0:0:0:
245,239,138311,1,12,0:0:0:0:
288,256,138594,1,0,0:0:0:0:
194,201,138735,1,8,0:0:0:0:
194,201,138877,1,8,0:0:0:0:
138,136,139019,1,0,0:0:0:0:
202,209,139302,1,0,0:0:0:0:
266,284,139585,1,12,0:0:0:0:
228,220,139868,1,0,0:0:0:0:
254,278,140151,1,12,0:0:0:0:
228,220,140434,1,8,0:0:0:0:
254,278,140575,1,4,0:0:0:0:
257,206,140858,1,8,0:0:0:0:
250,199,141000,1,0,0:0:0:0:
175,203,141141,1,8,0:0:0:0:
105,170,141212,1,8,0:0:0:0:
175,203,141283,1,8,0:0:0:0:
252,202,141424,1,0,0:0:0:0:
164,178,141495,1,0,0:0:0:0:
252,202,141566,1,0,0:0:0:0:
280,245,141849,1,12,0:0:0:0:
256,193,142132,1,0,0:0:0:0:
288,232,142273,1,12,0:0:0:0:
256,193,142556,1,0,0:0:0:0:
288,232,142698,1,12,0:0:0:0:
286,204,142981,1,0,0:0:0:0:
213,226,143122,1,0,0:0:0:0:
366,224,143264,1,8,0:0:0:0:
366,224,143405,1,0,0:0:0:0:
183,210,143830,1,8,0:0:0:0:
201,230,144113,1,4,0:0:0:0:
210,207,144396,1,8,0:0:0:0:
233,214,144537,1,4,0:0:0:0:
197,208,144820,1,8,0:0:0:0:
164,233,144962,1,0,0:0:0:0:
164,233,145103,1,0,0:0:0:0:
224,197,145245,1,8,0:0:0:0:
224,197,145386,1,8,0:0:0:0:
279,210,145528,1,0,0:0:0:0:
249,211,145811,1,8,0:0:0:0:
168,184,145882,1,8,0:0:0:0:
127,173,145952,1,8,0:0:0:0:
153,161,146094,1,0,0:0:0:0:
99,171,146165,1,0,0:0:0:0:
153,161,146235,1,0,0:0:0:0:
248,219,146377,1,12,0:0:0:0:
233,182,146660,1,0,0:0:0:0:
248,219,146802,1,12,0:0:0:0:
233,182,147085,1,0,0:0:0:0:
248,219,147226,1,12,0:0:0:0:
259,159,147509,1,0,0:0:0:0:
145,222,147651,1,8,0:0:0:0:
238,243,147792,1,8,0:0:0:0:
171,219,147934,1,0,0:0:0:0:
160,128,148358,1,8,0:0:0:0:
278,250,148641,1,4,0:0:0:0:
178,133,148924,1,8,0:0:0:0:
340,207,149066,1,4,0:0:0:0:
231,251,149349,1,0,0:0:0:0:
231,251,149490,1,8,0:0:0:0:
231,251,149632,1,8,0:0:0:0:
231,251,149773,1,0,0:0:0:0:
109,165,149915,1,0,0:0:0:0:
124,173,150056,1,8,0:0:0:0:
175,197,150339,1,0,0:0:0:0:
228,280,150905,1,12,0:0:0:0:
334,243,151047,1,0,0:0:0:0:
307,265,151188,1,0,0:0:0:0:
199,172,151330,1,12,0:0:0:0:
113,168,151613,1,0,0:0:0:0:
297,197,151754,1,12,0:0:0:0:
223,264,152037,1,4,0:0:0:0:
211,269,152320,1,8,0:0:0:0:
298,254,152462,1,8,0:0:0:0:
133,166,152603,1,0,0:0:0:0:
242,237,152745,1,0,0:0:0:0:
144,160,152886,1,8,0:0:0:0:
235,241,153169,1,4,0:0:0:0:
286,171,153311,1,8,0:0:0:0:
286,171,153452,1,8,0:0:0:0:
232,149,153594,1,4,0:0:0:0:
303,296,153877,1,8,0:0:0:0:
303,296,154019,1,0,0:0:0:0:
203,253,154160,1,0,0:0:0:0:
204,217,154302,1,8,0:0:0:0:
142,203,154443,1,8,0:0:0:0:
136,200,154585,1,0,0:0:0:0:
170,224,154868,1,8,0:0:0:0:
273,231,155151,1,0,0:0:0:0:
216,243,155434,1,12,0:0:0:0:
224,246,155575,1,0,0:0:0:0:
173,209,155717,1,0,0:0:0:0:
172,209,155858,1,12,0:0:0:0:
234,236,156141,1,0,0:0:0:0:
206,218,156283,1,12,0:0:0:0:
294,233,156566,1,4,0:0:0:0:
250,233,156849,1,8,0:0:0:0:
256,174,156990,1,8,0:0:0:0:
256,174,157132,1,0,0:0:0:0:
256,174,157273,1,0,0:0:0:0:
256,174,157415,1,8,0:0:0:0:
219,201,157698,1,4,0:0:0:0:
275,231,157981,1,8,0:0:0:0:
213,241,158052,1,8,0:0:0:0:
167,200,158122,1,8,0:0:0:0:
310,253,158264,1,0,0:0:0:0:
187,225,158335,1,0,0:0:0:0:
310,253,158405,1,0,0:0:0:0:
187,225,158547,1,8,0:0:0:0:
187,225,158688,1,8,0:0:0:0:
303,219,158830,1,0,0:0:0:0:
260,248,159396,1,8,0:0:0:0:
260,248,159962,1,0,0:0:0:0:
289,258,160245,1,0,0:0:0:0:
289,258,160528,1,8,0:0:0:0:
289,258,160811,1,8,0:0:0:0:
289,258,161094,1,0,0:0:0:0:
169,173,161377,1,8,0:0:0:0:
169,173,161519,1,8,0:0:0:0:
215,258,161660,1,0,0:0:0:0:
215,258,161802,1,0,0:0:0:0:
215,258,161943,1,8,0:0:0:0:
217,241,162226,1,0,0:0:0:0:
217,241,162509,1,8,0:0:0:0:
217,241,162792,1,8,0:0:0:0:
217,241,163075,1,8,0:0:0:0:
217,241,163358,1,0,0:0:0:0:
217,241,163641,1,0,0:0:0:0:
217,241,163783,1,0,0:0:0:0:
217,241,163924,1,8,0:0:0:0:
217,241,164207,1,8,0:0:0:0:
