osu file format v14

[General]
AudioFilename: audio.ogg
AudioLeadIn: 0
PreviewTime: 45311
Countdown: 0
SampleSet: Normal
StackLeniency: 0.7
Mode: 1
LetterboxInBreaks: 0
WidescreenStoryboard: 1

[Editor]
DistanceSpacing: 1
BeatDivisor: 12
GridSize: 4
TimelineZoom: 1.832

[Metadata]
Title:Chimera feat. Hatsune Miku
TitleUnicode:キメラ feat. 初音ミク
Artist:DECO*27
ArtistUnicode:DECO*27
Creator:Miyoi
Version:Chromoxx' Hell Oni
Source:
Tags:Midnaait Reficul Chromoxx TKS Rock Japanese Electronic Jrock J-Rock Vocaloid デコニーナ Deco Niina DECO27 Rockwell KARENT
BeatmapID:3557958
BeatmapSetID:1740454

[Difficulty]
HPDrainRate:6
CircleSize:6.9
OverallDifficulty:7
ApproachRate:6.9
SliderMultiplier:1.4
SliderTickRate:1

[Events]
//Background and Video events
0,0,"97354562_p0.png",0,0
//Break Periods
//Storyboard Layer 0 (Background)
//Storyboard Layer 1 (Fail)
//Storyboard Layer 2 (Pass)
//Storyboard Layer 3 (Foreground)
//Storyboard Layer 4 (Overlay)
//Storyboard Sound Samples

[TimingPoints]
340,283.018867924528,4,1,0,85,1,0
45304,-50,4,1,0,85,0,0
45623,-100,4,1,0,85,0,1
62604,-100,4,1,0,85,0,0
90906,-100,4,1,0,85,0,1
107887,-100,4,1,0,85,0,0
117474,-50,4,1,0,50,0,0
118040,-100,4,1,0,85,0,0
123736,283.018867924528,4,1,0,85,1,0
132439,-50,4,1,0,85,0,0
132792,-100,4,1,0,85,0,1
159608,-100,4,1,0,85,0,1
159962,-100,4,1,0,85,0,0

[HitObjects]
352,226,340,5,4,0:0:0:0:
253,216,552,1,0,0:0:0:0:
253,216,623,1,8,0:0:0:0:
373,316,764,1,0,0:0:0:0:
225,211,906,1,8,0:0:0:0:
222,214,976,1,8,0:0:0:0:
222,214,1047,1,0,0:0:0:0:
222,214,1118,1,0,0:0:0:0:
222,214,1189,1,8,0:0:0:0:
222,214,1330,1,0,0:0:0:0:
222,214,1401,1,8,0:0:0:0:
293,317,1542,1,8,0:0:0:0:
245,248,1613,1,0,0:0:0:0:
208,255,1684,1,0,0:0:0:0:
240,252,1755,1,8,0:0:0:0:
240,252,1896,1,8,0:0:0:0:
332,232,2038,1,0,0:0:0:0:
332,232,2108,1,0,0:0:0:0:
332,232,2179,1,0,0:0:0:0:
332,232,2250,1,0,0:0:0:0:
332,232,2321,1,8,0:0:0:0:
272,210,2462,1,0,0:0:0:0:
266,175,2604,1,12,0:0:0:0:
312,187,2816,1,8,0:0:0:0:
312,187,2887,1,0,0:0:0:0:
182,172,3028,1,8,0:0:0:0:
218,179,3170,1,0,0:0:0:0:
221,190,3240,1,0,0:0:0:0:
221,190,3311,1,8,0:0:0:0:
221,190,3382,1,8,0:0:0:0:
222,190,3453,1,0,0:0:0:0:
202,218,3594,1,8,0:0:0:0:
226,263,3665,1,0,0:0:0:0:
251,230,3806,1,0,0:0:0:0:
251,230,3877,1,8,0:0:0:0:
251,230,3948,1,8,0:0:0:0:
251,230,4019,1,0,0:0:0:0:
286,296,4160,1,0,0:0:0:0:
324,225,4302,1,8,0:0:0:0:
324,225,4373,1,8,0:0:0:0:
324,225,4443,1,0,0:0:0:0:
324,225,4585,1,12,0:0:0:0:
392,242,5009,1,4,0:0:0:0:
346,221,5151,1,8,0:0:0:0:
346,221,5222,1,8,0:0:0:0:
346,221,5292,1,0,0:0:0:0:
288,226,5434,1,12,0:0:0:0:
267,193,5575,1,0,0:0:0:0:
263,194,5646,1,0,0:0:0:0:
262,194,5717,1,8,0:0:0:0:
262,194,5788,1,0,0:0:0:0:
261,193,5858,1,8,0:0:0:0:
261,193,5929,1,8,0:0:0:0:
261,193,6000,1,0,0:0:0:0:
407,285,6141,1,8,0:0:0:0:
377,281,6212,1,8,0:0:0:0:
366,280,6283,1,0,0:0:0:0:
366,280,6354,1,8,0:0:0:0:
366,280,6424,1,0,0:0:0:0:
216,182,6495,1,0,0:0:0:0:
286,190,6566,1,8,0:0:0:0:
292,183,6707,1,8,0:0:0:0:
101,122,6778,1,8,0:0:0:0:
101,122,6849,1,8,0:0:0:0:
224,142,7132,1,0,0:0:0:0:
233,219,7273,1,12,0:0:0:0:
373,220,7415,1,0,0:0:0:0:
237,258,7486,1,0,0:0:0:0:
334,221,7556,1,8,0:0:0:0:
316,225,7698,1,4,0:0:0:0:
301,194,7839,1,8,0:0:0:0:
301,194,7910,1,8,0:0:0:0:
301,194,7981,1,0,0:0:0:0:
301,194,8052,1,8,0:0:0:0:
301,194,8123,1,0,0:0:0:0:
301,194,8193,1,0,0:0:0:0:
301,194,8264,1,8,0:0:0:0:
296,192,8406,1,0,0:0:0:0:
296,192,8476,1,0,0:0:0:0:
296,192,8547,1,8,0:0:0:0:
296,192,8618,1,0,0:0:0:0:
296,192,8689,1,8,0:0:0:0:
296,192,8759,1,8,0:0:0:0:
296,192,8830,1,0,0:0:0:0:
266,252,8972,1,0,0:0:0:0:
255,240,9042,1,0,0:0:0:0:
191,217,9113,1,0,0:0:0:0:
222,190,9255,1,8,0:0:0:0:
296,219,9396,1,0,0:0:0:0:
236,205,9443,1,0,0:0:0:0:
296,219,9490,1,0,0:0:0:0:
91,143,9538,1,0,0:0:0:0:
298,178,9679,1,12,0:0:0:0:
239,220,9891,1,0,0:0:0:0:
234,226,9962,1,8,0:0:0:0:
234,228,10104,1,0,0:0:0:0:
234,228,10174,1,0,0:0:0:0:
234,228,10245,1,8,0:0:0:0:
234,228,10316,1,8,0:0:0:0:
234,228,10387,1,0,0:0:0:0:
234,228,10457,1,8,0:0:0:0:
234,228,10528,1,0,0:0:0:0:
151,210,10670,1,8,0:0:0:0:
151,210,10740,1,8,0:0:0:0:
151,210,10811,1,0,0:0:0:0:
327,278,10953,1,0,0:0:0:0:
327,278,11023,1,0,0:0:0:0:
327,278,11094,1,8,0:0:0:0:
327,278,11236,1,8,0:0:0:0:
327,278,11306,1,8,0:0:0:0:
328,243,11377,1,8,0:0:0:0:
328,243,11448,1,8,0:0:0:0:
328,243,11519,1,0,0:0:0:0:
328,243,11589,1,8,0:0:0:0:
327,301,11660,1,0,0:0:0:0:
347,226,11802,1,0,0:0:0:0:
347,226,11873,1,0,0:0:0:0:
347,226,11943,1,8,0:0:0:0:
347,226,12085,1,0,0:0:0:0:
347,226,12156,1,0,0:0:0:0:
347,226,12226,1,8,0:0:0:0:
347,226,12297,1,0,0:0:0:0:
347,226,12368,1,8,0:0:0:0:
212,269,12439,1,8,0:0:0:0:
347,226,12509,1,0,0:0:0:0:
265,140,12580,1,8,0:0:0:0:
265,140,12651,1,0,0:0:0:0:
265,140,12722,1,0,0:0:0:0:
265,140,12792,1,8,0:0:0:0:
279,214,12934,1,0,0:0:0:0:
279,214,13005,1,0,0:0:0:0:
279,214,13075,1,8,0:0:0:0:
279,214,13217,1,0,0:0:0:0:
241,219,13358,1,8,0:0:0:0:
241,219,13429,1,8,0:0:0:0:
241,219,13500,1,0,0:0:0:0:
241,219,13571,1,0,0:0:0:0:
241,219,13641,1,8,0:0:0:0:
241,219,13712,1,0,0:0:0:0:
241,219,13783,1,8,0:0:0:0:
339,280,13924,1,4,0:0:0:0:
313,278,14349,1,8,0:0:0:0:
240,223,14632,1,8,0:0:0:0:
313,278,14915,1,8,0:0:0:0:
313,278,15198,1,8,0:0:0:0:
231,169,15339,1,8,0:0:0:0:
313,278,15623,1,8,0:0:0:0:
313,278,15906,1,8,0:0:0:0:
240,165,16189,1,4,0:0:0:0:
384,255,16401,1,0,0:0:0:0:
357,250,16472,1,8,0:0:0:0:
340,252,16613,1,8,0:0:0:0:
294,257,16755,1,0,0:0:0:0:
294,257,16896,1,0,0:0:0:0:
292,253,16967,1,0,0:0:0:0:
285,253,17038,1,8,0:0:0:0:
279,253,17179,1,8,0:0:0:0:
188,284,17321,1,0,0:0:0:0:
320,297,17462,1,0,0:0:0:0:
242,284,17533,1,0,0:0:0:0:
178,179,17604,1,8,0:0:0:0:
178,179,17674,1,8,0:0:0:0:
178,179,17745,1,0,0:0:0:0:
335,301,17887,1,8,0:0:0:0:
329,300,17957,1,8,0:0:0:0:
311,290,18028,1,0,0:0:0:0:
310,290,18099,1,0,0:0:0:0:
310,290,18170,1,8,0:0:0:0:
310,290,18240,1,0,0:0:0:0:
310,290,18311,1,8,0:0:0:0:
290,295,18453,1,0,0:0:0:0:
282,321,18665,1,0,0:0:0:0:
239,152,18736,1,8,0:0:0:0:
239,152,18877,1,0,0:0:0:0:
239,152,19019,1,8,0:0:0:0:
239,152,19089,1,0,0:0:0:0:
239,152,19160,1,8,0:0:0:0:
323,264,19302,1,0,0:0:0:0:
250,226,19443,1,8,0:0:0:0:
250,226,19514,1,8,0:0:0:0:
250,226,19585,1,8,0:0:0:0:
250,226,19656,1,8,0:0:0:0:
250,226,19726,1,0,0:0:0:0:
309,308,19868,1,8,0:0:0:0:
309,308,20009,1,8,0:0:0:0:
299,285,20151,1,0,0:0:0:0:
292,285,20222,1,8,0:0:0:0:
292,285,20292,1,0,0:0:0:0:
292,285,20363,1,0,0:0:0:0:
292,285,20434,1,8,0:0:0:0:
292,285,20505,1,0,0:0:0:0:
292,285,20575,1,8,0:0:0:0:
350,320,20717,1,4,0:0:0:0:
228,312,20929,1,0,0:0:0:0:
185,292,21000,1,8,0:0:0:0:
187,306,21141,1,0,0:0:0:0:
253,249,21283,1,8,0:0:0:0:
253,249,21424,1,8,0:0:0:0:
253,249,21495,1,0,0:0:0:0:
253,249,21566,1,8,0:0:0:0:
294,285,21707,1,0,0:0:0:0:
286,106,21778,1,0,0:0:0:0:
286,106,21849,1,0,0:0:0:0:
286,106,21920,1,0,0:0:0:0:
286,106,21990,1,8,0:0:0:0:
301,248,22132,1,0,0:0:0:0:
278,233,22273,1,0,0:0:0:0:
147,231,22415,1,8,0:0:0:0:
228,262,22556,1,0,0:0:0:0:
170,111,22627,1,0,0:0:0:0:
170,111,22698,1,8,0:0:0:0:
170,111,22769,1,0,0:0:0:0:
349,257,22839,1,8,0:0:0:0:
209,239,22910,1,8,0:0:0:0:
174,254,22981,1,0,0:0:0:0:
326,239,23123,1,8,0:0:0:0:
326,239,23193,1,0,0:0:0:0:
326,239,23335,1,0,0:0:0:0:
326,239,23406,1,8,0:0:0:0:
333,274,23547,1,0,0:0:0:0:
333,274,23618,1,8,0:0:0:0:
333,274,23689,1,8,0:0:0:0:
333,274,23759,1,0,0:0:0:0:
337,272,23830,1,8,0:0:0:0:
252,260,23901,1,0,0:0:0:0:
327,19,23972,1,8,0:0:0:0:
324,22,24019,1,8,0:0:0:0:
322,25,24066,1,8,0:0:0:0:
322,25,24113,1,0,0:0:0:0:
345,223,24396,1,0,0:0:0:0:
211,154,24679,1,0,0:0:0:0:
211,154,24891,1,0,0:0:0:0:
181,134,24962,1,8,0:0:0:0:
206,141,25104,1,0,0:0:0:0:
235,153,25245,1,4,0:0:0:0:
227,240,25457,1,0,0:0:0:0:
213,241,25528,1,8,0:0:0:0:
213,241,25670,1,0,0:0:0:0:
213,241,25740,1,0,0:0:0:0:
213,241,25811,1,8,0:0:0:0:
218,238,25953,1,0,0:0:0:0:
221,243,26094,1,8,0:0:0:0:
221,243,26165,1,8,0:0:0:0:
221,243,26236,1,0,0:0:0:0:
221,243,26306,1,0,0:0:0:0:
221,243,26377,1,8,0:0:0:0:
301,221,26519,1,0,0:0:0:0:
314,275,26589,1,0,0:0:0:0:
264,268,26660,1,0,0:0:0:0:
264,268,26802,1,0,0:0:0:0:
351,277,26943,1,8,0:0:0:0:
351,277,27014,1,8,0:0:0:0:
351,277,27085,1,0,0:0:0:0:
351,277,27156,1,0,0:0:0:0:
349,268,27226,1,8,0:0:0:0:
349,268,27297,1,0,0:0:0:0:
349,268,27368,1,8,0:0:0:0:
349,268,27509,1,0,0:0:0:0:
250,273,27651,1,8,0:0:0:0:
250,273,27722,1,0,0:0:0:0:
250,273,27792,1,8,0:0:0:0:
250,273,27863,1,8,0:0:0:0:
250,273,27934,1,0,0:0:0:0:
229,296,28005,1,0,0:0:0:0:
302,278,28075,1,8,0:0:0:0:
267,293,28217,1,8,0:0:0:0:
339,283,28288,1,8,0:0:0:0:
247,250,28358,1,0,0:0:0:0:
264,223,28500,1,0,0:0:0:0:
264,223,28571,1,0,0:0:0:0:
264,223,28641,1,8,0:0:0:0:
246,238,28783,1,0,0:0:0:0:
315,265,28924,1,8,0:0:0:0:
315,265,28995,1,8,0:0:0:0:
315,265,29066,1,0,0:0:0:0:
315,265,29137,1,0,0:0:0:0:
315,265,29207,1,8,0:0:0:0:
315,265,29278,1,0,0:0:0:0:
315,265,29349,1,8,0:0:0:0:
315,265,29420,1,8,0:0:0:0:
315,265,29490,1,0,0:0:0:0:
315,265,29561,1,0,0:0:0:0:
315,265,29632,1,8,0:0:0:0:
326,254,29773,1,4,0:0:0:0:
264,266,29915,1,8,0:0:0:0:
244,247,29986,1,0,0:0:0:0:
237,240,30127,1,0,0:0:0:0:
235,237,30198,1,8,0:0:0:0:
262,246,30339,1,0,0:0:0:0:
262,246,30410,1,0,0:0:0:0:
262,246,30481,1,8,0:0:0:0:
262,246,30552,1,0,0:0:0:0:
262,246,30623,1,8,0:0:0:0:
262,246,30764,1,0,0:0:0:0:
262,246,30835,1,0,0:0:0:0:
341,131,30906,1,0,0:0:0:0:
341,131,30976,1,0,0:0:0:0:
341,131,31047,1,8,0:0:0:0:
256,294,31189,1,0,0:0:0:0:
256,294,31330,1,0,0:0:0:0:
346,249,31472,1,8,0:0:0:0:
346,249,31542,1,8,0:0:0:0:
346,249,31613,1,0,0:0:0:0:
346,249,31684,1,0,0:0:0:0:
346,249,31755,1,8,0:0:0:0:
346,249,31896,1,8,0:0:0:0:
333,289,32038,1,0,0:0:0:0:
290,232,32108,1,8,0:0:0:0:
290,232,32179,1,8,0:0:0:0:
290,232,32250,1,0,0:0:0:0:
290,232,32391,1,0,0:0:0:0:
290,232,32462,1,8,0:0:0:0:
374,245,32604,1,0,0:0:0:0:
374,245,32674,1,0,0:0:0:0:
374,245,32745,1,8,0:0:0:0:
374,245,32816,1,0,0:0:0:0:
374,245,32887,1,8,0:0:0:0:
374,245,32957,1,8,0:0:0:0:
374,245,33028,1,0,0:0:0:0:
295,253,33170,1,8,0:0:0:0:
288,252,33240,1,8,0:0:0:0:
336,269,33311,1,0,0:0:0:0:
288,252,33382,1,0,0:0:0:0:
295,253,33453,1,8,0:0:0:0:
288,252,33523,1,0,0:0:0:0:
288,252,33594,1,8,0:0:0:0:
288,252,33665,1,8,0:0:0:0:
288,252,33736,1,0,0:0:0:0:
352,254,33877,1,0,0:0:0:0:
326,248,33948,1,0,0:0:0:0:
301,242,34019,1,8,0:0:0:0:
368,288,34160,1,0,0:0:0:0:
352,277,34302,1,4,0:0:0:0:
272,192,34585,1,0,0:0:0:0:
272,192,34868,1,12,0:0:0:0:
274,237,35151,1,8,0:0:0:0:
338,144,35292,1,8,0:0:0:0:
273,197,35434,1,4,0:0:0:0:
285,232,35717,1,0,0:0:0:0:
192,136,35858,1,0,0:0:0:0:
249,217,36000,1,8,0:0:0:0:
249,217,36071,1,0,0:0:0:0:
249,217,36141,1,8,0:0:0:0:
249,217,36212,1,8,0:0:0:0:
249,217,36283,1,0,0:0:0:0:
306,283,36424,1,0,0:0:0:0:
353,267,36566,1,12,0:0:0:0:
392,247,36849,1,8,0:0:0:0:
280,254,36990,1,0,0:0:0:0:
225,252,37061,1,0,0:0:0:0:
280,254,37132,1,0,0:0:0:0:
281,232,37415,1,0,0:0:0:0:
281,232,37556,1,8,0:0:0:0:
340,272,37698,1,0,0:0:0:0:
328,199,37769,1,0,0:0:0:0:
316,285,37839,1,0,0:0:0:0:
221,284,37981,1,8,0:0:0:0:
223,245,38123,1,0,0:0:0:0:
223,245,38170,1,0,0:0:0:0:
223,245,38217,1,0,0:0:0:0:
223,245,38264,1,8,0:0:0:0:
317,205,38406,1,0,0:0:0:0:
270,274,38689,1,0,0:0:0:0:
235,310,38830,1,4,0:0:0:0:
321,296,39113,1,0,0:0:0:0:
173,169,39396,1,12,0:0:0:0:
178,187,39679,1,8,0:0:0:0:
221,254,39821,1,8,0:0:0:0:
295,249,39962,1,0,0:0:0:0:
279,236,40033,1,0,0:0:0:0:
271,230,40104,1,0,0:0:0:0:
295,224,40245,1,8,0:0:0:0:
372,275,40387,1,0,0:0:0:0:
347,245,40528,1,8,0:0:0:0:
347,245,40599,1,8,0:0:0:0:
347,245,40670,1,0,0:0:0:0:
347,245,40740,1,0,0:0:0:0:
348,236,40811,1,8,0:0:0:0:
272,242,41094,1,0,0:0:0:0:
272,242,41236,1,0,0:0:0:0:
236,235,41306,1,0,0:0:0:0:
210,229,41377,1,8,0:0:0:0:
210,229,41519,1,0,0:0:0:0:
145,118,41660,1,8,0:0:0:0:
145,118,41731,1,8,0:0:0:0:
145,118,41802,1,0,0:0:0:0:
245,229,41873,1,0,0:0:0:0:
204,209,41943,1,0,0:0:0:0:
291,197,42085,1,8,0:0:0:0:
83,128,42226,1,0,0:0:0:0:
96,131,42297,1,0,0:0:0:0:
107,134,42368,1,0,0:0:0:0:
316,253,42509,1,8,0:0:0:0:
331,239,42580,1,8,0:0:0:0:
331,239,42651,1,0,0:0:0:0:
331,239,42722,1,0,0:0:0:0:
331,239,42792,1,8,0:0:0:0:
332,235,42934,1,8,0:0:0:0:
332,235,43075,1,8,0:0:0:0:
351,265,43217,1,8,0:0:0:0:
319,247,43358,1,0,0:0:0:0:
303,235,45339,1,12,0:0:0:0:
309,258,45623,1,4,0:0:0:0:
189,88,45835,5,0,0:0:0:0:
189,88,45906,1,8,0:0:0:0:
189,88,46047,1,0,0:0:0:0:
189,88,46189,1,8,0:0:0:0:
192,84,46259,1,8,0:0:0:0:
208,107,46330,1,0,0:0:0:0:
222,126,46401,1,8,0:0:0:0:
222,126,46472,1,0,0:0:0:0:
222,126,46613,1,8,0:0:0:0:
47,214,46684,1,8,0:0:0:0:
163,203,46755,1,0,0:0:0:0:
338,202,46896,1,0,0:0:0:0:
300,202,46967,1,0,0:0:0:0:
300,202,47038,1,8,0:0:0:0:
300,202,47108,1,0,0:0:0:0:
300,202,47179,1,8,0:0:0:0:
300,202,47250,1,8,0:0:0:0:
300,202,47321,1,8,0:0:0:0:
278,263,47462,1,0,0:0:0:0:
122,161,47533,1,8,0:0:0:0:
122,161,47604,1,0,0:0:0:0:
232,192,47745,1,0,0:0:0:0:
282,184,47887,1,12,0:0:0:0:
335,251,48028,1,8,0:0:0:0:
335,251,48099,1,8,0:0:0:0:
335,251,48170,1,0,0:0:0:0:
315,278,48311,1,8,0:0:0:0:
301,242,48453,1,0,0:0:0:0:
296,242,48523,1,0,0:0:0:0:
296,242,48594,1,8,0:0:0:0:
296,242,48665,1,0,0:0:0:0:
296,242,48736,1,8,0:0:0:0:
266,259,48877,1,0,0:0:0:0:
249,229,48948,1,0,0:0:0:0:
277,190,49019,1,0,0:0:0:0:
277,190,49089,1,0,0:0:0:0:
277,190,49160,1,8,0:0:0:0:
324,227,49302,1,0,0:0:0:0:
339,219,49443,1,12,0:0:0:0:
312,182,49585,1,0,0:0:0:0:
312,182,49656,1,0,0:0:0:0:
312,182,49726,1,8,0:0:0:0:
312,182,49797,1,0,0:0:0:0:
312,182,49868,1,8,0:0:0:0:
312,182,49939,1,8,0:0:0:0:
312,182,50009,1,8,0:0:0:0:
311,255,50080,1,8,0:0:0:0:
269,229,50151,1,0,0:0:0:0:
199,253,50363,1,0,0:0:0:0:
165,229,50434,1,8,0:0:0:0:
226,273,50575,1,0,0:0:0:0:
250,234,50717,1,8,0:0:0:0:
250,234,50788,1,8,0:0:0:0:
250,234,50858,1,0,0:0:0:0:
254,226,50929,1,0,0:0:0:0:
208,202,51000,1,8,0:0:0:0:
229,214,51141,1,0,0:0:0:0:
229,214,51212,1,0,0:0:0:0:
138,185,51283,1,8,0:0:0:0:
336,254,51424,1,8,0:0:0:0:
336,254,51495,1,8,0:0:0:0:
336,254,51566,1,0,0:0:0:0:
209,271,51637,1,0,0:0:0:0:
336,254,51707,1,8,0:0:0:0:
214,273,51778,1,0,0:0:0:0:
336,254,51849,1,8,0:0:0:0:
279,237,51990,1,0,0:0:0:0:
279,237,52061,1,0,0:0:0:0:
279,237,52132,1,8,0:0:0:0:
263,275,52203,1,8,0:0:0:0:
269,274,52273,1,0,0:0:0:0:
208,237,52415,1,12,0:0:0:0:
323,275,52556,1,8,0:0:0:0:
323,275,52627,1,8,0:0:0:0:
323,275,52698,1,0,0:0:0:0:
246,275,52839,1,8,0:0:0:0:
266,232,52981,1,0,0:0:0:0:
266,232,53052,1,8,0:0:0:0:
266,232,53123,1,8,0:0:0:0:
266,232,53193,1,8,0:0:0:0:
266,232,53264,1,0,0:0:0:0:
344,265,53406,1,8,0:0:0:0:
344,265,53476,1,8,0:0:0:0:
344,265,53547,1,8,0:0:0:0:
344,265,53618,1,8,0:0:0:0:
344,265,53689,1,0,0:0:0:0:
352,285,53830,1,12,0:0:0:0:
382,270,53972,1,0,0:0:0:0:
382,270,54042,1,8,0:0:0:0:
382,270,54113,1,0,0:0:0:0:
382,270,54184,1,0,0:0:0:0:
382,270,54255,1,8,0:0:0:0:
382,270,54325,1,0,0:0:0:0:
382,270,54396,1,8,0:0:0:0:
382,270,54467,1,8,0:0:0:0:
382,270,54538,1,0,0:0:0:0:
410,274,54679,1,8,0:0:0:0:
410,274,54750,1,8,0:0:0:0:
410,274,54821,1,8,0:0:0:0:
410,274,54891,1,8,0:0:0:0:
416,272,54962,1,0,0:0:0:0:
416,272,55033,1,0,0:0:0:0:
416,271,55104,1,8,0:0:0:0:
416,271,55174,1,8,0:0:0:0:
416,271,55245,1,8,0:0:0:0:
416,271,55316,1,8,0:0:0:0:
416,271,55387,1,0,0:0:0:0:
416,271,55457,1,0,0:0:0:0:
277,238,55528,1,8,0:0:0:0:
277,238,55599,1,8,0:0:0:0:
277,238,55670,1,0,0:0:0:0:
308,291,55811,1,8,0:0:0:0:
346,276,55953,1,0,0:0:0:0:
245,273,56023,1,0,0:0:0:0:
202,244,56094,1,8,0:0:0:0:
325,236,56236,1,8,0:0:0:0:
312,229,56306,1,8,0:0:0:0:
312,229,56377,1,0,0:0:0:0:
312,229,56448,1,8,0:0:0:0:
312,229,56519,1,0,0:0:0:0:
270,228,56660,1,8,0:0:0:0:
270,228,56731,1,8,0:0:0:0:
270,228,56802,1,0,0:0:0:0:
262,226,56943,1,12,0:0:0:0:
324,267,57156,1,0,0:0:0:0:
324,267,57226,1,0,0:0:0:0:
324,267,57368,1,12,0:0:0:0:
304,197,57651,1,0,0:0:0:0:
299,197,57722,1,0,0:0:0:0:
298,197,57792,1,8,0:0:0:0:
298,197,57934,1,0,0:0:0:0:
280,197,58075,1,8,0:0:0:0:
280,197,58146,1,8,0:0:0:0:
280,197,58217,1,0,0:0:0:0:
280,197,58288,1,0,0:0:0:0:
280,197,58358,1,8,0:0:0:0:
280,197,58429,1,0,0:0:0:0:
280,197,58500,1,8,0:0:0:0:
280,197,58571,1,8,0:0:0:0:
280,197,58641,1,0,0:0:0:0:
328,261,58783,1,0,0:0:0:0:
328,261,58854,1,0,0:0:0:0:
328,261,58924,1,8,0:0:0:0:
328,261,58995,1,8,0:0:0:0:
328,261,59066,1,8,0:0:0:0:
323,258,59207,1,0,0:0:0:0:
323,258,59278,1,0,0:0:0:0:
323,258,59349,1,0,0:0:0:0:
323,258,59420,1,0,0:0:0:0:
323,258,59490,1,8,0:0:0:0:
323,258,59561,1,8,0:0:0:0:
323,258,59632,1,0,0:0:0:0:
323,258,59703,1,0,0:0:0:0:
323,258,59773,1,0,0:0:0:0:
323,258,59844,1,0,0:0:0:0:
323,258,59915,1,8,0:0:0:0:
323,258,59986,1,8,0:0:0:0:
323,258,60056,1,0,0:0:0:0:
323,258,60127,1,0,0:0:0:0:
323,258,60198,1,8,0:0:0:0:
322,290,60339,1,0,0:0:0:0:
314,275,60410,1,0,0:0:0:0:
283,268,60481,1,8,0:0:0:0:
283,268,60552,1,0,0:0:0:0:
283,268,60623,1,8,0:0:0:0:
388,304,60764,1,0,0:0:0:0:
316,283,60906,1,8,0:0:0:0:
316,283,60976,1,0,0:0:0:0:
316,283,61047,1,8,0:0:0:0:
316,283,61118,1,8,0:0:0:0:
316,283,61189,1,0,0:0:0:0:
316,280,61259,1,8,0:0:0:0:
316,280,61330,1,0,0:0:0:0:
228,179,61472,1,12,0:0:0:0:
227,189,61613,1,0,0:0:0:0:
227,189,61684,1,0,0:0:0:0:
227,189,61755,1,0,0:0:0:0:
227,189,61896,1,12,0:0:0:0:
362,270,62179,1,0,0:0:0:0:
362,270,62321,1,8,0:0:0:0:
362,270,62462,1,8,0:0:0:0:
187,206,62604,1,0,0:0:0:0:
392,242,63877,1,4,0:0:0:0:
346,221,64019,1,8,0:0:0:0:
346,221,64089,1,8,0:0:0:0:
346,221,64160,1,0,0:0:0:0:
288,226,64302,1,12,0:0:0:0:
267,193,64443,1,0,0:0:0:0:
263,194,64514,1,0,0:0:0:0:
262,194,64585,1,8,0:0:0:0:
262,194,64656,1,0,0:0:0:0:
261,193,64726,1,8,0:0:0:0:
261,193,64797,1,8,0:0:0:0:
261,193,64868,1,0,0:0:0:0:
407,285,65009,1,8,0:0:0:0:
377,281,65080,1,8,0:0:0:0:
366,280,65151,1,0,0:0:0:0:
366,280,65222,1,8,0:0:0:0:
366,280,65292,1,0,0:0:0:0:
216,182,65363,1,0,0:0:0:0:
286,190,65434,1,8,0:0:0:0:
292,183,65575,1,8,0:0:0:0:
101,122,65646,1,8,0:0:0:0:
101,122,65717,1,8,0:0:0:0:
224,142,66000,1,0,0:0:0:0:
233,219,66141,1,12,0:0:0:0:
373,220,66283,1,0,0:0:0:0:
237,258,66354,1,0,0:0:0:0:
334,221,66424,1,8,0:0:0:0:
316,225,66566,1,4,0:0:0:0:
301,194,66707,1,8,0:0:0:0:
301,194,66778,1,8,0:0:0:0:
301,194,66849,1,0,0:0:0:0:
301,194,66920,1,8,0:0:0:0:
301,194,66990,1,0,0:0:0:0:
301,194,67061,1,0,0:0:0:0:
301,194,67132,1,8,0:0:0:0:
296,192,67273,1,0,0:0:0:0:
296,192,67344,1,0,0:0:0:0:
296,192,67415,1,8,0:0:0:0:
296,192,67486,1,0,0:0:0:0:
296,192,67556,1,8,0:0:0:0:
296,192,67627,1,8,0:0:0:0:
296,192,67698,1,0,0:0:0:0:
266,252,67839,1,0,0:0:0:0:
255,240,67910,1,0,0:0:0:0:
191,217,67981,1,0,0:0:0:0:
222,190,68123,1,8,0:0:0:0:
296,219,68264,1,0,0:0:0:0:
236,205,68311,1,0,0:0:0:0:
296,219,68358,1,0,0:0:0:0:
91,143,68406,1,0,0:0:0:0:
298,178,68547,1,12,0:0:0:0:
271,295,68759,1,0,0:0:0:0:
248,332,68830,1,8,0:0:0:0:
266,157,68972,1,0,0:0:0:0:
235,160,69113,1,8,0:0:0:0:
235,160,69184,1,0,0:0:0:0:
235,160,69255,1,8,0:0:0:0:
235,160,69325,1,8,0:0:0:0:
235,160,69396,1,0,0:0:0:0:
235,160,69538,1,0,0:0:0:0:
235,160,69608,1,0,0:0:0:0:
235,160,69679,1,8,0:0:0:0:
235,160,69821,1,0,0:0:0:0:
315,271,69962,1,8,0:0:0:0:
315,271,70033,1,8,0:0:0:0:
315,271,70104,1,0,0:0:0:0:
315,271,70174,1,0,0:0:0:0:
315,271,70245,1,8,0:0:0:0:
315,271,70387,1,8,0:0:0:0:
194,268,70528,1,0,0:0:0:0:
194,268,70670,1,0,0:0:0:0:
194,268,70953,1,8,0:0:0:0:
194,268,71094,1,8,0:0:0:0:
248,310,71377,1,0,0:0:0:0:
248,310,71519,1,8,0:0:0:0:
94,180,71802,1,8,0:0:0:0:
103,184,71943,1,0,0:0:0:0:
271,306,72226,1,8,0:0:0:0:
271,306,72368,1,0,0:0:0:0:
271,306,72509,1,8,0:0:0:0:
275,300,72792,1,0,0:0:0:0:
296,234,73075,1,8,0:0:0:0:
296,234,73217,1,0,0:0:0:0:
296,234,73358,1,8,0:0:0:0:
296,234,73641,1,0,0:0:0:0:
296,234,73783,1,0,0:0:0:0:
296,234,73924,1,8,0:0:0:0:
328,310,74207,1,0,0:0:0:0:
330,137,74349,1,0,0:0:0:0:
304,157,74490,1,8,0:0:0:0:
238,170,74632,1,8,0:0:0:0:
238,170,74773,1,0,0:0:0:0:
238,170,74915,1,8,0:0:0:0:
238,170,75056,1,0,0:0:0:0:
286,266,75339,1,0,0:0:0:0:
286,266,75481,1,8,0:0:0:0:
263,258,75623,1,0,0:0:0:0:
289,246,75906,1,8,0:0:0:0:
263,258,76047,1,0,0:0:0:0:
299,247,76330,1,0,0:0:0:0:
298,247,76472,1,8,0:0:0:0:
219,150,76613,1,8,0:0:0:0:
219,150,76755,1,0,0:0:0:0:
205,173,77321,1,8,0:0:0:0:
205,173,77604,1,0,0:0:0:0:
205,173,77745,1,8,0:0:0:0:
301,242,77887,1,0,0:0:0:0:
308,232,78170,1,8,0:0:0:0:
308,232,78311,1,8,0:0:0:0:
308,232,78453,1,0,0:0:0:0:
295,288,78736,1,8,0:0:0:0:
295,288,78877,1,8,0:0:0:0:
209,231,79019,1,0,0:0:0:0:
209,231,79160,1,0,0:0:0:0:
211,208,79302,1,8,0:0:0:0:
211,208,79443,1,8,0:0:0:0:
206,195,79585,1,0,0:0:0:0:
281,204,79868,1,8,0:0:0:0:
281,204,80009,1,0,0:0:0:0:
281,204,80151,1,8,0:0:0:0:
225,189,80434,1,0,0:0:0:0:
224,177,80575,1,0,0:0:0:0:
239,136,80717,1,12,0:0:0:0:
214,170,80858,1,8,0:0:0:0:
247,160,81000,1,0,0:0:0:0:
247,160,81141,1,0,0:0:0:0:
340,216,81283,1,8,0:0:0:0:
340,216,81354,1,8,0:0:0:0:
340,216,81424,1,8,0:0:0:0:
340,216,81495,1,8,0:0:0:0:
340,216,81566,1,8,0:0:0:0:
340,216,81637,1,8,0:0:0:0:
340,216,81707,1,8,0:0:0:0:
235,153,81849,1,4,0:0:0:0:
227,240,82061,1,0,0:0:0:0:
213,241,82132,1,8,0:0:0:0:
213,241,82273,1,0,0:0:0:0:
213,241,82344,1,0,0:0:0:0:
213,241,82415,1,8,0:0:0:0:
218,238,82556,1,0,0:0:0:0:
221,243,82698,1,8,0:0:0:0:
221,243,82769,1,8,0:0:0:0:
221,243,82839,1,0,0:0:0:0:
221,243,82910,1,0,0:0:0:0:
221,243,82981,1,8,0:0:0:0:
301,221,83123,1,0,0:0:0:0:
314,275,83193,1,0,0:0:0:0:
264,268,83264,1,0,0:0:0:0:
264,268,83406,1,0,0:0:0:0:
351,277,83547,1,8,0:0:0:0:
351,277,83618,1,8,0:0:0:0:
351,277,83689,1,0,0:0:0:0:
351,277,83759,1,0,0:0:0:0:
349,268,83830,1,8,0:0:0:0:
349,268,83901,1,0,0:0:0:0:
349,268,83972,1,8,0:0:0:0:
349,268,84113,1,0,0:0:0:0:
250,273,84255,1,8,0:0:0:0:
250,273,84325,1,0,0:0:0:0:
250,273,84396,1,8,0:0:0:0:
250,273,84467,1,8,0:0:0:0:
250,273,84538,1,0,0:0:0:0:
229,296,84608,1,0,0:0:0:0:
302,278,84679,1,8,0:0:0:0:
267,293,84821,1,8,0:0:0:0:
339,283,84891,1,8,0:0:0:0:
247,250,84962,1,0,0:0:0:0:
264,223,85104,1,0,0:0:0:0:
264,223,85174,1,0,0:0:0:0:
264,223,85245,1,8,0:0:0:0:
246,238,85387,1,0,0:0:0:0:
315,265,85528,1,8,0:0:0:0:
315,265,85599,1,8,0:0:0:0:
315,265,85670,1,0,0:0:0:0:
315,265,85740,1,0,0:0:0:0:
315,265,85811,1,8,0:0:0:0:
315,265,85882,1,0,0:0:0:0:
315,265,85953,1,8,0:0:0:0:
315,265,86023,1,8,0:0:0:0:
315,265,86094,1,0,0:0:0:0:
315,265,86165,1,0,0:0:0:0:
315,265,86236,1,8,0:0:0:0:
326,254,86377,1,4,0:0:0:0:
264,266,86519,1,8,0:0:0:0:
244,247,86589,1,0,0:0:0:0:
237,240,86731,1,0,0:0:0:0:
235,237,86802,1,8,0:0:0:0:
262,246,86943,1,0,0:0:0:0:
262,246,87014,1,0,0:0:0:0:
262,246,87085,1,8,0:0:0:0:
262,246,87156,1,0,0:0:0:0:
262,246,87226,1,8,0:0:0:0:
262,246,87368,1,0,0:0:0:0:
262,246,87439,1,0,0:0:0:0:
341,131,87509,1,0,0:0:0:0:
341,131,87580,1,0,0:0:0:0:
341,131,87651,1,8,0:0:0:0:
256,294,87792,1,0,0:0:0:0:
256,294,87934,1,0,0:0:0:0:
346,249,88075,1,8,0:0:0:0:
346,249,88146,1,8,0:0:0:0:
346,249,88217,1,0,0:0:0:0:
346,249,88288,1,0,0:0:0:0:
346,249,88358,1,8,0:0:0:0:
346,249,88500,1,8,0:0:0:0:
333,289,88641,1,0,0:0:0:0:
290,232,88712,1,8,0:0:0:0:
290,232,88783,1,8,0:0:0:0:
290,232,88854,1,0,0:0:0:0:
290,232,88995,1,0,0:0:0:0:
290,232,89066,1,8,0:0:0:0:
374,245,89207,1,0,0:0:0:0:
374,245,89278,1,0,0:0:0:0:
374,245,89349,1,8,0:0:0:0:
374,245,89420,1,0,0:0:0:0:
374,245,89490,1,8,0:0:0:0:
374,245,89561,1,8,0:0:0:0:
374,245,89632,1,0,0:0:0:0:
295,253,89773,1,8,0:0:0:0:
240,266,90056,1,8,0:0:0:0:
240,266,90339,1,8,0:0:0:0:
194,152,90481,1,4,0:0:0:0:
194,152,90623,1,4,0:0:0:0:
352,277,90906,1,12,0:0:0:0:
189,88,91118,5,8,0:0:0:0:
189,88,91189,1,0,0:0:0:0:
189,88,91330,1,8,0:0:0:0:
189,88,91472,1,0,0:0:0:0:
192,84,91542,1,0,0:0:0:0:
208,107,91613,1,8,0:0:0:0:
222,126,91684,1,0,0:0:0:0:
222,126,91755,1,8,0:0:0:0:
222,126,91896,1,0,0:0:0:0:
47,214,91967,1,0,0:0:0:0:
163,203,92038,1,8,0:0:0:0:
338,202,92179,1,8,0:0:0:0:
300,202,92250,1,8,0:0:0:0:
300,202,92321,1,0,0:0:0:0:
300,202,92391,1,8,0:0:0:0:
300,202,92462,1,0,0:0:0:0:
300,202,92533,1,0,0:0:0:0:
300,202,92604,1,0,0:0:0:0:
278,263,92745,1,8,0:0:0:0:
122,161,92816,1,0,0:0:0:0:
122,161,92887,1,8,0:0:0:0:
232,192,93028,1,8,0:0:0:0:
282,184,93170,1,4,0:0:0:0:
335,251,93311,1,0,0:0:0:0:
335,251,93382,1,0,0:0:0:0:
335,251,93453,1,8,0:0:0:0:
315,278,93594,1,0,0:0:0:0:
301,242,93736,1,8,0:0:0:0:
296,242,93806,1,8,0:0:0:0:
296,242,93877,1,0,0:0:0:0:
296,242,93948,1,8,0:0:0:0:
296,242,94019,1,0,0:0:0:0:
266,259,94160,1,8,0:0:0:0:
249,229,94231,1,8,0:0:0:0:
277,190,94302,1,8,0:0:0:0:
277,190,94373,1,8,0:0:0:0:
277,190,94443,1,0,0:0:0:0:
324,227,94585,1,8,0:0:0:0:
339,219,94726,1,4,0:0:0:0:
312,182,94868,1,8,0:0:0:0:
312,182,94939,1,8,0:0:0:0:
312,182,95009,1,0,0:0:0:0:
312,182,95080,1,8,0:0:0:0:
312,182,95151,1,0,0:0:0:0:
312,182,95222,1,0,0:0:0:0:
312,182,95292,1,0,0:0:0:0:
311,255,95363,1,0,0:0:0:0:
269,229,95434,1,8,0:0:0:0:
199,253,95646,1,8,0:0:0:0:
165,229,95717,1,0,0:0:0:0:
226,273,95858,1,8,0:0:0:0:
250,234,96000,1,0,0:0:0:0:
250,234,96071,1,0,0:0:0:0:
250,234,96141,1,8,0:0:0:0:
254,226,96212,1,8,0:0:0:0:
208,202,96283,1,0,0:0:0:0:
229,214,96424,1,8,0:0:0:0:
229,214,96495,1,8,0:0:0:0:
138,185,96566,1,0,0:0:0:0:
336,254,96707,1,0,0:0:0:0:
336,254,96778,1,0,0:0:0:0:
336,254,96849,1,8,0:0:0:0:
209,271,96920,1,8,0:0:0:0:
336,254,96990,1,0,0:0:0:0:
214,273,97061,1,8,0:0:0:0:
336,254,97132,1,0,0:0:0:0:
279,237,97273,1,8,0:0:0:0:
279,237,97344,1,8,0:0:0:0:
279,237,97415,1,0,0:0:0:0:
263,275,97486,1,0,0:0:0:0:
269,274,97556,1,8,0:0:0:0:
208,237,97698,1,4,0:0:0:0:
323,275,97839,1,0,0:0:0:0:
323,275,97910,1,0,0:0:0:0:
323,275,97981,1,8,0:0:0:0:
246,275,98123,1,0,0:0:0:0:
266,232,98264,1,8,0:0:0:0:
266,232,98335,1,0,0:0:0:0:
266,232,98406,1,0,0:0:0:0:
266,232,98476,1,0,0:0:0:0:
266,232,98547,1,8,0:0:0:0:
344,265,98689,1,0,0:0:0:0:
344,265,98759,1,0,0:0:0:0:
344,265,98830,1,0,0:0:0:0:
344,265,98901,1,0,0:0:0:0:
344,265,98972,1,8,0:0:0:0:
352,285,99113,1,4,0:0:0:0:
382,270,99255,1,8,0:0:0:0:
382,270,99325,1,0,0:0:0:0:
382,270,99396,1,8,0:0:0:0:
382,270,99467,1,8,0:0:0:0:
382,270,99538,1,0,0:0:0:0:
382,270,99608,1,8,0:0:0:0:
382,270,99679,1,0,0:0:0:0:
382,270,99750,1,0,0:0:0:0:
382,270,99821,1,8,0:0:0:0:
410,274,99962,1,0,0:0:0:0:
410,274,100033,1,0,0:0:0:0:
410,274,100104,1,0,0:0:0:0:
410,274,100174,1,0,0:0:0:0:
416,272,100245,1,8,0:0:0:0:
416,272,100316,1,8,0:0:0:0:
416,271,100387,1,0,0:0:0:0:
416,271,100457,1,0,0:0:0:0:
416,271,100528,1,0,0:0:0:0:
416,271,100599,1,0,0:0:0:0:
416,271,100670,1,8,0:0:0:0:
416,271,100740,1,8,0:0:0:0:
277,238,100811,1,0,0:0:0:0:
277,238,100882,1,0,0:0:0:0:
277,238,100953,1,8,0:0:0:0:
308,291,101094,1,0,0:0:0:0:
346,276,101236,1,8,0:0:0:0:
245,273,101306,1,8,0:0:0:0:
202,244,101377,1,0,0:0:0:0:
325,236,101519,1,0,0:0:0:0:
312,229,101589,1,0,0:0:0:0:
312,229,101660,1,8,0:0:0:0:
312,229,101731,1,0,0:0:0:0:
312,229,101802,1,8,0:0:0:0:
270,228,101943,1,0,0:0:0:0:
270,228,102014,1,0,0:0:0:0:
270,228,102085,1,8,0:0:0:0:
262,226,102226,1,4,0:0:0:0:
324,267,102439,1,8,0:0:0:0:
324,267,102509,1,8,0:0:0:0:
324,267,102651,1,4,0:0:0:0:
304,197,102934,1,8,0:0:0:0:
299,197,103005,1,8,0:0:0:0:
298,197,103075,1,0,0:0:0:0:
298,197,103217,1,8,0:0:0:0:
280,197,103358,1,0,0:0:0:0:
280,197,103429,1,0,0:0:0:0:
280,197,103500,1,8,0:0:0:0:
280,197,103571,1,8,0:0:0:0:
280,197,103641,1,0,0:0:0:0:
280,197,103712,1,8,0:0:0:0:
280,197,103783,1,0,0:0:0:0:
280,197,103854,1,0,0:0:0:0:
280,197,103924,1,8,0:0:0:0:
328,261,104066,1,8,0:0:0:0:
328,261,104137,1,8,0:0:0:0:
328,261,104207,1,0,0:0:0:0:
328,261,104278,1,0,0:0:0:0:
328,261,104349,1,0,0:0:0:0:
323,258,104490,1,8,0:0:0:0:
323,258,104561,1,8,0:0:0:0:
323,258,104632,1,8,0:0:0:0:
323,258,104703,1,8,0:0:0:0:
323,258,104773,1,0,0:0:0:0:
323,258,104844,1,0,0:0:0:0:
323,258,104915,1,8,0:0:0:0:
323,258,104986,1,8,0:0:0:0:
323,258,105056,1,8,0:0:0:0:
323,258,105127,1,8,0:0:0:0:
323,258,105198,1,0,0:0:0:0:
323,258,105269,1,0,0:0:0:0:
323,258,105339,1,8,0:0:0:0:
323,258,105410,1,8,0:0:0:0:
323,258,105481,1,0,0:0:0:0:
322,290,105623,1,8,0:0:0:0:
314,275,105693,1,8,0:0:0:0:
283,268,105764,1,0,0:0:0:0:
283,268,105835,1,8,0:0:0:0:
283,268,105906,1,0,0:0:0:0:
388,304,106047,1,8,0:0:0:0:
316,283,106189,1,0,0:0:0:0:
316,283,106259,1,8,0:0:0:0:
316,283,106330,1,0,0:0:0:0:
316,283,106401,1,0,0:0:0:0:
316,283,106472,1,8,0:0:0:0:
316,280,106542,1,0,0:0:0:0:
316,280,106613,1,8,0:0:0:0:
228,179,106755,1,4,0:0:0:0:
227,189,106896,1,8,0:0:0:0:
227,189,106967,1,8,0:0:0:0:
227,189,107038,1,8,0:0:0:0:
227,189,107179,1,4,0:0:0:0:
362,270,107462,1,8,0:0:0:0:
362,270,107604,1,0,0:0:0:0:
362,270,107745,1,0,0:0:0:0:
187,206,107887,1,8,0:0:0:0:
213,195,109019,1,0,0:0:0:0:
151,207,109302,1,8,0:0:0:0:
151,207,109443,1,0,0:0:0:0:
151,207,109514,1,8,0:0:0:0:
151,207,109656,1,8,0:0:0:0:
89,205,109726,1,0,0:0:0:0:
187,264,109868,1,8,0:0:0:0:
187,264,110009,1,8,0:0:0:0:
203,237,110151,1,0,0:0:0:0:
167,234,110222,1,0,0:0:0:0:
167,234,110292,1,0,0:0:0:0:
261,269,110434,1,8,0:0:0:0:
355,264,110575,1,0,0:0:0:0:
355,264,110646,1,8,0:0:0:0:
341,264,110717,1,8,0:0:0:0:
341,264,110788,1,8,0:0:0:0:
341,264,110858,1,0,0:0:0:0:
341,264,111000,1,8,0:0:0:0:
304,315,111283,1,0,0:0:0:0:
170,171,111424,1,8,0:0:0:0:
170,171,111495,1,8,0:0:0:0:
170,171,111566,1,8,0:0:0:0:
342,273,111707,1,0,0:0:0:0:
293,255,111778,1,8,0:0:0:0:
293,255,111920,1,8,0:0:0:0:
293,255,111990,1,0,0:0:0:0:
293,255,112061,1,0,0:0:0:0:
293,255,112132,1,8,0:0:0:0:
282,313,112273,1,0,0:0:0:0:
288,239,112415,1,8,0:0:0:0:
288,239,112486,1,8,0:0:0:0:
288,239,112556,1,0,0:0:0:0:
288,239,112627,1,8,0:0:0:0:
288,239,112698,1,0,0:0:0:0:
288,239,112769,1,0,0:0:0:0:
288,239,112839,1,0,0:0:0:0:
240,200,112981,1,12,0:0:0:0:
240,200,113123,1,12,0:0:0:0:
352,277,113547,1,4,0:0:0:0:
272,192,113830,1,0,0:0:0:0:
272,192,114113,1,12,0:0:0:0:
274,237,114396,1,8,0:0:0:0:
338,144,114538,1,8,0:0:0:0:
273,197,114679,1,4,0:0:0:0:
285,232,114962,1,0,0:0:0:0:
192,136,115104,1,0,0:0:0:0:
249,217,115245,1,8,0:0:0:0:
249,217,115316,1,0,0:0:0:0:
249,217,115387,1,8,0:0:0:0:
249,217,115457,1,8,0:0:0:0:
249,217,115528,1,0,0:0:0:0:
306,283,115670,1,0,0:0:0:0:
353,267,115811,1,12,0:0:0:0:
392,247,116094,1,8,0:0:0:0:
280,254,116236,1,0,0:0:0:0:
225,252,116306,1,0,0:0:0:0:
280,254,116377,1,0,0:0:0:0:
281,232,116660,1,0,0:0:0:0:
281,232,116802,1,8,0:0:0:0:
340,272,116943,1,0,0:0:0:0:
328,199,117014,1,0,0:0:0:0:
316,285,117085,1,0,0:0:0:0:
221,284,117226,1,8,0:0:0:0:
186,251,117368,1,0,0:0:0:0:
218,232,117509,1,12,0:0:0:0:
10,222,117792,1,12,0:0:0:0:
235,310,118075,1,4,0:0:0:0:
321,296,118358,1,0,0:0:0:0:
173,169,118641,1,12,0:0:0:0:
178,187,118924,1,8,0:0:0:0:
221,254,119066,1,8,0:0:0:0:
295,249,119207,1,0,0:0:0:0:
279,236,119278,1,0,0:0:0:0:
271,230,119349,1,0,0:0:0:0:
295,224,119490,1,8,0:0:0:0:
372,275,119632,1,0,0:0:0:0:
347,245,119773,1,8,0:0:0:0:
347,245,119844,1,8,0:0:0:0:
347,245,119915,1,0,0:0:0:0:
347,245,119986,1,0,0:0:0:0:
348,236,120056,1,8,0:0:0:0:
272,242,120339,1,0,0:0:0:0:
272,242,120481,1,0,0:0:0:0:
236,235,120552,1,0,0:0:0:0:
210,229,120623,1,8,0:0:0:0:
210,229,120764,1,0,0:0:0:0:
145,118,120906,1,8,0:0:0:0:
145,118,120976,1,8,0:0:0:0:
145,118,121047,1,0,0:0:0:0:
245,229,121118,1,0,0:0:0:0:
204,209,121189,1,0,0:0:0:0:
291,197,121330,1,8,0:0:0:0:
83,128,121472,1,0,0:0:0:0:
96,131,121542,1,0,0:0:0:0:
107,134,121613,1,0,0:0:0:0:
316,253,121755,1,8,0:0:0:0:
331,239,121825,1,8,0:0:0:0:
331,239,121896,1,0,0:0:0:0:
331,239,121967,1,0,0:0:0:0:
331,239,122038,1,8,0:0:0:0:
332,235,122179,1,8,0:0:0:0:
332,235,122321,1,8,0:0:0:0:
351,265,122462,1,8,0:0:0:0:
331,158,123453,1,0,0:0:0:0:
324,238,123736,1,8,0:0:0:0:
324,238,124019,1,8,0:0:0:0:
257,217,124302,1,0,0:0:0:0:
292,214,124585,1,0,0:0:0:0:
292,214,124726,1,8,0:0:0:0:
292,214,125009,1,8,0:0:0:0:
240,211,125151,1,0,0:0:0:0:
240,211,125292,1,0,0:0:0:0:
240,211,125434,1,8,0:0:0:0:
211,267,125717,1,8,0:0:0:0:
211,267,126000,1,0,0:0:0:0:
295,200,126283,1,0,0:0:0:0:
290,174,126424,1,0,0:0:0:0:
147,138,126495,1,0,0:0:0:0:
96,120,126566,1,8,0:0:0:0:
316,172,126849,1,8,0:0:0:0:
282,196,126990,1,8,0:0:0:0:
211,178,127132,1,4,0:0:0:0:
351,184,127415,1,8,0:0:0:0:
351,184,127556,1,0,0:0:0:0:
211,178,127698,1,12,0:0:0:0:
364,209,127910,1,0,0:0:0:0:
243,179,127981,1,8,0:0:0:0:
292,165,128122,1,8,0:0:0:0:
325,166,128264,1,0,0:0:0:0:
171,239,128547,1,8,0:0:0:0:
181,238,128688,1,8,0:0:0:0:
185,235,128830,1,0,0:0:0:0:
233,258,129113,1,8,0:0:0:0:
289,265,129254,1,0,0:0:0:0:
289,265,129396,1,0,0:0:0:0:
261,208,129537,1,8,0:0:0:0:
261,208,129820,1,8,0:0:0:0:
198,286,129962,1,8,0:0:0:0:
236,285,130245,1,8,0:0:0:0:
260,247,130528,1,0,0:0:0:0:
260,247,130811,1,8,0:0:0:0:
296,245,131094,1,0,0:0:0:0:
198,146,131377,1,8,0:0:0:0:
198,146,131448,1,8,0:0:0:0:
240,233,131519,1,8,0:0:0:0:
270,259,131589,1,8,0:0:0:0:
183,191,131660,1,0,0:0:0:0:
253,188,132509,1,12,0:0:0:0:
309,258,132792,1,4,0:0:0:0:
189,88,133004,5,0,0:0:0:0:
189,88,133075,1,8,0:0:0:0:
189,88,133217,1,0,0:0:0:0:
335,262,133287,1,0,0:0:0:0:
189,88,133358,1,8,0:0:0:0:
192,84,133429,1,8,0:0:0:0:
208,107,133500,1,0,0:0:0:0:
222,126,133570,1,8,0:0:0:0:
222,126,133641,1,0,0:0:0:0:
222,126,133783,1,8,0:0:0:0:
47,214,133853,1,8,0:0:0:0:
163,203,133924,1,0,0:0:0:0:
272,251,133995,1,0,0:0:0:0:
240,248,134066,1,8,0:0:0:0:
300,202,134136,1,0,0:0:0:0:
300,202,134207,1,8,0:0:0:0:
375,282,134278,1,8,0:0:0:0:
375,282,134349,1,0,0:0:0:0:
300,202,134419,1,8,0:0:0:0:
344,270,134490,1,0,0:0:0:0:
258,258,134632,1,8,0:0:0:0:
122,161,134702,1,8,0:0:0:0:
122,161,134773,1,0,0:0:0:0:
47,165,134844,1,0,0:0:0:0:
232,192,134915,1,0,0:0:0:0:
282,184,135056,1,12,0:0:0:0:
335,251,135198,1,8,0:0:0:0:
335,251,135269,1,8,0:0:0:0:
335,251,135339,1,0,0:0:0:0:
258,274,135410,1,0,0:0:0:0:
315,278,135481,1,8,0:0:0:0:
301,242,135622,1,0,0:0:0:0:
296,242,135693,1,0,0:0:0:0:
296,242,135764,1,8,0:0:0:0:
296,242,135835,1,0,0:0:0:0:
296,242,135905,1,8,0:0:0:0:
337,236,135976,1,8,0:0:0:0:
266,259,136047,1,0,0:0:0:0:
249,229,136118,1,0,0:0:0:0:
277,190,136188,1,0,0:0:0:0:
277,190,136259,1,0,0:0:0:0:
277,190,136330,1,8,0:0:0:0:
324,227,136471,1,0,0:0:0:0:
339,219,136613,1,12,0:0:0:0:
312,182,136754,1,0,0:0:0:0:
312,182,136825,1,0,0:0:0:0:
312,182,136896,1,8,0:0:0:0:
312,182,136967,1,0,0:0:0:0:
312,182,137037,1,8,0:0:0:0:
312,182,137108,1,8,0:0:0:0:
312,182,137179,1,8,0:0:0:0:
311,255,137250,1,8,0:0:0:0:
269,229,137320,1,0,0:0:0:0:
199,253,137533,1,0,0:0:0:0:
165,229,137603,1,8,0:0:0:0:
226,273,137745,1,0,0:0:0:0:
342,275,137816,1,0,0:0:0:0:
250,234,137886,1,8,0:0:0:0:
250,234,137957,1,8,0:0:0:0:
250,234,138028,1,0,0:0:0:0:
270,270,138099,1,8,0:0:0:0:
270,270,138169,1,0,0:0:0:0:
424,282,138311,1,8,0:0:0:0:
424,282,138382,1,8,0:0:0:0:
424,282,138452,1,0,0:0:0:0:
424,282,138523,1,0,0:0:0:0:
336,254,138594,1,8,0:0:0:0:
410,285,138665,1,0,0:0:0:0:
410,285,138735,1,8,0:0:0:0:
410,285,138806,1,8,0:0:0:0:
410,285,138877,1,0,0:0:0:0:
214,273,138948,1,0,0:0:0:0:
336,254,139019,1,8,0:0:0:0:
279,237,139160,1,0,0:0:0:0:
279,237,139231,1,0,0:0:0:0:
279,237,139302,1,8,0:0:0:0:
263,275,139372,1,8,0:0:0:0:
269,274,139443,1,0,0:0:0:0:
208,237,139585,1,12,0:0:0:0:
323,275,139726,1,8,0:0:0:0:
323,275,139797,1,8,0:0:0:0:
323,275,139868,1,0,0:0:0:0:
235,265,139938,1,0,0:0:0:0:
246,275,140009,1,8,0:0:0:0:
266,232,140151,1,0,0:0:0:0:
272,279,140221,1,8,0:0:0:0:
272,279,140292,1,0,0:0:0:0:
272,279,140363,1,0,0:0:0:0:
238,216,140434,1,8,0:0:0:0:
238,216,140504,1,0,0:0:0:0:
344,265,140575,1,8,0:0:0:0:
344,265,140646,1,8,0:0:0:0:
344,265,140717,1,8,0:0:0:0:
344,265,140787,1,8,0:0:0:0:
344,265,140858,1,0,0:0:0:0:
352,285,141000,1,12,0:0:0:0:
382,270,141141,1,0,0:0:0:0:
382,270,141212,1,8,0:0:0:0:
382,270,141283,1,0,0:0:0:0:
382,270,141353,1,0,0:0:0:0:
382,270,141424,1,8,0:0:0:0:
382,270,141495,1,0,0:0:0:0:
382,270,141566,1,8,0:0:0:0:
382,270,141636,1,8,0:0:0:0:
382,270,141707,1,0,0:0:0:0:
410,274,141849,1,8,0:0:0:0:
410,274,141919,1,8,0:0:0:0:
410,274,141990,1,8,0:0:0:0:
410,274,142061,1,8,0:0:0:0:
416,272,142132,1,0,0:0:0:0:
416,272,142202,1,0,0:0:0:0:
416,271,142273,1,8,0:0:0:0:
416,271,142344,1,8,0:0:0:0:
416,271,142415,1,8,0:0:0:0:
416,271,142485,1,8,0:0:0:0:
416,271,142556,1,0,0:0:0:0:
416,271,142627,1,0,0:0:0:0:
277,238,142698,1,8,0:0:0:0:
277,238,142769,1,8,0:0:0:0:
423,198,142839,1,8,0:0:0:0:
423,198,142910,1,8,0:0:0:0:
423,198,142981,1,0,0:0:0:0:
346,276,143122,1,0,0:0:0:0:
245,273,143193,1,0,0:0:0:0:
202,244,143264,1,8,0:0:0:0:
325,236,143405,1,8,0:0:0:0:
312,229,143476,1,8,0:0:0:0:
312,229,143547,1,0,0:0:0:0:
312,229,143618,1,8,0:0:0:0:
312,229,143688,1,0,0:0:0:0:
352,317,143759,1,0,0:0:0:0:
270,228,143830,1,8,0:0:0:0:
270,228,143901,1,8,0:0:0:0:
270,228,143971,1,0,0:0:0:0:
262,226,144113,1,12,0:0:0:0:
324,267,144325,1,0,0:0:0:0:
324,267,144396,1,0,0:0:0:0:
324,267,144537,1,12,0:0:0:0:
430,291,144679,1,0,0:0:0:0:
304,197,144820,1,0,0:0:0:0:
299,197,144891,1,0,0:0:0:0:
298,197,144962,1,8,0:0:0:0:
281,277,145033,1,8,0:0:0:0:
298,197,145103,1,0,0:0:0:0:
280,197,145245,1,8,0:0:0:0:
280,197,145316,1,8,0:0:0:0:
280,197,145386,1,0,0:0:0:0:
280,197,145457,1,0,0:0:0:0:
280,197,145528,1,8,0:0:0:0:
280,197,145599,1,0,0:0:0:0:
280,197,145669,1,8,0:0:0:0:
280,197,145740,1,8,0:0:0:0:
280,197,145811,1,0,0:0:0:0:
328,261,145952,1,0,0:0:0:0:
328,261,146023,1,0,0:0:0:0:
328,261,146094,1,8,0:0:0:0:
328,261,146165,1,8,0:0:0:0:
328,261,146235,1,8,0:0:0:0:
323,258,146377,1,0,0:0:0:0:
323,258,146448,1,0,0:0:0:0:
323,258,146519,1,0,0:0:0:0:
323,258,146589,1,0,0:0:0:0:
323,258,146660,1,8,0:0:0:0:
323,258,146731,1,8,0:0:0:0:
323,258,146802,1,0,0:0:0:0:
323,258,146872,1,0,0:0:0:0:
323,258,146943,1,0,0:0:0:0:
323,258,147014,1,0,0:0:0:0:
323,258,147085,1,8,0:0:0:0:
323,258,147155,1,8,0:0:0:0:
323,258,147226,1,0,0:0:0:0:
323,258,147297,1,0,0:0:0:0:
246,215,147368,1,0,0:0:0:0:
246,215,147438,1,0,0:0:0:0:
246,215,147509,1,8,0:0:0:0:
304,281,147580,1,8,0:0:0:0:
292,273,147651,1,0,0:0:0:0:
283,268,147721,1,8,0:0:0:0:
283,268,147792,1,0,0:0:0:0:
388,304,147934,1,8,0:0:0:0:
316,283,148075,1,0,0:0:0:0:
316,283,148146,1,0,0:0:0:0:
316,283,148217,1,8,0:0:0:0:
316,283,148287,1,0,0:0:0:0:
316,283,148358,1,8,0:0:0:0:
316,280,148429,1,8,0:0:0:0:
316,280,148500,1,0,0:0:0:0:
228,179,148641,1,12,0:0:0:0:
227,189,148783,1,0,0:0:0:0:
227,189,148853,1,0,0:0:0:0:
227,189,148924,1,0,0:0:0:0:
227,189,149066,1,12,0:0:0:0:
246,114,149207,1,0,0:0:0:0:
269,104,149278,1,0,0:0:0:0:
362,270,149349,1,0,0:0:0:0:
362,270,149490,1,8,0:0:0:0:
362,270,149632,1,8,0:0:0:0:
187,206,149773,1,0,0:0:0:0:
288,243,149844,1,0,0:0:0:0:
277,224,149915,1,8,0:0:0:0:
271,225,149985,1,0,0:0:0:0:
262,227,150056,1,8,0:0:0:0:
262,227,150127,1,8,0:0:0:0:
261,227,150198,1,0,0:0:0:0:
415,272,150339,1,8,0:0:0:0:
404,268,150410,1,0,0:0:0:0:
377,266,150481,1,8,0:0:0:0:
373,263,150552,1,8,0:0:0:0:
373,263,150622,1,0,0:0:0:0:
373,263,150693,1,8,0:0:0:0:
373,262,150764,1,0,0:0:0:0:
244,199,150905,1,8,0:0:0:0:
244,199,150976,1,8,0:0:0:0:
244,199,151047,1,0,0:0:0:0:
277,125,151118,1,0,0:0:0:0:
277,125,151188,1,8,0:0:0:0:
205,120,151330,1,0,0:0:0:0:
205,120,151401,1,8,0:0:0:0:
205,120,151471,1,0,0:0:0:0:
205,120,151542,1,0,0:0:0:0:
205,120,151613,1,8,0:0:0:0:
314,257,151754,1,0,0:0:0:0:
203,231,151825,1,0,0:0:0:0:
185,237,151896,1,0,0:0:0:0:
176,223,151967,1,0,0:0:0:0:
170,211,152037,1,8,0:0:0:0:
262,219,152179,1,0,0:0:0:0:
250,212,152250,1,0,0:0:0:0:
245,206,152320,1,0,0:0:0:0:
360,230,152462,1,8,0:0:0:0:
360,230,152533,1,8,0:0:0:0:
360,230,152603,1,0,0:0:0:0:
360,230,152674,1,0,0:0:0:0:
360,230,152745,1,8,0:0:0:0:
360,230,152816,1,0,0:0:0:0:
360,230,152886,1,8,0:0:0:0:
359,224,152957,1,8,0:0:0:0:
359,224,153028,1,0,0:0:0:0:
359,342,153169,1,12,0:0:0:0:
186,98,153311,1,0,0:0:0:0:
186,98,153382,1,0,0:0:0:0:
186,98,153452,1,0,0:0:0:0:
276,264,153594,1,12,0:0:0:0:
224,122,153735,1,0,0:0:0:0:
230,123,153806,1,0,0:0:0:0:
230,123,153877,1,0,0:0:0:0:
261,248,154019,1,8,0:0:0:0:
261,248,154160,1,8,0:0:0:0:
323,214,154302,1,0,0:0:0:0:
323,214,154372,1,0,0:0:0:0:
323,214,154443,1,8,0:0:0:0:
323,214,154514,1,0,0:0:0:0:
323,214,154585,1,8,0:0:0:0:
319,208,154655,1,8,0:0:0:0:
319,208,154726,1,0,0:0:0:0:
304,217,154868,1,8,0:0:0:0:
304,217,154938,1,8,0:0:0:0:
304,217,155009,1,0,0:0:0:0:
304,217,155080,1,8,0:0:0:0:
304,217,155151,1,0,0:0:0:0:
304,217,155221,1,0,0:0:0:0:
304,217,155292,1,8,0:0:0:0:
408,216,155434,1,0,0:0:0:0:
408,216,155504,1,0,0:0:0:0:
408,216,155575,1,8,0:0:0:0:
396,199,155646,1,8,0:0:0:0:
387,199,155717,1,0,0:0:0:0:
379,192,155858,1,8,0:0:0:0:
379,192,155929,1,0,0:0:0:0:
379,192,156000,1,8,0:0:0:0:
379,192,156070,1,8,0:0:0:0:
379,192,156141,1,0,0:0:0:0:
330,255,156283,1,8,0:0:0:0:
330,255,156353,1,8,0:0:0:0:
330,255,156424,1,8,0:0:0:0:
330,255,156495,1,8,0:0:0:0:
330,255,156566,1,0,0:0:0:0:
322,235,156707,1,8,0:0:0:0:
312,233,156778,1,8,0:0:0:0:
312,233,156849,1,8,0:0:0:0:
254,238,156990,1,0,0:0:0:0:
254,238,157061,1,0,0:0:0:0:
254,238,157132,1,8,0:0:0:0:
254,238,157202,1,8,0:0:0:0:
254,238,157273,1,0,0:0:0:0:
357,250,157344,1,8,0:0:0:0:
357,250,157415,1,0,0:0:0:0:
254,238,157485,1,0,0:0:0:0:
254,238,157556,1,8,0:0:0:0:
385,253,157698,1,0,0:0:0:0:
385,253,157769,1,0,0:0:0:0:
385,253,157839,1,0,0:0:0:0:
385,253,157910,1,0,0:0:0:0:
385,253,157981,1,8,0:0:0:0:
385,253,158052,1,8,0:0:0:0:
385,253,158122,1,8,0:0:0:0:
385,253,158193,1,8,0:0:0:0:
353,250,158264,1,0,0:0:0:0:
353,250,158335,1,0,0:0:0:0:
353,250,158405,1,8,0:0:0:0:
353,250,158476,1,0,0:0:0:0:
353,250,158547,1,8,0:0:0:0:
353,250,158618,1,8,0:0:0:0:
353,250,158688,1,0,0:0:0:0:
355,245,158759,1,8,0:0:0:0:
355,245,158830,1,0,0:0:0:0:
244,273,158971,1,0,0:0:0:0:
242,266,159113,1,8,0:0:0:0:
242,266,159254,1,0,0:0:0:0:
242,266,159396,1,8,0:0:0:0:
244,263,159679,1,8,0:0:0:0:
288,262,159962,1,0,0:0:0:0:
288,262,160245,1,0,0:0:0:0:
288,262,160528,1,8,0:0:0:0:
137,136,160811,1,8,0:0:0:0:
245,189,161094,1,0,0:0:0:0:
218,194,161377,1,0,0:0:0:0:
225,270,161519,1,8,0:0:0:0:
304,100,161660,1,0,0:0:0:0:
240,124,161802,1,0,0:0:0:0:
240,124,161943,1,8,0:0:0:0:
240,124,162085,1,8,0:0:0:0:
240,129,162226,1,0,0:0:0:0:
215,222,162509,1,8,0:0:0:0:
215,222,162792,1,8,0:0:0:0:
215,222,163075,1,8,0:0:0:0:
215,222,163358,1,0,0:0:0:0:
215,222,163641,1,0,0:0:0:0:
215,222,163783,1,0,0:0:0:0:
215,222,163924,1,8,0:0:0:0:
215,222,164207,1,8,0:0:0:0:
