osu file format v14

[General]
AudioFilename: audio.mp3
AudioLeadIn: 0
PreviewTime: 152590
Countdown: 0
SampleSet: Soft
StackLeniency: 0.7
Mode: 0
LetterboxInBreaks: 0
WidescreenStoryboard: 1

[Editor]
DistanceSpacing: 0.5
BeatDivisor: 4
GridSize: 32
TimelineZoom: 1.4

[Metadata]
Title:Android Girl feat. Hatsune Miku
TitleUnicode:アンドロイドガール feat. 初音ミク
Artist:DECO*27
ArtistUnicode:DECO*27
Creator:SMOKELIND
Version:Extra
Source:
Tags:霧崎秀征 Rock Novelty Vocaloid Japanese Kowari Collab Collaboration Rockwell
BeatmapID:2200172
BeatmapSetID:1052821

[Difficulty]
HPDrainRate:5.2
CircleSize:3.8
OverallDifficulty:9
ApproachRate:9.2
SliderMultiplier:1.77
SliderTickRate:1

[Events]
//Background and Video events
0,0,"Kowari.jpg",0,0
Video,-378,"Kowari.mp4"
//Break Periods
2,1384,2802
2,153572,161239
2,203415,204833
//Storyboard Layer 0 (Background)
//Storyboard Layer 1 (Fail)
//Storyboard Layer 2 (Pass)
//Storyboard Layer 3 (Foreground)
//Storyboard Layer 4 (Overlay)
//Storyboard Sound Samples

[TimingPoints]
-378,312.5,4,2,7,57,1,0
-378,-129.87012987013,4,2,7,57,0,0
5872,-129.87012987013,4,2,7,57,0,0
6497,-129.87012987013,4,2,7,47,0,0
7122,-129.87012987013,4,2,7,57,0,0
7435,-129.87012987013,4,2,7,67,0,0
7747,-129.87012987013,4,2,7,77,0,0
8372,-114.942528735632,4,2,7,77,0,0
10559,-212.765957446808,4,2,7,77,0,0
10872,-103.092783505155,4,2,7,77,0,0
20872,-129.87012987013,4,2,7,57,0,0
40872,-175.438596491228,4,2,7,77,0,0
44622,-129.87012987013,4,2,7,77,0,0
45872,-129.87012987013,4,2,7,67,0,0
48372,-114.942528735632,4,2,7,77,0,0
50872,-93.4579439252336,4,2,7,87,0,0
73372,-103.092783505155,4,2,7,77,0,0
83372,-129.87012987013,4,2,7,77,0,0
103372,-114.942528735632,4,2,7,77,0,0
110872,-114.942528735632,4,2,7,57,0,0
111184,-114.942528735632,4,2,7,67,0,0
111497,-114.942528735632,4,2,7,77,0,0
111809,-114.942528735632,4,2,7,87,0,0
113372,-93.4579439252336,4,2,7,87,0,0
135872,-175.438596491227,4,2,7,47,0,0
139309,-175.438596491227,4,2,7,57,0,0
140872,-114.942528735632,4,2,7,77,0,0
150872,-270.27027027027,4,2,7,77,0,0
150950,-175.438596491228,4,2,7,7,0,0
153372,-212.765957446808,4,2,7,77,0,0
161809,-114.942528735632,4,2,7,57,0,0
162278,-114.942528735632,4,2,7,67,0,0
163059,-175.438596491228,4,2,7,77,0,0
163372,-93.4579439252336,4,2,7,87,0,0
168372,-93.4579439252336,4,2,7,77,0,0
170872,-114.942528735632,4,2,7,67,0,0
171184,-149.253731343283,4,2,7,47,0,0
174465,-114.942528735632,4,2,7,67,0,0
176184,-93.4579439252336,4,2,7,87,0,0
198372,-85.4700854700855,4,2,7,97,0,0
203059,-114.942528735632,4,2,7,87,0,0
205403,-114.942528735632,4,2,7,77,0,0
205715,-370.370370370369,4,2,7,77,0,0
205872,-370.370370370369,4,2,7,7,0,0

[Colours]
Combo1 : 255,255,206
Combo2 : 188,121,255
Combo3 : 255,238,121
Combo4 : 231,206,255

[HitObjects]
256,100,872,5,14,0:0:0:0:
113,222,1028,1,8,0:0:0:0:
346,174,1184,1,8,0:0:0:0:
346,174,3372,5,8,0:0:0:0:
258,339,3528,1,10,0:0:0:0:
256,100,3684,1,8,0:0:0:0:
271,313,3840,2,0,P|285:266|303:227,1,68.1449986482468,2|0,3:0|0:0,0:0:0:0:
448,254,4153,1,2,1:0:0:0:
448,254,4231,1,0,1:0:0:0:
448,254,4309,1,8,0:0:0:0:
399,105,4465,21,10,0:0:0:0:
399,105,4543,1,8,3:0:0:0:
399,105,4622,2,0,P|377:91|343:81,1,34.0724993241234,2|0,1:0|1:0,0:0:0:0:
197,168,4778,2,0,P|238:162|276:135,1,68.1449986482468,8|2,0:0|1:0,0:0:0:0:
287,64,5012,1,0,1:0:0:0:
287,64,5090,1,8,0:0:0:0:
219,262,5247,1,8,0:0:0:0:
175,84,5403,1,2,1:0:0:0:
175,84,5481,1,0,1:0:0:0:
175,84,5559,2,0,P|144:68|111:65,1,68.1449986482468,10|0,0:0|0:0,0:0:0:0:
228,225,5872,37,6,1:0:0:0:
61,150,6028,1,0,1:0:0:0:
256,145,6184,1,0,1:0:0:0:
83,291,6340,2,0,P|48:308|1:312,1,68.1449986482468,0|8,0:0|0:0,0:0:0:0:
156,145,6653,22,0,P|145:178|131:228,1,68.1449986482468,8|8,0:0|0:0,0:0:0:0:
272,363,6965,1,8,0:0:0:0:
228,225,7122,1,8,0:0:0:0:
424,251,7278,1,8,0:0:0:0:
274,329,7434,1,8,0:0:0:0:
337,118,7590,1,8,0:0:0:0:
276,299,7747,1,8,0:0:0:0:
157,125,7903,1,8,0:0:0:0:
404,210,8059,1,8,0:0:0:0:
186,127,8215,5,8,0:0:0:0:
186,127,8293,1,8,0:0:0:0:
185,126,8372,2,0,P|202:165|216:223,1,76.9950006461678,12|0,0:0|1:0,0:0:0:0:
302,65,8684,1,0,1:0:0:0:
302,65,8762,1,0,1:0:0:0:
302,65,8840,1,8,0:0:0:0:
364,265,8997,2,0,P|374:228|390:192,1,76.9950006461678,8|0,0:0|1:0,0:0:0:0:
462,144,9231,1,0,1:0:0:0:
462,144,9309,2,0,P|452:107|436:71,1,76.9950006461678,8|0,0:0|1:0,0:0:0:0:
352,53,9543,21,0,1:0:0:0:
352,53,9622,2,0,P|335:67|304:77,1,38.4975003230839,0|8,1:0|3:0,0:0:0:0:
152,39,9778,2,0,P|169:47|183:59,1,38.4975003230839,8|8,3:0|3:0,0:0:0:0:
240,199,9934,2,0,P|234:180|234:161,3,38.4975003230839,8|8|8|8,3:0|3:0|3:0|3:0,0:0:0:0:
250,83,10247,38,0,P|205:84|163:116,1,76.9950006461678,8|0,0:0|3:0,0:0:0:0:
152,174,10481,1,0,3:0:0:0:
152,174,10559,2,0,P|113:174|81:156,1,62.392499047966,0|0,3:0|0:0,0:0:0:0:
33,122,10872,22,0,P|76:115|114:96,1,85.8450020303307,6|0,1:0|0:0,0:0:0:0:
302,16,11184,1,10,0:0:0:0:
180,143,11340,1,2,0:0:0:0:
329,45,11497,2,0,P|372:52|410:71,1,85.8450020303307,2|0,1:0|0:0,0:0:0:0:
450,258,11809,1,10,0:0:0:0:
347,80,11965,6,0,P|330:116|313:167,1,85.8450020303307,6|0,1:0|0:0,0:0:0:0:
272,338,12278,2,0,P|258:297|240:258,1,85.8450020303307,2|8,1:0|0:0,0:0:0:0:
100,111,12590,2,0,P|138:129|179:142,1,85.8450020303307,2|0,0:0|1:0,0:0:0:0:
39,247,12903,1,10,0:0:0:0:
213,108,13059,2,0,P|193:154|179:212,1,85.8450020303307,10|0,0:0|0:0,0:0:0:0:
316,353,13372,22,0,P|362:348|406:324,1,85.8450020303307,6|0,1:0|0:0,0:0:0:0:
452,133,13684,1,10,0:0:0:0:
500,302,13840,1,2,0:0:0:0:
329,198,13997,2,0,P|310:159|306:116,1,85.8450020303307,2|0,1:0|0:0,0:0:0:0:
200,279,14309,1,10,0:0:0:0:
89,112,14465,38,0,P|85:154|66:193,1,85.8450020303307,6|0,1:0|0:0,0:0:0:0:
104,354,14778,1,2,1:0:0:0:
166,203,14934,1,8,0:0:0:0:
166,203,15012,1,8,0:0:0:0:
166,203,15090,2,0,P|184:193|224:188,1,42.9225010151654,10|0,0:0|0:0,0:0:0:0:
327,284,15247,1,0,1:0:0:0:
257,112,15403,1,10,0:0:0:0:
345,306,15559,2,0,P|356:251|374:199,1,85.8450020303307,10|0,0:0|0:0,0:0:0:0:
482,65,15872,22,0,P|450:94|397:110,1,85.8450020303307,6|0,1:0|0:0,0:0:0:0:
225,31,16184,1,10,0:0:0:0:
290,196,16340,1,2,0:0:0:0:
355,0,16497,2,0,P|343:36|332:101,1,85.8450020303307,2|0,1:0|0:0,0:0:0:0:
205,187,16809,1,10,0:0:0:0:
74,7,16965,6,0,P|86:43|97:108,1,85.8450020303307,6|0,1:0|0:0,0:0:0:0:
183,269,17278,2,0,P|190:226|204:186,1,85.8450020303307,2|8,1:0|0:0,0:0:0:0:
103,4,17590,2,0,P|115:40|126:105,1,85.8450020303307,2|0,0:0|1:0,0:0:0:0:
212,266,17903,1,10,0:0:0:0:
324,84,18059,2,0,P|365:58|420:59,1,85.8450020303307,10|0,0:0|1:0,0:0:0:0:
455,119,18293,21,0,1:0:0:0:
455,119,18372,2,0,P|432:162|420:216,1,85.8450020303307,14|2,0:0|0:0,0:0:0:0:
221,300,18684,1,10,0:0:0:0:
418,299,18840,1,2,0:0:0:0:
206,202,18997,1,10,0:0:0:0:
396,285,19153,1,2,1:0:0:0:
396,285,19231,1,0,1:0:0:0:
396,285,19309,1,10,0:0:0:0:
300,102,19465,1,6,1:0:0:0:
214,251,19622,38,0,P|170:277|118:278,1,85.8450020303307,2|10,0:0|0:0,0:0:0:0:
70,223,19856,1,8,0:0:0:0:
70,223,19934,2,0,P|100:276|110:313,1,85.8450020303307,10|0,0:0|1:0,0:0:0:0:
49,370,20168,1,0,1:0:0:0:
49,370,20247,1,10,0:0:0:0:
49,370,20872,22,0,P|95:349|142:342,1,68.1449986482468,6|0,1:0|0:0,0:0:0:0:
242,380,21184,1,2,0:0:0:0:
324,255,21340,2,0,P|291:245|261:229,1,68.1449986482468,2|8,1:0|0:0,0:0:0:0:
174,108,21653,1,2,0:0:0:0:
228,224,21809,1,2,0:0:0:0:
326,76,21965,6,0,B|396:102|348:146|451:171,1,136.289997296494,2|2,0:0|1:0,0:0:0:0:
276,152,22434,1,2,1:0:0:0:
411,251,22590,1,2,3:0:0:0:
411,251,22668,1,0,3:0:0:0:
411,251,22747,2,0,P|452:246|492:220,1,68.1449986482468,8|2,0:0|0:0,0:0:0:0:
481,73,23059,1,2,0:0:0:0:
452,197,23215,1,2,3:0:0:0:
360,86,23372,22,0,P|327:104|286:111,1,68.1449986482468,2|0,1:0|0:0,0:0:0:0:
153,49,23684,1,2,0:0:0:0:
217,177,23840,2,0,P|246:193|279:201,1,68.1449986482468,2|8,1:0|0:0,0:0:0:0:
165,77,24153,2,0,P|131:84|102:101,1,68.1449986482468,2|0,0:0|0:0,0:0:0:0:
39,256,24465,38,0,P|31:215|19:183,1,68.1449986482468,2|0,3:0|1:0,0:0:0:0:
168,262,24778,2,0,P|173:228|184:196,1,68.1449986482468,2|0,1:0|1:0,0:0:0:0:
22,260,25090,2,0,P|14:219|2:187,1,68.1449986482468,2|8,0:0|0:0,0:0:0:0:
143,260,25403,2,0,P|146:234|150:217,2,34.0724993241234,0|0|0,3:0|3:0|3:0,0:0:0:0:
221,341,25715,1,2,3:0:0:0:
311,215,25872,22,0,P|344:198|405:190,1,68.1449986482468,2|0,1:0|0:0,0:0:0:0:
317,321,26184,1,2,0:0:0:0:
228,203,26340,2,0,P|195:186|134:178,1,68.1449986482468,2|8,1:0|0:0,0:0:0:0:
65,245,26653,1,2,0:0:0:0:
113,116,26809,1,2,0:0:0:0:
53,264,26965,6,0,P|33:188|15:124,1,136.289997296494,10|0,0:0|1:0,0:0:0:0:
136,36,27434,1,2,1:0:0:0:
215,153,27590,2,0,P|252:148|292:131,1,68.1449986482468,2|8,0:0|0:0,0:0:0:0:
346,32,27903,1,2,0:0:0:0:
303,149,28059,1,2,0:0:0:0:
379,32,28215,1,2,3:0:0:0:
441,185,28372,22,0,P|424:218|407:268,1,68.1449986482468,2|2,1:0|0:0,0:0:0:0:
444,365,28684,1,2,0:0:0:0:
327,280,28840,1,2,1:0:0:0:
469,342,28997,1,10,0:0:0:0:
354,302,29153,1,2,0:0:0:0:
450,213,29309,1,2,0:0:0:0:
276,216,29465,38,0,P|238:203|184:192,1,68.1449986482468,2|0,3:0|0:0,0:0:0:0:
63,214,29778,1,2,1:0:0:0:
195,174,29934,1,2,1:0:0:0:
63,246,30090,1,0,3:0:0:0:
144,84,30247,2,0,P|188:55|227:57,1,68.1449986482468,10|0,0:0|3:0,0:0:0:0:
224,71,30481,1,2,0:0:0:0:
224,71,30559,1,2,0:0:0:0:
263,302,30715,21,10,0:0:0:0:
263,302,31028,5,2,0:0:0:0:
213,206,31184,1,2,1:0:0:0:
290,323,31340,2,0,P|323:341|371:347,1,68.1449986482468,2|8,0:0|0:0,0:0:0:0:
422,226,31653,1,2,0:0:0:0:
472,322,31809,1,2,0:0:0:0:
394,204,31965,2,0,P|364:187|331:179,1,68.1449986482468,8|0,0:0|0:0,0:0:0:0:
263,302,32278,1,2,1:0:0:0:
216,168,32434,1,2,1:0:0:0:
127,291,32590,21,2,3:0:0:0:
127,291,32668,1,0,3:0:0:0:
127,291,32747,2,0,P|86:302|26:325,2,102.21749797237,10|2|2,0:0|0:0|0:0,0:0:0:0:
273,377,33372,37,2,1:0:0:0:
162,296,33528,1,2,0:0:0:0:
162,296,33606,1,2,0:0:0:0:
162,296,33684,1,2,0:0:0:0:
301,372,33840,2,0,P|320:337|330:299,1,68.1449986482468,2|8,1:0|0:0,0:0:0:0:
258,183,34153,1,2,0:0:0:0:
247,355,34309,1,2,0:0:0:0:
278,219,34465,1,2,3:0:0:0:
385,337,34622,22,0,P|366:302|356:264,1,68.1449986482468,2|0,3:0|1:0,0:0:0:0:
416,130,34934,1,2,1:0:0:0:
381,253,35090,1,2,3:0:0:0:
298,112,35247,2,0,P|265:122|235:139,1,68.1449986482468,10|0,0:0|3:0,0:0:0:0:
196,242,35559,1,2,0:0:0:0:
121,120,35715,1,2,3:0:0:0:
210,263,35872,6,0,P|199:299|192:337,1,68.1449986482468,2|0,1:0|0:0,0:0:0:0:
113,204,36184,1,2,0:0:0:0:
41,343,36340,2,0,P|34:309|24:277,1,68.1449986482468,2|8,1:0|0:0,0:0:0:0:
0,153,36653,1,2,0:0:0:0:
104,245,36809,1,2,0:0:0:0:
149,100,36965,22,0,P|189:92|238:103,1,68.1449986482468,2|0,3:0|0:0,0:0:0:0:
310,214,37278,1,2,1:0:0:0:
370,79,37434,1,2,1:0:0:0:
323,235,37590,1,2,3:0:0:0:
323,235,37668,1,0,3:0:0:0:
323,235,37747,1,8,0:0:0:0:
338,83,37903,1,2,0:0:0:0:
451,218,38059,1,2,3:0:0:0:
331,116,38215,1,2,3:0:0:0:
455,247,38372,38,0,P|440:279|428:317,1,68.1449986482468,2|2,1:0|0:0,0:0:0:0:
311,338,38684,1,2,0:0:0:0:
188,219,38840,1,2,1:0:0:0:
315,305,38997,1,10,0:0:0:0:
156,328,39153,1,2,3:0:0:0:
325,267,39309,1,2,1:0:0:0:
172,152,39465,22,0,P|181:183|189:244,1,68.1449986482468,2|0,1:0|3:0,0:0:0:0:
352,103,39778,2,0,P|342:134|335:195,1,68.1449986482468,2|0,1:0|1:0,0:0:0:0:
214,26,40090,1,10,0:0:0:0:
214,26,40168,1,8,0:0:0:0:
214,26,40247,2,0,P|223:57|231:118,1,68.1449986482468,10|8,0:0|0:0,0:0:0:0:
211,177,40481,1,10,0:0:0:0:
211,177,40559,1,8,0:0:0:0:
337,56,40715,5,10,0:0:0:0:
337,56,40793,1,8,0:0:0:0:
337,56,40872,2,0,B|403:50|436:117|436:117|345:209|462:232|322:341,1,378.337495381622,6|0,1:0|0:0,0:0:0:0:
329,334,42122,21,4,1:0:0:0:
329,334,42747,37,8,0:0:0:0:
252,202,42903,1,2,1:0:0:0:
148,369,43059,2,0,P|139:323|124:274,1,75.6674990763245,10|0,0:0|0:0,0:0:0:0:
131,295,43372,21,6,1:0:0:0:
131,295,43840,1,2,1:0:0:0:
131,295,43918,1,0,1:0:0:0:
131,295,43997,1,10,0:0:0:0:
224,136,44153,1,2,1:0:0:0:
232,308,44309,1,10,0:0:0:0:
137,166,44465,1,2,1:0:0:0:
265,316,44622,6,0,P|302:312|340:290,1,68.1449986482468,6|0,0:0|1:0,0:0:0:0:
385,160,44934,1,10,0:0:0:0:
384,359,45090,2,0,P|406:329|416:286,1,68.1449986482468,2|8,1:0|0:0,0:0:0:0:
357,138,45403,1,10,0:0:0:0:
357,138,45481,1,8,0:0:0:0:
357,138,45559,2,0,P|336:147|306:150,3,34.0724993241234,10|8|8|8,0:0|0:0|3:0|3:0,0:0:0:0:
262,98,45872,22,0,P|231:84|181:78,1,68.1449986482468,4|0,1:0|1:0,0:0:0:0:
314,231,46184,2,0,P|283:244|249:251,1,68.1449986482468,10|0,0:0|0:0,0:0:0:0:
191,314,46418,1,0,3:0:0:0:
191,314,46497,2,0,P|224:320|255:334,1,68.1449986482468,2|0,1:0|1:0,0:0:0:0:
136,211,46809,2,0,P|169:204|200:190,1,68.1449986482468,10|0,0:0|0:0,0:0:0:0:
310,28,47122,38,0,P|298:60|287:108,1,68.1449986482468,4|0,1:0|1:0,0:0:0:0:
150,187,47434,2,0,P|141:154|130:121,1,68.1449986482468,10|0,0:0|0:0,0:0:0:0:
110,84,47668,1,0,3:0:0:0:
110,84,47747,2,0,P|140:56|176:47,1,68.1449986482468,2|0,1:0|1:0,0:0:0:0:
9,154,48059,2,0,P|32:178|64:190,1,68.1449986482468,10|0,0:0|1:0,0:0:0:0:
253,113,48372,22,0,P|238:143|226:199,1,76.9950006461678,14|0,0:0|1:0,0:0:0:0:
131,72,48684,1,0,1:0:0:0:
337,142,48840,2,0,P|351:172|364:228,1,76.9950006461678,8|0,0:0|1:0,0:0:0:0:
222,103,49153,1,0,1:0:0:0:
374,157,49309,1,10,0:0:0:0:
236,222,49465,1,2,1:0:0:0:
469,101,49622,5,10,0:0:0:0:
226,143,49778,1,10,0:0:0:0:
495,238,49934,1,10,0:0:0:0:
495,238,50872,22,0,B|444:268|403:229|403:229|380:274|287:273,1,189.389994220276,6|8,1:0|0:0,0:0:0:0:
244,149,51340,1,2,0:0:0:0:
284,362,51497,2,0,P|302:316|310:265,1,94.694997110138,2|0,1:0|0:0,0:0:0:0:
160,128,51809,1,10,0:0:0:0:
139,337,51965,38,0,P|121:291|113:240,1,94.694997110138,6|0,1:0|0:0,0:0:0:0:
328,168,52278,2,0,P|319:214|302:258,1,94.694997110138,2|8,1:0|0:0,0:0:0:0:
138,79,52590,2,0,P|147:125|164:169,1,94.694997110138,2|0,0:0|1:0,0:0:0:0:
374,88,52903,2,0,P|365:134|348:178,1,94.694997110138,0|8,0:0|0:0,0:0:0:0:
237,274,53215,1,2,0:0:0:0:
232,108,53372,21,2,1:0:0:0:
218,296,53528,1,2,0:0:0:0:
131,89,53684,1,10,0:0:0:0:
239,239,53840,1,2,0:0:0:0:
41,203,53997,1,2,1:0:0:0:
238,142,54153,1,2,0:0:0:0:
52,39,54309,1,10,0:0:0:0:
131,247,54465,6,0,P|112:287|96:339,1,94.694997110138,6|0,1:0|0:0,0:0:0:0:
240,192,54778,1,2,1:0:0:0:
343,360,54934,2,0,P|349:324|355:308,1,47.347498555069,10|8,0:0|0:0,0:0:0:0:
465,199,55090,2,0,P|471:221|474:245,1,47.347498555069,10|8,0:0|0:0,0:0:0:0:
345,148,55247,1,2,1:0:0:0:
433,313,55403,1,10,0:0:0:0:
436,96,55559,1,10,0:0:0:0:
354,268,55715,1,2,0:0:0:0:
244,87,55872,22,0,B|152:41|170:121|47:61,1,189.389994220276,6|8,1:0|0:0,0:0:0:0:
243,210,56340,2,0,P|292:201|340:178,1,94.694997110138,2|0,0:0|1:0,0:0:0:0:
466,62,56653,2,0,P|422:42|376:34,1,94.694997110138,2|8,0:0|0:0,0:0:0:0:
132,6,56965,38,0,P|166:55|210:193,1,189.389994220276,4|0,1:0|1:0,0:0:0:0:
293,50,57434,1,8,0:0:0:0:
224,248,57590,2,0,P|238:193|259:144,1,94.694997110138,2|0,0:0|1:0,0:0:0:0:
418,61,57903,2,0,P|434:105|446:151,1,94.694997110138,2|8,0:0|0:0,0:0:0:0:
367,307,58215,1,2,0:0:0:0:
321,126,58372,21,2,1:0:0:0:
338,292,58528,1,2,0:0:0:0:
143,210,58684,1,10,0:0:0:0:
324,209,58840,1,2,0:0:0:0:
125,174,58997,1,2,1:0:0:0:
342,116,59153,1,2,0:0:0:0:
159,247,59309,1,10,0:0:0:0:
316,90,59465,5,2,1:0:0:0:
316,90,59543,1,0,1:0:0:0:
316,90,59622,1,12,0:0:0:0:
191,238,59778,1,8,0:0:0:0:
191,238,59856,1,8,0:0:0:0:
191,238,59935,1,8,0:0:0:0:
235,54,60090,1,10,0:0:0:0:
235,54,60168,1,8,0:0:0:0:
235,54,60247,2,0,P|226:75|222:112,1,47.347498555069,2|8,1:0|0:0,0:0:0:0:
336,254,60403,2,0,P|331:230|323:208,1,47.347498555069,10|8,0:0|0:0,0:0:0:0:
154,186,60559,2,0,P|175:194|212:199,3,47.347498555069,2|0|8|8,1:0|3:0|3:0|3:0,0:0:0:0:
93,128,60872,22,0,P|116:180|152:325,1,189.389994220276,6|8,1:0|0:0,0:0:0:0:
305,227,61340,1,2,0:0:0:0:
115,263,61497,1,2,1:0:0:0:
291,192,61653,1,2,0:0:0:0:
110,109,61809,1,10,0:0:0:0:
239,294,61965,38,0,P|286:319|342:317,1,94.694997110138,6|0,1:0|0:0,0:0:0:0:
243,130,62278,2,0,P|196:133|155:156,1,94.694997110138,2|8,1:0|0:0,0:0:0:0:
357,374,62590,2,0,P|369:319|384:270,1,94.694997110138,2|0,0:0|1:0,0:0:0:0:
205,163,62903,2,0,P|218:208|227:254,1,94.694997110138,0|8,0:0|0:0,0:0:0:0:
342,126,63215,1,2,0:0:0:0:
152,84,63372,21,2,1:0:0:0:
361,103,63528,1,2,0:0:0:0:
211,255,63684,1,10,0:0:0:0:
259,90,63840,1,2,0:0:0:0:
289,311,63997,1,2,1:0:0:0:
247,122,64153,1,2,0:0:0:0:
187,340,64309,1,10,0:0:0:0:
83,138,64465,6,0,P|97:186|112:263,1,94.694997110138,6|0,1:0|0:0,0:0:0:0:
266,327,64778,1,2,1:0:0:0:
251,153,64934,1,10,0:0:0:0:
251,153,65012,1,8,0:0:0:0:
251,153,65090,2,0,P|244:176|236:215,1,47.347498555069,10|8,0:0|0:0,0:0:0:0:
346,112,65247,1,6,1:0:0:0:
256,295,65403,1,2,1:0:0:0:
153,122,65559,2,0,P|122:109|87:105,1,47.347498555069,10|8,0:0|0:0,0:0:0:0:
278,30,65715,2,0,P|247:43|212:47,1,47.347498555069,10|8,0:0|0:0,0:0:0:0:
36,15,65872,22,0,P|89:54|88:185,1,189.389994220276,6|8,1:0|0:0,0:0:0:0:
3,337,66340,2,0,P|66:299|114:289,1,94.694997110138,2|0,0:0|1:0,0:0:0:0:
281,256,66653,2,0,P|236:239|198:212,1,94.694997110138,2|8,0:0|0:0,0:0:0:0:
377,111,66965,38,0,B|368:205|432:181|409:300,1,189.389994220276,6|0,1:0|1:0,0:0:0:0:
481,136,67434,1,10,0:0:0:0:
306,246,67590,2,0,P|261:229|223:202,1,94.694997110138,2|0,0:0|1:0,0:0:0:0:
188,37,67903,1,10,0:0:0:0:
101,250,68059,1,8,0:0:0:0:
96,22,68215,1,0,1:0:0:0:
107,272,68372,22,0,P|152:255|190:228,1,94.694997110138,10|0,0:0|0:0,0:0:0:0:
281,52,68684,1,10,0:0:0:0:
341,263,68840,2,0,P|379:290|423:306,1,94.694997110138,2|8,0:0|0:0,0:0:0:0:
398,63,69153,1,2,1:0:0:0:
398,63,69231,1,0,1:0:0:0:
398,63,69309,2,0,P|353:79|315:106,1,94.694997110138,10|0,0:0|1:0,0:0:0:0:
256,323,69622,5,10,0:0:0:0:
196,124,69778,1,2,0:0:0:0:
176,373,69934,1,8,0:0:0:0:
267,172,70090,1,2,0:0:0:0:
388,372,70247,2,0,P|443:361|482:327,1,94.694997110138,10|0,0:0|1:0,0:0:0:0:
436,116,70559,1,10,0:0:0:0:
328,274,70715,1,0,1:0:0:0:
216,85,70872,22,0,P|173:62|120:56,1,94.694997110138,10|0,0:0|0:0,0:0:0:0:
308,231,71184,1,10,0:0:0:0:
79,184,71340,2,0,P|120:161|167:154,1,94.694997110138,2|8,0:0|0:0,0:0:0:0:
388,197,71653,1,2,1:0:0:0:
388,197,71731,1,0,1:0:0:0:
388,197,71809,1,10,0:0:0:0:
262,14,71965,1,2,1:0:0:0:
328,274,72122,37,14,0:0:0:0:
328,274,73372,22,0,P|293:301|243:310,1,85.8450020303307,6|0,1:0|0:0,0:0:0:0:
125,155,73684,1,10,0:0:0:0:
221,281,73840,1,2,0:0:0:0:
317,103,73997,2,0,P|358:112|391:139,1,85.8450020303307,2|0,1:0|0:0,0:0:0:0:
339,307,74309,1,10,0:0:0:0:
228,120,74465,6,0,P|220:153|211:212,1,85.8450020303307,6|0,1:0|0:0,0:0:0:0:
75,352,74778,2,0,P|68:309|58:267,1,85.8450020303307,2|8,1:0|0:0,0:0:0:0:
248,118,75090,2,0,P|240:151|231:210,1,85.8450020303307,2|0,0:0|1:0,0:0:0:0:
95,350,75403,1,10,0:0:0:0:
116,128,75559,2,0,P|124:161|133:220,1,85.8450020303307,10|0,0:0|0:0,0:0:0:0:
237,33,75872,22,0,P|291:20|326:29,1,85.8450020303307,6|0,1:0|0:0,0:0:0:0:
444,202,76184,1,10,0:0:0:0:
330,107,76340,1,2,0:0:0:0:
280,298,76497,2,0,P|226:311|191:302,1,85.8450020303307,2|0,1:0|0:0,0:0:0:0:
208,127,76809,1,10,0:0:0:0:
297,321,76965,38,0,P|305:269|321:220,1,85.8450020303307,6|0,1:0|0:0,0:0:0:0:
409,84,77278,1,2,1:0:0:0:
457,240,77434,1,8,0:0:0:0:
457,240,77512,1,8,0:0:0:0:
457,240,77590,2,0,P|483:257|521:263,1,42.9225010151654,10|0,0:0|0:0,0:0:0:0:
420,121,77747,1,0,1:0:0:0:
267,273,77903,1,10,0:0:0:0:
187,65,78059,2,0,P|154:42|95:37,1,85.8450020303307,10|0,0:0|0:0,0:0:0:0:
8,223,78372,22,0,P|24:173|34:122,1,85.8450020303307,6|0,1:0|0:0,0:0:0:0:
175,295,78684,1,10,0:0:0:0:
116,127,78840,1,2,0:0:0:0:
184,322,78997,2,0,P|223:352|292:365,1,85.8450020303307,2|0,1:0|0:0,0:0:0:0:
315,193,79309,1,10,0:0:0:0:
447,368,79465,6,0,P|463:317|471:260,1,85.8450020303307,6|0,1:0|0:0,0:0:0:0:
315,112,79778,2,0,P|323:154|336:194,1,85.8450020303307,2|8,1:0|0:0,0:0:0:0:
472,370,80090,2,0,P|488:319|496:262,1,85.8450020303307,2|0,0:0|1:0,0:0:0:0:
340,114,80403,1,10,0:0:0:0:
279,325,80559,2,0,P|240:346|184:346,1,85.8450020303307,10|0,0:0|1:0,0:0:0:0:
128,307,80793,21,0,1:0:0:0:
128,307,80872,2,0,P|145:252|153:203,1,85.8450020303307,14|2,0:0|0:0,0:0:0:0:
72,11,81184,1,10,0:0:0:0:
43,219,81340,1,2,0:0:0:0:
248,0,81497,37,10,0:0:0:0:
56,115,81653,1,2,1:0:0:0:
56,115,81731,1,0,1:0:0:0:
56,115,81809,1,10,0:0:0:0:
269,166,81965,22,0,P|322:162|373:138,1,85.8450020303307,6|2,1:0|0:0,0:0:0:0:
216,4,82278,1,10,0:0:0:0:
216,4,82356,1,8,0:0:0:0:
216,4,82434,1,10,0:0:0:0:
188,215,82590,1,2,1:0:0:0:
334,23,82747,1,8,0:0:0:0:
195,178,82903,1,8,3:2:0:0:
195,178,82981,1,8,3:2:0:0:
195,178,83059,2,0,P|152:153|89:136,1,85.8450020303307,8|8,3:0|3:0,0:0:0:0:
246,84,83372,5,2,1:0:0:0:
246,84,83997,2,0,B|378:91|289:203|460:202,1,238.507495268864,2|0,0:0|0:0,0:0:0:0:
415,113,84622,22,0,P|381:168|347:255,1,136.289997296494,2|2,0:0|0:0,0:0:0:0:
136,357,85247,2,0,P|109:294|74:236,1,136.289997296494,2|2,0:0|0:0,0:0:0:0:
375,317,85872,1,2,0:0:0:0:
375,317,86497,2,0,P|331:286|161:233,1,204.43499594474,2|0,0:0|0:0,0:0:0:0:
102,340,87122,2,0,P|134:324|178:311,1,68.1449986482468,2|0,0:0|3:0,0:0:0:0:
182,270,87356,1,0,3:0:0:0:
182,270,87434,2,0,P|149:258|116:251,1,68.1449986482468,2|0,0:0|0:0,0:0:0:0:
257,135,87747,2,0,P|224:146|191:153,1,68.1449986482468,2|0,0:0|0:0,0:0:0:0:
354,245,88059,2,0,P|321:233|251:232,1,102.21749797237,10|0,0:0|0:0,0:0:0:0:
203,290,88372,37,4,1:0:0:0:
392,110,88997,2,0,P|412:158|428:224,1,102.21749797237,2|0,0:0|0:0,0:0:0:0:
402,236,89309,2,0,P|381:227|361:221,3,34.0724993241234,0|0|0|0,3:0|3:0|3:0|3:0,0:0:0:0:
440,312,89622,22,0,P|402:334|349:340,1,68.1449986482468,10|0,3:0|0:0,0:0:0:0:
286,217,89934,2,0,P|257:198|224:189,1,68.1449986482468,2|8,3:0|3:0,0:0:0:0:
156,316,90247,1,2,3:0:0:0:
156,316,90325,1,0,3:0:0:0:
156,316,90403,1,8,0:0:0:0:
272,237,90559,2,0,P|243:218|210:209,1,68.1449986482468,2|8,0:0|0:0,0:0:0:0:
82,174,90872,5,2,0:0:0:0:
82,174,91028,1,2,1:0:0:0:
168,296,91184,1,10,3:0:0:0:
168,296,91340,1,2,0:0:0:0:
247,122,91497,1,10,0:0:0:0:
291,326,91653,1,2,0:0:0:0:
365,167,91809,1,2,1:0:0:0:
285,288,91965,1,2,0:0:0:0:
245,94,92122,22,0,P|212:76|176:72,1,68.1449986482468,10|10,0:0|0:0,0:0:0:0:
156,105,92356,1,8,0:0:0:0:
156,105,92434,1,10,0:0:0:0:
266,207,92590,1,10,0:0:0:0:
325,70,92747,2,0,P|358:52|394:48,1,68.1449986482468,10|0,3:0|3:0,0:0:0:0:
414,81,92981,1,0,3:0:0:0:
414,81,93059,1,10,3:0:0:0:
285,180,93215,1,2,0:0:0:0:
433,290,93372,37,4,1:0:0:0:
387,163,93528,1,2,0:0:0:0:
448,264,93684,1,2,0:0:0:0:
295,205,93840,2,0,P|289:243|279:294,1,68.1449986482468,2|8,1:0|0:0,0:0:0:0:
260,380,94153,1,2,0:0:0:0:
321,279,94309,1,2,0:0:0:0:
168,338,94465,22,0,P|162:299|152:249,1,68.1449986482468,2|0,3:0|0:0,0:0:0:0:
60,125,94778,1,2,1:0:0:0:
84,236,94934,1,2,1:0:0:0:
211,141,95090,1,2,3:0:0:0:
211,141,95168,1,0,3:0:0:0:
211,141,95247,2,0,P|217:102|227:52,1,68.1449986482468,10|0,0:0|0:0,0:0:0:0:
256,51,95481,1,2,0:0:0:0:
256,51,95559,2,0,P|283:68|331:81,1,68.1449986482468,0|2,0:0|3:0,0:0:0:0:
465,137,95872,6,0,P|432:147|403:165,1,68.1449986482468,2|0,1:0|0:0,0:0:0:0:
397,201,96106,1,2,0:0:0:0:
397,201,96184,2,0,P|401:222|407:250,1,34.0724993241234,2|2,0:0|0:0,0:0:0:0:
290,170,96340,1,2,1:0:0:0:
238,340,96497,1,10,0:0:0:0:
273,204,96653,1,2,0:0:0:0:
269,351,96809,1,2,0:0:0:0:
192,167,96965,1,2,3:0:0:0:
97,363,97122,21,2,3:0:0:0:
97,363,97200,1,0,3:0:0:0:
97,363,97278,2,0,P|91:322|76:267,1,68.1449986482468,2|2,1:0|1:0,0:0:0:0:
168,154,97590,1,2,3:0:0:0:
209,332,97747,2,0,P|214:291|230:236,1,68.1449986482468,10|0,0:0|3:0,0:0:0:0:
291,143,98059,1,2,0:0:0:0:
337,256,98215,1,2,3:0:0:0:
466,143,98372,38,0,P|479:105|483:59,1,68.1449986482468,2|0,1:0|0:0,0:0:0:0:
406,197,98684,1,2,0:0:0:0:
325,55,98840,2,0,P|287:41|241:38,1,68.1449986482468,2|8,0:0|0:0,0:0:0:0:
110,140,99153,2,0,P|147:126|194:123,2,68.1449986482468,2|2|2,0:0|0:0|0:0,0:0:0:0:
247,236,99622,21,2,0:0:0:0:
342,80,99778,2,0,P|329:111|315:158,1,68.1449986482468,2|0,1:0|1:0,0:0:0:0:
270,299,100090,1,10,0:0:0:0:
270,299,100168,1,8,0:0:0:0:
270,299,100247,2,0,P|259:266|246:235,1,68.1449986482468,8|2,0:0|1:0,0:0:0:0:
49,150,100559,1,10,0:0:0:0:
204,167,100715,1,2,1:0:0:0:
3,221,100872,5,2,1:0:0:0:
161,171,101028,1,2,0:0:0:0:
11,72,101184,1,2,0:0:0:0:
204,167,101340,2,0,P|234:151|283:137,1,68.1449986482468,2|8,1:0|0:0,0:0:0:0:
433,172,101653,1,2,1:0:0:0:
294,169,101809,1,2,0:0:0:0:
444,314,101965,22,0,P|463:275|475:226,1,68.1449986482468,2|0,1:0|3:0,0:0:0:0:
390,93,102278,1,10,0:0:0:0:
390,93,102356,1,8,0:0:0:0:
390,93,102434,1,10,0:0:0:0:
316,250,102590,1,10,0:0:0:0:
377,65,102747,1,10,0:0:0:0:
302,277,102903,1,2,1:0:0:0:
270,59,103059,1,8,0:0:0:0:
453,210,103215,1,2,1:0:0:0:
232,45,103372,38,0,P|249:93|257:133,1,76.9950006461678,4|0,1:0|0:0,0:0:0:0:
112,249,103684,2,0,P|121:211|134:175,1,76.9950006461678,10|0,0:0|1:0,0:0:0:0:
318,208,103997,2,0,P|277:235|234:227,1,76.9950006461678,2|0,0:0|1:0,0:0:0:0:
110,97,104309,1,10,0:0:0:0:
142,260,104465,1,2,0:0:0:0:
208,69,104622,22,0,B|304:51|259:111|372:96,1,153.990001292336,2|10,1:0|0:0,0:0:0:0:
483,65,105090,1,2,1:0:0:0:
483,65,105168,1,0,3:0:0:0:
483,65,105247,2,0,P|459:112|448:158,1,76.9950006461678,8|2,3:0|0:0,0:0:0:0:
397,273,105559,2,0,P|384:236|366:202,1,76.9950006461678,10|0,0:0|0:0,0:0:0:0:
231,107,105872,6,0,P|200:163|178:275,1,153.990001292336,4|10,1:0|0:0,0:0:0:0:
325,332,106340,1,2,1:0:0:0:
267,223,106497,1,2,0:0:0:0:
306,360,106653,1,2,1:0:0:0:
316,163,106809,1,10,0:0:0:0:
221,309,106965,1,2,1:0:0:0:
179,136,107122,22,0,P|133:117|79:129,1,76.9950006461678,6|0,1:0|0:0,0:0:0:0:
231,231,107434,1,10,0:0:0:0:
273,73,107590,2,0,P|319:54|373:66,1,76.9950006461678,2|8,1:0|3:0,0:0:0:0:
446,167,107903,1,2,1:0:0:0:
446,167,107981,1,0,1:0:0:0:
446,167,108059,2,0,P|419:216|398:293,1,115.492500969252,10|0,0:0|0:0,0:0:0:0:
402,307,108372,37,4,1:0:0:0:
289,134,108528,1,4,1:0:0:0:
289,134,109309,22,0,B|217:135|246:170|161:175,1,115.492500969252,14|0,0:0|0:0,0:0:0:0:
153,166,109622,5,4,1:0:0:0:
278,338,109778,1,4,1:0:0:0:
327,28,110403,21,0,1:0:0:0:
327,28,110481,1,0,1:0:0:0:
327,28,110559,2,0,P|365:43|429:57,1,76.9950006461678,10|0,0:0|1:0,0:0:0:0:
483,53,110793,1,0,1:0:0:0:
483,53,110872,2,0,P|473:21|470:4,3,38.4975003230839,10|8|8|8,0:0|0:0|0:0|0:0,0:0:0:0:
490,143,111184,2,0,P|485:161|478:179,3,38.4975003230839,0|8|8|8,1:0|0:0|0:0|0:0,0:0:0:0:
342,108,111497,1,0,1:0:0:0:
342,108,111575,1,8,0:0:0:0:
342,108,111653,2,0,P|351:137|356:156,1,38.4975003230839,8|8,0:0|0:0,0:0:0:0:
292,271,111809,2,0,P|297:252|303:234,1,38.4975003230839,2|8,1:0|0:0,0:0:0:0:
354,103,111965,2,0,P|363:132|368:151,1,38.4975003230839,10|8,0:0|0:0,0:0:0:0:
294,295,112122,37,10,0:0:0:0:
244,52,112278,1,10,0:0:0:0:
200,325,112434,1,10,0:0:0:0:
80,80,113372,22,0,B|205:60|136:143|274:130,1,189.389994220276,6|8,1:0|0:0,0:0:0:0:
197,1,113840,1,2,0:0:0:0:
100,170,113997,2,0,P|125:229|137:276,1,94.694997110138,2|0,1:0|0:0,0:0:0:0:
225,83,114309,1,10,0:0:0:0:
300,246,114465,2,0,P|261:307|246:354,1,94.694997110138,6|0,1:0|0:0,0:0:0:0:
197,104,114778,5,2,1:0:0:0:
137,295,114934,2,0,P|86:319|31:316,1,94.694997110138,8|2,0:0|0:0,0:0:0:0:
33,123,115247,1,0,1:0:0:0:
76,232,115403,1,0,0:0:0:0:
118,87,115559,2,0,P|133:36|155:-4,1,94.694997110138,8|2,0:0|0:0,0:0:0:0:
283,173,115872,21,2,1:0:0:0:
232,30,116028,1,2,0:0:0:0:
164,213,116184,1,10,0:0:0:0:
255,48,116340,1,2,0:0:0:0:
315,256,116497,1,2,1:0:0:0:
194,104,116653,1,2,0:0:0:0:
213,320,116809,1,10,0:0:0:0:
312,118,116965,38,0,P|360:98|424:104,1,94.694997110138,6|0,1:0|0:0,0:0:0:0:
311,278,117278,1,2,1:0:0:0:
472,212,117434,1,10,0:0:0:0:
472,212,117512,1,8,0:0:0:0:
472,212,117590,2,0,P|437:201|420:198,1,47.347498555069,10|8,0:0|0:0,0:0:0:0:
304,303,117747,21,2,1:0:0:0:
409,83,117903,1,10,0:0:0:0:
412,329,118059,1,10,0:0:0:0:
307,100,118215,1,2,0:0:0:0:
239,370,118372,6,0,P|142:330|49:317,1,189.389994220276,6|8,1:0|0:0,0:0:0:0:
188,187,118840,2,0,P|132:211|95:217,1,94.694997110138,2|0,0:0|1:0,0:0:0:0:
0,86,119153,1,2,0:0:0:0:
20,237,119309,1,8,0:0:0:0:
158,84,119465,22,0,B|288:64|233:132|361:122,1,189.389994220276,4|0,1:0|1:0,0:0:0:0:
447,52,119934,1,8,0:0:0:0:
465,211,120090,2,0,P|436:275|426:320,1,94.694997110138,2|0,0:0|1:0,0:0:0:0:
345,125,120403,2,0,P|331:79|309:37,1,94.694997110138,2|8,0:0|0:0,0:0:0:0:
200,222,120715,1,2,0:0:0:0:
341,155,120872,37,2,1:0:0:0:
151,117,121028,1,2,0:0:0:0:
324,191,121184,1,10,0:0:0:0:
113,235,121340,1,2,0:0:0:0:
254,131,121497,1,2,1:0:0:0:
196,331,121653,1,2,0:0:0:0:
123,107,121809,1,10,0:0:0:0:
265,264,121965,21,2,1:0:0:0:
265,264,122043,1,0,1:0:0:0:
265,264,122122,1,12,0:0:0:0:
218,88,122278,1,8,0:0:0:0:
218,88,122356,1,8,0:0:0:0:
218,88,122434,1,8,0:0:0:0:
100,264,122590,1,10,0:0:0:0:
100,264,122668,1,8,0:0:0:0:
100,264,122747,2,0,P|136:248|161:243,1,47.347498555069,2|8,1:0|0:0,0:0:0:0:
209,115,122903,2,0,P|186:107|165:97,1,47.347498555069,10|8,0:0|0:0,0:0:0:0:
262,248,123059,2,0,P|283:237|305:230,3,47.347498555069,2|0|8|8,1:0|3:0|3:0|3:0,0:0:0:0:
382,276,123372,6,0,P|343:215|314:79,1,189.389994220276,6|8,1:0|0:0,0:0:0:0:
466,6,123840,1,2,0:0:0:0:
419,157,123997,1,2,1:0:0:0:
337,8,124153,1,2,0:0:0:0:
439,136,124309,1,10,0:0:0:0:
281,88,124465,22,0,P|226:86|166:111,1,94.694997110138,6|0,1:0|0:0,0:0:0:0:
378,181,124778,1,2,1:0:0:0:
232,277,124934,2,0,P|177:279|117:254,1,94.694997110138,8|2,0:0|0:0,0:0:0:0:
304,188,125247,1,0,1:0:0:0:
249,359,125403,1,0,0:0:0:0:
199,158,125559,2,0,P|181:109|159:59,1,94.694997110138,8|2,0:0|0:0,0:0:0:0:
80,229,125872,37,2,1:0:0:0:
217,175,126028,1,2,0:0:0:0:
41,137,126184,1,10,0:0:0:0:
232,195,126340,1,2,0:0:0:0:
21,308,126497,1,2,1:0:0:0:
140,93,126653,1,2,0:0:0:0:
128,348,126809,1,10,0:0:0:0:
63,60,126965,22,0,B|185:37|141:119|269:87,1,189.389994220276,6|2,1:0|1:0,0:0:0:0:
371,42,127434,1,10,0:0:0:0:
371,42,127512,1,8,0:0:0:0:
371,42,127590,2,0,P|351:15|343:0,1,47.347498555069,10|8,0:0|0:0,0:0:0:0:
236,192,127747,1,6,1:0:0:0:
264,16,127903,1,2,1:0:0:0:
336,213,128059,2,0,P|364:198|391:187,1,47.347498555069,10|8,0:0|0:0,0:0:0:0:
226,101,128215,2,0,P|198:86|171:75,1,47.347498555069,10|8,0:0|0:0,0:0:0:0:
62,288,128372,6,0,P|146:258|162:160,1,189.389994220276,6|8,1:0|0:0,0:0:0:0:
14,53,128840,2,0,P|62:87|104:94,1,94.694997110138,2|0,0:0|1:0,0:0:0:0:
247,123,129153,1,2,0:0:0:0:
59,198,129309,1,8,0:0:0:0:
291,96,129465,22,0,P|296:157|342:303,1,189.389994220276,6|0,1:0|1:0,0:0:0:0:
424,167,129934,1,10,0:0:0:0:
410,336,130090,2,0,P|365:370|318:371,1,94.694997110138,2|0,0:0|1:0,0:0:0:0:
175,183,130403,1,10,0:0:0:0:
240,359,130559,1,8,0:0:0:0:
277,110,130715,1,0,1:0:0:0:
181,279,130872,38,0,P|134:261|81:251,1,94.694997110138,10|0,0:0|0:0,0:0:0:0:
335,216,131184,1,10,0:0:0:0:
169,93,131340,2,0,P|107:117|58:121,1,94.694997110138,2|8,0:0|0:0,0:0:0:0:
278,21,131653,1,2,1:0:0:0:
278,21,131731,1,0,1:0:0:0:
278,21,131809,2,0,P|304:69|301:114,1,94.694997110138,10|0,0:0|1:0,0:0:0:0:
129,244,132122,21,10,0:0:0:0:
186,42,132278,1,2,0:0:0:0:
266,276,132434,1,8,0:0:0:0:
164,78,132590,1,2,0:0:0:0:
80,335,132747,6,0,P|135:343|178:321,1,94.694997110138,10|0,0:0|1:0,0:0:0:0:
302,156,133059,1,10,0:0:0:0:
261,361,133215,1,0,1:0:0:0:
205,136,133372,22,0,P|190:82|163:26,1,94.694997110138,10|0,0:0|0:0,0:0:0:0:
286,265,133684,1,10,0:0:0:0:
78,130,133840,2,0,P|65:175|47:219,1,94.694997110138,2|8,0:0|0:0,0:0:0:0:
261,125,134153,1,2,1:0:0:0:
261,125,134231,1,0,1:0:0:0:
261,125,134309,1,10,0:0:0:0:
163,283,134465,1,2,1:0:0:0:
195,24,134622,37,14,0:0:0:0:
357,70,135872,21,2,1:0:0:0:
357,70,136028,2,0,P|370:104|373:136,1,50.4449993842163,0|2,0:0|0:0,0:0:0:0:
453,225,136340,1,2,0:0:0:0:
453,225,136496,2,0,P|458:201|469:178,1,50.4449993842163,2|0,0:0|0:0,0:0:0:0:
342,76,136809,2,0,P|355:110|358:142,1,50.4449993842163,2|2,0:0|0:0,0:0:0:0:
343,261,137122,6,0,P|310:271|279:269,1,50.4449993842163,2|0,0:0|0:0,0:0:0:0:
197,157,137434,2,0,P|222:158|245:167,1,50.4449993842163,2|0,0:0|0:0,0:0:0:0:
233,350,137747,1,2,0:0:0:0:
233,350,137903,2,0,P|211:322|209:245,1,100.889998768433,2|0,0:0|0:0,0:0:0:0:
275,68,138372,22,0,B|136:61|214:125|76:111,1,201.779997536865,2|0,1:0|0:0,0:0:0:0:
234,183,139153,1,0,1:0:0:0:
234,183,139231,1,0,1:0:0:0:
234,183,139309,2,0,P|237:161|245:144,3,25.2224996921082,10|8|2|0,0:0|3:0|1:0|1:0,0:0:0:0:
147,228,139622,2,0,P|153:243|157:261,3,25.2224996921082,10|8|8|8,0:0|0:0|3:0|3:0,0:0:0:0:
220,325,139934,2,0,P|223:312|228:301,3,25.2224996921082,10|8|10|8,3:0|3:0|3:0|3:0,0:0:0:0:
157,382,140247,2,0,P|222:350|332:329,1,176.557497844757,8|0,0:0|0:0,0:0:0:0:
362,350,140872,37,6,1:0:0:0:
304,190,141028,2,0,P|262:178|210:177,1,76.9950006461678,2|2,0:0|0:0,0:0:0:0:
386,328,141340,1,2,1:0:0:0:
386,328,141418,1,2,1:0:0:0:
386,328,141497,1,10,0:0:0:0:
415,176,141653,2,0,P|463:141|499:131,1,76.9950006461678,2|0,0:0|0:0,0:0:0:0:
453,258,141965,1,2,0:0:0:0:
303,119,142122,21,2,1:0:0:0:
303,119,142278,1,2,1:0:0:0:
357,267,142434,1,2,0:0:0:0:
357,267,142590,1,2,0:0:0:0:
378,81,142747,1,10,0:0:0:0:
277,216,142903,2,0,B|200:230|229:166|119:187,1,153.990001292336,2|2,0:0|0:0,0:0:0:0:
40,280,143372,6,0,P|80:211|94:108,1,153.990001292336,2|2,1:0|0:0,0:0:0:0:
62,29,143840,1,2,1:0:0:0:
62,29,143918,1,0,1:0:0:0:
62,29,143997,2,0,P|115:41|154:40,2,76.9950006461678,8|2|2,0:0|0:0|0:0,0:0:0:0:
233,26,144465,1,0,0:0:0:0:
233,26,144543,1,0,0:0:0:0:
233,26,144622,22,0,P|209:82|202:113,1,76.9950006461678,2|0,1:0|0:0,0:0:0:0:
279,155,144856,2,0,P|303:211|310:242,1,76.9950006461678,2|0,1:0|0:0,0:0:0:0:
260,308,145090,1,2,1:0:0:0:
384,193,145247,2,0,P|403:183|427:177,3,38.4975003230839,10|2|2|2,0:0|0:0|0:0|0:0,0:0:0:0:
320,245,145559,2,0,P|301:239|284:230,3,38.4975003230839,2|2|2|2,0:0|0:0|0:0|0:0,0:0:0:0:
232,152,145872,37,6,1:0:0:0:
205,330,146028,2,0,P|153:354|117:356,1,76.9950006461678,2|2,0:0|0:0,0:0:0:0:
74,190,146340,1,0,1:0:0:0:
74,190,146418,1,0,1:0:0:0:
74,190,146497,2,0,P|119:203|146:230,1,76.9950006461678,10|2,0:0|1:0,0:0:0:0:
234,313,146809,1,0,0:0:0:0:
203,131,146965,1,2,0:0:0:0:
310,274,147122,22,0,P|362:292|406:293,1,76.9950006461678,2|2,1:0|1:0,0:0:0:0:
478,186,147356,2,0,P|439:191|404:206,1,76.9950006461678
395,320,147590,1,2,0:0:0:0:
323,133,147747,1,10,0:0:0:0:
398,343,147903,2,0,P|410:266|434:172,1,153.990001292336,2|2,0:0|0:0,0:0:0:0:
317,87,148372,6,0,B|225:85|270:132|176:144,1,153.990001292336,2|2,1:0|0:0,0:0:0:0:
81,92,148840,1,0,1:0:0:0:
81,92,148918,1,0,1:0:0:0:
81,92,148997,2,0,P|99:57|102:43,1,38.4975003230839,8|0,0:0|0:0,0:0:0:0:
5,163,149153,2,0,P|12:180|22:196,1,38.4975003230839,2|0,1:0|0:0,0:0:0:0:
112,239,149309,2,0,P|153:223|198:219,1,76.9950006461678,2|0,0:0|1:0,0:0:0:0:
268,241,149543,1,0,1:0:0:0:
268,241,149622,22,0,P|248:294|237:355,1,115.492500969252,8|8,0:0|3:0,0:0:0:0:
395,216,150090,1,2,1:0:0:0:
395,216,150168,1,0,1:0:0:0:
395,216,150247,2,0,P|376:181|369:153,2,51.3300004307785,8|8|8,0:0|0:0|3:0,0:0:0:0:
461,62,150559,2,0,P|452:88|440:112,1,38.4975003230839,10|0,3:0|0:0,0:0:0:0:
367,230,150715,2,0,P|359:212|354:193,1,38.4975003230839,2|0,3:0|0:0,0:0:0:0:
461,35,150872,38,0,B|138:103|379:251|53:327,1,523.920012791016,6|2,1:0|1:0,0:0:0:0:
361,74,161809,21,2,1:0:0:0:
281,281,161965,2,0,P|241:299|192:285,1,76.9950006461678,10|0,0:0|0:0,0:0:0:0:
159,240,162200,1,0,3:0:0:0:
159,240,162278,1,0,1:0:0:0:
241,101,162434,1,8,0:0:0:0:
201,327,162590,1,2,1:0:0:0:
126,122,162747,1,10,3:0:0:0:
126,122,162825,1,8,3:0:0:0:
126,122,162903,2,0,P|96:113|75:109,1,38.4975003230839,10|8,3:0|3:0,0:0:0:0:
248,199,163059,2,0,P|286:195|326:173,1,75.6674990763245,10|0,0:0|0:0,0:0:0:0:
347,146,163372,6,0,P|321:226|304:349,1,189.389994220276,6|0,1:0|1:0,0:0:0:0:
226,188,163840,1,2,0:0:0:0:
392,273,163997,1,2,1:0:0:0:
206,219,164153,1,2,0:0:0:0:
375,138,164309,1,2,1:0:0:0:
281,331,164465,22,0,P|224:333|186:303,1,94.694997110138,2|0,0:0|1:0,0:0:0:0:
96,154,164778,2,0,P|142:149|183:171,1,94.694997110138,2|0,0:0|1:0,0:0:0:0:
44,316,165090,2,0,P|29:261|0:214,1,94.694997110138,2|0,0:0|1:0,0:0:0:0:
176,66,165403,1,0,0:0:0:0:
206,303,165559,2,0,P|261:286|313:277,1,94.694997110138,0|2,1:0|0:0,0:0:0:0:
466,173,165872,37,2,1:0:0:0:
386,338,166028,1,2,0:0:0:0:
355,124,166184,1,2,1:0:0:0:
412,315,166340,1,2,0:0:0:0:
443,83,166497,1,2,1:0:0:0:
298,279,166653,1,2,0:0:0:0:
498,250,166809,1,2,1:0:0:0:
339,94,166965,22,0,P|286:81|231:77,1,94.694997110138,2|0,0:0|1:0,0:0:0:0:
127,208,167278,1,2,0:0:0:0:
127,208,167356,1,0,3:0:0:0:
127,208,167434,1,2,1:0:0:0:
170,36,167590,1,2,0:0:0:0:
239,232,167747,1,2,1:0:0:0:
84,137,167903,1,2,0:0:0:0:
280,93,168059,1,2,1:0:0:0:
85,225,168215,1,2,0:0:0:0:
310,283,168372,6,0,B|426:279|367:220|492:229,1,189.389994220276,6|0,1:0|1:0,0:0:0:0:
310,116,168840,1,10,0:0:0:0:
310,116,168918,1,8,0:0:0:0:
310,116,168997,2,0,P|331:149|343:178,1,47.347498555069,0|0,1:0|3:0,0:0:0:0:
250,321,169153,2,0,P|261:300|274:280,1,47.347498555069,10|8,0:0|0:0,0:0:0:0:
311,94,169309,2,0,P|351:147|369:185,1,94.694997110138,0|8,1:0|0:0,0:0:0:0:
160,185,169622,22,0,P|192:124|225:-4,1,189.389994220276,0|0,1:0|1:0,0:0:0:0:
45,128,170090,1,10,0:0:0:0:
45,128,170168,1,8,0:0:0:0:
45,128,170247,2,0,P|65:174|71:197,1,47.347498555069,0|0,1:0|3:0,0:0:0:0:
110,315,170403,2,0,P|118:292|129:271,1,47.347498555069,10|8,0:0|0:0,0:0:0:0:
29,133,170559,2,0,P|49:179|55:202,3,47.347498555069,0|8|10|8,1:0|0:0|0:0|0:0,0:0:0:0:
119,343,170872,37,6,1:0:0:0:
186,132,171028,1,10,0:0:0:0:
258,361,171184,21,2,1:0:0:0:
319,251,171496,1,2,1:0:0:0:
242,339,171809,1,2,1:0:0:0:
329,279,172122,1,0,1:0:0:0:
240,302,172434,1,0,1:0:0:0:
320,308,172747,1,0,1:0:0:0:
206,144,173059,5,0,1:0:0:0:
206,144,173137,1,0,1:0:0:0:
206,144,173215,1,10,0:0:0:0:
236,253,173372,1,2,1:0:0:0:
351,85,174465,22,0,P|333:117|322:142,1,38.4975003230839,0|0,1:0|0:0,0:0:0:0:
299,278,174622,37,14,0:0:0:0:
236,25,174778,1,14,0:0:0:0:
193,340,175247,21,10,3:0:0:0:
316,95,175403,1,10,3:0:0:0:
64,85,175872,5,10,3:0:0:0:
64,85,175950,1,8,3:0:0:0:
64,85,176028,2,0,P|76:114|82:134,1,38.4975003230839,0|0,1:0|1:0,0:0:0:0:
48,232,176184,22,0,B|176:243|107:181|247:192,1,189.389994220276,4|2,1:0|1:0,0:0:0:0:
357,256,176653,1,0,1:0:0:0:
274,81,176809,1,10,0:0:0:0:
305,330,176965,2,0,P|320:256|395:143,1,189.389994220276,6|2,1:0|1:0,0:0:0:0:
212,240,177434,1,8,0:0:0:0:
294,53,177590,1,2,0:0:0:0:
484,244,177747,2,0,P|434:273|375:268,1,94.694997110138,0|0,1:0|0:0,0:0:0:0:
254,82,178059,2,0,P|300:86|339:112,1,94.694997110138,8|2,0:0|0:0,0:0:0:0:
211,298,178372,37,2,1:0:0:0:
376,198,178528,1,2,0:0:0:0:
158,167,178684,1,10,0:0:0:0:
343,222,178840,1,2,0:0:0:0:
99,257,178997,1,2,1:0:0:0:
271,143,179153,1,2,0:0:0:0:
197,367,179309,1,10,0:0:0:0:
123,95,179465,22,0,B|64:70|23:64,1,94.694997110138,6|0,1:0|0:0,0:0:0:0:
171,218,179778,1,0,1:0:0:0:
253,51,179934,1,10,0:0:0:0:
253,51,180012,1,8,0:0:0:0:
253,51,180090,2,0,P|292:31|311:23,1,47.347498555069,10|8,0:0|0:0,0:0:0:0:
331,192,180247,5,2,1:0:0:0:
103,56,180403,1,10,0:0:0:0:
353,88,180559,1,10,0:0:0:0:
72,206,180715,1,2,0:0:0:0:
296,172,180872,22,0,B|420:169|351:234|489:225,1,189.389994220276,6|8,1:0|0:0,0:0:0:0:
454,40,181340,2,0,P|404:52|361:75,1,94.694997110138,2|0,0:0|1:0,0:0:0:0:
248,233,181653,1,2,0:0:0:0:
256,26,181809,1,8,0:0:0:0:
315,293,181965,38,0,P|263:320|216:311,1,94.694997110138,4|0,1:0|0:0,0:0:0:0:
111,144,182278,1,0,1:0:0:0:
144,350,182434,1,8,0:0:0:0:
233,120,182590,2,0,P|256:68|303:18,1,94.694997110138,2|0,0:0|1:0,0:0:0:0:
77,159,182903,2,0,P|105:196|123:240,1,94.694997110138,2|8,0:0|0:0,0:0:0:0:
304,183,183215,21,2,0:0:0:0:
304,183,183293,1,0,0:0:0:0:
304,183,183372,1,2,1:0:0:0:
133,66,183528,1,2,0:0:0:0:
212,247,183684,1,10,0:0:0:0:
225,22,183840,1,2,0:0:0:0:
205,294,183997,6,0,P|143:320|92:309,1,94.694997110138,2|2,1:0|0:0,0:0:0:0:
249,109,184309,1,10,0:0:0:0:
313,350,184465,2,0,P|341:363|368:370,1,47.347498555069,2|0,1:0|1:0,0:0:0:0:
481,267,184622,2,0,P|427:293|375:285,1,94.694997110138,8|8,0:0|0:0,0:0:0:0:
341,235,184856,1,8,0:0:0:0:
341,235,184934,2,0,P|363:179|368:137,1,94.694997110138,8|10,0:0|0:0,0:0:0:0:
321,80,185168,1,8,0:0:0:0:
321,80,185247,2,0,P|288:98|266:102,1,47.347498555069,2|8,1:0|0:0,0:0:0:0:
156,15,185403,2,0,P|178:22|198:35,1,47.347498555069,10|8,0:0|0:0,0:0:0:0:
233,182,185559,1,2,3:0:0:0:
249,210,185637,1,0,3:0:0:0:
256,242,185715,1,8,3:0:0:0:
248,274,185793,1,8,3:0:0:0:
225,299,185872,22,0,P|169:281|14:256,1,189.389994220276,6|8,1:0|0:0,0:0:0:0:
154,170,186340,1,2,0:0:0:0:
96,340,186497,1,2,1:0:0:0:
113,137,186653,1,2,0:0:0:0:
190,286,186809,1,10,0:0:0:0:
223,88,186965,38,0,P|273:66|325:73,1,94.694997110138,6|0,1:0|0:0,0:0:0:0:
438,156,187278,1,2,1:0:0:0:
314,278,187434,2,0,P|294:217|272:180,1,94.694997110138,8|2,0:0|0:0,0:0:0:0:
468,140,187747,1,0,1:0:0:0:
416,292,187903,1,0,0:0:0:0:
381,48,188059,2,0,P|334:40|290:54,1,94.694997110138,8|2,0:0|0:0,0:0:0:0:
154,197,188372,21,2,1:0:0:0:
204,11,188528,1,2,0:0:0:0:
257,217,188684,1,10,0:0:0:0:
171,41,188840,1,2,0:0:0:0:
100,287,188997,1,2,1:0:0:0:
222,109,189153,1,2,0:0:0:0:
0,142,189309,1,10,0:0:0:0:
172,305,189465,6,0,P|242:306|322:222,1,189.389994220276,6|2,1:0|1:0,0:0:0:0:
254,69,189934,1,10,0:0:0:0:
254,69,190012,1,8,0:0:0:0:
254,69,190090,2,0,P|243:107|245:123,1,47.347498555069,10|8,0:0|0:0,0:0:0:0:
380,165,190247,1,2,1:0:0:0:
328,11,190403,1,2,1:0:0:0:
306,227,190559,2,0,P|336:237|362:239,1,47.347498555069,10|8,0:0|0:0,0:0:0:0:
165,120,190715,2,0,P|141:123|119:131,1,47.347498555069,10|8,0:0|0:0,0:0:0:0:
211,318,190872,22,0,P|219:236|257:118,1,189.389994220276,6|8,1:0|0:0,0:0:0:0:
446,222,191340,2,0,P|397:258|350:254,1,94.694997110138,2|0,0:0|1:0,0:0:0:0:
238,114,191653,1,2,0:0:0:0:
302,322,191809,1,8,0:0:0:0:
334,62,191965,38,0,B|442:57|403:126|520:107,1,189.389994220276,4|0,1:0|1:0,0:0:0:0:
436,5,192434,1,8,0:0:0:0:
352,176,192590,2,0,P|376:233|389:276,1,94.694997110138,2|0,0:0|1:0,0:0:0:0:
205,100,192903,2,0,P|229:43|242:0,1,94.694997110138,10|8,0:0|0:0,0:0:0:0:
260,204,193215,21,0,1:0:0:0:
260,204,193293,1,0,1:0:0:0:
260,204,193372,2,0,P|211:231|168:229,1,94.694997110138,14|0,0:0|0:0,0:0:0:0:
63,78,193684,1,10,0:0:0:0:
95,308,193840,2,0,P|151:334|203:331,1,94.694997110138,2|8,0:0|0:0,0:0:0:0:
325,131,194153,1,2,1:0:0:0:
275,308,194309,1,10,0:0:0:0:
221,89,194465,1,2,1:0:0:0:
302,325,194622,1,10,0:0:0:0:
382,78,194778,6,0,P|439:57|484:49,1,94.694997110138,2|8,0:0|0:0,0:0:0:0:
347,236,195090,1,2,0:0:0:0:
284,20,195247,1,10,0:0:0:0:
239,207,195403,1,0,1:0:0:0:
239,207,195481,1,0,3:0:0:0:
239,207,195559,2,0,P|190:229|147:232,1,94.694997110138,10|0,0:0|1:0,0:0:0:0:
22,38,195872,22,0,P|49:97|59:146,1,94.694997110138,14|0,0:0|0:0,0:0:0:0:
62,330,196184,1,10,0:0:0:0:
201,58,196340,2,0,P|174:117|164:166,1,94.694997110138,2|8,0:0|0:0,0:0:0:0:
267,298,196653,1,2,1:0:0:0:
267,298,196731,1,0,1:0:0:0:
267,298,196809,2,0,P|299:287|326:282,1,47.347498555069,10|8,0:0|0:0,0:0:0:0:
384,169,196965,2,0,P|361:163|338:155,1,47.347498555069,10|8,0:0|0:0,0:0:0:0:
467,262,197122,37,6,1:0:0:0:
402,76,197278,1,2,1:0:0:0:
355,271,197434,2,0,P|379:329|383:367,1,94.694997110138,10|2,0:0|0:0,0:0:0:0:
196,220,197747,1,2,1:0:0:0:
196,220,197903,1,0,1:0:0:0:
448,173,198059,2,0,P|472:132|474:70,1,94.694997110138,10|0,0:0|1:0,0:0:0:0:
401,37,198293,21,0,1:0:0:0:
401,37,198372,2,0,P|339:58|290:65,1,103.545000394993,14|0,0:0|0:0,0:0:0:0:
132,23,198684,1,10,0:0:0:0:
339,197,198840,2,0,P|277:176|228:169,1,103.545000394993,2|8,0:0|0:0,0:0:0:0:
70,214,199153,1,2,1:0:0:0:
199,78,199309,1,10,0:0:0:0:
130,281,199465,1,0,1:0:0:0:
73,51,199622,1,10,0:0:0:0:
144,311,199778,6,0,P|204:292|256:283,1,103.545000394993,2|8,0:0|0:0,0:0:0:0:
401,299,200090,1,2,0:0:0:0:
202,196,200247,1,10,0:0:0:0:
434,163,200403,1,0,1:0:0:0:
434,163,200481,1,0,1:0:0:0:
434,163,200559,2,0,P|462:113|460:61,1,103.545000394993,10|0,0:0|1:0,0:0:0:0:
396,26,200793,21,0,1:0:0:0:
396,26,200872,2,0,P|360:44|339:49,3,51.7725001974964,10|0|0|0,0:0|3:0|1:0|1:0,0:0:0:0:
211,13,201184,2,0,P|243:20|264:29,1,51.7725001974964,10|8,0:0|3:0,0:0:0:0:
365,211,201340,2,0,P|324:208|304:202,3,51.7725001974964,10|0|0|0,0:0|3:0|1:0|1:0,0:0:0:0:
211,107,201652,2,0,P|235:129|248:147,1,51.7725001974964,10|8,0:0|0:0,0:0:0:0:
231,295,201809,1,2,3:0:0:0:
231,295,201887,1,0,3:0:0:0:
231,295,201965,2,0,P|180:321|153:326,1,51.7725001974964,8|8,3:0|3:0,0:0:0:0:
70,263,202122,37,2,1:0:0:0:
70,263,202200,1,0,1:0:0:0:
70,263,202278,1,10,0:0:0:0:
195,85,202434,2,0,P|175:146|172:191,1,103.545000394993,10|2,0:0|1:0,0:0:0:0:
364,302,202747,22,0,P|313:278|249:292,1,103.545000394993,10|0,0:0|1:0,0:0:0:0:
208,79,203059,2,0,P|256:64|300:67,1,76.9950006461678,10|0,0:0|1:0,0:0:0:0:
427,178,205403,5,0,1:0:0:0:
427,178,205481,1,0,1:0:0:0:
427,178,205559,1,8,0:0:0:0:
247,194,205715,2,0,B|352:203|296:276|402:272,1,179.212504375305,10|0,0:0|0:0,0:0:0:0:
