osu file format v14

[General]
AudioFilename: audio.mp3
AudioLeadIn: 0
PreviewTime: 152590
Countdown: 0
SampleSet: Soft
StackLeniency: 0.7
Mode: 0
LetterboxInBreaks: 0
WidescreenStoryboard: 0

[Editor]
DistanceSpacing: 0.5
BeatDivisor: 4
GridSize: 32
TimelineZoom: 1.9

[Metadata]
Title:Android Girl feat. Hatsune Miku
TitleUnicode:アンドロイドガール feat. 初音ミク
Artist:DECO*27
ArtistUnicode:DECO*27
Creator:SMOKELIND
Version:Beyond the Artificial Feelings
Source:
Tags:霧崎秀征 Rock Novelty Vocaloid Japanese Kowari Collab Collaboration Rockwell
BeatmapID:2200171
BeatmapSetID:1052821

[Difficulty]
HPDrainRate:5.4
CircleSize:3.8
OverallDifficulty:9.1
ApproachRate:9.4
SliderMultiplier:1.87
SliderTickRate:1

[Events]
//Background and Video events
0,0,"Kowari.jpg",0,0
Video,-378,"Kowari.mp4"
//Break Periods
2,1384,2612
2,153572,161049
2,203415,204643
//Storyboard Layer 0 (Background)
//Storyboard Layer 1 (Fail)
//Storyboard Layer 2 (Pass)
//Storyboard Layer 3 (Foreground)
//Storyboard Layer 4 (Overlay)
//Storyboard Sound Samples

[TimingPoints]
-378,312.5,4,2,7,57,1,0
-378,-129.87012987013,4,2,7,57,0,0
5872,-129.87012987013,4,2,7,57,0,0
6497,-129.87012987013,4,2,7,47,0,0
7122,-129.87012987013,4,2,7,57,0,0
7435,-129.87012987013,4,2,7,67,0,0
7747,-129.87012987013,4,2,7,77,0,0
8372,-114.942528735632,4,2,7,77,0,0
10559,-212.765957446808,4,2,7,77,0,0
10872,-103.092783505155,4,2,7,77,0,0
20872,-129.87012987013,4,2,7,57,0,0
40872,-175.438596491228,4,2,7,77,0,0
44622,-129.87012987013,4,2,7,77,0,0
45872,-129.87012987013,4,2,7,67,0,0
48372,-114.942528735632,4,2,7,77,0,0
50872,-93.4579439252336,4,2,7,87,0,0
73372,-103.092783505155,4,2,7,77,0,0
83372,-129.87012987013,4,2,7,77,0,0
103372,-114.942528735632,4,2,7,77,0,0
110872,-114.942528735632,4,2,7,57,0,0
111184,-114.942528735632,4,2,7,67,0,0
111497,-114.942528735632,4,2,7,77,0,0
111809,-114.942528735632,4,2,7,87,0,0
113372,-93.4579439252336,4,2,7,87,0,0
135872,-175.438596491227,4,2,7,47,0,0
139309,-175.438596491227,4,2,7,57,0,0
140872,-114.942528735632,4,2,7,77,0,0
150872,-175.438596491228,4,2,7,77,0,0
150950,-175.438596491228,4,2,7,7,0,0
153372,-212.765957446808,4,2,7,77,0,0
161809,-114.942528735632,4,2,7,57,0,0
162278,-114.942528735632,4,2,7,67,0,0
163059,-175.438596491228,4,2,7,77,0,0
163372,-93.4579439252336,4,2,7,87,0,0
168372,-93.4579439252336,4,2,7,77,0,0
170872,-114.942528735632,4,2,7,67,0,0
171184,-114.942528735632,4,2,7,47,0,0
174465,-114.942528735632,4,2,7,67,0,0
176184,-93.4579439252336,4,2,7,87,0,0
198372,-85.4700854700855,4,2,7,97,0,0
203059,-114.942528735632,4,2,7,87,0,0
205403,-114.942528735632,4,2,7,77,0,0
205715,-370.370370370369,4,2,7,77,0,0
205872,-370.370370370369,4,2,7,7,0,0

[Colours]
Combo1 : 255,255,206
Combo2 : 188,121,255
Combo3 : 255,238,121
Combo4 : 231,206,255

[HitObjects]
97,76,872,5,14,0:0:0:0:
171,335,1028,1,8,0:0:0:0:
246,45,1184,1,8,0:0:0:0:
403,71,3372,5,8,0:0:0:0:
307,345,3528,1,10,0:0:0:0:
282,111,3684,1,8,0:0:0:0:
429,312,3840,2,0,P|462:328|506:332,1,71.9949985718766,2|0,3:0|0:0,0:0:0:0:
512,152,4153,1,2,1:0:0:0:
512,152,4231,1,0,1:0:0:0:
512,152,4309,1,8,0:0:0:0:
364,153,4465,21,10,0:0:0:0:
364,153,4543,1,8,3:0:0:0:
364,153,4622,2,0,P|352:176|348:212,1,35.9974992859383,0|0,1:0|1:0,0:0:0:0:
307,345,4778,2,0,P|271:340|239:324,1,71.9949985718766,8|2,0:0|1:0,0:0:0:0:
226,244,5012,1,0,1:0:0:0:
230,248,5090,1,8,0:0:0:0:
426,224,5247,1,8,0:0:0:0:
237,94,5403,1,2,1:0:0:0:
237,94,5481,1,0,1:0:0:0:
237,94,5559,2,0,P|196:93|152:108,1,71.9949985718766,10|0,0:0|0:0,0:0:0:0:
169,352,5872,37,6,1:0:0:0:
44,110,6028,1,0,1:0:0:0:
78,283,6184,1,0,1:0:0:0:
177,71,6340,2,0,P|214:50|259:45,1,71.9949985718766,0|8,0:0|0:0,0:0:0:0:
347,180,6653,21,8,0:0:0:0:
246,236,6809,1,8,0:0:0:0:
399,252,6965,1,8,0:0:0:0:
223,208,7122,1,8,0:0:0:0:
315,322,7278,1,8,0:0:0:0:
354,159,7434,1,8,0:0:0:0:
310,346,7590,1,8,0:0:0:0:
169,148,7747,1,8,0:0:0:0:
418,239,7903,1,8,0:0:0:0:
123,243,8059,1,8,0:0:0:0:
291,50,8215,5,8,0:0:0:0:
291,50,8293,1,8,0:0:0:0:
291,50,8372,2,0,P|275:90|266:140,1,81.3450006826744,12|0,0:0|1:0,0:0:0:0:
146,320,8684,1,0,1:0:0:0:
146,320,8762,1,0,1:0:0:0:
146,320,8840,1,8,0:0:0:0:
145,70,8997,2,0,P|161:110|170:160,1,81.3450006826744,8|0,0:0|1:0,0:0:0:0:
157,229,9231,1,0,1:0:0:0:
157,229,9309,2,0,P|194:256|239:263,1,81.3450006826744,8|0,0:0|1:0,0:0:0:0:
296,212,9543,21,0,1:0:0:0:
296,212,9622,2,0,P|323:190|358:182,1,40.6725003413372,0|8,1:0|3:0,0:0:0:0:
506,154,9778,2,0,P|488:144|473:130,1,40.6725003413372,8|8,3:0|3:0,0:0:0:0:
334,20,9934,2,0,P|343:37|349:57,3,40.6725003413372,8|8|8|8,3:0|3:0|3:0|3:0,0:0:0:0:
338,141,10247,38,0,P|305:117|261:108,1,81.3450006826744,8|0,0:0|3:0,0:0:0:0:
206,164,10481,1,0,3:0:0:0:
206,164,10559,2,0,P|173:187|134:196,1,65.9174989941788,0|0,3:0|0:0,0:0:0:0:
54,181,10872,22,0,P|79:226|92:272,1,90.6950021450387,6|0,1:0|0:0,0:0:0:0:
200,65,11184,1,10,0:0:0:0:
168,272,11340,1,2,0:0:0:0:
338,92,11497,2,0,P|313:137|300:183,1,90.6950021450387,2|0,1:0|0:0,0:0:0:0:
380,356,11809,1,10,0:0:0:0:
212,180,11965,6,0,P|237:225|250:271,1,90.6950021450387,6|0,1:0|0:0,0:0:0:0:
458,130,12278,2,0,P|433:175|420:221,1,90.6950021450387,2|8,1:0|0:0,0:0:0:0:
274,58,12590,2,0,P|227:39|184:43,1,90.6950021450387,2|0,0:0|1:0,0:0:0:0:
75,255,12903,1,10,0:0:0:0:
299,151,13059,2,0,P|274:196|261:242,1,90.6950021450387,10|0,0:0|0:0,0:0:0:0:
106,68,13372,22,0,P|65:46|15:43,1,90.6950021450387,6|0,1:0|0:0,0:0:0:0:
105,245,13684,1,10,0:0:0:0:
191,68,13840,1,2,0:0:0:0:
269,259,13997,2,0,P|313:254|353:233,1,90.6950021450387,2|0,1:0|0:0,0:0:0:0:
178,101,14309,1,10,0:0:0:0:
136,327,14465,38,0,P|96:357|44:364,1,90.6950021450387,6|0,1:0|0:0,0:0:0:0:
168,137,14778,1,2,1:0:0:0:
270,293,14934,1,8,0:0:0:0:
273,296,15012,1,8,0:0:0:0:
277,300,15090,2,0,P|304:314|354:324,1,45.3475010725193,10|0,0:0|0:0,0:0:0:0:
454,171,15247,1,0,1:0:0:0:
217,233,15403,1,10,0:0:0:0:
375,108,15559,2,0,P|359:150|350:210,1,90.6950021450387,10|0,0:0|0:0,0:0:0:0:
179,45,15872,22,0,P|195:87|204:147,1,90.6950021450387,6|0,1:0|0:0,0:0:0:0:
56,306,16184,1,10,0:0:0:0:
114,134,16340,1,2,0:0:0:0:
187,348,16497,2,0,P|238:376|293:371,1,90.6950021450387,2|0,1:0|0:0,0:0:0:0:
134,176,16809,1,10,0:0:0:0:
369,112,16965,6,0,P|345:166|334:229,1,90.6950021450387,6|0,1:0|0:0,0:0:0:0:
175,372,17278,2,0,P|163:328|143:287,1,90.6950021450387,2|8,1:0|0:0,0:0:0:0:
397,118,17590,2,0,P|373:172|362:235,1,90.6950021450387,2|0,0:0|1:0,0:0:0:0:
203,378,17903,1,10,0:0:0:0:
225,124,18059,2,0,P|249:178|260:241,1,90.6950021450387,10|0,0:0|1:0,0:0:0:0:
259,290,18293,21,0,1:0:0:0:
259,290,18372,2,0,P|301:319|362:320,1,90.6950021450387,14|2,0:0|0:0,0:0:0:0:
479,123,18684,1,10,0:0:0:0:
419,313,18840,1,2,0:0:0:0:
381,46,18997,1,10,0:0:0:0:
423,265,19153,1,2,1:0:0:0:
426,268,19231,1,0,1:0:0:0:
430,272,19309,1,10,0:0:0:0:
225,124,19465,1,6,1:0:0:0:
402,62,19622,38,0,P|383:107|375:153,1,90.6950021450387,2|10,0:0|0:0,0:0:0:0:
407,224,19856,1,8,0:0:0:0:
411,228,19934,2,0,P|380:259|332:279,1,90.6950021450387,10|0,0:0|1:0,0:0:0:0:
261,226,20168,1,0,1:0:0:0:
261,226,20247,1,10,0:0:0:0:
261,226,20872,22,0,P|254:178|242:136,1,71.9949985718766,6|0,1:0|0:0,0:0:0:0:
157,66,21184,1,2,0:0:0:0:
82,230,21340,2,0,P|54:251|13:264,1,71.9949985718766,2|8,1:0|0:0,0:0:0:0:
67,109,21653,1,2,0:0:0:0:
169,237,21809,1,2,0:0:0:0:
235,74,21965,6,0,P|278:55|380:89,1,143.989997143753,2|2,0:0|1:0,0:0:0:0:
412,229,22434,1,2,1:0:0:0:
302,151,22590,1,2,3:0:0:0:
302,151,22668,1,0,3:0:0:0:
302,151,22747,2,0,P|315:188|327:243,1,71.9949985718766,8|2,0:0|0:0,0:0:0:0:
221,333,23059,1,2,0:0:0:0:
303,242,23215,1,2,3:0:0:0:
168,145,23372,22,0,P|131:132|87:136,1,71.9949985718766,2|0,1:0|0:0,0:0:0:0:
194,247,23684,1,2,0:0:0:0:
234,79,23840,2,0,P|271:66|315:70,1,71.9949985718766,2|8,1:0|0:0,0:0:0:0:
372,209,24153,2,0,P|336:209|302:196,1,71.9949985718766,2|0,0:0|0:0,0:0:0:0:
229,64,24465,38,0,P|266:51|310:55,1,71.9949985718766,2|0,3:0|1:0,0:0:0:0:
376,186,24778,2,0,P|340:186|306:173,1,71.9949985718766,2|0,1:0|1:0,0:0:0:0:
143,83,25090,2,0,P|163:121|171:162,1,71.9949985718766,2|8,0:0|0:0,0:0:0:0:
79,253,25403,2,0,P|57:261|26:266,2,35.9974992859383,0|0|0,3:0|3:0|3:0,0:0:0:0:
156,168,25715,1,2,3:0:0:0:
253,291,25872,22,0,P|246:325|239:370,1,71.9949985718766,2|0,1:0|0:0,0:0:0:0:
333,216,26184,1,2,0:0:0:0:
439,346,26340,2,0,P|433:310|426:275,1,71.9949985718766,2|8,1:0|0:0,0:0:0:0:
402,111,26653,1,2,0:0:0:0:
363,234,26809,1,2,0:0:0:0:
276,69,26965,6,0,B|201:47|226:103|131:72,1,143.989997143753,10|0,0:0|1:0,0:0:0:0:
251,148,27434,1,2,1:0:0:0:
120,224,27590,2,0,P|81:243|20:255,1,71.9949985718766,2|8,0:0|0:0,0:0:0:0:
119,115,27903,1,2,0:0:0:0:
210,259,28059,1,2,0:0:0:0:
264,113,28215,1,2,3:0:0:0:
297,296,28372,22,0,P|328:317|384:326,1,71.9949985718766,2|2,1:0|0:0,0:0:0:0:
428,238,28684,1,2,0:0:0:0:
275,157,28840,1,2,1:0:0:0:
447,214,28997,1,10,0:0:0:0:
282,189,29153,1,2,0:0:0:0:
380,307,29309,1,2,0:0:0:0:
358,143,29465,38,0,P|362:102|375:66,1,71.9949985718766,2|0,3:0|0:0,0:0:0:0:
194,11,29778,1,2,1:0:0:0:
242,165,29934,1,2,1:0:0:0:
226,20,30090,1,0,3:0:0:0:
128,186,30247,2,0,P|98:207|54:215,1,71.9949985718766,10|0,0:0|3:0,0:0:0:0:
47,190,30481,1,2,0:0:0:0:
47,190,30559,1,2,0:0:0:0:
202,277,30715,21,10,0:0:0:0:
202,277,31028,5,2,0:0:0:0:
366,173,31184,1,2,1:0:0:0:
224,258,31340,2,0,P|206:219|200:181,1,71.9949985718766,2|8,0:0|0:0,0:0:0:0:
295,26,31653,1,2,0:0:0:0:
161,97,31809,1,2,0:0:0:0:
318,10,31965,22,0,P|336:49|342:87,1,71.9949985718766,8|0,0:0|0:0,0:0:0:0:
317,235,32278,1,2,1:0:0:0:
196,108,32434,1,2,1:0:0:0:
146,263,32590,1,2,3:0:0:0:
146,263,32668,1,0,3:0:0:0:
146,263,32747,2,0,P|125:233|115:184,1,71.9949985718766,10|0,0:0|0:0,0:0:0:0:
143,171,32981,2,0,P|164:141|174:92,1,71.9949985718766,2|0,0:0|0:0,0:0:0:0:
155,74,33215,1,2,0:0:0:0:
227,243,33372,37,2,1:0:0:0:
315,102,33528,1,2,0:0:0:0:
315,102,33606,1,2,0:0:0:0:
315,102,33684,1,2,0:0:0:0:
243,267,33840,2,0,P|205:271|159:285,1,71.9949985718766,2|8,1:0|0:0,0:0:0:0:
40,180,34153,1,2,0:0:0:0:
155,294,34309,1,2,0:0:0:0:
168,135,34465,1,2,3:0:0:0:
70,267,34622,22,0,P|33:251|-12:248,1,71.9949985718766,2|0,3:0|1:0,0:0:0:0:
164,174,34934,1,2,1:0:0:0:
139,379,35090,1,2,3:0:0:0:
267,245,35247,2,0,P|302:255|331:277,1,71.9949985718766,10|0,0:0|3:0,0:0:0:0:
438,192,35559,1,2,0:0:0:0:
345,301,35715,1,2,3:0:0:0:
268,114,35872,6,0,P|233:123|204:145,1,71.9949985718766,2|0,1:0|0:0,0:0:0:0:
155,294,36184,1,2,0:0:0:0:
103,138,36340,2,0,P|74:116|39:106,1,71.9949985718766,2|8,1:0|0:0,0:0:0:0:
161,258,36653,1,2,0:0:0:0:
199,92,36809,1,2,0:0:0:0:
254,255,36965,22,0,P|282:276|317:286,1,71.9949985718766,2|0,3:0|0:0,0:0:0:0:
210,123,37278,1,2,1:0:0:0:
253,283,37434,1,2,1:0:0:0:
387,154,37590,1,2,3:0:0:0:
387,154,37668,1,0,3:0:0:0:
387,154,37747,1,8,0:0:0:0:
423,315,37903,1,2,0:0:0:0:
317,208,38059,1,2,3:0:0:0:
278,364,38215,1,2,3:0:0:0:
396,191,38372,38,0,P|433:176|474:168,1,71.9949985718766,2|2,1:0|0:0,0:0:0:0:
392,326,38684,1,2,0:0:0:0:
298,182,38840,1,2,1:0:0:0:
249,359,38997,1,10,0:0:0:0:
317,208,39153,1,2,3:0:0:0:
227,358,39309,1,2,1:0:0:0:
145,211,39465,22,0,P|111:190|64:180,1,71.9949985718766,2|0,1:0|3:0,0:0:0:0:
38,354,39778,2,0,P|72:343|102:324,1,71.9949985718766,2|0,1:0|1:0,0:0:0:0:
239,177,40090,1,10,0:0:0:0:
239,177,40168,1,8,0:0:0:0:
239,177,40247,2,0,P|230:199|218:268,1,71.9949985718766,10|8,0:0|0:0,0:0:0:0:
258,315,40481,1,10,0:0:0:0:
258,315,40559,1,8,0:0:0:0:
327,133,40715,5,10,0:0:0:0:
327,133,40793,1,8,0:0:0:0:
327,133,40872,2,0,B|284:194|227:193|177:152|186:100|186:100|230:128|227:193|199:237|121:240,1,399.712495120697,6|0,1:0|0:0,0:0:0:0:
134,239,42122,21,4,1:0:0:0:
134,239,42747,37,8,0:0:0:0:
187,101,42903,1,2,1:0:0:0:
266,273,43059,2,0,P|301:295|351:302,1,79.9424990241394,10|0,0:0|0:0,0:0:0:0:
338,302,43372,21,6,1:0:0:0:
338,302,43840,1,2,1:0:0:0:
338,302,43918,1,0,1:0:0:0:
338,302,43997,1,10,0:0:0:0:
327,133,44153,1,2,1:0:0:0:
245,322,44309,1,10,0:0:0:0:
331,168,44465,1,2,1:0:0:0:
141,93,44622,6,0,P|101:99|72:114,1,71.9949985718766,6|0,0:0|1:0,0:0:0:0:
212,244,44934,1,10,0:0:0:0:
329,94,45090,2,0,P|369:100|397:115,1,71.9949985718766,2|8,1:0|0:0,0:0:0:0:
407,317,45403,1,10,0:0:0:0:
407,317,45481,1,8,0:0:0:0:
407,317,45559,2,0,P|396:297|389:263,3,35.9974992859383,10|8|8|8,0:0|0:0|3:0|3:0,0:0:0:0:
396,194,45872,22,0,P|360:173|321:168,1,71.9949985718766,4|0,1:0|1:0,0:0:0:0:
231,281,46184,2,0,P|200:299|165:307,1,71.9949985718766,10|0,0:0|0:0,0:0:0:0:
95,249,46418,1,0,3:0:0:0:
95,249,46497,2,0,P|86:283|68:325,1,71.9949985718766,2|0,1:0|1:0,0:0:0:0:
229,191,46809,2,0,P|238:225|256:267,1,71.9949985718766,10|0,0:0|0:0,0:0:0:0:
116,109,47122,38,0,P|79:89|25:80,1,71.9949985718766,4|0,1:0|1:0,0:0:0:0:
231,157,47434,2,0,P|265:147|296:129,1,71.9949985718766,10|0,0:0|0:0,0:0:0:0:
344,54,47668,1,0,3:0:0:0:
344,54,47747,2,0,P|330:95|322:152,1,71.9949985718766,2|0,1:0|1:0,0:0:0:0:
429,251,48059,2,0,P|442:292|451:349,1,71.9949985718766,10|0,0:0|1:0,0:0:0:0:
257,193,48372,22,0,P|220:179|169:173,1,81.3450006826744,14|0,0:0|1:0,0:0:0:0:
323,88,48684,1,0,1:0:0:0:
222,267,48840,2,0,P|180:281|135:289,1,81.3450006826744,8|0,0:0|1:0,0:0:0:0:
61,96,49153,1,0,1:0:0:0:
22,332,49309,1,10,0:0:0:0:
77,129,49465,1,2,1:0:0:0:
292,356,49622,5,10,0:0:0:0:
38,218,49778,1,10,0:0:0:0:
426,152,49934,1,10,0:0:0:0:
323,88,50872,22,0,B|220:101|290:174|159:197,1,200.089993893738,6|8,1:0|0:0,0:0:0:0:
356,199,51340,1,2,0:0:0:0:
151,82,51497,2,0,P|98:92|51:125,1,100.044996946869,2|0,1:0|0:0,0:0:0:0:
227,281,51809,1,10,0:0:0:0:
339,62,51965,38,0,P|391:72|438:105,1,100.044996946869,6|0,1:0|0:0,0:0:0:0:
386,321,52278,2,0,P|343:347|294:356,1,100.044996946869,2|8,1:0|0:0,0:0:0:0:
170,163,52590,2,0,P|187:213|200:278,1,100.044996946869,2|0,0:0|1:0,0:0:0:0:
410,74,52903,2,0,P|393:124|380:189,1,100.044996946869,0|8,0:0|0:0,0:0:0:0:
260,318,53215,1,2,0:0:0:0:
249,105,53372,21,2,1:0:0:0:
230,308,53528,1,2,0:0:0:0:
127,87,53684,1,10,0:0:0:0:
320,229,53840,1,2,0:0:0:0:
219,20,53997,1,2,1:0:0:0:
191,234,54153,1,2,0:0:0:0:
241,0,54309,1,10,0:0:0:0:
333,247,54465,6,0,P|387:277|437:278,1,100.044996946869,6|0,1:0|0:0,0:0:0:0:
257,84,54778,1,2,1:0:0:0:
138,305,54934,2,0,P|108:316|70:318,1,50.0224984734345,10|8,0:0|0:0,0:0:0:0:
178,146,55090,2,0,P|202:150|225:159,1,50.0224984734345,10|8,0:0|0:0,0:0:0:0:
323,337,55247,1,2,1:0:0:0:
359,87,55403,1,10,0:0:0:0:
230,324,55559,1,10,0:0:0:0:
269,115,55715,1,2,0:0:0:0:
412,354,55872,22,0,P|447:235|476:155,1,200.089993893738,6|8,1:0|0:0,0:0:0:0:
244,18,56340,2,0,P|256:58|271:126,1,100.044996946869,2|0,0:0|1:0,0:0:0:0:
371,345,56653,2,0,P|381:296|396:248,1,100.044996946869,2|8,0:0|0:0,0:0:0:0:
213,17,56965,38,0,P|239:113|260:211,1,200.089993893738,4|0,1:0|1:0,0:0:0:0:
53,75,57434,1,8,0:0:0:0:
185,273,57590,2,0,P|235:301|294:298,1,100.044996946869,2|0,0:0|1:0,0:0:0:0:
366,60,57903,2,0,P|352:106|338:177,1,100.044996946869,2|8,0:0|0:0,0:0:0:0:
277,334,58215,1,2,0:0:0:0:
198,116,58372,21,2,1:0:0:0:
308,243,58528,1,2,0:0:0:0:
45,324,58684,1,10,0:0:0:0:
275,234,58840,1,2,0:0:0:0:
7,119,58997,1,2,1:0:0:0:
165,275,59153,1,2,0:0:0:0:
221,15,59309,1,10,0:0:0:0:
102,210,59465,5,2,1:0:0:0:
102,210,59543,1,0,1:0:0:0:
102,210,59622,1,12,0:0:0:0:
59,13,59778,1,8,0:0:0:0:
59,13,59856,1,8,0:0:0:0:
59,13,59934,1,8,0:0:0:0:
256,192,60090,1,10,0:0:0:0:
256,192,60168,1,8,0:0:0:0:
256,192,60247,2,0,P|248:212|242:243,1,50.0224984734345,2|8,1:0|0:0,0:0:0:0:
141,67,60403,2,0,P|149:87|155:118,1,50.0224984734345,10|8,0:0|0:0,0:0:0:0:
306,25,60559,21,8,0:0:0:0:
343,15,60637,1,0,3:0:0:0:
383,24,60715,1,8,3:0:0:0:
413,49,60793,1,8,3:0:0:0:
431,84,60872,2,0,P|403:130|368:281,1,200.089993893738,6|8,1:0|0:0,0:0:0:0:
316,125,61340,1,2,0:0:0:0:
203,353,61497,1,2,1:0:0:0:
224,128,61653,1,2,0:0:0:0:
372,358,61809,1,10,0:0:0:0:
223,155,61965,38,0,P|174:138|115:142,1,100.044996946869,6|0,1:0|0:0,0:0:0:0:
359,336,62278,2,0,P|408:337|455:320,1,100.044996946869,2|8,1:0|0:0,0:0:0:0:
361,62,62590,2,0,P|342:108|332:156,1,100.044996946869,2|0,0:0|1:0,0:0:0:0:
348,299,62903,1,0,0:0:0:0:
228,110,63059,1,8,0:0:0:0:
211,270,63215,1,2,0:0:0:0:
387,56,63372,21,2,1:0:0:0:
342,274,63528,1,2,0:0:0:0:
201,71,63684,1,10,0:0:0:0:
248,271,63840,1,2,0:0:0:0:
293,14,63997,1,2,1:0:0:0:
236,245,64153,1,2,0:0:0:0:
161,0,64309,1,10,0:0:0:0:
100,259,64465,6,0,P|122:200|136:136,1,100.044996946869,6|0,1:0|0:0,0:0:0:0:
326,17,64778,1,2,1:0:0:0:
342,274,64934,1,10,0:0:0:0:
342,274,65012,1,8,0:0:0:0:
342,274,65090,2,0,P|373:290|413:296,1,50.0224984734345,10|8,0:0|0:0,0:0:0:0:
286,125,65247,1,6,1:0:0:0:
232,332,65403,1,2,1:0:0:0:
275,155,65559,2,0,P|286:176|294:200,1,50.0224984734345,10|8,0:0|0:0,0:0:0:0:
453,81,65715,2,0,P|441:102|433:126,1,50.0224984734345,10|8,0:0|0:0,0:0:0:0:
235,244,65872,22,0,P|170:193|183:65,1,200.089993893738,6|8,1:0|0:0,0:0:0:0:
421,154,66340,2,0,P|379:184|304:192,1,100.044996946869,2|0,0:0|1:0,0:0:0:0:
161,0,66653,2,0,P|209:11|249:40,1,100.044996946869,2|8,0:0|0:0,0:0:0:0:
129,274,66965,38,0,B|121:151|178:208|171:81,1,200.089993893738,6|0,1:0|1:0,0:0:0:0:
256,284,67434,1,10,0:0:0:0:
80,110,67590,2,0,P|31:89|-25:91,1,100.044996946869,2|0,0:0|1:0,0:0:0:0:
168,277,67903,1,10,0:0:0:0:
279,52,68059,1,8,0:0:0:0:
251,327,68215,1,0,1:0:0:0:
69,86,68372,22,0,P|91:142|102:210,1,100.044996946869,10|0,0:0|0:0,0:0:0:0:
322,378,68684,1,10,0:0:0:0:
256,151,68840,1,2,0:0:0:0:
111,380,68997,1,8,0:0:0:0:
287,231,69153,1,2,1:0:0:0:
287,231,69231,1,0,1:0:0:0:
287,231,69309,1,10,0:0:0:0:
97,79,69465,1,0,1:0:0:0:
297,257,69622,5,10,0:0:0:0:
61,177,69778,1,2,0:0:0:0:
346,122,69934,1,8,0:0:0:0:
89,277,70090,1,2,0:0:0:0:
272,48,70247,2,0,P|336:26|377:31,1,100.044996946869,10|0,0:0|1:0,0:0:0:0:
465,361,70559,1,10,0:0:0:0:
385,116,70715,1,0,1:0:0:0:
212,367,70872,22,0,P|162:367|116:347,1,100.044996946869,10|0,0:0|0:0,0:0:0:0:
83,59,71184,1,10,0:0:0:0:
228,340,71340,1,2,0:0:0:0:
287,28,71497,1,8,0:0:0:0:
115,318,71653,1,2,1:0:0:0:
115,318,71731,1,0,1:0:0:0:
115,318,71809,1,10,0:0:0:0:
187,41,71965,1,2,1:0:0:0:
335,366,72122,37,14,0:0:0:0:
321,361,73372,22,0,P|334:317|357:278,1,90.6950021450387,6|0,1:0|0:0,0:0:0:0:
305,58,73684,1,10,0:0:0:0:
437,241,73840,1,2,0:0:0:0:
283,77,73997,2,0,P|305:116|319:159,1,90.6950021450387,2|0,1:0|0:0,0:0:0:0:
145,34,74309,1,10,0:0:0:0:
33,236,74465,6,0,P|20:279|17:324,1,90.6950021450387,6|0,1:0|0:0,0:0:0:0:
223,211,74778,2,0,P|220:165|207:122,1,90.6950021450387,2|8,1:0|0:0,0:0:0:0:
54,259,75090,2,0,P|41:302|38:347,1,90.6950021450387,2|0,0:0|1:0,0:0:0:0:
194,197,75403,1,10,0:0:0:0:
313,354,75559,2,0,P|351:375|418:384,1,90.6950021450387,10|0,0:0|0:0,0:0:0:0:
477,153,75872,22,0,P|451:199|433:261,1,90.6950021450387,6|0,1:0|0:0,0:0:0:0:
287,71,76184,1,10,0:0:0:0:
326,243,76340,1,2,0:0:0:0:
362,27,76497,2,0,P|382:75|392:139,1,90.6950021450387,2|0,1:0|0:0,0:0:0:0:
279,313,76809,1,10,0:0:0:0:
205,114,76965,38,0,P|156:84|104:75,1,90.6950021450387,6|0,1:0|0:0,0:0:0:0:
303,278,77278,1,2,1:0:0:0:
392,90,77434,1,8,0:0:0:0:
392,90,77512,1,8,0:0:0:0:
392,90,77590,2,0,P|384:115|378:151,1,45.3475010725193,10|0,0:0|0:0,0:0:0:0:
370,345,77747,1,0,1:0:0:0:
294,98,77903,1,10,0:0:0:0:
189,345,78059,2,0,P|147:374|71:384,1,90.6950021450387,10|0,0:0|0:0,0:0:0:0:
16,169,78372,22,0,P|39:213|52:280,1,90.6950021450387,6|0,1:0|0:0,0:0:0:0:
150,90,78684,1,10,0:0:0:0:
142,255,78840,1,2,0:0:0:0:
257,57,78997,2,0,P|234:101|221:168,1,90.6950021450387,2|0,1:0|0:0,0:0:0:0:
322,311,79309,1,10,0:0:0:0:
427,119,79465,6,0,P|450:163|463:230,1,90.6950021450387,6|0,1:0|0:0,0:0:0:0:
287,54,79778,2,0,P|264:98|251:165,1,90.6950021450387,2|8,1:0|0:0,0:0:0:0:
454,128,80090,2,0,P|477:172|490:239,1,90.6950021450387,2|0,0:0|1:0,0:0:0:0:
314,63,80403,1,10,0:0:0:0:
322,311,80559,2,0,P|345:267|358:200,1,90.6950021450387,10|0,0:0|1:0,0:0:0:0:
329,152,80793,21,0,1:0:0:0:
329,152,80872,2,0,P|287:180|243:194,1,90.6950021450387,14|2,0:0|0:0,0:0:0:0:
20,56,81184,1,10,0:0:0:0:
232,102,81340,1,2,0:0:0:0:
11,279,81497,1,10,0:0:0:0:
145,56,81653,1,2,1:0:0:0:
145,56,81731,1,0,1:0:0:0:
145,56,81809,1,10,0:0:0:0:
214,331,81965,38,0,P|256:358|312:363,1,90.6950021450387,6|2,1:0|0:0,0:0:0:0:
254,111,82278,1,10,0:0:0:0:
254,111,82356,1,8,0:0:0:0:
254,111,82434,1,10,0:0:0:0:
385,359,82590,1,2,1:0:0:0:
449,71,82747,1,8,0:0:0:0:
339,278,82903,1,8,3:2:0:0:
339,278,82981,1,8,3:2:0:0:
339,278,83059,2,0,P|308:273|249:220,1,90.6950021450387,8|8,3:0|3:0,0:0:0:0:
351,87,83372,21,2,1:0:0:0:
351,87,83997,6,0,B|315:112|254:71|254:71|224:144|154:122,1,215.98499571563,2|0,0:0|0:0,0:0:0:0:
111,61,84622,22,0,P|138:129|154:215,1,143.989997143753,2|2,0:0|0:0,0:0:0:0:
433,360,85247,2,0,P|447:289|474:222,1,143.989997143753,2|2,0:0|0:0,0:0:0:0:
254,72,85872,1,2,0:0:0:0:
254,72,86497,38,0,B|136:117|245:180|74:224,1,215.98499571563,2|0,0:0|0:0,0:0:0:0:
71,66,87122,2,0,P|92:91|107:145,1,71.9949985718766,2|0,0:0|3:0,0:0:0:0:
104,165,87356,1,0,3:0:0:0:
104,165,87434,2,0,P|83:190|68:244,1,71.9949985718766,2|0,0:0|0:0,0:0:0:0:
140,352,87747,2,0,P|167:329|201:317,1,71.9949985718766,2|0,0:0|0:0,0:0:0:0:
384,317,88059,2,0,P|332:298|289:264,1,107.992497857815,10|0,0:0|0:0,0:0:0:0:
284,232,88372,21,4,1:0:0:0:
284,232,88997,2,0,P|308:197|333:102,1,107.992497857815,2|0,0:0|0:0,0:0:0:0:
320,101,89309,2,0,P|333:88|355:77,3,35.9974992859383,0|0|0|0,3:0|3:0|3:0|3:0,0:0:0:0:
388,87,89622,6,0,P|419:103|455:111,1,71.9949985718766,10|0,3:0|0:0,0:0:0:0:
351,207,89934,2,0,P|320:223|284:231,1,71.9949985718766,2|8,3:0|3:0,0:0:0:0:
201,124,90247,1,2,3:0:0:0:
201,124,90325,1,0,3:0:0:0:
201,124,90403,1,8,0:0:0:0:
291,252,90559,2,0,P|326:244|358:227,1,71.9949985718766,2|8,0:0|0:0,0:0:0:0:
388,56,90872,21,2,0:0:0:0:
361,171,91028,1,2,1:0:0:0:
249,32,91184,1,10,3:0:0:0:
285,143,91340,1,2,0:0:0:0:
417,40,91497,1,10,0:0:0:0:
296,112,91653,1,2,0:0:0:0:
436,197,91809,1,2,1:0:0:0:
323,91,91965,1,2,0:0:0:0:
254,259,92122,38,0,P|219:283|166:290,1,71.9949985718766,10|10,0:0|0:0,0:0:0:0:
156,269,92356,1,8,0:0:0:0:
156,269,92434,1,10,0:0:0:0:
60,135,92590,1,10,0:0:0:0:
200,124,92747,2,0,P|165:100|112:93,1,71.9949985718766,10|0,3:0|3:0,0:0:0:0:
100,112,92981,1,0,3:0:0:0:
100,112,93059,1,10,3:0:0:0:
52,282,93215,1,2,0:0:0:0:
6,49,93372,21,4,1:0:0:0:
52,186,93528,1,2,0:0:0:0:
136,92,93684,1,2,0:0:0:0:
206,209,93840,2,0,P|242:238|286:251,1,71.9949985718766,2|8,1:0|0:0,0:0:0:0:
420,241,94153,1,2,0:0:0:0:
326,157,94309,1,2,0:0:0:0:
443,87,94465,6,0,P|472:51|485:7,1,71.9949985718766,2|0,3:0|0:0,0:0:0:0:
265,52,94778,1,2,1:0:0:0:
359,136,94934,1,2,1:0:0:0:
242,206,95090,1,2,3:0:0:0:
242,206,95168,1,0,3:0:0:0:
242,206,95247,2,0,P|218:232|203:265,1,71.9949985718766,10|0,0:0|0:0,0:0:0:0:
217,298,95481,1,2,0:0:0:0:
217,298,95559,1,0,0:0:0:0:
119,160,95715,1,2,3:0:0:0:
316,111,95872,22,0,P|351:134|399:142,1,71.9949985718766,2|0,1:0|0:0,0:0:0:0:
414,111,96106,1,2,0:0:0:0:
414,111,96184,2,0,P|408:135|404:162,1,35.9974992859383,2|2,0:0|0:0,0:0:0:0:
268,36,96340,1,2,1:0:0:0:
262,213,96497,1,10,0:0:0:0:
194,93,96653,1,2,0:0:0:0:
169,272,96809,1,2,0:0:0:0:
218,132,96965,1,2,3:0:0:0:
322,294,97122,37,2,3:0:0:0:
322,294,97200,1,0,3:0:0:0:
322,294,97278,1,2,1:0:0:0:
403,133,97434,1,2,1:0:0:0:
338,262,97590,1,2,3:0:0:0:
209,117,97747,2,0,P|172:104|124:100,1,71.9949985718766,10|0,0:0|3:0,0:0:0:0:
278,189,98059,1,2,0:0:0:0:
370,47,98215,1,2,3:0:0:0:
450,226,98372,22,0,P|440:262|428:308,1,71.9949985718766,2|0,1:0|0:0,0:0:0:0:
362,145,98684,1,2,0:0:0:0:
239,284,98840,2,0,P|249:320|261:366,1,71.9949985718766,2|8,0:0|0:0,0:0:0:0:
417,226,99153,2,0,P|407:262|395:308,2,71.9949985718766,2|2|2,0:0|0:0|0:0,0:0:0:0:
286,173,99622,5,2,0:0:0:0:
207,306,99778,2,0,P|217:342|229:388,1,71.9949985718766,2|0,1:0|1:0,0:0:0:0:
84,255,100090,1,10,0:0:0:0:
84,255,100168,1,8,0:0:0:0:
84,255,100247,1,8,0:0:0:0:
252,190,100403,1,2,1:0:0:0:
33,192,100559,1,10,0:0:0:0:
138,317,100715,1,2,1:0:0:0:
165,122,100872,21,2,1:0:0:0:
111,286,101028,1,2,0:0:0:0:
79,97,101184,1,2,0:0:0:0:
182,238,101340,2,0,P|211:260|250:269,1,71.9949985718766,2|8,1:0|0:0,0:0:0:0:
356,135,101653,1,2,1:0:0:0:
323,269,101809,1,2,0:0:0:0:
201,130,101965,38,0,P|192:94|200:55,1,71.9949985718766,2|0,1:0|3:0,0:0:0:0:
349,165,102278,1,10,0:0:0:0:
349,165,102356,1,8,0:0:0:0:
349,165,102434,1,10,0:0:0:0:
142,274,102590,1,10,0:0:0:0:
404,248,102747,1,10,0:0:0:0:
156,243,102903,1,2,1:0:0:0:
382,148,103059,1,8,0:0:0:0:
113,103,103215,1,2,1:0:0:0:
322,307,103372,21,4,1:0:0:0:
322,307,103684,2,0,P|354:267|364:222,1,81.3450006826744,10|0,0:0|1:0,0:0:0:0:
255,77,103997,2,0,P|268:115|295:145,1,81.3450006826744,2|0,0:0|1:0,0:0:0:0:
492,193,104309,1,10,0:0:0:0:
375,52,104465,1,2,0:0:0:0:
264,226,104622,6,0,P|225:253|177:255,1,81.3450006826744,2|0,1:0|0:0,0:0:0:0:
74,118,104934,1,10,0:0:0:0:
280,0,105090,2,0,P|263:41|254:91,1,81.3450006826744,2|8,1:0|3:0,0:0:0:0:
356,213,105403,1,2,0:0:0:0:
163,97,105559,2,0,P|180:138|189:188,1,81.3450006826744,10|0,0:0|0:0,0:0:0:0:
109,352,105872,21,4,1:0:0:0:
109,352,106184,1,10,0:0:0:0:
159,201,106340,1,2,1:0:0:0:
310,362,106497,1,2,0:0:0:0:
260,211,106653,1,2,1:0:0:0:
128,373,106809,1,10,0:0:0:0:
178,222,106965,1,2,1:0:0:0:
326,380,107122,37,6,1:0:0:0:
326,380,107434,1,10,0:0:0:0:
410,203,107590,2,0,P|452:176|496:164,1,81.3450006826744,2|8,1:0|3:0,0:0:0:0:
359,297,107903,1,2,1:0:0:0:
286,135,108059,2,0,P|244:108|200:96,1,81.3450006826744,10|0,0:0|0:0,0:0:0:0:
65,286,108372,21,4,1:0:0:0:
132,93,108528,1,4,1:0:0:0:
132,93,109309,2,0,P|167:154|182:225,1,122.017501024012,14|0,0:0|0:0,0:0:0:0:
159,286,109622,5,4,1:0:0:0:
288,59,109778,1,4,1:0:0:0:
315,302,110403,21,0,1:0:0:0:
315,302,110481,1,0,1:0:0:0:
315,302,110559,2,0,P|345:341|405:367,1,81.3450006826744,10|0,0:0|1:0,0:0:0:0:
438,312,110793,1,0,1:0:0:0:
438,312,110872,2,0,P|449:280|462:260,3,40.6725003413372,10|8|8|8,0:0|0:0|0:0|0:0,0:0:0:0:
495,206,111184,2,0,P|483:174|471:154,3,40.6725003413372,0|8|8|8,1:0|0:0|0:0|0:0,0:0:0:0:
421,102,111497,1,0,1:0:0:0:
421,102,111575,1,8,0:0:0:0:
421,102,111653,2,0,P|402:118|371:126,1,40.6725003413372,8|8,0:0|0:0,0:0:0:0:
165,33,111809,1,2,1:0:0:0:
168,36,111887,1,8,0:0:0:0:
172,40,111965,2,0,P|190:48|205:61,1,40.6725003413372,10|8,0:0|0:0,0:0:0:0:
346,297,112122,37,10,0:0:0:0:
271,16,112278,1,10,0:0:0:0:
218,352,112434,1,10,0:0:0:0:
346,297,113372,22,0,B|252:270|304:203|182:188,1,200.089993893738,6|8,1:0|0:0,0:0:0:0:
369,196,113840,1,2,0:0:0:0:
183,305,113997,2,0,P|130:295|83:262,1,100.044996946869,2|0,1:0|0:0,0:0:0:0:
240,98,114309,1,10,0:0:0:0:
339,322,114465,6,0,P|391:312|438:279,1,100.044996946869,6|0,1:0|0:0,0:0:0:0:
386,63,114778,2,0,P|343:37|294:28,1,100.044996946869,2|8,1:0|0:0,0:0:0:0:
170,221,115090,2,0,P|187:171|200:106,1,100.044996946869,2|0,0:0|1:0,0:0:0:0:
410,310,115403,2,0,P|393:260|380:195,1,100.044996946869,0|8,0:0|0:0,0:0:0:0:
260,66,115715,1,2,0:0:0:0:
249,279,115872,21,2,1:0:0:0:
230,76,116028,1,2,0:0:0:0:
127,297,116184,1,10,0:0:0:0:
320,155,116340,1,2,0:0:0:0:
219,374,116497,1,2,1:0:0:0:
190,140,116653,1,2,0:0:0:0:
246,384,116809,1,10,0:0:0:0:
334,132,116965,38,0,P|388:102|438:101,1,100.044996946869,6|0,1:0|0:0,0:0:0:0:
254,297,117278,1,2,1:0:0:0:
138,79,117434,2,0,P|108:68|70:66,1,50.0224984734345,10|8,0:0|0:0,0:0:0:0:
178,219,117590,2,0,P|202:215|225:206,1,50.0224984734345,10|8,0:0|0:0,0:0:0:0:
323,47,117747,1,2,1:0:0:0:
359,297,117903,1,10,0:0:0:0:
230,60,118059,1,10,0:0:0:0:
268,269,118215,1,2,0:0:0:0:
454,39,118372,22,0,P|431:160|420:245,1,200.089993893738,6|8,1:0|0:0,0:0:0:0:
242,359,118840,2,0,P|234:317|217:250,1,100.044996946869,2|0,0:0|1:0,0:0:0:0:
413,28,119153,2,0,P|399:76|391:125,1,100.044996946869,2|8,0:0|0:0,0:0:0:0:
214,373,119465,6,0,P|194:276|168:179,1,200.089993893738,4|0,1:0|1:0,0:0:0:0:
53,309,119934,1,8,0:0:0:0:
91,88,120090,2,0,P|136:56|200:63,1,100.044996946869,2|0,0:0|1:0,0:0:0:0:
358,268,120403,2,0,P|344:222|330:151,1,100.044996946869,2|8,0:0|0:0,0:0:0:0:
265,30,120715,1,2,0:0:0:0:
198,268,120872,21,2,1:0:0:0:
308,141,121028,1,2,0:0:0:0:
56,64,121184,1,10,0:0:0:0:
269,151,121340,1,2,0:0:0:0:
29,249,121497,1,2,1:0:0:0:
166,107,121653,1,2,0:0:0:0:
221,369,121809,1,10,0:0:0:0:
91,167,121965,37,2,1:0:0:0:
94,170,122043,1,0,1:0:0:0:
98,174,122122,1,12,0:0:0:0:
59,371,122278,1,8,0:0:0:0:
59,371,122356,1,8,0:0:0:0:
59,371,122434,1,8,0:0:0:0:
232,174,122590,1,10,0:0:0:0:
232,174,122668,1,8,0:0:0:0:
232,174,122747,2,0,P|252:166|283:160,1,50.0224984734345,2|8,1:0|0:0,0:0:0:0:
364,323,122903,2,0,P|339:318|316:309,1,50.0224984734345,10|8,0:0|0:0,0:0:0:0:
448,44,123059,21,8,0:0:0:0:
476,73,123137,1,0,3:0:0:0:
485,112,123215,1,8,3:0:0:0:
474,150,123293,1,8,3:0:0:0:
445,177,123372,2,0,B|337:154|398:94|277:66,1,200.089993893738,6|8,1:0|0:0,0:0:0:0:
357,240,123840,1,2,0:0:0:0:
203,31,123997,1,2,1:0:0:0:
224,256,124153,1,2,0:0:0:0:
372,26,124309,1,10,0:0:0:0:
223,229,124465,6,0,P|174:246|115:227,1,100.044996946869,6|0,1:0|0:0,0:0:0:0:
359,48,124778,2,0,P|408:47|455:64,1,100.044996946869,2|8,1:0|0:0,0:0:0:0:
361,322,125090,2,0,P|342:276|332:228,1,100.044996946869,2|0,0:0|1:0,0:0:0:0:
348,85,125403,1,0,0:0:0:0:
228,274,125559,1,8,0:0:0:0:
211,114,125715,1,2,0:0:0:0:
387,328,125872,21,2,1:0:0:0:
342,110,126028,1,2,0:0:0:0:
201,313,126184,1,10,0:0:0:0:
248,113,126340,1,2,0:0:0:0:
293,370,126497,1,2,1:0:0:0:
236,139,126653,1,2,0:0:0:0:
161,384,126809,1,10,0:0:0:0:
100,125,126965,38,0,P|122:184|136:248,1,100.044996946869,6|0,1:0|0:0,0:0:0:0:
326,367,127278,1,2,1:0:0:0:
335,103,127434,1,10,0:0:0:0:
338,106,127512,1,8,0:0:0:0:
342,110,127590,2,0,P|373:94|413:88,1,50.0224984734345,10|8,0:0|0:0,0:0:0:0:
253,40,127747,1,6,1:0:0:0:
343,214,127903,1,2,1:0:0:0:
148,60,128059,2,0,P|124:68|102:80,1,50.0224984734345,10|8,0:0|0:0,0:0:0:0:
32,271,128215,2,0,P|53:284|77:291,1,50.0224984734345,10|8,0:0|0:0,0:0:0:0:
217,106,128372,22,0,P|193:186|170:307,1,200.089993893738,6|8,1:0|0:0,0:0:0:0:
421,230,128840,2,0,P|379:200|304:192,1,100.044996946869,2|0,0:0|1:0,0:0:0:0:
161,384,129153,2,0,P|209:373|249:344,1,100.044996946869,2|8,0:0|0:0,0:0:0:0:
198,100,129465,2,0,P|174:180|151:301,1,200.089993893738,6|0,1:0|1:0,0:0:0:0:
290,89,129934,1,10,0:0:0:0:
126,245,130090,2,0,P|77:266|21:264,1,100.044996946869,2|0,0:0|1:0,0:0:0:0:
171,96,130403,1,10,0:0:0:0:
282,326,130559,1,8,0:0:0:0:
251,57,130715,1,0,1:0:0:0:
69,298,130872,6,0,P|91:242|102:174,1,100.044996946869,10|0,0:0|0:0,0:0:0:0:
322,6,131184,1,10,0:0:0:0:
256,233,131340,1,2,0:0:0:0:
111,4,131497,1,8,0:0:0:0:
319,120,131653,1,2,1:0:0:0:
322,123,131731,1,0,1:0:0:0:
326,127,131809,1,10,0:0:0:0:
68,263,131965,1,0,1:0:0:0:
333,160,132122,21,10,0:0:0:0:
86,121,132278,1,2,0:0:0:0:
344,285,132434,1,8,0:0:0:0:
80,162,132590,1,2,0:0:0:0:
256,352,132747,2,0,P|320:374|361:369,1,100.044996946869,10|0,0:0|1:0,0:0:0:0:
465,23,133059,1,10,0:0:0:0:
385,268,133215,1,0,1:0:0:0:
212,17,133372,38,0,P|162:17|116:37,1,100.044996946869,10|0,0:0|0:0,0:0:0:0:
83,314,133684,1,10,0:0:0:0:
228,44,133840,1,2,0:0:0:0:
283,358,133997,1,8,0:0:0:0:
108,59,134153,1,2,1:0:0:0:
111,62,134231,1,0,1:0:0:0:
115,66,134309,1,10,0:0:0:0:
186,339,134465,1,2,1:0:0:0:
331,18,134622,21,14,0:0:0:0:
331,18,135872,6,0,P|325:39|314:68,1,53.2949993494263,2|0,1:0|0:0,0:0:0:0:
231,149,136184,1,2,0:0:0:0:
231,149,136340,1,2,0:0:0:0:
231,149,136497,2,0,P|238:174|248:199,1,53.2949993494263,2|0,0:0|0:0,0:0:0:0:
133,90,136809,21,2,0:0:0:0:
133,90,136965,1,2,0:0:0:0:
133,90,137122,2,0,P|125:115|115:140,1,53.2949993494263,2|0,0:0|0:0,0:0:0:0:
44,258,137434,2,0,P|34:233|26:207,1,53.2949993494263,2|0,0:0|0:0,0:0:0:0:
103,78,137747,1,2,0:0:0:0:
103,78,137903,2,0,P|87:130|67:181,1,106.589998698853,2|0,0:0|0:0,0:0:0:0:
146,316,138372,38,0,P|176:338|253:336,1,106.589998698853,2|0,1:0|0:0,0:0:0:0:
334,256,138840,1,2,0:0:0:0:
334,256,138997,2,0,P|322:290|314:324,1,53.2949993494263,0|0,0:0|1:0,0:0:0:0:
376,363,139231,1,0,1:0:0:0:
376,363,139309,2,0,P|391:359|416:350,3,26.6474996747131,10|8|2|0,0:0|3:0|1:0|1:0,0:0:0:0:
453,275,139622,2,0,P|438:271|413:262,3,26.6474996747131,10|8|8|8,0:0|0:0|3:0|3:0,0:0:0:0:
333,210,139934,2,0,P|345:206|358:202,3,26.6474996747131,10|8|10|8,3:0|3:0|3:0|3:0,0:0:0:0:
406,123,140247,21,8,0:0:0:0:
406,123,140872,5,6,1:0:0:0:
257,296,141028,1,2,0:0:0:0:
197,150,141184,2,0,P|191:130|184:111,3,40.6725003413372,2|2|2|2,0:0|0:0|1:0|1:0,0:0:0:0:
156,227,141497,1,10,0:0:0:0:
318,88,141653,2,0,P|356:78|417:95,1,81.3450006826744,2|0,0:0|0:0,0:0:0:0:
277,275,141965,1,2,0:0:0:0:
155,70,142122,21,2,1:0:0:0:
88,295,142278,1,2,1:0:0:0:
239,133,142434,1,2,0:0:0:0:
306,358,142590,1,2,0:0:0:0:
125,179,142747,1,10,0:0:0:0:
293,315,142903,2,0,P|337:309|376:278,2,81.3450006826744,2|2|2,0:0|0:0|0:0,0:0:0:0:
110,156,143372,37,2,1:0:0:0:
350,108,143528,1,2,0:0:0:0:
166,280,143684,2,0,P|122:294|58:285,1,81.3450006826744,2|2,0:0|1:0,0:0:0:0:
15,223,143918,1,0,1:0:0:0:
19,227,143997,2,0,P|30:203|38:170,1,40.6725003413372,8|0,0:0|0:0,0:0:0:0:
3,21,144153,1,2,0:0:0:0:
122,177,144309,2,0,P|162:191|221:182,1,81.3450006826744,2|0,0:0|0:0,0:0:0:0:
256,129,144543,21,0,0:0:0:0:
260,133,144622,1,2,1:0:0:0:
27,341,144856,1,2,1:0:0:0:
129,71,145090,1,2,1:0:0:0:
341,166,145247,2,0,L|395:150,3,40.6725003413372,10|2|2|2,0:0|0:0|0:0|0:0,0:0:0:0:
424,73,145559,2,0,L|462:84,3,40.6725003413372,2|2|2|2,0:0|0:0|0:0|0:0,0:0:0:0:
478,164,145872,5,6,1:0:0:0:
338,337,146028,1,2,0:0:0:0:
243,130,146184,2,0,P|247:146|254:168,3,40.6725003413372,2|2|0|0,0:0|0:0|1:0|1:0,0:0:0:0:
214,244,146497,1,10,0:0:0:0:
103,56,146653,2,0,P|94:95|80:162,1,81.3450006826744,2|0,1:0|0:0,0:0:0:0:
17,261,146965,1,2,0:0:0:0:
255,108,147122,21,2,1:0:0:0:
187,333,147278,1,2,1:0:0:0:
171,125,147434,1,2,0:0:0:0:
270,351,147590,1,2,0:0:0:0:
339,83,147747,1,10,0:0:0:0:
186,300,147903,2,0,P|172:254|147:198,2,81.3450006826744,2|2|2,0:0|0:0|0:0,0:0:0:0:
313,161,148372,38,0,P|303:179|292:215,3,40.6725003413372,2|0|0|0,1:0|3:0|3:0|3:0,0:0:0:0:
334,272,148684,2,0,P|374:252|418:243,1,81.3450006826744,2|0,0:0|1:0,0:0:0:0:
470,282,148918,1,0,1:0:0:0:
474,286,148997,2,0,P|483:258|489:228,1,40.6725003413372,8|0,0:0|0:0,0:0:0:0:
413,61,149153,1,2,1:0:0:0:
318,235,149309,1,2,0:0:0:0:
137,71,149465,21,0,1:0:0:0:
137,71,149543,1,0,1:0:0:0:
137,71,149622,2,0,P|115:70|60:128,1,81.3450006826744,8|0,0:0|0:0,0:0:0:0:
70,190,149856,2,0,P|122:231|197:218,1,122.017501024012,10|2,3:0|1:0,0:0:0:0:
229,164,150168,1,0,1:0:0:0:
229,164,150247,2,0,P|245:154|283:148,2,54.2300004551163,8|8|0,0:0|0:0|3:0,0:0:0:0:
342,206,150559,5,10,3:0:0:0:
121,173,150715,1,2,3:0:0:0:
486,110,150872,22,0,B|188:80|368:348|20:291|20:291|204:280|225:203|219:149|188:117,1,826.072489916107,6|0,1:0|0:0,0:0:0:0:
201,136,153372,1,2,1:0:0:0:
264,53,161809,37,2,1:0:0:0:
264,53,161887,1,0,1:0:0:0:
264,53,161965,2,0,P|253:77|236:137,1,81.3450006826744,10|0,0:0|0:0,0:0:0:0:
311,348,162278,21,0,1:0:0:0:
165,166,162434,1,8,0:0:0:0:
451,184,162590,1,2,1:0:0:0:
451,184,162668,1,0,1:0:0:0:
451,184,162747,2,0,P|444:200|435:227,1,40.6725003413372,10|8,3:0|3:0,0:0:0:0:
303,52,162903,2,0,P|309:68|319:95,1,40.6725003413372,10|8,3:0|3:0,0:0:0:0:
290,321,163059,2,0,P|254:297|207:279,1,79.9424990241394,10|0,0:0|0:0,0:0:0:0:
109,262,163372,6,0,P|214:255|315:215,1,200.089993893738,6|0,1:0|1:0,0:0:0:0:
436,11,163840,1,2,0:0:0:0:
301,199,163997,1,2,1:0:0:0:
449,46,164153,1,2,0:0:0:0:
461,288,164309,1,2,1:0:0:0:
337,64,164465,22,0,P|288:47|215:45,1,100.044996946869,2|0,0:0|1:0,0:0:0:0:
147,281,164778,2,0,P|196:276|243:260,1,100.044996946869,2|0,0:0|1:0,0:0:0:0:
69,58,165090,2,0,P|83:96|98:159,1,100.044996946869,2|0,0:0|1:0,0:0:0:0:
278,331,165403,2,0,P|288:282|306:235,1,100.044996946869,0|0,0:0|1:0,0:0:0:0:
395,75,165715,1,2,0:0:0:0:
401,335,165872,37,2,1:0:0:0:
373,107,166028,1,2,0:0:0:0:
263,359,166184,1,2,1:0:0:0:
388,148,166340,1,2,0:0:0:0:
122,130,166497,1,2,1:0:0:0:
349,234,166653,1,2,0:0:0:0:
89,251,166809,1,2,1:0:0:0:
289,95,166965,22,0,P|273:135|259:197,1,100.044996946869,2|0,0:0|1:0,0:0:0:0:
121,338,167278,1,2,0:0:0:0:
202,103,167434,1,2,1:0:0:0:
260,325,167590,1,2,0:0:0:0:
42,212,167747,1,2,1:0:0:0:
261,226,167903,1,2,0:0:0:0:
19,348,168059,1,2,1:0:0:0:
182,132,168215,1,2,0:0:0:0:
348,359,168372,5,6,1:0:0:0:
379,334,168450,1,8,0:0:0:0:
397,299,168528,1,8,0:0:0:0:
401,259,168606,1,8,0:0:0:0:
389,221,168684,1,0,1:0:0:0:
261,60,168840,1,10,0:0:0:0:
261,60,168918,1,8,0:0:0:0:
261,60,168997,2,0,P|239:80|197:99,1,50.0224984734345,0|0,1:0|3:0,0:0:0:0:
0,81,169153,2,0,P|21:94|39:111,1,50.0224984734345,10|8,0:0|0:0,0:0:0:0:
157,278,169309,2,0,P|143:299|126:317,3,50.0224984734345,0|0|8|8,1:0|3:0|0:0|0:0,0:0:0:0:
94,207,169622,21,0,1:0:0:0:
128,186,169700,1,8,0:0:0:0:
167,182,169778,1,8,0:0:0:0:
205,194,169856,1,8,0:0:0:0:
235,220,169934,1,0,1:0:0:0:
342,381,170090,1,10,0:0:0:0:
342,381,170168,1,8,0:0:0:0:
342,381,170247,2,0,P|361:347|369:318,1,50.0224984734345,0|0,1:0|3:0,0:0:0:0:
300,123,170403,2,0,P|309:146|322:167,1,50.0224984734345,10|8,0:0|0:0,0:0:0:0:
372,384,170559,2,0,P|391:350|399:321,1,50.0224984734345,0|8,1:0|0:0,0:0:0:0:
330,126,170715,2,0,P|339:149|352:170,1,50.0224984734345,10|8,0:0|0:0,0:0:0:0:
485,361,170872,37,6,1:0:0:0:
439,142,171028,1,10,0:0:0:0:
262,384,171184,21,2,1:0:0:0:
255,368,171497,1,2,1:0:0:0:
248,353,171809,1,2,1:0:0:0:
241,338,172122,1,0,1:0:0:0:
235,323,172434,1,0,1:0:0:0:
228,308,172747,1,0,1:0:0:0:
236,198,173059,1,0,1:0:0:0:
239,201,173137,1,0,1:0:0:0:
243,205,173215,1,10,0:0:0:0:
131,253,173372,5,2,1:0:0:0:
387,86,174465,21,0,1:0:0:0:
303,319,174622,1,14,0:0:0:0:
236,22,174778,1,14,0:0:0:0:
236,22,175247,37,10,3:0:0:0:
485,162,175403,1,10,3:0:0:0:
412,96,175872,21,10,3:0:0:0:
415,99,175950,1,8,3:0:0:0:
419,103,176028,2,0,P|399:124|376:138,1,40.6725003413372,0|0,1:0|1:0,0:0:0:0:
140,30,176184,5,4,1:0:0:0:
95,224,176340,1,2,0:0:0:0:
278,72,176497,2,0,P|288:120|299:198,1,100.044996946869,2|0,1:0|1:0,0:0:0:0:
112,22,176809,1,10,0:0:0:0:
205,279,176965,22,0,P|252:303|309:306,1,100.044996946869,6|0,1:0|0:0,0:0:0:0:
468,120,177278,2,0,P|425:94|376:85,1,100.044996946869,2|8,1:0|0:0,0:0:0:0:
190,255,177590,2,0,P|207:205|220:140,1,100.044996946869,2|0,0:0|1:0,0:0:0:0:
461,8,177903,2,0,P|471:56|488:104,1,100.044996946869,0|8,0:0|0:0,0:0:0:0:
221,46,178215,1,2,0:0:0:0:
294,274,178372,37,2,1:0:0:0:
216,84,178528,1,2,0:0:0:0:
163,322,178684,1,10,0:0:0:0:
327,158,178840,1,2,0:0:0:0:
158,353,178997,1,2,1:0:0:0:
208,112,179153,1,2,0:0:0:0:
317,370,179309,1,10,0:0:0:0:
203,136,179465,22,0,P|222:181|235:244,1,100.044996946869,6|0,1:0|0:0,0:0:0:0:
419,87,179778,1,0,1:0:0:0:
280,293,179934,2,0,P|257:302|233:307,1,50.0224984734345,10|8,0:0|0:0,0:0:0:0:
155,122,180090,2,0,P|179:126|202:135,1,50.0224984734345,10|8,0:0|0:0,0:0:0:0:
362,328,180247,1,2,1:0:0:0:
326,90,180403,1,10,0:0:0:0:
274,330,180559,1,10,0:0:0:0:
424,111,180715,1,2,0:0:0:0:
192,333,180872,6,0,B|64:309|149:235|22:222,1,200.089993893738,6|8,1:0|0:0,0:0:0:0:
316,197,181340,2,0,P|272:218|212:230,1,100.044996946869,2|0,0:0|1:0,0:0:0:0:
454,66,181653,2,0,P|410:45|350:33,1,100.044996946869,2|8,0:0|0:0,0:0:0:0:
356,296,181965,22,0,P|422:219|361:108,1,200.089993893738,4|0,1:0|1:0,0:0:0:0:
237,321,182434,1,8,0:0:0:0:
166,93,182590,2,0,P|125:67|66:58,1,100.044996946869,2|0,0:0|1:0,0:0:0:0:
224,295,182903,2,0,P|183:321|124:330,1,100.044996946869,2|8,0:0|0:0,0:0:0:0:
298,117,183215,1,2,0:0:0:0:
343,375,183372,37,2,1:0:0:0:
297,148,183528,1,2,0:0:0:0:
227,384,183684,1,10,0:0:0:0:
429,208,183840,1,2,0:0:0:0:
178,263,183997,1,2,1:0:0:0:
432,238,184153,1,2,0:0:0:0:
138,170,184309,1,10,0:0:0:0:
340,344,184465,21,2,1:0:0:0:
340,344,184543,1,0,1:0:0:0:
340,344,184622,1,8,0:0:0:0:
288,77,184778,1,8,0:0:0:0:
288,77,184856,1,8,0:0:0:0:
288,77,184934,2,0,P|277:106|268:152,1,50.0224984734345,8|8,0:0|3:0,0:0:0:0:
402,251,185090,1,10,0:0:0:0:
402,251,185168,1,8,0:0:0:0:
402,251,185247,2,0,P|379:237|357:227,1,50.0224984734345,2|8,1:0|0:0,0:0:0:0:
181,304,185403,2,0,P|203:294|221:277,1,50.0224984734345,10|8,0:0|0:0,0:0:0:0:
44,108,185559,5,8,0:0:0:0:
34,142,185637,1,0,3:0:0:0:
39,176,185715,1,8,3:0:0:0:
60,204,185793,1,8,3:0:0:0:
90,221,185872,2,0,B|200:202|138:124|252:99,1,200.089993893738,6|8,1:0|0:0,0:0:0:0:
437,94,186340,1,2,0:0:0:0:
243,186,186497,1,2,1:0:0:0:
465,110,186653,1,2,0:0:0:0:
336,296,186809,1,10,0:0:0:0:
230,69,186965,22,0,P|186:40|130:34,1,100.044996946869,6|0,1:0|0:0,0:0:0:0:
114,322,187278,2,0,P|162:313|204:286,1,100.044996946869,2|8,1:0|0:0,0:0:0:0:
320,96,187590,2,0,P|301:143|280:224,1,100.044996946869,2|0,0:0|1:0,0:0:0:0:
89,320,187903,2,0,P|74:272|56:225,1,100.044996946869,0|8,0:0|0:0,0:0:0:0:
151,47,188215,1,2,0:0:0:0:
136,324,188372,37,2,1:0:0:0:
226,107,188528,1,2,0:0:0:0:
213,363,188684,1,10,0:0:0:0:
125,145,188840,1,2,0:0:0:0:
202,384,188997,1,2,1:0:0:0:
237,139,189153,1,2,0:0:0:0:
327,384,189309,1,10,0:0:0:0:
339,124,189465,22,0,P|321:165|303:238,1,100.044996946869,6|0,1:0|0:0,0:0:0:0:
132,62,189778,1,2,1:0:0:0:
224,242,189934,1,10,0:0:0:0:
224,242,190012,1,8,0:0:0:0:
224,242,190090,2,0,P|235:269|241:303,1,50.0224984734345,10|8,0:0|0:0,0:0:0:0:
373,119,190247,1,2,1:0:0:0:
193,249,190403,1,2,1:0:0:0:
193,249,190481,1,0,1:0:0:0:
193,249,190559,2,0,P|161:243|127:226,1,50.0224984734345,10|8,0:0|0:0,0:0:0:0:
65,50,190715,2,0,P|88:41|113:37,1,50.0224984734345,10|8,0:0|0:0,0:0:0:0:
304,185,190872,6,0,P|233:131|255:15,1,200.089993893738,6|8,1:0|0:0,0:0:0:0:
491,123,191340,2,0,P|475:164|459:230,1,100.044996946869,2|0,0:0|1:0,0:0:0:0:
189,108,191653,2,0,P|204:149|221:215,1,100.044996946869,2|8,0:0|0:0,0:0:0:0:
475,108,191965,22,0,P|456:156|424:322,1,200.089993893738,4|0,1:0|1:0,0:0:0:0:
348,103,192434,1,8,0:0:0:0:
205,320,192590,2,0,P|160:346|97:351,1,100.044996946869,2|0,0:0|1:0,0:0:0:0:
235,116,192903,1,10,0:0:0:0:
78,272,193059,1,8,0:0:0:0:
371,352,193215,37,0,1:0:0:0:
371,352,193293,1,0,1:0:0:0:
371,352,193372,2,0,P|385:287|406:223,1,100.044996946869,14|0,0:0|0:0,0:0:0:0:
335,16,193684,21,10,0:0:0:0:
297,282,193840,1,2,0:0:0:0:
193,18,193997,1,8,0:0:0:0:
435,182,194153,1,2,1:0:0:0:
146,193,194309,1,10,0:0:0:0:
417,153,194465,1,2,1:0:0:0:
114,276,194622,5,10,0:0:0:0:
329,52,194778,1,2,0:0:0:0:
319,362,194934,1,8,0:0:0:0:
246,96,195090,1,2,0:0:0:0:
111,351,195247,2,0,P|66:373|5:374,1,100.044996946869,10|0,0:0|1:0,0:0:0:0:
165,132,195559,1,10,0:0:0:0:
281,356,195715,1,0,1:0:0:0:
331,69,195872,22,0,P|380:72|425:94,1,100.044996946869,14|0,0:0|0:0,0:0:0:0:
139,221,196184,1,10,0:0:0:0:
391,195,196340,1,2,0:0:0:0:
88,103,196497,1,8,0:0:0:0:
292,266,196653,1,2,1:0:0:0:
292,266,196731,1,0,1:0:0:0:
292,266,196809,2,0,P|313:278|360:285,1,50.0224984734345,10|8,0:0|0:0,0:0:0:0:
213,79,196965,2,0,P|188:85|167:97,1,50.0224984734345,10|8,0:0|0:0,0:0:0:0:
205,363,197122,37,6,1:0:0:0:
122,167,197278,1,2,1:0:0:0:
391,195,197434,1,10,0:0:0:0:
164,248,197590,1,2,0:0:0:0:
317,93,197747,2,0,P|372:70|445:69,1,100.044996946869,2|0,1:0|1:0,0:0:0:0:
292,357,198059,2,0,P|242:350|197:329,1,100.044996946869,10|0,0:0|1:0,0:0:0:0:
18,123,198372,22,0,P|39:171|56:236,1,109.395000417309,14|0,0:0|0:0,0:0:0:0:
234,8,198684,1,10,0:0:0:0:
354,297,198840,2,0,P|368:244|390:194,1,109.395000417309,2|8,0:0|0:0,0:0:0:0:
122,63,199153,1,2,1:0:0:0:
122,63,199231,1,0,1:0:0:0:
122,63,199309,1,10,0:0:0:0:
197,329,199465,1,0,1:0:0:0:
267,10,199622,5,10,0:0:0:0:
185,300,199778,1,2,0:0:0:0:
467,111,199934,1,8,0:0:0:0:
203,147,200090,1,2,0:0:0:0:
499,320,200247,1,10,0:0:0:0:
368,56,200403,1,0,1:0:0:0:
368,56,200481,1,0,1:0:0:0:
368,56,200559,2,0,P|346:101|332:169,1,109.395000417309,10|0,0:0|1:0,0:0:0:0:
240,225,200793,21,0,1:0:0:0:
240,225,200872,2,0,P|230:183|212:145,3,54.6975002086544,10|0|0|0,0:0|3:0|1:0|1:0,0:0:0:0:
143,137,201184,2,0,P|133:178|115:216,1,54.6975002086544,10|8,0:0|3:0,0:0:0:0:
301,51,201340,2,0,P|310:92|328:130,1,54.6975002086544,10|0,0:0|3:0,0:0:0:0:
113,133,201497,1,0,1:0:0:0:
113,133,201575,1,0,1:0:0:0:
113,133,201653,2,0,P|103:174|85:212,1,54.6975002086544,10|8,0:0|0:0,0:0:0:0:
334,44,201809,2,0,P|343:85|361:123,3,54.6975002086544,2|0|8|8,3:0|3:0|3:0|3:0,0:0:0:0:
429,141,202122,37,2,1:0:0:0:
429,141,202200,1,0,1:0:0:0:
429,141,202278,1,10,0:0:0:0:
159,377,202434,1,10,0:0:0:0:
217,97,202590,1,2,1:0:0:0:
392,354,202747,2,0,P|368:304|356:251,1,109.395000417309,10|0,0:0|1:0,0:0:0:0:
130,75,203059,2,0,P|118:128|94:177,1,81.3450006826744,10|0,0:0|1:0,0:0:0:0:
254,61,205403,21,0,1:0:0:0:
254,61,205481,1,0,1:0:0:0:
254,61,205559,1,8,0:0:0:0:
270,366,205715,6,0,B|172:318|246:287|141:234,1,189.337504622498,10|0,0:0|0:0,0:0:0:0:
