osu file format v14

[General]
AudioFilename: audio.mp3
AudioLeadIn: 0
PreviewTime: 50075
Countdown: 0
SampleSet: Normal
StackLeniency: 0.7
Mode: 1
LetterboxInBreaks: 0
WidescreenStoryboard: 1

[Editor]
Bookmarks: 10857,20857,60857,68357,73357,93357,140857
DistanceSpacing: 0.5
BeatDivisor: 4
GridSize: 32
TimelineZoom: 1.4

[Metadata]
Title:Android Girl feat. Hatsune Miku
TitleUnicode:アンドロイドガール feat. 初音ミク
Artist:DECO*27
ArtistUnicode:DECO*27
Creator:Akonine
Version:Kantan
Source:
Tags:霧崎秀征 Electronic Rock Vocaloid Japanese Rockwell Chromoxx jrock j-rock
BeatmapID:2981285
BeatmapSetID:1450071

[Difficulty]
HPDrainRate:8
CircleSize:2
OverallDifficulty:3
ApproachRate:10
SliderMultiplier:1.4
SliderTickRate:1

[Events]
//Background and Video events
0,0,"Kowari.jpg",0,0
Video,-430,"output.mp4"
//Break Periods
2,153557,161500
//Storyboard Layer 0 (Background)
//Storyboard Layer 1 (Fail)
//Storyboard Layer 2 (Pass)
//Storyboard Layer 3 (Foreground)
//Storyboard Layer 4 (Overlay)
//Storyboard Sound Samples

[TimingPoints]
-393,312.5,4,1,0,80,1,0
50857,-100,4,1,0,80,0,1
72107,-100,4,1,0,80,0,0
113357,-100,4,1,0,80,0,1
134607,-100,4,1,0,80,0,0
176169,-100,4,1,0,80,0,1
203357,-100,4,1,0,80,0,0

[HitObjects]
256,192,857,5,4,0:0:0:0:
256,192,3357,1,4,0:0:0:0:
256,192,4294,1,8,0:0:0:0:
256,192,4763,1,8,0:0:0:0:
256,192,5075,1,8,0:0:0:0:
256,192,5857,1,4,0:0:0:0:
256,192,8357,1,0,0:0:0:0:
256,192,8982,1,8,0:0:0:0:
256,192,9294,1,0,0:0:0:0:
256,192,9607,1,8,0:0:0:0:
256,192,10232,1,8,0:0:0:0:
256,192,10857,1,0,0:0:0:0:
256,192,11482,1,8,0:0:0:0:
256,192,11950,1,0,0:0:0:0:
256,192,12263,1,8,0:0:0:0:
256,192,12575,1,0,0:0:0:0:
256,192,13357,1,8,0:0:0:0:
256,192,13982,1,0,0:0:0:0:
256,192,14450,1,8,0:0:0:0:
256,192,14763,1,0,0:0:0:0:
256,192,15075,1,8,0:0:0:0:
256,192,15857,1,0,0:0:0:0:
256,192,16482,1,8,0:0:0:0:
256,192,16950,1,0,0:0:0:0:
256,192,17263,1,8,0:0:0:0:
256,192,17575,1,0,0:0:0:0:
256,192,18357,1,8,0:0:0:0:
256,192,18669,1,0,0:0:0:0:
256,192,18982,1,8,0:0:0:0:
256,192,19607,1,0,0:0:0:0:
256,192,20857,1,0,0:0:0:0:
256,192,21482,5,8,0:0:0:0:
256,192,22419,1,0,0:0:0:0:
256,192,22732,1,8,0:0:0:0:
256,192,23357,1,0,0:0:0:0:
256,192,23982,1,8,0:0:0:0:
256,192,24763,1,0,0:0:0:0:
256,192,25232,1,8,0:0:0:0:
256,192,25857,1,0,0:0:0:0:
256,192,26482,1,8,0:0:0:0:
256,192,27419,1,8,0:0:0:0:
256,192,27732,1,8,0:0:0:0:
256,192,28357,1,0,0:0:0:0:
256,192,28982,1,8,0:0:0:0:
256,192,29763,1,0,0:0:0:0:
256,192,30232,1,0,0:0:0:0:
256,192,31482,1,8,0:0:0:0:
256,192,32419,1,0,0:0:0:0:
256,192,32732,1,8,0:0:0:0:
256,192,33357,1,0,0:0:0:0:
256,192,33982,1,8,0:0:0:0:
256,192,34763,1,8,0:0:0:0:
256,192,35232,1,8,0:0:0:0:
256,192,35857,1,0,0:0:0:0:
256,192,36482,1,8,0:0:0:0:
256,192,37419,1,0,0:0:0:0:
256,192,37732,1,8,0:0:0:0:
256,192,38357,1,0,0:0:0:0:
256,192,38982,1,8,0:0:0:0:
256,192,39294,1,0,0:0:0:0:
256,192,39763,1,0,0:0:0:0:
256,192,40232,1,8,0:0:0:0:
256,192,40857,1,4,0:0:0:0:
256,192,42107,1,12,0:0:0:0:
256,192,43357,1,4,0:0:0:0:
256,192,44607,1,12,0:0:0:0:
256,192,45857,1,0,0:0:0:0:
256,192,46169,1,0,0:0:0:0:
256,192,47107,1,8,0:0:0:0:
256,192,47419,1,8,0:0:0:0:
256,192,48357,1,8,0:0:0:0:
256,192,48825,1,8,0:0:0:0:
256,192,49294,1,8,0:0:0:0:
256,192,49607,1,0,0:0:0:0:
256,192,50857,1,4,0:0:0:0:
256,192,51482,1,8,0:0:0:0:
256,192,51950,1,0,0:0:0:0:
256,192,52263,1,0,0:0:0:0:
256,192,52575,1,8,0:0:0:0:
256,192,53357,1,8,0:0:0:0:
256,192,53669,1,8,0:0:0:0:
256,192,53982,1,0,0:0:0:0:
256,192,54450,1,8,0:0:0:0:
256,192,54919,1,8,0:0:0:0:
256,192,55232,1,0,0:0:0:0:
256,192,55857,1,0,0:0:0:0:
256,192,56325,1,8,0:0:0:0:
256,192,56638,1,0,0:0:0:0:
256,192,57575,1,8,0:0:0:0:
256,192,57888,1,8,0:0:0:0:
256,192,58357,1,0,0:0:0:0:
256,192,58982,1,8,0:0:0:0:
256,192,59607,1,0,0:0:0:0:
256,192,60857,1,8,0:0:0:0:
256,192,61482,1,0,0:0:0:0:
256,192,61950,1,8,0:0:0:0:
256,192,62263,1,8,0:0:0:0:
256,192,62575,1,0,0:0:0:0:
256,192,63357,1,0,0:0:0:0:
256,192,63669,1,0,0:0:0:0:
256,192,63982,1,8,0:0:0:0:
256,192,64450,1,0,0:0:0:0:
256,192,64919,1,0,0:0:0:0:
256,192,65232,1,8,0:0:0:0:
256,192,65857,1,8,0:0:0:0:
256,192,66325,1,0,0:0:0:0:
256,192,66638,1,8,0:0:0:0:
256,192,67575,1,0,0:0:0:0:
256,192,67888,1,0,0:0:0:0:
256,192,68357,5,8,0:0:0:0:
256,192,68982,1,0,0:0:0:0:
256,192,69607,1,8,0:0:0:0:
256,192,69919,1,8,0:0:0:0:
256,192,70232,1,0,0:0:0:0:
256,192,70857,1,8,0:0:0:0:
256,192,71482,1,0,0:0:0:0:
256,192,72107,1,8,0:0:0:0:
256,192,73357,1,0,0:0:0:0:
256,192,73982,1,8,0:0:0:0:
256,192,74450,1,0,0:0:0:0:
256,192,74763,1,8,0:0:0:0:
256,192,75075,1,0,0:0:0:0:
256,192,75857,1,8,0:0:0:0:
256,192,76482,1,0,0:0:0:0:
256,192,76950,1,8,0:0:0:0:
256,192,77263,1,0,0:0:0:0:
256,192,77575,1,8,0:0:0:0:
256,192,78357,1,0,0:0:0:0:
256,192,78982,1,8,0:0:0:0:
256,192,79450,1,0,0:0:0:0:
256,192,79763,1,8,0:0:0:0:
256,192,80075,1,0,0:0:0:0:
256,192,80857,1,8,0:0:0:0:
256,192,81169,1,0,0:0:0:0:
256,192,81482,1,8,0:0:0:0:
256,192,82107,1,0,0:0:0:0:
256,192,83357,1,0,0:0:0:0:
256,192,85857,5,0,0:0:0:0:
256,192,88357,1,0,0:0:0:0:
256,192,90857,1,0,0:0:0:0:
256,192,92107,1,8,0:0:0:0:
256,192,92732,1,8,0:0:0:0:
256,192,93357,1,0,0:0:0:0:
256,192,93982,5,8,0:0:0:0:
256,192,94919,1,0,0:0:0:0:
256,192,95232,1,8,0:0:0:0:
256,192,95857,1,0,0:0:0:0:
256,192,96482,1,8,0:0:0:0:
256,192,97263,1,0,0:0:0:0:
256,192,97732,1,8,0:0:0:0:
256,192,98357,1,0,0:0:0:0:
256,192,98982,1,8,0:0:0:0:
256,192,99919,1,8,0:0:0:0:
256,192,100232,1,8,0:0:0:0:
256,192,100857,1,0,0:0:0:0:
256,192,101482,1,8,0:0:0:0:
256,192,102263,1,0,0:0:0:0:
256,192,102732,1,8,0:0:0:0:
256,192,103357,1,4,0:0:0:0:
256,192,104607,5,12,0:0:0:0:
256,192,105857,1,4,0:0:0:0:
256,192,107107,1,12,0:0:0:0:
256,192,108357,1,0,0:0:0:0:
256,192,108669,1,0,0:0:0:0:
256,192,109607,1,8,0:0:0:0:
256,192,109919,1,8,0:0:0:0:
256,192,110857,1,8,0:0:0:0:
256,192,111325,1,8,0:0:0:0:
256,192,111794,1,8,0:0:0:0:
256,192,112107,1,0,0:0:0:0:
256,192,113357,1,4,0:0:0:0:
256,192,113982,1,8,0:0:0:0:
256,192,114450,1,0,0:0:0:0:
256,192,114763,1,0,0:0:0:0:
256,192,115075,1,8,0:0:0:0:
256,192,115857,1,8,0:0:0:0:
256,192,116169,1,8,0:0:0:0:
256,192,116482,1,0,0:0:0:0:
256,192,116950,1,8,0:0:0:0:
256,192,117419,1,8,0:0:0:0:
256,192,117732,1,0,0:0:0:0:
256,192,118357,1,0,0:0:0:0:
256,192,118825,1,8,0:0:0:0:
256,192,119138,1,0,0:0:0:0:
256,192,120075,1,8,0:0:0:0:
256,192,120388,1,8,0:0:0:0:
256,192,120857,1,0,0:0:0:0:
256,192,121482,1,8,0:0:0:0:
256,192,122107,1,0,0:0:0:0:
256,192,123357,1,8,0:0:0:0:
256,192,123982,1,0,0:0:0:0:
256,192,124450,1,8,0:0:0:0:
256,192,124763,1,8,0:0:0:0:
256,192,125075,1,0,0:0:0:0:
256,192,125857,1,0,0:0:0:0:
256,192,126169,1,0,0:0:0:0:
256,192,126482,1,8,0:0:0:0:
256,192,126950,1,0,0:0:0:0:
256,192,127419,1,0,0:0:0:0:
256,192,127732,1,8,0:0:0:0:
256,192,128357,1,8,0:0:0:0:
256,192,128825,1,0,0:0:0:0:
256,192,129138,1,8,0:0:0:0:
256,192,130075,1,0,0:0:0:0:
256,192,130388,1,0,0:0:0:0:
256,192,130857,5,8,0:0:0:0:
256,192,131482,1,0,0:0:0:0:
256,192,132107,1,8,0:0:0:0:
256,192,132419,1,8,0:0:0:0:
256,192,132732,1,0,0:0:0:0:
256,192,133357,1,8,0:0:0:0:
256,192,133982,1,0,0:0:0:0:
256,192,134607,1,8,0:0:0:0:
256,192,135857,5,0,0:0:0:0:
256,192,138357,1,0,0:0:0:0:
256,192,139607,1,8,0:0:0:0:
256,192,140857,1,0,0:0:0:0:
256,192,141482,1,8,0:0:0:0:
256,192,142107,1,0,0:0:0:0:
256,192,142419,1,0,0:0:0:0:
256,192,142732,1,8,0:0:0:0:
256,192,143357,1,0,0:0:0:0:
256,192,143982,1,8,0:0:0:0:
256,192,144607,1,0,0:0:0:0:
256,192,145857,1,8,0:0:0:0:
256,192,146482,1,0,0:0:0:0:
256,192,147107,1,8,0:0:0:0:
256,192,147419,1,8,0:0:0:0:
256,192,147732,1,0,0:0:0:0:
256,192,148357,1,8,0:0:0:0:
256,192,148982,1,0,0:0:0:0:
256,192,149607,1,8,0:0:0:0:
256,192,150232,1,8,0:0:0:0:
256,192,150857,5,4,0:0:0:0:
256,192,153357,1,0,0:0:0:0:
256,192,161950,5,8,0:0:0:0:
256,192,163357,1,4,0:0:0:0:
256,192,163982,1,8,0:0:0:0:
256,192,165232,1,8,0:0:0:0:
256,192,165857,1,0,0:0:0:0:
256,192,166482,1,8,0:0:0:0:
256,192,166950,1,8,0:0:0:0:
256,192,167732,1,0,0:0:0:0:
256,192,168357,1,8,0:0:0:0:
256,192,169607,1,8,0:0:0:0:
256,192,170857,1,8,0:0:0:0:
256,192,171169,1,8,0:0:0:0:
256,192,173357,1,0,0:0:0:0:
256,192,174607,1,8,0:0:0:0:
256,192,175232,1,0,0:0:0:0:
256,192,176482,1,8,0:0:0:0:
256,192,176950,1,0,0:0:0:0:
256,192,177263,1,0,0:0:0:0:
256,192,177575,1,8,0:0:0:0:
256,192,178357,1,8,0:0:0:0:
256,192,178669,1,8,0:0:0:0:
256,192,178982,1,0,0:0:0:0:
256,192,179450,1,8,0:0:0:0:
256,192,179919,1,8,0:0:0:0:
256,192,180232,1,0,0:0:0:0:
256,192,180857,1,0,0:0:0:0:
256,192,181325,1,8,0:0:0:0:
256,192,181638,1,0,0:0:0:0:
256,192,182575,1,8,0:0:0:0:
256,192,182888,1,8,0:0:0:0:
256,192,183357,1,0,0:0:0:0:
256,192,183982,1,8,0:0:0:0:
256,192,184607,1,0,0:0:0:0:
256,192,185857,1,8,0:0:0:0:
256,192,186482,1,0,0:0:0:0:
256,192,186950,1,8,0:0:0:0:
256,192,187263,1,8,0:0:0:0:
256,192,187575,1,0,0:0:0:0:
256,192,188357,1,0,0:0:0:0:
256,192,188669,1,0,0:0:0:0:
256,192,188982,1,8,0:0:0:0:
256,192,189450,1,0,0:0:0:0:
256,192,189919,1,0,0:0:0:0:
256,192,190232,1,8,0:0:0:0:
256,192,190857,1,8,0:0:0:0:
256,192,191325,1,0,0:0:0:0:
256,192,191638,1,8,0:0:0:0:
256,192,192575,1,0,0:0:0:0:
256,192,192888,1,0,0:0:0:0:
256,192,193357,5,8,0:0:0:0:
256,192,193982,1,0,0:0:0:0:
256,192,194607,1,8,0:0:0:0:
256,192,194919,1,8,0:0:0:0:
256,192,195232,1,0,0:0:0:0:
256,192,195857,1,8,0:0:0:0:
256,192,196482,1,0,0:0:0:0:
256,192,197107,1,8,0:0:0:0:
256,192,198357,5,0,0:0:0:0:
256,192,198982,1,8,0:0:0:0:
256,192,199607,1,8,0:0:0:0:
256,192,200232,1,8,0:0:0:0:
256,192,200857,1,8,0:0:0:0:
256,192,201325,1,8,0:0:0:0:
256,192,201638,1,8,0:0:0:0:
256,192,202107,1,0,0:0:0:0:
256,192,202732,1,0,0:0:0:0:
256,192,203044,1,8,0:0:0:0:
256,192,203357,12,8,204607,0:0:0:0:
256,192,205544,5,0,0:0:0:0:
256,192,205700,1,0,0:0:0:0:
