osu file format v14

[General]
AudioFilename: audio.mp3
AudioLeadIn: 0
PreviewTime: 50075
Countdown: 0
SampleSet: Normal
StackLeniency: 0.7
Mode: 1
LetterboxInBreaks: 0
WidescreenStoryboard: 1

[Editor]
Bookmarks: 10857,20857,40857,66169,128669,140857,168357,170857,185857
DistanceSpacing: 0.5
BeatDivisor: 4
GridSize: 32
TimelineZoom: 1.7

[Metadata]
Title:Android Girl feat. Hatsune Miku
TitleUnicode:アンドロイドガール feat. 初音ミク
Artist:DECO*27
ArtistUnicode:DECO*27
Creator:Akonine
Version:Inner Oni
Source:
Tags:霧崎秀征 Electronic Rock Vocaloid Japanese Rockwell Chromoxx jrock j-rock
BeatmapID:2981284
BeatmapSetID:1450071

[Difficulty]
HPDrainRate:6
CircleSize:2
OverallDifficulty:7
ApproachRate:10
SliderMultiplier:1.4
SliderTickRate:1

[Events]
//Background and Video events
0,0,"Kowari.jpg",0,0
Video,-430,"output.mp4"
//Break Periods
2,153557,161344
//Storyboard Layer 0 (Background)
//Storyboard Layer 1 (Fail)
//Storyboard Layer 2 (Pass)
//Storyboard Layer 3 (Foreground)
//Storyboard Layer 4 (Overlay)
//Storyboard Sound Samples

[TimingPoints]
-393,312.5,4,1,0,80,1,0
50857,-100,4,1,0,80,0,1
72107,-100,4,1,0,80,0,0
113357,-100,4,1,0,80,0,1
134607,-100,4,1,0,80,0,0
176169,-100,4,1,0,80,0,1
203357,-100,4,1,0,80,0,0

[HitObjects]
256,192,857,5,4,0:0:0:0:
256,192,1013,5,4,0:0:0:0:
256,192,1325,5,8,0:0:0:0:
256,192,1638,5,8,0:0:0:0:
256,192,1950,5,8,0:0:0:0:
256,192,2263,5,8,0:0:0:0:
256,192,2341,5,8,0:0:0:0:
256,192,2419,5,8,0:0:0:0:
256,192,2575,5,0,0:0:0:0:
256,192,2888,5,0,0:0:0:0:
256,192,3044,5,8,0:0:0:0:
256,192,3357,5,4,0:0:0:0:
256,192,3513,5,4,0:0:0:0:
256,192,3669,5,4,0:0:0:0:
256,192,4138,5,0,0:0:0:0:
256,192,4216,5,0,0:0:0:0:
256,192,4294,5,8,0:0:0:0:
256,192,4450,5,8,0:0:0:0:
256,192,4607,5,0,0:0:0:0:
256,192,4685,5,0,0:0:0:0:
256,192,4763,5,8,0:0:0:0:
256,192,4841,5,8,0:0:0:0:
256,192,4919,5,0,0:0:0:0:
256,192,5075,5,8,0:0:0:0:
256,192,5232,5,0,0:0:0:0:
256,192,5388,5,0,0:0:0:0:
256,192,5544,5,8,0:0:0:0:
256,192,5857,5,4,0:0:0:0:
256,192,6013,5,4,0:0:0:0:
256,192,6325,5,8,0:0:0:0:
256,192,6638,5,8,0:0:0:0:
256,192,6950,5,8,0:0:0:0:
256,192,7107,5,0,0:0:0:0:
256,192,7263,5,0,0:0:0:0:
256,192,7419,5,8,0:0:0:0:
256,192,7575,5,8,0:0:0:0:
256,192,7732,5,0,0:0:0:0:
256,192,7888,5,8,0:0:0:0:
256,192,8044,5,8,0:0:0:0:
256,192,8200,5,0,0:0:0:0:
256,192,8278,5,0,0:0:0:0:
256,192,8357,5,8,0:0:0:0:
256,192,8513,5,0,0:0:0:0:
256,192,8591,5,0,0:0:0:0:
256,192,8669,5,8,0:0:0:0:
256,192,8747,5,8,0:0:0:0:
256,192,8825,5,0,0:0:0:0:
256,192,8982,5,8,0:0:0:0:
256,192,9138,5,8,0:0:0:0:
256,192,9216,5,0,0:0:0:0:
256,192,9294,5,8,0:0:0:0:
256,192,9450,5,0,0:0:0:0:
256,192,9528,5,0,0:0:0:0:
256,192,9607,5,8,0:0:0:0:
256,192,9685,5,8,0:0:0:0:
256,192,9763,5,0,0:0:0:0:
256,192,9841,5,8,0:0:0:0:
256,192,9919,5,0,0:0:0:0:
256,192,9997,5,0,0:0:0:0:
256,192,10075,5,8,0:0:0:0:
256,192,10153,5,0,0:0:0:0:
256,192,10232,5,8,0:0:0:0:
256,192,10857,5,8,0:0:0:0:
256,192,11013,5,0,0:0:0:0:
256,192,11091,5,0,0:0:0:0:
256,192,11169,5,0,0:0:0:0:
256,192,11325,5,8,0:0:0:0:
256,192,11482,5,0,0:0:0:0:
256,192,11638,5,0,0:0:0:0:
256,192,11794,5,8,0:0:0:0:
256,192,11950,5,0,0:0:0:0:
256,192,12263,5,8,0:0:0:0:
256,192,12419,5,0,0:0:0:0:
256,192,12575,5,8,0:0:0:0:
256,192,12653,5,8,0:0:0:0:
256,192,12732,5,0,0:0:0:0:
256,192,12810,5,0,0:0:0:0:
256,192,12888,5,8,0:0:0:0:
256,192,13044,5,0,0:0:0:0:
256,192,13200,5,0,0:0:0:0:
256,192,13357,5,8,0:0:0:0:
256,192,13513,5,0,0:0:0:0:
256,192,13591,5,0,0:0:0:0:
256,192,13669,5,0,0:0:0:0:
256,192,13825,5,8,0:0:0:0:
256,192,13982,5,0,0:0:0:0:
256,192,14138,5,0,0:0:0:0:
256,192,14294,5,8,0:0:0:0:
256,192,14450,5,0,0:0:0:0:
256,192,14763,5,0,0:0:0:0:
256,192,14919,5,8,0:0:0:0:
256,192,14997,5,8,0:0:0:0:
256,192,15075,5,0,0:0:0:0:
256,192,15232,5,8,0:0:0:0:
256,192,15388,5,0,0:0:0:0:
256,192,15466,5,0,0:0:0:0:
256,192,15544,5,8,0:0:0:0:
256,192,15622,5,0,0:0:0:0:
256,192,15700,5,8,0:0:0:0:
256,192,15857,5,0,0:0:0:0:
256,192,16013,5,8,0:0:0:0:
256,192,16091,5,8,0:0:0:0:
256,192,16169,5,8,0:0:0:0:
256,192,16325,5,0,0:0:0:0:
256,192,16482,5,8,0:0:0:0:
256,192,16638,5,8,0:0:0:0:
256,192,16794,5,0,0:0:0:0:
256,192,16950,5,8,0:0:0:0:
256,192,17263,5,0,0:0:0:0:
256,192,17419,5,8,0:0:0:0:
256,192,17575,5,0,0:0:0:0:
256,192,17653,5,0,0:0:0:0:
256,192,17732,5,8,0:0:0:0:
256,192,17810,5,8,0:0:0:0:
256,192,17888,5,0,0:0:0:0:
256,192,18044,5,8,0:0:0:0:
256,192,18200,5,8,0:0:0:0:
256,192,18357,5,0,0:0:0:0:
256,192,18513,5,8,0:0:0:0:
256,192,18591,5,8,0:0:0:0:
256,192,18669,5,8,0:0:0:0:
256,192,18825,5,0,0:0:0:0:
256,192,18982,5,8,0:0:0:0:
256,192,19060,5,0,0:0:0:0:
256,192,19138,5,8,0:0:0:0:
256,192,19294,5,0,0:0:0:0:
256,192,19450,5,8,0:0:0:0:
256,192,19528,5,8,0:0:0:0:
256,192,19607,5,0,0:0:0:0:
256,192,19685,5,0,0:0:0:0:
256,192,19763,5,8,0:0:0:0:
256,192,19841,5,0,0:0:0:0:
256,192,19919,5,8,0:0:0:0:
256,192,19997,5,8,0:0:0:0:
256,192,20075,5,0,0:0:0:0:
256,192,20153,5,0,0:0:0:0:
256,192,20232,5,8,0:0:0:0:
256,192,20857,5,4,0:0:0:0:
256,192,21169,5,8,0:0:0:0:
256,192,21325,5,8,0:0:0:0:
256,192,21638,5,0,0:0:0:0:
256,192,21794,5,8,0:0:0:0:
256,192,21950,5,0,0:0:0:0:
256,192,22263,5,0,0:0:0:0:
256,192,22419,5,8,0:0:0:0:
256,192,22575,5,0,0:0:0:0:
256,192,22653,5,0,0:0:0:0:
256,192,22732,5,8,0:0:0:0:
256,192,23044,5,0,0:0:0:0:
256,192,23357,5,8,0:0:0:0:
256,192,23669,5,0,0:0:0:0:
256,192,23825,5,8,0:0:0:0:
256,192,24138,5,8,0:0:0:0:
256,192,24450,5,0,0:0:0:0:
256,192,24607,5,8,0:0:0:0:
256,192,24685,5,8,0:0:0:0:
256,192,24763,5,0,0:0:0:0:
256,192,24919,5,8,0:0:0:0:
256,192,25075,5,0,0:0:0:0:
256,192,25153,5,0,0:0:0:0:
256,192,25232,5,8,0:0:0:0:
256,192,25388,5,0,0:0:0:0:
256,192,25544,5,0,0:0:0:0:
256,192,25700,5,0,0:0:0:0:
256,192,25857,5,8,0:0:0:0:
256,192,26169,5,0,0:0:0:0:
256,192,26325,5,0,0:0:0:0:
256,192,26638,5,8,0:0:0:0:
256,192,26794,5,0,0:0:0:0:
256,192,26950,5,8,0:0:0:0:
256,192,27263,5,8,0:0:0:0:
256,192,27419,5,0,0:0:0:0:
256,192,27575,5,8,0:0:0:0:
256,192,27653,5,8,0:0:0:0:
256,192,27732,5,0,0:0:0:0:
256,192,28044,5,8,0:0:0:0:
256,192,28357,5,0,0:0:0:0:
256,192,28669,5,8,0:0:0:0:
256,192,28825,5,0,0:0:0:0:
256,192,28982,5,0,0:0:0:0:
256,192,29138,5,8,0:0:0:0:
256,192,29450,5,8,0:0:0:0:
256,192,29607,5,0,0:0:0:0:
256,192,29685,5,0,0:0:0:0:
256,192,29763,5,8,0:0:0:0:
256,192,29919,5,0,0:0:0:0:
256,192,30075,5,8,0:0:0:0:
256,192,30153,5,8,0:0:0:0:
256,192,30232,5,0,0:0:0:0:
256,192,30466,5,8,0:0:0:0:
256,192,30700,5,0,0:0:0:0:
256,192,31169,5,0,0:0:0:0:
256,192,31482,5,8,0:0:0:0:
256,192,31638,5,0,0:0:0:0:
256,192,31950,5,0,0:0:0:0:
256,192,32263,5,0,0:0:0:0:
256,192,32419,5,0,0:0:0:0:
256,192,32575,5,0,0:0:0:0:
256,192,32653,5,0,0:0:0:0:
256,192,32732,5,8,0:0:0:0:
256,192,32966,5,8,0:0:0:0:
256,192,33200,5,0,0:0:0:0:
256,192,33357,5,8,0:0:0:0:
256,192,33513,5,0,0:0:0:0:
256,192,33591,5,8,0:0:0:0:
256,192,33747,5,8,0:0:0:0:
256,192,33825,5,0,0:0:0:0:
256,192,33982,5,8,0:0:0:0:
256,192,34138,5,0,0:0:0:0:
256,192,34450,5,8,0:0:0:0:
256,192,34607,5,0,0:0:0:0:
256,192,34685,5,0,0:0:0:0:
256,192,34763,5,0,0:0:0:0:
256,192,34919,5,8,0:0:0:0:
256,192,35075,5,0,0:0:0:0:
256,192,35232,5,8,0:0:0:0:
256,192,35544,5,0,0:0:0:0:
256,192,35700,5,0,0:0:0:0:
256,192,35857,5,8,0:0:0:0:
256,192,36169,5,0,0:0:0:0:
256,192,36325,5,0,0:0:0:0:
256,192,36638,5,8,0:0:0:0:
256,192,36794,5,0,0:0:0:0:
256,192,36950,5,8,0:0:0:0:
256,192,37263,5,8,0:0:0:0:
256,192,37419,5,0,0:0:0:0:
256,192,37575,5,8,0:0:0:0:
256,192,37653,5,8,0:0:0:0:
256,192,37732,5,0,0:0:0:0:
256,192,38044,5,8,0:0:0:0:
256,192,38357,5,0,0:0:0:0:
256,192,38669,5,8,0:0:0:0:
256,192,38825,5,0,0:0:0:0:
256,192,39138,5,0,0:0:0:0:
256,192,39450,5,8,0:0:0:0:
256,192,39607,5,0,0:0:0:0:
256,192,39685,5,0,0:0:0:0:
256,192,39763,5,8,0:0:0:0:
256,192,40075,5,8,0:0:0:0:
256,192,40153,5,8,0:0:0:0:
256,192,40232,5,0,0:0:0:0:
256,192,40388,5,8,0:0:0:0:
256,192,40466,5,0,0:0:0:0:
256,192,40544,5,0,0:0:0:0:
256,192,40700,5,8,0:0:0:0:
256,192,40857,5,4,0:0:0:0:
256,192,41169,5,8,0:0:0:0:
256,192,41482,5,8,0:0:0:0:
256,192,41794,5,0,0:0:0:0:
256,192,41950,5,0,0:0:0:0:
256,192,42107,5,12,0:0:0:0:
256,192,42419,5,0,0:0:0:0:
256,192,42575,5,8,0:0:0:0:
256,192,42888,5,8,0:0:0:0:
256,192,43044,5,0,0:0:0:0:
256,192,43357,5,4,0:0:0:0:
256,192,43669,5,8,0:0:0:0:
256,192,43825,5,0,0:0:0:0:
256,192,43903,5,0,0:0:0:0:
256,192,43982,5,8,0:0:0:0:
256,192,44294,5,8,0:0:0:0:
256,192,44450,5,8,0:0:0:0:
256,192,44607,5,4,0:0:0:0:
256,192,44919,5,8,0:0:0:0:
256,192,45075,5,0,0:0:0:0:
256,192,45232,5,0,0:0:0:0:
256,192,45388,5,8,0:0:0:0:
256,192,45466,5,8,0:0:0:0:
256,192,45544,5,0,0:0:0:0:
256,192,45622,5,0,0:0:0:0:
256,192,45700,5,8,0:0:0:0:
256,192,45857,5,4,0:0:0:0:
256,192,46013,5,4,0:0:0:0:
256,192,46169,5,8,0:0:0:0:
256,192,46325,5,0,0:0:0:0:
256,192,46403,5,0,0:0:0:0:
256,192,46482,5,0,0:0:0:0:
256,192,46638,5,8,0:0:0:0:
256,192,46794,5,0,0:0:0:0:
256,192,46950,5,0,0:0:0:0:
256,192,47107,5,12,0:0:0:0:
256,192,47263,5,12,0:0:0:0:
256,192,47419,5,0,0:0:0:0:
256,192,47575,5,8,0:0:0:0:
256,192,47653,5,8,0:0:0:0:
256,192,47732,5,8,0:0:0:0:
256,192,47888,5,0,0:0:0:0:
256,192,48044,5,8,0:0:0:0:
256,192,48200,5,0,0:0:0:0:
256,192,48357,5,12,0:0:0:0:
256,192,48513,5,0,0:0:0:0:
256,192,48669,5,0,0:0:0:0:
256,192,48825,5,12,0:0:0:0:
256,192,48982,5,0,0:0:0:0:
256,192,49138,5,0,0:0:0:0:
256,192,49294,5,12,0:0:0:0:
256,192,49607,5,4,0:0:0:0:
256,192,49763,5,4,0:0:0:0:
256,192,49919,5,4,0:0:0:0:
256,192,50857,5,4,0:0:0:0:
256,192,51169,5,0,0:0:0:0:
256,192,51325,5,0,0:0:0:0:
256,192,51403,5,0,0:0:0:0:
256,192,51482,5,8,0:0:0:0:
256,192,51638,5,0,0:0:0:0:
256,192,51794,5,8,0:0:0:0:
256,192,51872,5,8,0:0:0:0:
256,192,51950,5,0,0:0:0:0:
256,192,52107,5,8,0:0:0:0:
256,192,52263,5,0,0:0:0:0:
256,192,52341,5,0,0:0:0:0:
256,192,52419,5,0,0:0:0:0:
256,192,52575,5,8,0:0:0:0:
256,192,52732,5,0,0:0:0:0:
256,192,52810,5,0,0:0:0:0:
256,192,52888,5,8,0:0:0:0:
256,192,52966,5,0,0:0:0:0:
256,192,53044,5,8,0:0:0:0:
256,192,53200,5,0,0:0:0:0:
256,192,53357,5,0,0:0:0:0:
256,192,53513,5,8,0:0:0:0:
256,192,53591,5,0,0:0:0:0:
256,192,53669,5,8,0:0:0:0:
256,192,53825,5,0,0:0:0:0:
256,192,53982,5,8,0:0:0:0:
256,192,54060,5,8,0:0:0:0:
256,192,54138,5,0,0:0:0:0:
256,192,54216,5,0,0:0:0:0:
256,192,54294,5,8,0:0:0:0:
256,192,54450,5,0,0:0:0:0:
256,192,54763,5,0,0:0:0:0:
256,192,54919,5,8,0:0:0:0:
256,192,54997,5,8,0:0:0:0:
256,192,55075,5,8,0:0:0:0:
256,192,55153,5,8,0:0:0:0:
256,192,55232,5,0,0:0:0:0:
256,192,55388,5,8,0:0:0:0:
256,192,55544,5,8,0:0:0:0:
256,192,55700,5,0,0:0:0:0:
256,192,55778,5,0,0:0:0:0:
256,192,55857,5,8,0:0:0:0:
256,192,56169,5,0,0:0:0:0:
256,192,56325,5,8,0:0:0:0:
256,192,56403,5,8,0:0:0:0:
256,192,56482,5,0,0:0:0:0:
256,192,56560,5,0,0:0:0:0:
256,192,56638,5,0,0:0:0:0:
256,192,56794,5,8,0:0:0:0:
256,192,56950,5,8,0:0:0:0:
256,192,57107,5,0,0:0:0:0:
256,192,57263,5,0,0:0:0:0:
256,192,57341,5,0,0:0:0:0:
256,192,57419,5,8,0:0:0:0:
256,192,57575,5,8,0:0:0:0:
256,192,57653,5,8,0:0:0:0:
256,192,57732,5,0,0:0:0:0:
256,192,57810,5,8,0:0:0:0:
256,192,57888,5,0,0:0:0:0:
256,192,58044,5,8,0:0:0:0:
256,192,58200,5,0,0:0:0:0:
256,192,58278,5,0,0:0:0:0:
256,192,58357,5,8,0:0:0:0:
256,192,58513,5,0,0:0:0:0:
256,192,58669,5,8,0:0:0:0:
256,192,58825,5,0,0:0:0:0:
256,192,58903,5,0,0:0:0:0:
256,192,58982,5,8,0:0:0:0:
256,192,59060,5,8,0:0:0:0:
256,192,59138,5,0,0:0:0:0:
256,192,59294,5,8,0:0:0:0:
256,192,59450,5,0,0:0:0:0:
256,192,59607,5,12,0:0:0:0:
256,192,59763,5,0,0:0:0:0:
256,192,59841,5,0,0:0:0:0:
256,192,59919,5,0,0:0:0:0:
256,192,60075,5,8,0:0:0:0:
256,192,60153,5,8,0:0:0:0:
256,192,60232,5,0,0:0:0:0:
256,192,60310,5,0,0:0:0:0:
256,192,60388,5,8,0:0:0:0:
256,192,60466,5,0,0:0:0:0:
256,192,60544,5,8,0:0:0:0:
256,192,60622,5,8,0:0:0:0:
256,192,60700,5,0,0:0:0:0:
256,192,60778,5,0,0:0:0:0:
256,192,60857,5,8,0:0:0:0:
256,192,61169,5,0,0:0:0:0:
256,192,61325,5,8,0:0:0:0:
256,192,61403,5,8,0:0:0:0:
256,192,61482,5,0,0:0:0:0:
256,192,61638,5,8,0:0:0:0:
256,192,61794,5,0,0:0:0:0:
256,192,61872,5,0,0:0:0:0:
256,192,61950,5,8,0:0:0:0:
256,192,62107,5,0,0:0:0:0:
256,192,62263,5,8,0:0:0:0:
256,192,62341,5,8,0:0:0:0:
256,192,62419,5,8,0:0:0:0:
256,192,62575,5,0,0:0:0:0:
256,192,62732,5,8,0:0:0:0:
256,192,62810,5,8,0:0:0:0:
256,192,62888,5,0,0:0:0:0:
256,192,62966,5,8,0:0:0:0:
256,192,63044,5,0,0:0:0:0:
256,192,63200,5,8,0:0:0:0:
256,192,63357,5,8,0:0:0:0:
256,192,63513,5,0,0:0:0:0:
256,192,63591,5,8,0:0:0:0:
256,192,63669,5,0,0:0:0:0:
256,192,63825,5,8,0:0:0:0:
256,192,63982,5,0,0:0:0:0:
256,192,64060,5,0,0:0:0:0:
256,192,64138,5,8,0:0:0:0:
256,192,64216,5,8,0:0:0:0:
256,192,64294,5,0,0:0:0:0:
256,192,64450,5,8,0:0:0:0:
256,192,64763,5,8,0:0:0:0:
256,192,64919,5,0,0:0:0:0:
256,192,64997,5,0,0:0:0:0:
256,192,65075,5,0,0:0:0:0:
256,192,65153,5,0,0:0:0:0:
256,192,65232,5,8,0:0:0:0:
256,192,65388,5,0,0:0:0:0:
256,192,65544,5,8,0:0:0:0:
256,192,65622,5,8,0:0:0:0:
256,192,65700,5,8,0:0:0:0:
256,192,65778,5,8,0:0:0:0:
256,192,65857,5,0,0:0:0:0:
256,192,66169,5,8,0:0:0:0:
256,192,66325,5,0,0:0:0:0:
256,192,66403,5,0,0:0:0:0:
256,192,66482,5,8,0:0:0:0:
256,192,66560,5,8,0:0:0:0:
256,192,66638,5,8,0:0:0:0:
256,192,66794,5,0,0:0:0:0:
256,192,66950,5,0,0:0:0:0:
256,192,67107,5,8,0:0:0:0:
256,192,67263,5,8,0:0:0:0:
256,192,67341,5,8,0:0:0:0:
256,192,67419,5,8,0:0:0:0:
256,192,67575,5,0,0:0:0:0:
256,192,67653,5,0,0:0:0:0:
256,192,67732,5,0,0:0:0:0:
256,192,67810,5,0,0:0:0:0:
256,192,67888,5,8,0:0:0:0:
256,192,68044,5,8,0:0:0:0:
256,192,68357,5,12,0:0:0:0:
256,192,68669,5,0,0:0:0:0:
256,192,68825,5,8,0:0:0:0:
256,192,68903,5,8,0:0:0:0:
256,192,68982,5,8,0:0:0:0:
256,192,69138,5,0,0:0:0:0:
256,192,69294,5,0,0:0:0:0:
256,192,69372,5,0,0:0:0:0:
256,192,69450,5,8,0:0:0:0:
256,192,69607,5,0,0:0:0:0:
256,192,69763,5,8,0:0:0:0:
256,192,69841,5,8,0:0:0:0:
256,192,69919,5,0,0:0:0:0:
256,192,69997,5,0,0:0:0:0:
256,192,70075,5,8,0:0:0:0:
256,192,70232,5,0,0:0:0:0:
256,192,70544,5,8,0:0:0:0:
256,192,70857,5,12,0:0:0:0:
256,192,71169,5,0,0:0:0:0:
256,192,71325,5,8,0:0:0:0:
256,192,71403,5,8,0:0:0:0:
256,192,71482,5,8,0:0:0:0:
256,192,71638,5,0,0:0:0:0:
256,192,71794,5,0,0:0:0:0:
256,192,71872,5,0,0:0:0:0:
256,192,71950,5,8,0:0:0:0:
256,192,72107,5,4,0:0:0:0:
256,192,73357,5,8,0:0:0:0:
256,192,73513,5,0,0:0:0:0:
256,192,73591,5,0,0:0:0:0:
256,192,73669,5,0,0:0:0:0:
256,192,73825,5,8,0:0:0:0:
256,192,73982,5,0,0:0:0:0:
256,192,74138,5,0,0:0:0:0:
256,192,74294,5,8,0:0:0:0:
256,192,74450,5,0,0:0:0:0:
256,192,74763,5,8,0:0:0:0:
256,192,74919,5,0,0:0:0:0:
256,192,75075,5,8,0:0:0:0:
256,192,75153,5,8,0:0:0:0:
256,192,75232,5,0,0:0:0:0:
256,192,75310,5,0,0:0:0:0:
256,192,75388,5,8,0:0:0:0:
256,192,75544,5,0,0:0:0:0:
256,192,75700,5,0,0:0:0:0:
256,192,75857,5,8,0:0:0:0:
256,192,76013,5,0,0:0:0:0:
256,192,76091,5,0,0:0:0:0:
256,192,76169,5,0,0:0:0:0:
256,192,76325,5,8,0:0:0:0:
256,192,76482,5,0,0:0:0:0:
256,192,76638,5,0,0:0:0:0:
256,192,76794,5,8,0:0:0:0:
256,192,76950,5,0,0:0:0:0:
256,192,77263,5,0,0:0:0:0:
256,192,77419,5,8,0:0:0:0:
256,192,77497,5,8,0:0:0:0:
256,192,77575,5,0,0:0:0:0:
256,192,77732,5,8,0:0:0:0:
256,192,77888,5,0,0:0:0:0:
256,192,77966,5,0,0:0:0:0:
256,192,78044,5,8,0:0:0:0:
256,192,78122,5,0,0:0:0:0:
256,192,78200,5,8,0:0:0:0:
256,192,78357,5,0,0:0:0:0:
256,192,78513,5,8,0:0:0:0:
256,192,78591,5,8,0:0:0:0:
256,192,78669,5,8,0:0:0:0:
256,192,78825,5,0,0:0:0:0:
256,192,78982,5,8,0:0:0:0:
256,192,79138,5,8,0:0:0:0:
256,192,79294,5,0,0:0:0:0:
256,192,79450,5,8,0:0:0:0:
256,192,79763,5,0,0:0:0:0:
256,192,79919,5,8,0:0:0:0:
256,192,80075,5,0,0:0:0:0:
256,192,80153,5,0,0:0:0:0:
256,192,80232,5,8,0:0:0:0:
256,192,80310,5,8,0:0:0:0:
256,192,80388,5,0,0:0:0:0:
256,192,80544,5,8,0:0:0:0:
256,192,80700,5,8,0:0:0:0:
256,192,80857,5,0,0:0:0:0:
256,192,81013,5,8,0:0:0:0:
256,192,81091,5,8,0:0:0:0:
256,192,81169,5,8,0:0:0:0:
256,192,81325,5,0,0:0:0:0:
256,192,81482,5,8,0:0:0:0:
256,192,81560,5,0,0:0:0:0:
256,192,81638,5,8,0:0:0:0:
256,192,81794,5,0,0:0:0:0:
256,192,81950,5,8,0:0:0:0:
256,192,82028,5,8,0:0:0:0:
256,192,82107,5,0,0:0:0:0:
256,192,82185,5,0,0:0:0:0:
256,192,82263,5,8,0:0:0:0:
256,192,82341,5,0,0:0:0:0:
256,192,82419,5,8,0:0:0:0:
256,192,82497,5,8,0:0:0:0:
256,192,82575,5,0,0:0:0:0:
256,192,82653,5,0,0:0:0:0:
256,192,82732,5,8,0:0:0:0:
256,192,82888,5,0,0:0:0:0:
256,192,82966,5,0,0:0:0:0:
256,192,83044,5,0,0:0:0:0:
256,192,83200,5,8,0:0:0:0:
256,192,83357,5,0,0:0:0:0:
256,192,83669,5,8,0:0:0:0:
256,192,83825,5,0,0:0:0:0:
256,192,84138,5,8,0:0:0:0:
256,192,84450,5,0,0:0:0:0:
256,192,84919,5,8,0:0:0:0:
256,192,85232,5,0,0:0:0:0:
256,192,85544,5,8,0:0:0:0:
256,192,85857,5,8,0:0:0:0:
256,192,86169,5,0,0:0:0:0:
256,192,86325,5,8,0:0:0:0:
256,192,86638,5,0,0:0:0:0:
256,192,86950,5,8,0:0:0:0:
256,192,87263,5,8,0:0:0:0:
256,192,87341,5,8,0:0:0:0:
256,192,87419,5,8,0:0:0:0:
256,192,87575,5,8,0:0:0:0:
256,192,87732,5,0,0:0:0:0:
256,192,88044,5,8,0:0:0:0:
256,192,88357,5,0,0:0:0:0:
256,192,88669,5,8,0:0:0:0:
256,192,88825,5,8,0:0:0:0:
256,192,89138,5,8,0:0:0:0:
256,192,89294,5,0,0:0:0:0:
256,192,89372,5,0,0:0:0:0:
256,192,89450,5,8,0:0:0:0:
256,192,89528,5,8,0:0:0:0:
256,192,89607,5,0,0:0:0:0:
256,192,89763,5,8,0:0:0:0:
256,192,89919,5,8,0:0:0:0:
256,192,90075,5,0,0:0:0:0:
256,192,90232,5,8,0:0:0:0:
256,192,90388,5,0,0:0:0:0:
256,192,90466,5,0,0:0:0:0:
256,192,90544,5,8,0:0:0:0:
256,192,90700,5,0,0:0:0:0:
256,192,90857,5,0,0:0:0:0:
256,192,91013,5,8,0:0:0:0:
256,192,91091,5,8,0:0:0:0:
256,192,91169,5,8,0:0:0:0:
256,192,91325,5,0,0:0:0:0:
256,192,91482,5,8,0:0:0:0:
256,192,91638,5,0,0:0:0:0:
256,192,91950,5,8,0:0:0:0:
256,192,92107,5,0,0:0:0:0:
256,192,92263,5,8,0:0:0:0:
256,192,92341,5,0,0:0:0:0:
256,192,92419,5,8,0:0:0:0:
256,192,92575,5,0,0:0:0:0:
256,192,92732,5,8,0:0:0:0:
256,192,92966,5,0,0:0:0:0:
256,192,93200,5,0,0:0:0:0:
256,192,93357,5,8,0:0:0:0:
256,192,93669,5,0,0:0:0:0:
256,192,93982,5,8,0:0:0:0:
256,192,94138,5,0,0:0:0:0:
256,192,94450,5,0,0:0:0:0:
256,192,94763,5,0,0:0:0:0:
256,192,94919,5,0,0:0:0:0:
256,192,95075,5,0,0:0:0:0:
256,192,95153,5,0,0:0:0:0:
256,192,95232,5,8,0:0:0:0:
256,192,95466,5,8,0:0:0:0:
256,192,95700,5,8,0:0:0:0:
256,192,95857,5,8,0:0:0:0:
256,192,95935,5,0,0:0:0:0:
256,192,96091,5,0,0:0:0:0:
256,192,96169,5,8,0:0:0:0:
256,192,96247,5,8,0:0:0:0:
256,192,96325,5,0,0:0:0:0:
256,192,96482,5,8,0:0:0:0:
256,192,96638,5,0,0:0:0:0:
256,192,96950,5,0,0:0:0:0:
256,192,97107,5,8,0:0:0:0:
256,192,97263,5,0,0:0:0:0:
256,192,97341,5,0,0:0:0:0:
256,192,97419,5,8,0:0:0:0:
256,192,97575,5,0,0:0:0:0:
256,192,97732,5,8,0:0:0:0:
256,192,98044,5,0,0:0:0:0:
256,192,98200,5,0,0:0:0:0:
256,192,98357,5,8,0:0:0:0:
256,192,98669,5,0,0:0:0:0:
256,192,98825,5,0,0:0:0:0:
256,192,99138,5,8,0:0:0:0:
256,192,99294,5,0,0:0:0:0:
256,192,99450,5,8,0:0:0:0:
256,192,99763,5,8,0:0:0:0:
256,192,99919,5,0,0:0:0:0:
256,192,100075,5,8,0:0:0:0:
256,192,100153,5,8,0:0:0:0:
256,192,100232,5,8,0:0:0:0:
256,192,100388,5,0,0:0:0:0:
256,192,100544,5,8,0:0:0:0:
256,192,100700,5,0,0:0:0:0:
256,192,100857,5,8,0:0:0:0:
256,192,101169,5,8,0:0:0:0:
256,192,101325,5,0,0:0:0:0:
256,192,101638,5,0,0:0:0:0:
256,192,101950,5,8,0:0:0:0:
256,192,102107,5,0,0:0:0:0:
256,192,102185,5,0,0:0:0:0:
256,192,102263,5,8,0:0:0:0:
256,192,102419,5,0,0:0:0:0:
256,192,102575,5,8,0:0:0:0:
256,192,102653,5,8,0:0:0:0:
256,192,102732,5,0,0:0:0:0:
256,192,102888,5,8,0:0:0:0:
256,192,102966,5,0,0:0:0:0:
256,192,103044,5,0,0:0:0:0:
256,192,103200,5,8,0:0:0:0:
256,192,103357,5,4,0:0:0:0:
256,192,103669,5,8,0:0:0:0:
256,192,103825,5,0,0:0:0:0:
256,192,104138,5,0,0:0:0:0:
256,192,104294,5,8,0:0:0:0:
256,192,104450,5,8,0:0:0:0:
256,192,104607,5,4,0:0:0:0:
256,192,104919,5,8,0:0:0:0:
256,192,105075,5,0,0:0:0:0:
256,192,105232,5,0,0:0:0:0:
256,192,105388,5,0,0:0:0:0:
256,192,105544,5,8,0:0:0:0:
256,192,105857,5,4,0:0:0:0:
256,192,106169,5,8,0:0:0:0:
256,192,106325,5,0,0:0:0:0:
256,192,106638,5,0,0:0:0:0:
256,192,106794,5,8,0:0:0:0:
256,192,106950,5,0,0:0:0:0:
256,192,107107,5,12,0:0:0:0:
256,192,107419,5,8,0:0:0:0:
256,192,107575,5,0,0:0:0:0:
256,192,107732,5,8,0:0:0:0:
256,192,107888,5,0,0:0:0:0:
256,192,107966,5,0,0:0:0:0:
256,192,108044,5,8,0:0:0:0:
256,192,108357,5,4,0:0:0:0:
256,192,108513,5,4,0:0:0:0:
256,192,109294,5,12,0:0:0:0:
256,192,109607,5,4,0:0:0:0:
256,192,109763,5,4,0:0:0:0:
256,192,110388,5,0,0:0:0:0:
256,192,110544,5,12,0:0:0:0:
256,192,110857,5,8,0:0:0:0:
256,192,110935,5,8,0:0:0:0:
256,192,111013,5,0,0:0:0:0:
256,192,111091,5,0,0:0:0:0:
256,192,111169,5,0,0:0:0:0:
256,192,111247,5,0,0:0:0:0:
256,192,111325,5,8,0:0:0:0:
256,192,111403,5,8,0:0:0:0:
256,192,111482,5,0,0:0:0:0:
256,192,111560,5,0,0:0:0:0:
256,192,111638,5,8,0:0:0:0:
256,192,111716,5,8,0:0:0:0:
256,192,111794,5,8,0:0:0:0:
256,192,111872,5,8,0:0:0:0:
256,192,111950,5,0,0:0:0:0:
256,192,112107,5,12,0:0:0:0:
256,192,112263,5,12,0:0:0:0:
256,192,112419,5,12,0:0:0:0:
256,192,113357,5,4,0:0:0:0:
256,192,113669,5,0,0:0:0:0:
256,192,113825,5,0,0:0:0:0:
256,192,113903,5,0,0:0:0:0:
256,192,113982,5,8,0:0:0:0:
256,192,114138,5,0,0:0:0:0:
256,192,114294,5,8,0:0:0:0:
256,192,114372,5,8,0:0:0:0:
256,192,114450,5,0,0:0:0:0:
256,192,114607,5,8,0:0:0:0:
256,192,114763,5,0,0:0:0:0:
256,192,114841,5,0,0:0:0:0:
256,192,114919,5,0,0:0:0:0:
256,192,115075,5,8,0:0:0:0:
256,192,115232,5,0,0:0:0:0:
256,192,115310,5,0,0:0:0:0:
256,192,115388,5,8,0:0:0:0:
256,192,115466,5,0,0:0:0:0:
256,192,115544,5,8,0:0:0:0:
256,192,115700,5,0,0:0:0:0:
256,192,115857,5,0,0:0:0:0:
256,192,116013,5,8,0:0:0:0:
256,192,116091,5,0,0:0:0:0:
256,192,116169,5,8,0:0:0:0:
256,192,116325,5,0,0:0:0:0:
256,192,116482,5,8,0:0:0:0:
256,192,116560,5,8,0:0:0:0:
256,192,116638,5,0,0:0:0:0:
256,192,116716,5,0,0:0:0:0:
256,192,116794,5,8,0:0:0:0:
256,192,116950,5,0,0:0:0:0:
256,192,117263,5,0,0:0:0:0:
256,192,117419,5,8,0:0:0:0:
256,192,117497,5,8,0:0:0:0:
256,192,117575,5,8,0:0:0:0:
256,192,117653,5,8,0:0:0:0:
256,192,117732,5,0,0:0:0:0:
256,192,117888,5,8,0:0:0:0:
256,192,118044,5,8,0:0:0:0:
256,192,118200,5,0,0:0:0:0:
256,192,118278,5,0,0:0:0:0:
256,192,118357,5,8,0:0:0:0:
256,192,118669,5,0,0:0:0:0:
256,192,118825,5,8,0:0:0:0:
256,192,118903,5,8,0:0:0:0:
256,192,118982,5,0,0:0:0:0:
256,192,119060,5,0,0:0:0:0:
256,192,119138,5,0,0:0:0:0:
256,192,119294,5,8,0:0:0:0:
256,192,119450,5,8,0:0:0:0:
256,192,119607,5,0,0:0:0:0:
256,192,119763,5,0,0:0:0:0:
256,192,119841,5,0,0:0:0:0:
256,192,119919,5,8,0:0:0:0:
256,192,120075,5,8,0:0:0:0:
256,192,120153,5,8,0:0:0:0:
256,192,120232,5,0,0:0:0:0:
256,192,120310,5,8,0:0:0:0:
256,192,120388,5,0,0:0:0:0:
256,192,120544,5,8,0:0:0:0:
256,192,120700,5,0,0:0:0:0:
256,192,120778,5,0,0:0:0:0:
256,192,120857,5,8,0:0:0:0:
256,192,121013,5,0,0:0:0:0:
256,192,121169,5,8,0:0:0:0:
256,192,121325,5,0,0:0:0:0:
256,192,121403,5,0,0:0:0:0:
256,192,121482,5,8,0:0:0:0:
256,192,121560,5,8,0:0:0:0:
256,192,121638,5,0,0:0:0:0:
256,192,121794,5,8,0:0:0:0:
256,192,121950,5,0,0:0:0:0:
256,192,122263,5,8,0:0:0:0:
256,192,122341,5,8,0:0:0:0:
256,192,122419,5,0,0:0:0:0:
256,192,122575,5,8,0:0:0:0:
256,192,122653,5,8,0:0:0:0:
256,192,122732,5,0,0:0:0:0:
256,192,122810,5,0,0:0:0:0:
256,192,122888,5,8,0:0:0:0:
256,192,122966,5,0,0:0:0:0:
256,192,123044,5,8,0:0:0:0:
256,192,123122,5,8,0:0:0:0:
256,192,123200,5,0,0:0:0:0:
256,192,123278,5,0,0:0:0:0:
256,192,123357,5,8,0:0:0:0:
256,192,123669,5,0,0:0:0:0:
256,192,123825,5,8,0:0:0:0:
256,192,123903,5,8,0:0:0:0:
256,192,123982,5,0,0:0:0:0:
256,192,124138,5,8,0:0:0:0:
256,192,124294,5,0,0:0:0:0:
256,192,124372,5,0,0:0:0:0:
256,192,124450,5,8,0:0:0:0:
256,192,124607,5,0,0:0:0:0:
256,192,124763,5,8,0:0:0:0:
256,192,124841,5,8,0:0:0:0:
256,192,124919,5,8,0:0:0:0:
256,192,125075,5,0,0:0:0:0:
256,192,125232,5,8,0:0:0:0:
256,192,125310,5,8,0:0:0:0:
256,192,125388,5,0,0:0:0:0:
256,192,125466,5,8,0:0:0:0:
256,192,125544,5,0,0:0:0:0:
256,192,125700,5,8,0:0:0:0:
256,192,125857,5,8,0:0:0:0:
256,192,126013,5,0,0:0:0:0:
256,192,126091,5,8,0:0:0:0:
256,192,126169,5,0,0:0:0:0:
256,192,126325,5,8,0:0:0:0:
256,192,126482,5,0,0:0:0:0:
256,192,126560,5,0,0:0:0:0:
256,192,126638,5,8,0:0:0:0:
256,192,126716,5,8,0:0:0:0:
256,192,126794,5,0,0:0:0:0:
256,192,126950,5,8,0:0:0:0:
256,192,127263,5,8,0:0:0:0:
256,192,127419,5,0,0:0:0:0:
256,192,127497,5,0,0:0:0:0:
256,192,127575,5,0,0:0:0:0:
256,192,127653,5,0,0:0:0:0:
256,192,127732,5,8,0:0:0:0:
256,192,127888,5,0,0:0:0:0:
256,192,128044,5,8,0:0:0:0:
256,192,128122,5,8,0:0:0:0:
256,192,128200,5,8,0:0:0:0:
256,192,128278,5,8,0:0:0:0:
256,192,128357,5,0,0:0:0:0:
256,192,128669,5,8,0:0:0:0:
256,192,128825,5,0,0:0:0:0:
256,192,128903,5,0,0:0:0:0:
256,192,128982,5,8,0:0:0:0:
256,192,129060,5,8,0:0:0:0:
256,192,129138,5,8,0:0:0:0:
256,192,129294,5,0,0:0:0:0:
256,192,129450,5,0,0:0:0:0:
256,192,129607,5,8,0:0:0:0:
256,192,129763,5,8,0:0:0:0:
256,192,129841,5,8,0:0:0:0:
256,192,129919,5,8,0:0:0:0:
256,192,130075,5,0,0:0:0:0:
256,192,130153,5,0,0:0:0:0:
256,192,130232,5,0,0:0:0:0:
256,192,130310,5,0,0:0:0:0:
256,192,130388,5,8,0:0:0:0:
256,192,130544,5,8,0:0:0:0:
256,192,130857,5,12,0:0:0:0:
256,192,131169,5,0,0:0:0:0:
256,192,131325,5,8,0:0:0:0:
256,192,131403,5,8,0:0:0:0:
256,192,131482,5,8,0:0:0:0:
256,192,131638,5,0,0:0:0:0:
256,192,131794,5,0,0:0:0:0:
256,192,131872,5,0,0:0:0:0:
256,192,131950,5,8,0:0:0:0:
256,192,132107,5,0,0:0:0:0:
256,192,132263,5,8,0:0:0:0:
256,192,132341,5,8,0:0:0:0:
256,192,132419,5,0,0:0:0:0:
256,192,132497,5,0,0:0:0:0:
256,192,132575,5,8,0:0:0:0:
256,192,132732,5,0,0:0:0:0:
256,192,133044,5,8,0:0:0:0:
256,192,133357,5,12,0:0:0:0:
256,192,133669,5,0,0:0:0:0:
256,192,133825,5,8,0:0:0:0:
256,192,133903,5,8,0:0:0:0:
256,192,133982,5,8,0:0:0:0:
256,192,134138,5,0,0:0:0:0:
256,192,134294,5,0,0:0:0:0:
256,192,134372,5,0,0:0:0:0:
256,192,134450,5,8,0:0:0:0:
256,192,134607,5,4,0:0:0:0:
256,192,135857,5,4,0:0:0:0:
256,192,136169,5,8,0:0:0:0:
256,192,136325,5,8,0:0:0:0:
256,192,136482,5,0,0:0:0:0:
256,192,136794,5,0,0:0:0:0:
256,192,136950,5,0,0:0:0:0:
256,192,137107,5,8,0:0:0:0:
256,192,137263,5,0,0:0:0:0:
256,192,137419,5,0,0:0:0:0:
256,192,137575,5,8,0:0:0:0:
256,192,137732,5,0,0:0:0:0:
256,192,137888,5,0,0:0:0:0:
256,192,138200,5,8,0:0:0:0:
256,192,138357,5,0,0:0:0:0:
256,192,138825,5,0,0:0:0:0:
256,192,138982,5,8,0:0:0:0:
256,192,139138,5,0,0:0:0:0:
256,192,139216,5,0,0:0:0:0:
256,192,139294,5,8,0:0:0:0:
256,192,139372,5,8,0:0:0:0:
256,192,139450,5,0,0:0:0:0:
256,192,139528,5,8,0:0:0:0:
256,192,139607,5,0,0:0:0:0:
256,192,139685,5,0,0:0:0:0:
256,192,139763,5,8,0:0:0:0:
256,192,139841,5,0,0:0:0:0:
256,192,139919,5,8,0:0:0:0:
256,192,139997,5,8,0:0:0:0:
256,192,140075,5,0,0:0:0:0:
256,192,140153,5,0,0:0:0:0:
256,192,140232,5,8,0:0:0:0:
256,192,140857,5,4,0:0:0:0:
256,192,141013,5,0,0:0:0:0:
256,192,141169,5,8,0:0:0:0:
256,192,141247,5,8,0:0:0:0:
256,192,141325,5,8,0:0:0:0:
256,192,141403,5,8,0:0:0:0:
256,192,141482,5,0,0:0:0:0:
256,192,141638,5,8,0:0:0:0:
256,192,141794,5,0,0:0:0:0:
256,192,142107,5,0,0:0:0:0:
256,192,142185,5,8,0:0:0:0:
256,192,142341,5,8,0:0:0:0:
256,192,142419,5,0,0:0:0:0:
256,192,142575,5,0,0:0:0:0:
256,192,142732,5,8,0:0:0:0:
256,192,142810,5,0,0:0:0:0:
256,192,142888,5,8,0:0:0:0:
256,192,142966,5,8,0:0:0:0:
256,192,143044,5,0,0:0:0:0:
256,192,143200,5,8,0:0:0:0:
256,192,143357,5,4,0:0:0:0:
256,192,143669,5,8,0:0:0:0:
256,192,143825,5,0,0:0:0:0:
256,192,143903,5,0,0:0:0:0:
256,192,143982,5,8,0:0:0:0:
256,192,144138,5,8,0:0:0:0:
256,192,144294,5,8,0:0:0:0:
256,192,144607,5,0,0:0:0:0:
256,192,144841,5,0,0:0:0:0:
256,192,145075,5,0,0:0:0:0:
256,192,145232,5,8,0:0:0:0:
256,192,145310,5,8,0:0:0:0:
256,192,145388,5,0,0:0:0:0:
256,192,145466,5,0,0:0:0:0:
256,192,145544,5,8,0:0:0:0:
256,192,145622,5,0,0:0:0:0:
256,192,145700,5,0,0:0:0:0:
256,192,145857,5,12,0:0:0:0:
256,192,146013,5,8,0:0:0:0:
256,192,146169,5,0,0:0:0:0:
256,192,146247,5,0,0:0:0:0:
256,192,146325,5,0,0:0:0:0:
256,192,146403,5,0,0:0:0:0:
256,192,146482,5,8,0:0:0:0:
256,192,146638,5,0,0:0:0:0:
256,192,146794,5,8,0:0:0:0:
256,192,147107,5,8,0:0:0:0:
256,192,147185,5,0,0:0:0:0:
256,192,147341,5,0,0:0:0:0:
256,192,147419,5,8,0:0:0:0:
256,192,147575,5,8,0:0:0:0:
256,192,147732,5,0,0:0:0:0:
256,192,147810,5,8,0:0:0:0:
256,192,147888,5,0,0:0:0:0:
256,192,147966,5,0,0:0:0:0:
256,192,148044,5,8,0:0:0:0:
256,192,148200,5,0,0:0:0:0:
256,192,148357,5,12,0:0:0:0:
256,192,148669,5,0,0:0:0:0:
256,192,148825,5,8,0:0:0:0:
256,192,148903,5,8,0:0:0:0:
256,192,148982,5,0,0:0:0:0:
256,192,149138,5,0,0:0:0:0:
256,192,149294,5,0,0:0:0:0:
256,192,149607,5,8,0:0:0:0:
256,192,149841,5,8,0:0:0:0:
256,192,150075,5,0,0:0:0:0:
256,192,150153,5,0,0:0:0:0:
256,192,150232,5,8,0:0:0:0:
256,192,150336,5,0,0:0:0:0:
256,192,150440,5,0,0:0:0:0:
256,192,150544,5,8,0:0:0:0:
256,192,150648,5,0,0:0:0:0:
256,192,150752,5,0,0:0:0:0:
256,192,150857,5,12,0:0:0:0:
256,192,153357,5,0,0:0:0:0:
256,192,161794,5,0,0:0:0:0:
256,192,161950,5,8,0:0:0:0:
256,192,162263,5,0,0:0:0:0:
256,192,162419,5,8,0:0:0:0:
256,192,162575,5,0,0:0:0:0:
256,192,162653,5,0,0:0:0:0:
256,192,162732,5,0,0:0:0:0:
256,192,162810,5,0,0:0:0:0:
256,192,162888,5,0,0:0:0:0:
256,192,162966,5,0,0:0:0:0:
256,192,163044,5,8,0:0:0:0:
256,192,163357,5,0,0:0:0:0:
256,192,163435,5,0,0:0:0:0:
256,192,163513,5,8,0:0:0:0:
256,192,163669,5,0,0:0:0:0:
256,192,163825,5,8,0:0:0:0:
256,192,163903,5,8,0:0:0:0:
256,192,163982,5,0,0:0:0:0:
256,192,164138,5,8,0:0:0:0:
256,192,164294,5,0,0:0:0:0:
256,192,164372,5,0,0:0:0:0:
256,192,164450,5,8,0:0:0:0:
256,192,164607,5,0,0:0:0:0:
256,192,164763,5,8,0:0:0:0:
256,192,165075,5,0,0:0:0:0:
256,192,165232,5,8,0:0:0:0:
256,192,165388,5,8,0:0:0:0:
256,192,165466,5,8,0:0:0:0:
256,192,165544,5,0,0:0:0:0:
256,192,165622,5,0,0:0:0:0:
256,192,165700,5,8,0:0:0:0:
256,192,165778,5,0,0:0:0:0:
256,192,165857,5,8,0:0:0:0:
256,192,166013,5,8,0:0:0:0:
256,192,166169,5,0,0:0:0:0:
256,192,166247,5,0,0:0:0:0:
256,192,166325,5,8,0:0:0:0:
256,192,166482,5,0,0:0:0:0:
256,192,166638,5,8,0:0:0:0:
256,192,166716,5,8,0:0:0:0:
256,192,166794,5,0,0:0:0:0:
256,192,166950,5,8,0:0:0:0:
256,192,167263,5,8,0:0:0:0:
256,192,167419,5,8,0:0:0:0:
256,192,167575,5,0,0:0:0:0:
256,192,167653,5,0,0:0:0:0:
256,192,167732,5,8,0:0:0:0:
256,192,167888,5,0,0:0:0:0:
256,192,168044,5,8,0:0:0:0:
256,192,168122,5,0,0:0:0:0:
256,192,168200,5,0,0:0:0:0:
256,192,168357,5,8,0:0:0:0:
256,192,168435,5,8,0:0:0:0:
256,192,168513,5,8,0:0:0:0:
256,192,168591,5,8,0:0:0:0:
256,192,168669,5,0,0:0:0:0:
256,192,168747,5,0,0:0:0:0:
256,192,168825,5,8,0:0:0:0:
256,192,168903,5,8,0:0:0:0:
256,192,168982,5,0,0:0:0:0:
256,192,169060,5,0,0:0:0:0:
256,192,169138,5,8,0:0:0:0:
256,192,169216,5,0,0:0:0:0:
256,192,169294,5,8,0:0:0:0:
256,192,169372,5,8,0:0:0:0:
256,192,169450,5,0,0:0:0:0:
256,192,169528,5,0,0:0:0:0:
256,192,169607,5,8,0:0:0:0:
256,192,169685,5,8,0:0:0:0:
256,192,169763,5,8,0:0:0:0:
256,192,169841,5,8,0:0:0:0:
256,192,169919,5,0,0:0:0:0:
256,192,169997,5,0,0:0:0:0:
256,192,170075,5,8,0:0:0:0:
256,192,170153,5,8,0:0:0:0:
256,192,170232,5,0,0:0:0:0:
256,192,170310,5,0,0:0:0:0:
256,192,170388,5,8,0:0:0:0:
256,192,170466,5,0,0:0:0:0:
256,192,170544,5,8,0:0:0:0:
256,192,170622,5,8,0:0:0:0:
256,192,170700,5,0,0:0:0:0:
256,192,170857,5,12,0:0:0:0:
256,192,171013,5,12,0:0:0:0:
256,192,171169,5,12,0:0:0:0:
256,192,171482,5,0,0:0:0:0:
256,192,171794,5,0,0:0:0:0:
256,192,172107,5,0,0:0:0:0:
256,192,172419,5,0,0:0:0:0:
256,192,172732,5,0,0:0:0:0:
256,192,173044,5,0,0:0:0:0:
256,192,173122,5,0,0:0:0:0:
256,192,173200,5,8,0:0:0:0:
256,192,173357,5,0,0:0:0:0:
256,192,174450,5,0,0:0:0:0:
256,192,174607,5,12,0:0:0:0:
256,192,174763,5,12,0:0:0:0:
256,192,175232,5,4,0:0:0:0:
256,192,175388,5,4,0:0:0:0:
256,192,175857,5,0,0:0:0:0:
256,192,175935,5,0,0:0:0:0:
256,192,176013,5,0,0:0:0:0:
256,192,176169,5,12,0:0:0:0:
256,192,176325,5,0,0:0:0:0:
256,192,176403,5,0,0:0:0:0:
256,192,176482,5,8,0:0:0:0:
256,192,176638,5,0,0:0:0:0:
256,192,176794,5,8,0:0:0:0:
256,192,176872,5,8,0:0:0:0:
256,192,176950,5,0,0:0:0:0:
256,192,177028,5,0,0:0:0:0:
256,192,177107,5,8,0:0:0:0:
256,192,177263,5,0,0:0:0:0:
256,192,177341,5,0,0:0:0:0:
256,192,177419,5,0,0:0:0:0:
256,192,177575,5,8,0:0:0:0:
256,192,177732,5,0,0:0:0:0:
256,192,177810,5,0,0:0:0:0:
256,192,177888,5,8,0:0:0:0:
256,192,177966,5,0,0:0:0:0:
256,192,178044,5,8,0:0:0:0:
256,192,178122,5,8,0:0:0:0:
256,192,178200,5,0,0:0:0:0:
256,192,178357,5,0,0:0:0:0:
256,192,178513,5,8,0:0:0:0:
256,192,178591,5,0,0:0:0:0:
256,192,178669,5,8,0:0:0:0:
256,192,178825,5,0,0:0:0:0:
256,192,178982,5,8,0:0:0:0:
256,192,179060,5,8,0:0:0:0:
256,192,179138,5,0,0:0:0:0:
256,192,179216,5,0,0:0:0:0:
256,192,179294,5,8,0:0:0:0:
256,192,179450,5,0,0:0:0:0:
256,192,179528,5,0,0:0:0:0:
256,192,179607,5,8,0:0:0:0:
256,192,179763,5,0,0:0:0:0:
256,192,179919,5,8,0:0:0:0:
256,192,179997,5,8,0:0:0:0:
256,192,180075,5,8,0:0:0:0:
256,192,180153,5,8,0:0:0:0:
256,192,180232,5,0,0:0:0:0:
256,192,180388,5,8,0:0:0:0:
256,192,180544,5,8,0:0:0:0:
256,192,180700,5,0,0:0:0:0:
256,192,180778,5,0,0:0:0:0:
256,192,180857,5,8,0:0:0:0:
256,192,181013,5,0,0:0:0:0:
256,192,181169,5,0,0:0:0:0:
256,192,181325,5,8,0:0:0:0:
256,192,181403,5,8,0:0:0:0:
256,192,181482,5,0,0:0:0:0:
256,192,181560,5,0,0:0:0:0:
256,192,181638,5,0,0:0:0:0:
256,192,181794,5,8,0:0:0:0:
256,192,181950,5,8,0:0:0:0:
256,192,182028,5,8,0:0:0:0:
256,192,182107,5,0,0:0:0:0:
256,192,182263,5,0,0:0:0:0:
256,192,182341,5,0,0:0:0:0:
256,192,182419,5,0,0:0:0:0:
256,192,182575,5,8,0:0:0:0:
256,192,182653,5,8,0:0:0:0:
256,192,182732,5,8,0:0:0:0:
256,192,182810,5,8,0:0:0:0:
256,192,182888,5,0,0:0:0:0:
256,192,183044,5,8,0:0:0:0:
256,192,183200,5,0,0:0:0:0:
256,192,183278,5,0,0:0:0:0:
256,192,183357,5,8,0:0:0:0:
256,192,183435,5,8,0:0:0:0:
256,192,183513,5,0,0:0:0:0:
256,192,183669,5,8,0:0:0:0:
256,192,183747,5,0,0:0:0:0:
256,192,183825,5,0,0:0:0:0:
256,192,183903,5,0,0:0:0:0:
256,192,183982,5,8,0:0:0:0:
256,192,184060,5,8,0:0:0:0:
256,192,184138,5,0,0:0:0:0:
256,192,184294,5,8,0:0:0:0:
256,192,184450,5,0,0:0:0:0:
256,192,184607,5,8,0:0:0:0:
256,192,184685,5,0,0:0:0:0:
256,192,184763,5,8,0:0:0:0:
256,192,184841,5,8,0:0:0:0:
256,192,184919,5,0,0:0:0:0:
256,192,184997,5,0,0:0:0:0:
256,192,185075,5,8,0:0:0:0:
256,192,185153,5,8,0:0:0:0:
256,192,185232,5,0,0:0:0:0:
256,192,185310,5,0,0:0:0:0:
256,192,185388,5,8,0:0:0:0:
256,192,185466,5,0,0:0:0:0:
256,192,185544,5,8,0:0:0:0:
256,192,185622,5,8,0:0:0:0:
256,192,185700,5,0,0:0:0:0:
256,192,185778,5,0,0:0:0:0:
256,192,185857,5,8,0:0:0:0:
256,192,186013,5,0,0:0:0:0:
256,192,186169,5,8,0:0:0:0:
256,192,186247,5,8,0:0:0:0:
256,192,186325,5,0,0:0:0:0:
256,192,186403,5,0,0:0:0:0:
256,192,186482,5,8,0:0:0:0:
256,192,186638,5,0,0:0:0:0:
256,192,186794,5,8,0:0:0:0:
256,192,186872,5,0,0:0:0:0:
256,192,186950,5,8,0:0:0:0:
256,192,187028,5,8,0:0:0:0:
256,192,187107,5,0,0:0:0:0:
256,192,187263,5,0,0:0:0:0:
256,192,187341,5,0,0:0:0:0:
256,192,187419,5,8,0:0:0:0:
256,192,187575,5,8,0:0:0:0:
256,192,187732,5,0,0:0:0:0:
256,192,187810,5,0,0:0:0:0:
256,192,187888,5,8,0:0:0:0:
256,192,187966,5,0,0:0:0:0:
256,192,188044,5,8,0:0:0:0:
256,192,188122,5,8,0:0:0:0:
256,192,188200,5,0,0:0:0:0:
256,192,188357,5,0,0:0:0:0:
256,192,188513,5,8,0:0:0:0:
256,192,188591,5,0,0:0:0:0:
256,192,188669,5,8,0:0:0:0:
256,192,188825,5,0,0:0:0:0:
256,192,188982,5,8,0:0:0:0:
256,192,189060,5,8,0:0:0:0:
256,192,189138,5,0,0:0:0:0:
256,192,189216,5,0,0:0:0:0:
256,192,189294,5,8,0:0:0:0:
256,192,189450,5,0,0:0:0:0:
256,192,189528,5,0,0:0:0:0:
256,192,189607,5,8,0:0:0:0:
256,192,189763,5,0,0:0:0:0:
256,192,189919,5,8,0:0:0:0:
256,192,189997,5,8,0:0:0:0:
256,192,190075,5,8,0:0:0:0:
256,192,190153,5,8,0:0:0:0:
256,192,190232,5,0,0:0:0:0:
256,192,190388,5,8,0:0:0:0:
256,192,190544,5,8,0:0:0:0:
256,192,190622,5,8,0:0:0:0:
256,192,190700,5,0,0:0:0:0:
256,192,190778,5,0,0:0:0:0:
256,192,190857,5,8,0:0:0:0:
256,192,191013,5,0,0:0:0:0:
256,192,191169,5,0,0:0:0:0:
256,192,191325,5,0,0:0:0:0:
256,192,191403,5,0,0:0:0:0:
256,192,191482,5,8,0:0:0:0:
256,192,191560,5,8,0:0:0:0:
256,192,191638,5,8,0:0:0:0:
256,192,191794,5,0,0:0:0:0:
256,192,191950,5,0,0:0:0:0:
256,192,192028,5,0,0:0:0:0:
256,192,192107,5,8,0:0:0:0:
256,192,192263,5,8,0:0:0:0:
256,192,192341,5,8,0:0:0:0:
256,192,192419,5,0,0:0:0:0:
256,192,192575,5,0,0:0:0:0:
256,192,192653,5,0,0:0:0:0:
256,192,192732,5,0,0:0:0:0:
256,192,192810,5,0,0:0:0:0:
256,192,192888,5,8,0:0:0:0:
256,192,193044,5,8,0:0:0:0:
256,192,193200,5,0,0:0:0:0:
256,192,193357,5,12,0:0:0:0:
256,192,193513,5,0,0:0:0:0:
256,192,193669,5,8,0:0:0:0:
256,192,193747,5,0,0:0:0:0:
256,192,193825,5,8,0:0:0:0:
256,192,193903,5,8,0:0:0:0:
256,192,193982,5,0,0:0:0:0:
256,192,194138,5,8,0:0:0:0:
256,192,194294,5,0,0:0:0:0:
256,192,194372,5,0,0:0:0:0:
256,192,194450,5,8,0:0:0:0:
256,192,194528,5,8,0:0:0:0:
256,192,194607,5,0,0:0:0:0:
256,192,194763,5,8,0:0:0:0:
256,192,194841,5,8,0:0:0:0:
256,192,194919,5,0,0:0:0:0:
256,192,194997,5,0,0:0:0:0:
256,192,195075,5,8,0:0:0:0:
256,192,195232,5,0,0:0:0:0:
256,192,195388,5,8,0:0:0:0:
256,192,195466,5,0,0:0:0:0:
256,192,195544,5,8,0:0:0:0:
256,192,195700,5,0,0:0:0:0:
256,192,195857,5,12,0:0:0:0:
256,192,196013,5,0,0:0:0:0:
256,192,196169,5,8,0:0:0:0:
256,192,196247,5,0,0:0:0:0:
256,192,196325,5,8,0:0:0:0:
256,192,196403,5,8,0:0:0:0:
256,192,196482,5,0,0:0:0:0:
256,192,196638,5,8,0:0:0:0:
256,192,196716,5,8,0:0:0:0:
256,192,196794,5,0,0:0:0:0:
256,192,196872,5,0,0:0:0:0:
256,192,196950,5,8,0:0:0:0:
256,192,197107,5,0,0:0:0:0:
256,192,197263,5,0,0:0:0:0:
256,192,197419,5,8,0:0:0:0:
256,192,197575,5,0,0:0:0:0:
256,192,197732,5,8,0:0:0:0:
256,192,197888,5,0,0:0:0:0:
256,192,198044,5,8,0:0:0:0:
256,192,198357,5,12,0:0:0:0:
256,192,198513,5,0,0:0:0:0:
256,192,198669,5,8,0:0:0:0:
256,192,198747,5,0,0:0:0:0:
256,192,198825,5,8,0:0:0:0:
256,192,198903,5,8,0:0:0:0:
256,192,198982,5,0,0:0:0:0:
256,192,199138,5,8,0:0:0:0:
256,192,199294,5,0,0:0:0:0:
256,192,199372,5,8,0:0:0:0:
256,192,199450,5,0,0:0:0:0:
256,192,199528,5,0,0:0:0:0:
256,192,199607,5,8,0:0:0:0:
256,192,199763,5,0,0:0:0:0:
256,192,199919,5,8,0:0:0:0:
256,192,199997,5,0,0:0:0:0:
256,192,200075,5,8,0:0:0:0:
256,192,200153,5,8,0:0:0:0:
256,192,200232,5,0,0:0:0:0:
256,192,200388,5,0,0:0:0:0:
256,192,200466,5,0,0:0:0:0:
256,192,200544,5,8,0:0:0:0:
256,192,200700,5,0,0:0:0:0:
256,192,200778,5,0,0:0:0:0:
256,192,200857,5,8,0:0:0:0:
256,192,201013,5,0,0:0:0:0:
256,192,201091,5,0,0:0:0:0:
256,192,201169,5,8,0:0:0:0:
256,192,201247,5,0,0:0:0:0:
256,192,201325,5,8,0:0:0:0:
256,192,201482,5,0,0:0:0:0:
256,192,201560,5,0,0:0:0:0:
256,192,201638,5,8,0:0:0:0:
256,192,201716,5,0,0:0:0:0:
256,192,201794,5,8,0:0:0:0:
256,192,201872,5,8,0:0:0:0:
256,192,201950,5,0,0:0:0:0:
256,192,202028,5,8,0:0:0:0:
256,192,202107,5,0,0:0:0:0:
256,192,202185,5,0,0:0:0:0:
256,192,202263,5,8,0:0:0:0:
256,192,202419,5,8,0:0:0:0:
256,192,202575,5,0,0:0:0:0:
256,192,202732,5,0,0:0:0:0:
256,192,202888,5,0,0:0:0:0:
256,192,203044,5,8,0:0:0:0:
256,192,203200,5,0,0:0:0:0:
256,192,203357,12,0,205388,0:0:0:0:
256,192,205544,5,4,0:0:0:0:
256,192,205700,5,4,0:0:0:0:
