osu file format v14

[General]
AudioFilename: audio.mp3
AudioLeadIn: 0
PreviewTime: 112820
Countdown: 0
SampleSet: Soft
StackLeniency: 0.7
Mode: 3
LetterboxInBreaks: 0
SpecialStyle: 0
WidescreenStoryboard: 0

[Editor]
DistanceSpacing: 1.9
BeatDivisor: 4
GridSize: 4
TimelineZoom: 2.1

[Metadata]
Title:Android Girl
TitleUnicode:アンドロイドガール
Artist:DECO*27
ArtistUnicode:DECO*27
Creator:technica
Version:Sooph & Ziel's SC
Source:
Tags:technica tocorn fauaan amateurre -ziel- hatsune miku 初音ミク vocaloid 6th album
BeatmapID:2052422
BeatmapSetID:972132

[Difficulty]
HPDrainRate:8
CircleSize:4
OverallDifficulty:8
ApproachRate:5
SliderMultiplier:1.4
SliderTickRate:1

[Events]
//Background and Video events
0,0,"Android Girl.png",0,0
Video,0,"Android Girl MV (1).avi"
//Break Periods
//Storyboard Layer 0 (Background)
//Storyboard Layer 1 (Fail)
//Storyboard Layer 2 (Pass)
//Storyboard Layer 3 (Foreground)
//Storyboard Sound Samples

[TimingPoints]
8,312.5,4,2,0,60,1,0

[HitObjects]
448,192,8,128,0,1258:0:0:0:0:
64,192,476,1,0,0:0:0:0:
192,192,633,1,0,0:0:0:0:
320,192,789,1,0,0:0:0:0:
64,192,867,1,0,0:0:0:0:
192,192,945,1,0,0:0:0:0:
320,192,945,1,0,0:0:0:0:
64,192,1101,1,0,0:0:0:0:
192,192,1179,1,0,0:0:0:0:
320,192,1258,1,0,0:0:0:0:
64,192,1258,1,0,0:0:0:0:
64,192,1414,1,0,0:0:0:0:
192,192,1414,1,0,0:0:0:0:
448,192,1492,1,0,0:0:0:0:
320,192,1570,1,0,0:0:0:0:
192,192,1570,1,0,0:0:0:0:
448,192,1726,128,0,1883:0:0:0:0:
320,192,1726,1,0,0:0:0:0:
64,192,1804,1,0,0:0:0:0:
192,192,1883,1,0,0:0:0:0:
320,192,1961,1,0,0:0:0:0:
448,192,2039,128,0,2195:0:0:0:0:
64,192,2039,1,0,0:0:0:0:
320,192,2195,1,0,0:0:0:0:
192,192,2273,1,0,0:0:0:0:
448,192,2351,128,0,2508:0:0:0:0:
64,192,2351,1,0,0:0:0:0:
64,192,2508,1,0,0:0:0:0:
192,192,2586,1,0,0:0:0:0:
448,192,2664,128,0,2742:0:0:0:0:
320,192,2664,1,0,0:0:0:0:
64,192,2742,128,0,2820:0:0:0:0:
448,192,2820,128,0,2976:0:0:0:0:
192,192,2820,1,0,0:0:0:0:
64,192,2976,1,0,0:0:0:0:
192,192,2976,1,0,0:0:0:0:
448,192,3133,1,0,0:0:0:0:
320,192,3211,1,0,0:0:0:0:
64,192,3289,1,0,0:0:0:0:
192,192,3289,1,0,0:0:0:0:
320,192,3445,1,0,0:0:0:0:
448,192,3445,1,0,0:0:0:0:
64,192,3601,1,0,0:0:0:0:
192,192,3601,1,0,0:0:0:0:
320,192,3679,1,0,0:0:0:0:
192,192,3758,1,0,0:0:0:0:
64,192,3758,1,0,0:0:0:0:
448,192,3758,1,0,0:0:0:0:
64,192,3914,1,0,0:0:0:0:
320,192,3914,1,0,0:0:0:0:
448,192,3914,128,0,4070:0:0:0:0:
192,192,3992,1,0,0:0:0:0:
64,192,4070,1,0,0:0:0:0:
320,192,4070,1,0,0:0:0:0:
448,192,4148,1,0,0:0:0:0:
64,192,4226,128,0,4383:0:0:0:0:
192,192,4226,1,0,0:0:0:0:
320,192,4278,1,0,0:0:0:0:
448,192,4330,1,0,0:0:0:0:
192,192,4383,1,0,0:0:0:0:
64,192,4461,1,0,0:0:0:0:
448,192,4539,1,0,0:0:0:0:
320,192,4539,128,0,4695:0:0:0:0:
64,192,4617,1,0,0:0:0:0:
192,192,4695,1,0,0:0:0:0:
448,192,4695,1,0,0:0:0:0:
320,192,4773,1,0,0:0:0:0:
448,192,4851,1,0,0:0:0:0:
64,192,4851,128,0,5008:0:0:0:0:
192,192,4929,1,0,0:0:0:0:
448,192,5008,1,0,0:0:0:0:
320,192,5008,1,0,0:0:0:0:
192,192,5086,1,0,0:0:0:0:
64,192,5164,1,0,0:0:0:0:
448,192,5164,1,0,0:0:0:0:
320,192,5164,1,0,0:0:0:0:
192,192,5242,1,0,0:0:0:0:
64,192,5320,1,0,0:0:0:0:
448,192,5320,1,0,0:0:0:0:
320,192,5398,1,0,0:0:0:0:
192,192,5476,1,0,0:0:0:0:
448,192,5476,1,0,0:0:0:0:
64,192,5476,1,0,0:0:0:0:
64,192,5633,1,0,0:0:0:0:
192,192,5633,1,0,0:0:0:0:
320,192,5711,1,0,0:0:0:0:
448,192,5789,1,0,0:0:0:0:
64,192,5789,1,0,0:0:0:0:
192,192,5867,1,0,0:0:0:0:
448,192,5945,1,0,0:0:0:0:
64,192,5945,1,0,0:0:0:0:
320,192,5945,1,0,0:0:0:0:
192,192,6101,1,0,0:0:0:0:
320,192,6179,1,0,0:0:0:0:
192,192,6258,1,0,0:0:0:0:
448,192,6258,1,0,0:0:0:0:
64,192,6258,1,0,0:0:0:0:
64,192,6414,1,0,0:0:0:0:
192,192,6414,1,0,0:0:0:0:
448,192,6492,1,0,0:0:0:0:
192,192,6570,1,0,0:0:0:0:
320,192,6570,1,0,0:0:0:0:
64,192,6648,1,0,0:0:0:0:
320,192,6726,1,0,0:0:0:0:
448,192,6726,1,0,0:0:0:0:
192,192,6804,1,0,0:0:0:0:
64,192,6883,1,0,0:0:0:0:
448,192,7039,1,0,0:0:0:0:
320,192,7039,1,0,0:0:0:0:
64,192,7195,1,0,0:0:0:0:
192,192,7195,1,0,0:0:0:0:
448,192,7273,1,0,0:0:0:0:
320,192,7351,1,0,0:0:0:0:
192,192,7351,1,0,0:0:0:0:
64,192,7508,1,0,0:0:0:0:
320,192,7508,1,0,0:0:0:0:
64,192,7664,1,0,0:0:0:0:
192,192,7664,1,0,0:0:0:0:
192,192,7820,1,0,0:0:0:0:
448,192,7820,1,0,0:0:0:0:
320,192,7976,1,0,0:0:0:0:
448,192,7976,1,0,0:0:0:0:
64,192,8133,1,0,0:0:0:0:
320,192,8133,1,0,0:0:0:0:
192,192,8289,1,0,0:0:0:0:
64,192,8289,1,0,0:0:0:0:
320,192,8445,1,0,0:0:0:0:
448,192,8445,1,0,0:0:0:0:
320,192,8601,1,0,0:0:0:0:
448,192,8601,1,0,0:0:0:0:
192,192,8679,1,0,0:0:0:0:
64,192,8758,1,0,0:0:0:0:
320,192,8758,1,0,0:0:0:0:
448,192,8758,1,0,0:0:0:0:
64,192,8914,1,0,0:0:0:0:
192,192,8914,1,0,0:0:0:0:
320,192,8992,1,0,0:0:0:0:
64,192,9070,1,0,0:0:0:0:
448,192,9070,1,0,0:0:0:0:
192,192,9148,1,0,0:0:0:0:
448,192,9226,1,0,0:0:0:0:
64,192,9226,1,0,0:0:0:0:
320,192,9226,1,0,0:0:0:0:
64,192,9383,1,0,0:0:0:0:
192,192,9383,1,0,0:0:0:0:
448,192,9383,1,0,0:0:0:0:
320,192,9539,1,0,0:0:0:0:
448,192,9539,1,0,0:0:0:0:
192,192,9617,1,0,0:0:0:0:
320,192,9695,1,0,0:0:0:0:
64,192,9695,1,0,0:0:0:0:
448,192,9773,1,0,0:0:0:0:
64,192,9851,1,0,0:0:0:0:
192,192,9851,1,0,0:0:0:0:
320,192,9929,1,0,0:0:0:0:
64,192,10008,1,0,0:0:0:0:
192,192,10008,1,0,0:0:0:0:
320,192,10086,1,0,0:0:0:0:
448,192,10086,1,0,0:0:0:0:
64,192,10164,1,0,0:0:0:0:
192,192,10164,1,0,0:0:0:0:
448,192,10242,1,0,0:0:0:0:
320,192,10242,1,0,0:0:0:0:
64,192,10320,1,0,0:0:0:0:
192,192,10320,1,0,0:0:0:0:
448,192,10398,1,0,0:0:0:0:
192,192,10476,1,0,0:0:0:0:
64,192,10476,1,0,0:0:0:0:
320,192,10476,1,0,0:0:0:0:
448,192,10554,1,0,0:0:0:0:
192,192,10633,1,0,0:0:0:0:
64,192,10633,1,0,0:0:0:0:
64,192,10789,128,0,10867:0:0:0:0:
320,192,10867,128,0,10945:0:0:0:0:
192,192,10945,128,0,11101:0:0:0:0:
320,192,11101,128,0,11258:0:0:0:0:
64,192,11258,1,0,0:0:0:0:
192,192,11258,1,0,0:0:0:0:
448,192,11258,1,0,0:0:0:0:
64,192,11414,1,0,0:0:0:0:
192,192,11492,1,0,0:0:0:0:
320,192,11570,1,0,0:0:0:0:
448,192,11570,1,0,0:0:0:0:
192,192,11648,1,0,0:0:0:0:
64,192,11726,1,0,0:0:0:0:
448,192,11804,1,0,0:0:0:0:
320,192,11883,1,0,0:0:0:0:
192,192,11883,1,0,0:0:0:0:
64,192,11961,1,0,0:0:0:0:
320,192,12039,1,0,0:0:0:0:
448,192,12039,1,0,0:0:0:0:
192,192,12117,1,0,0:0:0:0:
64,192,12195,1,0,0:0:0:0:
448,192,12195,1,0,0:0:0:0:
320,192,12273,1,0,0:0:0:0:
192,192,12351,1,0,0:0:0:0:
64,192,12351,1,0,0:0:0:0:
448,192,12351,1,0,0:0:0:0:
320,192,12508,1,0,0:0:0:0:
64,192,12508,1,0,0:0:0:0:
192,192,12586,1,0,0:0:0:0:
448,192,12664,1,0,0:0:0:0:
320,192,12664,1,0,0:0:0:0:
64,192,12742,1,0,0:0:0:0:
320,192,12820,1,0,0:0:0:0:
192,192,12820,1,0,0:0:0:0:
448,192,12898,1,0,0:0:0:0:
192,192,12976,1,0,0:0:0:0:
64,192,12976,1,0,0:0:0:0:
320,192,13054,1,0,0:0:0:0:
64,192,13133,1,0,0:0:0:0:
448,192,13133,1,0,0:0:0:0:
192,192,13211,1,0,0:0:0:0:
64,192,13289,1,0,0:0:0:0:
448,192,13289,1,0,0:0:0:0:
320,192,13289,1,0,0:0:0:0:
64,192,13445,1,0,0:0:0:0:
192,192,13445,1,0,0:0:0:0:
320,192,13523,1,0,0:0:0:0:
448,192,13601,1,0,0:0:0:0:
320,192,13758,1,0,0:0:0:0:
448,192,13758,1,0,0:0:0:0:
192,192,13836,1,0,0:0:0:0:
64,192,13914,1,0,0:0:0:0:
320,192,13914,1,0,0:0:0:0:
64,192,14070,1,0,0:0:0:0:
192,192,14070,1,0,0:0:0:0:
320,192,14148,1,0,0:0:0:0:
64,192,14226,1,0,0:0:0:0:
192,192,14226,1,0,0:0:0:0:
320,192,14304,1,0,0:0:0:0:
448,192,14304,1,0,0:0:0:0:
64,192,14383,1,0,0:0:0:0:
192,192,14383,1,0,0:0:0:0:
320,192,14461,1,0,0:0:0:0:
448,192,14539,1,0,0:0:0:0:
192,192,14539,1,0,0:0:0:0:
64,192,14617,1,0,0:0:0:0:
320,192,14695,1,0,0:0:0:0:
448,192,14695,1,0,0:0:0:0:
64,192,14851,1,0,0:0:0:0:
192,192,14851,1,0,0:0:0:0:
448,192,14851,1,0,0:0:0:0:
320,192,15008,1,0,0:0:0:0:
64,192,15164,1,0,0:0:0:0:
448,192,15164,1,0,0:0:0:0:
64,192,15320,1,0,0:0:0:0:
192,192,15320,1,0,0:0:0:0:
320,192,15398,1,0,0:0:0:0:
448,192,15398,1,0,0:0:0:0:
192,192,15476,1,0,0:0:0:0:
64,192,15476,1,0,0:0:0:0:
448,192,15554,1,0,0:0:0:0:
320,192,15633,1,0,0:0:0:0:
192,192,15633,1,0,0:0:0:0:
64,192,15711,1,0,0:0:0:0:
192,192,15789,1,0,0:0:0:0:
448,192,15789,1,0,0:0:0:0:
320,192,15789,1,0,0:0:0:0:
192,192,15945,1,0,0:0:0:0:
448,192,15945,1,0,0:0:0:0:
320,192,15945,1,0,0:0:0:0:
64,192,16101,1,0,0:0:0:0:
192,192,16179,1,0,0:0:0:0:
320,192,16258,1,0,0:0:0:0:
448,192,16258,1,0,0:0:0:0:
64,192,16258,1,0,0:0:0:0:
448,192,16414,1,0,0:0:0:0:
320,192,16492,1,0,0:0:0:0:
64,192,16570,1,0,0:0:0:0:
192,192,16570,1,0,0:0:0:0:
320,192,16648,1,0,0:0:0:0:
448,192,16726,1,0,0:0:0:0:
64,192,16804,1,0,0:0:0:0:
192,192,16883,1,0,0:0:0:0:
320,192,16883,1,0,0:0:0:0:
448,192,16961,1,0,0:0:0:0:
320,192,17039,1,0,0:0:0:0:
64,192,17195,1,0,0:0:0:0:
192,192,17195,1,0,0:0:0:0:
320,192,17273,1,0,0:0:0:0:
64,192,17351,1,0,0:0:0:0:
192,192,17351,1,0,0:0:0:0:
448,192,17351,1,0,0:0:0:0:
320,192,17508,1,0,0:0:0:0:
448,192,17586,1,0,0:0:0:0:
64,192,17664,1,0,0:0:0:0:
192,192,17664,1,0,0:0:0:0:
448,192,17742,1,0,0:0:0:0:
64,192,17820,1,0,0:0:0:0:
320,192,17820,1,0,0:0:0:0:
192,192,17898,1,0,0:0:0:0:
320,192,17976,1,0,0:0:0:0:
448,192,17976,1,0,0:0:0:0:
64,192,18054,1,0,0:0:0:0:
320,192,18133,1,0,0:0:0:0:
192,192,18133,1,0,0:0:0:0:
64,192,18289,1,0,0:0:0:0:
192,192,18289,1,0,0:0:0:0:
448,192,18289,1,0,0:0:0:0:
64,192,18445,1,0,0:0:0:0:
448,192,18445,1,0,0:0:0:0:
320,192,18445,1,0,0:0:0:0:
192,192,18523,1,0,0:0:0:0:
64,192,18601,1,0,0:0:0:0:
448,192,18601,1,0,0:0:0:0:
320,192,18679,1,0,0:0:0:0:
64,192,18758,1,0,0:0:0:0:
192,192,18758,1,0,0:0:0:0:
448,192,18758,1,0,0:0:0:0:
320,192,18914,1,0,0:0:0:0:
64,192,19070,1,0,0:0:0:0:
448,192,19070,1,0,0:0:0:0:
192,192,19226,1,0,0:0:0:0:
320,192,19383,1,0,0:0:0:0:
448,192,19383,1,0,0:0:0:0:
64,192,19383,1,0,0:0:0:0:
64,192,19539,1,0,0:0:0:0:
192,192,19539,1,0,0:0:0:0:
320,192,19617,1,0,0:0:0:0:
64,192,19695,1,0,0:0:0:0:
192,192,19695,1,0,0:0:0:0:
448,192,19695,1,0,0:0:0:0:
320,192,19851,1,0,0:0:0:0:
448,192,19851,1,0,0:0:0:0:
64,192,20008,1,0,0:0:0:0:
192,192,20086,1,0,0:0:0:0:
320,192,20164,1,0,0:0:0:0:
448,192,20164,1,0,0:0:0:0:
64,192,20242,1,0,0:0:0:0:
192,192,20242,1,0,0:0:0:0:
448,192,20320,1,0,0:0:0:0:
320,192,20398,1,0,0:0:0:0:
64,192,20476,1,0,0:0:0:0:
192,192,20476,1,0,0:0:0:0:
448,192,20554,1,0,0:0:0:0:
192,192,20633,1,0,0:0:0:0:
320,192,20633,1,0,0:0:0:0:
64,192,20711,1,0,0:0:0:0:
320,192,20945,1,0,0:0:0:0:
64,192,21258,1,0,0:0:0:0:
192,192,21258,1,0,0:0:0:0:
448,192,21258,128,0,21414:0:0:0:0:
320,192,21414,1,0,0:0:0:0:
192,192,21570,1,0,0:0:0:0:
64,192,21570,128,0,21726:0:0:0:0:
448,192,21726,1,0,0:0:0:0:
320,192,21726,128,0,21883:0:0:0:0:
192,192,21883,1,0,0:0:0:0:
64,192,21883,1,0,0:0:0:0:
192,192,22039,128,0,22195:0:0:0:0:
448,192,22039,1,0,0:0:0:0:
320,192,22195,1,0,0:0:0:0:
320,192,22351,128,0,22508:0:0:0:0:
64,192,22351,1,0,0:0:0:0:
448,192,22429,1,0,0:0:0:0:
192,192,22508,1,0,0:0:0:0:
64,192,22664,1,0,0:0:0:0:
192,192,22664,1,0,0:0:0:0:
320,192,22820,1,0,0:0:0:0:
448,192,22820,1,0,0:0:0:0:
192,192,22898,1,0,0:0:0:0:
64,192,22976,1,0,0:0:0:0:
448,192,22976,1,0,0:0:0:0:
320,192,23054,1,0,0:0:0:0:
448,192,23133,1,0,0:0:0:0:
192,192,23133,1,0,0:0:0:0:
64,192,23133,1,0,0:0:0:0:
192,192,23289,1,0,0:0:0:0:
320,192,23367,1,0,0:0:0:0:
448,192,23445,128,0,23601:0:0:0:0:
64,192,23601,1,0,0:0:0:0:
192,192,23601,1,0,0:0:0:0:
192,192,23758,128,0,23914:0:0:0:0:
64,192,23758,1,0,0:0:0:0:
320,192,23758,1,0,0:0:0:0:
448,192,23914,1,0,0:0:0:0:
320,192,24070,128,0,24226:0:0:0:0:
192,192,24226,128,0,24383:0:0:0:0:
64,192,24226,1,0,0:0:0:0:
320,192,24383,1,0,0:0:0:0:
448,192,24383,1,0,0:0:0:0:
448,192,24539,128,0,24695:0:0:0:0:
192,192,24695,1,0,0:0:0:0:
320,192,24851,128,0,25008:0:0:0:0:
448,192,24851,1,0,0:0:0:0:
64,192,25008,1,0,0:0:0:0:
192,192,25008,1,0,0:0:0:0:
320,192,25086,1,0,0:0:0:0:
448,192,25164,1,0,0:0:0:0:
192,192,25164,1,0,0:0:0:0:
320,192,25320,1,0,0:0:0:0:
448,192,25320,1,0,0:0:0:0:
192,192,25398,1,0,0:0:0:0:
64,192,25476,1,0,0:0:0:0:
448,192,25476,1,0,0:0:0:0:
320,192,25633,1,0,0:0:0:0:
192,192,25633,1,0,0:0:0:0:
64,192,25633,1,0,0:0:0:0:
448,192,25789,1,0,0:0:0:0:
320,192,25867,1,0,0:0:0:0:
448,192,25945,1,0,0:0:0:0:
64,192,26049,1,0,0:0:0:0:
192,192,26101,1,0,0:0:0:0:
320,192,26101,1,0,0:0:0:0:
64,192,26258,128,0,26414:0:0:0:0:
192,192,26258,1,0,0:0:0:0:
448,192,26258,1,0,0:0:0:0:
448,192,26414,1,0,0:0:0:0:
320,192,26570,128,0,26726:0:0:0:0:
448,192,26726,128,0,26883:0:0:0:0:
64,192,26726,1,0,0:0:0:0:
320,192,26883,1,0,0:0:0:0:
192,192,26883,1,0,0:0:0:0:
192,192,27039,128,0,27195:0:0:0:0:
64,192,27195,1,0,0:0:0:0:
320,192,27351,128,0,27508:0:0:0:0:
448,192,27351,1,0,0:0:0:0:
192,192,27429,1,0,0:0:0:0:
64,192,27508,1,0,0:0:0:0:
320,192,27664,1,0,0:0:0:0:
448,192,27664,1,0,0:0:0:0:
64,192,27664,1,0,0:0:0:0:
320,192,27820,1,0,0:0:0:0:
448,192,27820,1,0,0:0:0:0:
64,192,27976,1,0,0:0:0:0:
192,192,27976,1,0,0:0:0:0:
320,192,28054,1,0,0:0:0:0:
448,192,28133,1,0,0:0:0:0:
192,192,28133,1,0,0:0:0:0:
64,192,28133,1,0,0:0:0:0:
320,192,28289,1,0,0:0:0:0:
448,192,28367,1,0,0:0:0:0:
64,192,28445,128,0,28601:0:0:0:0:
192,192,28445,1,0,0:0:0:0:
448,192,28601,1,0,0:0:0:0:
320,192,28758,128,0,28914:0:0:0:0:
448,192,28758,1,0,0:0:0:0:
192,192,28758,1,0,0:0:0:0:
64,192,28914,1,0,0:0:0:0:
192,192,29070,128,0,29226:0:0:0:0:
320,192,29226,128,0,29383:0:0:0:0:
448,192,29226,1,0,0:0:0:0:
64,192,29226,1,0,0:0:0:0:
448,192,29383,1,0,0:0:0:0:
192,192,29383,1,0,0:0:0:0:
64,192,29539,128,0,29695:0:0:0:0:
320,192,29695,1,0,0:0:0:0:
192,192,29773,1,0,0:0:0:0:
320,192,29851,128,0,30008:0:0:0:0:
448,192,29851,1,0,0:0:0:0:
64,192,29929,1,0,0:0:0:0:
192,192,30008,1,0,0:0:0:0:
448,192,30086,1,0,0:0:0:0:
320,192,30164,1,0,0:0:0:0:
192,192,30164,1,0,0:0:0:0:
64,192,30164,1,0,0:0:0:0:
64,192,30320,1,0,0:0:0:0:
192,192,30320,1,0,0:0:0:0:
320,192,30398,1,0,0:0:0:0:
448,192,30476,1,0,0:0:0:0:
192,192,30476,1,0,0:0:0:0:
320,192,30633,1,0,0:0:0:0:
448,192,30633,1,0,0:0:0:0:
64,192,30633,1,0,0:0:0:0:
192,192,30711,1,0,0:0:0:0:
64,192,30789,1,0,0:0:0:0:
448,192,30841,1,0,0:0:0:0:
320,192,30893,1,0,0:0:0:0:
64,192,30997,1,0,0:0:0:0:
192,192,31049,1,0,0:0:0:0:
320,192,31101,1,0,0:0:0:0:
448,192,31101,1,0,0:0:0:0:
64,192,31101,1,0,0:0:0:0:
192,192,31414,1,0,0:0:0:0:
320,192,31570,128,0,31726:0:0:0:0:
64,192,31570,1,0,0:0:0:0:
448,192,31570,1,0,0:0:0:0:
192,192,31648,1,0,0:0:0:0:
448,192,31726,128,0,31883:0:0:0:0:
192,192,31883,1,0,0:0:0:0:
64,192,31883,1,0,0:0:0:0:
192,192,32039,128,0,32195:0:0:0:0:
64,192,32195,1,0,0:0:0:0:
320,192,32351,128,0,32508:0:0:0:0:
448,192,32351,1,0,0:0:0:0:
64,192,32508,1,0,0:0:0:0:
192,192,32664,1,0,0:0:0:0:
320,192,32664,1,0,0:0:0:0:
448,192,32664,1,0,0:0:0:0:
320,192,32820,1,0,0:0:0:0:
448,192,32820,1,0,0:0:0:0:
64,192,32976,1,0,0:0:0:0:
192,192,32976,1,0,0:0:0:0:
320,192,33054,1,0,0:0:0:0:
448,192,33133,1,0,0:0:0:0:
192,192,33133,1,0,0:0:0:0:
64,192,33133,1,0,0:0:0:0:
192,192,33367,1,0,0:0:0:0:
64,192,33445,128,0,33601:0:0:0:0:
448,192,33601,1,0,0:0:0:0:
320,192,33758,128,0,33914:0:0:0:0:
192,192,33758,1,0,0:0:0:0:
64,192,33758,1,0,0:0:0:0:
448,192,33836,1,0,0:0:0:0:
192,192,33914,1,0,0:0:0:0:
64,192,33992,1,0,0:0:0:0:
192,192,34070,128,0,34226:0:0:0:0:
320,192,34226,128,0,34383:0:0:0:0:
64,192,34226,1,0,0:0:0:0:
192,192,34383,1,0,0:0:0:0:
64,192,34383,1,0,0:0:0:0:
448,192,34383,1,0,0:0:0:0:
192,192,34539,128,0,34695:0:0:0:0:
320,192,34695,1,0,0:0:0:0:
64,192,34851,128,0,35008:0:0:0:0:
192,192,34851,1,0,0:0:0:0:
320,192,35008,1,0,0:0:0:0:
448,192,35008,1,0,0:0:0:0:
320,192,35164,1,0,0:0:0:0:
448,192,35164,1,0,0:0:0:0:
64,192,35164,1,0,0:0:0:0:
64,192,35320,1,0,0:0:0:0:
192,192,35320,1,0,0:0:0:0:
320,192,35476,1,0,0:0:0:0:
448,192,35476,1,0,0:0:0:0:
64,192,35633,1,0,0:0:0:0:
192,192,35633,1,0,0:0:0:0:
448,192,35633,1,0,0:0:0:0:
64,192,35789,1,0,0:0:0:0:
192,192,35789,1,0,0:0:0:0:
448,192,35867,1,0,0:0:0:0:
320,192,35945,1,0,0:0:0:0:
192,192,35945,1,0,0:0:0:0:
448,192,36101,1,0,0:0:0:0:
64,192,36101,1,0,0:0:0:0:
320,192,36179,1,0,0:0:0:0:
448,192,36258,128,0,36414:0:0:0:0:
192,192,36258,1,0,0:0:0:0:
64,192,36258,1,0,0:0:0:0:
192,192,36570,128,0,36726:0:0:0:0:
320,192,36726,128,0,36883:0:0:0:0:
448,192,36726,1,0,0:0:0:0:
192,192,36883,1,0,0:0:0:0:
64,192,36883,1,0,0:0:0:0:
448,192,36883,1,0,0:0:0:0:
64,192,37039,128,0,37351:0:0:0:0:
192,192,37195,1,0,0:0:0:0:
320,192,37351,128,0,37508:0:0:0:0:
448,192,37351,128,0,37508:0:0:0:0:
192,192,37508,1,0,0:0:0:0:
64,192,37664,1,0,0:0:0:0:
192,192,37664,1,0,0:0:0:0:
448,192,37664,1,0,0:0:0:0:
320,192,37820,1,0,0:0:0:0:
448,192,37820,1,0,0:0:0:0:
64,192,37976,1,0,0:0:0:0:
192,192,37976,1,0,0:0:0:0:
320,192,38054,1,0,0:0:0:0:
448,192,38133,1,0,0:0:0:0:
64,192,38133,1,0,0:0:0:0:
192,192,38133,1,0,0:0:0:0:
320,192,38211,1,0,0:0:0:0:
64,192,38289,1,0,0:0:0:0:
448,192,38445,128,0,38601:0:0:0:0:
320,192,38445,1,0,0:0:0:0:
192,192,38601,1,0,0:0:0:0:
192,192,38758,128,0,38914:0:0:0:0:
64,192,38758,1,0,0:0:0:0:
320,192,38758,1,0,0:0:0:0:
64,192,38914,1,0,0:0:0:0:
448,192,39070,128,0,39226:0:0:0:0:
320,192,39226,128,0,39383:0:0:0:0:
64,192,39226,1,0,0:0:0:0:
64,192,39383,1,0,0:0:0:0:
192,192,39383,1,0,0:0:0:0:
448,192,39383,1,0,0:0:0:0:
64,192,39539,128,0,39695:0:0:0:0:
192,192,39539,1,0,0:0:0:0:
320,192,39695,1,0,0:0:0:0:
448,192,39695,1,0,0:0:0:0:
320,192,39851,128,0,40008:0:0:0:0:
448,192,39851,1,0,0:0:0:0:
64,192,39851,1,0,0:0:0:0:
64,192,40008,1,0,0:0:0:0:
192,192,40008,1,0,0:0:0:0:
320,192,40164,1,0,0:0:0:0:
192,192,40164,1,0,0:0:0:0:
448,192,40320,1,0,0:0:0:0:
64,192,40320,1,0,0:0:0:0:
192,192,40398,1,0,0:0:0:0:
320,192,40476,1,0,0:0:0:0:
448,192,40476,1,0,0:0:0:0:
192,192,40554,1,0,0:0:0:0:
64,192,40554,1,0,0:0:0:0:
448,192,40633,1,0,0:0:0:0:
320,192,40633,1,0,0:0:0:0:
192,192,40789,1,0,0:0:0:0:
64,192,40789,1,0,0:0:0:0:
320,192,40867,1,0,0:0:0:0:
448,192,40867,1,0,0:0:0:0:
192,192,40945,1,0,0:0:0:0:
64,192,40945,1,0,0:0:0:0:
448,192,41101,1,0,0:0:0:0:
320,192,41101,1,0,0:0:0:0:
192,192,41179,1,0,0:0:0:0:
64,192,41179,1,0,0:0:0:0:
320,192,41258,1,0,0:0:0:0:
448,192,41258,1,0,0:0:0:0:
448,192,41570,128,0,41883:0:0:0:0:
192,192,41883,128,0,42195:0:0:0:0:
64,192,42195,128,0,42351:0:0:0:0:
320,192,42351,128,0,42508:0:0:0:0:
192,192,42508,128,0,42820:0:0:0:0:
448,192,42820,128,0,42976:0:0:0:0:
320,192,42976,128,0,43289:0:0:0:0:
192,192,43133,1,0,0:0:0:0:
64,192,43133,1,0,0:0:0:0:
448,192,43133,1,0,0:0:0:0:
192,192,43289,128,0,43445:0:0:0:0:
64,192,43445,128,0,43758:0:0:0:0:
320,192,43445,1,0,0:0:0:0:
448,192,43445,1,0,0:0:0:0:
320,192,43758,1,0,0:0:0:0:
448,192,43758,1,0,0:0:0:0:
192,192,43758,1,0,0:0:0:0:
320,192,44070,128,0,44226:0:0:0:0:
448,192,44226,128,0,44383:0:0:0:0:
64,192,44226,1,0,0:0:0:0:
192,192,44304,1,0,0:0:0:0:
64,192,44383,128,0,44539:0:0:0:0:
320,192,44383,1,0,0:0:0:0:
192,192,44539,1,0,0:0:0:0:
320,192,44539,128,0,44695:0:0:0:0:
448,192,44695,1,0,0:0:0:0:
64,192,44695,128,0,44851:0:0:0:0:
192,192,44851,128,0,45008:0:0:0:0:
448,192,44851,1,0,0:0:0:0:
320,192,44929,1,0,0:0:0:0:
64,192,45008,1,0,0:0:0:0:
448,192,45008,128,0,45164:0:0:0:0:
320,192,45164,1,0,0:0:0:0:
192,192,45164,1,0,0:0:0:0:
192,192,45320,1,0,0:0:0:0:
448,192,45320,1,0,0:0:0:0:
64,192,45320,128,0,45476:0:0:0:0:
192,192,45476,128,0,45633:0:0:0:0:
320,192,45476,1,0,0:0:0:0:
64,192,45633,1,0,0:0:0:0:
448,192,45633,1,0,0:0:0:0:
448,192,45789,128,0,45945:0:0:0:0:
320,192,45789,1,0,0:0:0:0:
64,192,45867,1,0,0:0:0:0:
192,192,45867,1,0,0:0:0:0:
320,192,45945,128,0,46258:0:0:0:0:
192,192,46023,1,0,0:0:0:0:
64,192,46023,1,0,0:0:0:0:
448,192,46101,1,0,0:0:0:0:
192,192,46179,1,0,0:0:0:0:
64,192,46258,128,0,46570:0:0:0:0:
448,192,46258,1,0,0:0:0:0:
320,192,46414,1,0,0:0:0:0:
448,192,46414,1,0,0:0:0:0:
192,192,46570,1,0,0:0:0:0:
320,192,46570,1,0,0:0:0:0:
448,192,46726,1,0,0:0:0:0:
64,192,46804,1,0,0:0:0:0:
192,192,46883,1,0,0:0:0:0:
320,192,46883,1,0,0:0:0:0:
320,192,47039,1,0,0:0:0:0:
448,192,47039,1,0,0:0:0:0:
448,192,47195,1,0,0:0:0:0:
192,192,47195,1,0,0:0:0:0:
64,192,47195,1,0,0:0:0:0:
320,192,47351,1,0,0:0:0:0:
192,192,47508,128,0,47820:0:0:0:0:
64,192,47508,1,0,0:0:0:0:
320,192,47508,1,0,0:0:0:0:
448,192,47664,1,0,0:0:0:0:
64,192,47664,1,0,0:0:0:0:
320,192,47820,1,0,0:0:0:0:
448,192,47820,1,0,0:0:0:0:
64,192,47976,1,0,0:0:0:0:
192,192,48054,1,0,0:0:0:0:
320,192,48133,1,0,0:0:0:0:
448,192,48133,1,0,0:0:0:0:
64,192,48289,1,0,0:0:0:0:
192,192,48289,1,0,0:0:0:0:
320,192,48445,1,0,0:0:0:0:
448,192,48445,1,0,0:0:0:0:
192,192,48445,1,0,0:0:0:0:
64,192,48601,1,0,0:0:0:0:
448,192,48601,1,0,0:0:0:0:
320,192,48679,1,0,0:0:0:0:
192,192,48758,1,0,0:0:0:0:
64,192,48758,1,0,0:0:0:0:
448,192,48758,1,0,0:0:0:0:
320,192,48836,1,0,0:0:0:0:
64,192,48914,1,0,0:0:0:0:
192,192,48914,1,0,0:0:0:0:
448,192,48992,1,0,0:0:0:0:
320,192,49070,1,0,0:0:0:0:
192,192,49070,1,0,0:0:0:0:
64,192,49226,1,0,0:0:0:0:
320,192,49226,1,0,0:0:0:0:
448,192,49226,1,0,0:0:0:0:
192,192,49304,1,0,0:0:0:0:
320,192,49383,1,0,0:0:0:0:
64,192,49383,1,0,0:0:0:0:
448,192,49461,1,0,0:0:0:0:
192,192,49539,1,0,0:0:0:0:
64,192,49539,1,0,0:0:0:0:
320,192,49695,1,0,0:0:0:0:
448,192,49695,1,0,0:0:0:0:
192,192,49773,1,0,0:0:0:0:
320,192,49851,1,0,0:0:0:0:
64,192,49851,1,0,0:0:0:0:
448,192,50008,128,0,50086:0:0:0:0:
320,192,50008,128,0,50086:0:0:0:0:
192,192,50164,128,0,50242:0:0:0:0:
64,192,50164,128,0,50242:0:0:0:0:
192,192,50320,128,0,50398:0:0:0:0:
64,192,50320,128,0,50398:0:0:0:0:
448,192,50476,128,0,50633:0:0:0:0:
192,192,50633,128,0,50789:0:0:0:0:
320,192,50789,128,0,50945:0:0:0:0:
192,192,50945,128,0,51101:0:0:0:0:
64,192,51101,128,0,51258:0:0:0:0:
192,192,51258,1,0,0:0:0:0:
320,192,51258,1,0,0:0:0:0:
448,192,51258,1,0,0:0:0:0:
448,192,51414,1,0,0:0:0:0:
64,192,51570,1,0,0:0:0:0:
192,192,51570,1,0,0:0:0:0:
320,192,51648,1,0,0:0:0:0:
448,192,51726,1,0,0:0:0:0:
64,192,51883,1,0,0:0:0:0:
192,192,51883,1,0,0:0:0:0:
448,192,51961,1,0,0:0:0:0:
320,192,52039,1,0,0:0:0:0:
192,192,52039,1,0,0:0:0:0:
64,192,52117,1,0,0:0:0:0:
320,192,52195,1,0,0:0:0:0:
448,192,52195,1,0,0:0:0:0:
64,192,52351,1,0,0:0:0:0:
192,192,52351,1,0,0:0:0:0:
448,192,52351,1,0,0:0:0:0:
320,192,52429,1,0,0:0:0:0:
64,192,52508,1,0,0:0:0:0:
320,192,52664,1,0,0:0:0:0:
448,192,52664,1,0,0:0:0:0:
192,192,52742,1,0,0:0:0:0:
64,192,52820,1,0,0:0:0:0:
320,192,52820,1,0,0:0:0:0:
448,192,52898,1,0,0:0:0:0:
64,192,52976,1,0,0:0:0:0:
192,192,52976,1,0,0:0:0:0:
320,192,53133,1,0,0:0:0:0:
448,192,53133,1,0,0:0:0:0:
64,192,53211,1,0,0:0:0:0:
192,192,53289,1,0,0:0:0:0:
320,192,53289,1,0,0:0:0:0:
64,192,53445,1,0,0:0:0:0:
192,192,53445,1,0,0:0:0:0:
448,192,53445,1,0,0:0:0:0:
320,192,53601,1,0,0:0:0:0:
192,192,53679,1,0,0:0:0:0:
64,192,53758,1,0,0:0:0:0:
320,192,53758,1,0,0:0:0:0:
448,192,53758,1,0,0:0:0:0:
192,192,53836,1,0,0:0:0:0:
448,192,53914,1,0,0:0:0:0:
64,192,53914,1,0,0:0:0:0:
192,192,54070,1,0,0:0:0:0:
64,192,54070,1,0,0:0:0:0:
320,192,54148,1,0,0:0:0:0:
448,192,54226,1,0,0:0:0:0:
448,192,54383,1,0,0:0:0:0:
320,192,54383,1,0,0:0:0:0:
64,192,54539,1,0,0:0:0:0:
192,192,54539,1,0,0:0:0:0:
320,192,54617,1,0,0:0:0:0:
192,192,54695,1,0,0:0:0:0:
448,192,54695,1,0,0:0:0:0:
64,192,54851,1,0,0:0:0:0:
448,192,54851,1,0,0:0:0:0:
320,192,54851,1,0,0:0:0:0:
192,192,54929,1,0,0:0:0:0:
64,192,55008,1,0,0:0:0:0:
192,192,55164,1,0,0:0:0:0:
320,192,55164,1,0,0:0:0:0:
448,192,55242,1,0,0:0:0:0:
64,192,55320,1,0,0:0:0:0:
192,192,55320,1,0,0:0:0:0:
320,192,55398,1,0,0:0:0:0:
448,192,55398,1,0,0:0:0:0:
64,192,55476,1,0,0:0:0:0:
192,192,55476,1,0,0:0:0:0:
320,192,55554,1,0,0:0:0:0:
448,192,55554,1,0,0:0:0:0:
192,192,55633,1,0,0:0:0:0:
64,192,55633,1,0,0:0:0:0:
448,192,55711,1,0,0:0:0:0:
64,192,55789,1,0,0:0:0:0:
192,192,55789,1,0,0:0:0:0:
320,192,55789,1,0,0:0:0:0:
64,192,55945,1,0,0:0:0:0:
320,192,55945,1,0,0:0:0:0:
448,192,55945,1,0,0:0:0:0:
192,192,56101,1,0,0:0:0:0:
64,192,56258,1,0,0:0:0:0:
448,192,56258,1,0,0:0:0:0:
320,192,56258,1,0,0:0:0:0:
192,192,56336,1,0,0:0:0:0:
64,192,56414,1,0,0:0:0:0:
320,192,56492,1,0,0:0:0:0:
192,192,56570,1,0,0:0:0:0:
64,192,56570,1,0,0:0:0:0:
320,192,56648,1,0,0:0:0:0:
448,192,56648,1,0,0:0:0:0:
192,192,56726,1,0,0:0:0:0:
64,192,56883,1,0,0:0:0:0:
448,192,56883,1,0,0:0:0:0:
320,192,56961,1,0,0:0:0:0:
192,192,57039,1,0,0:0:0:0:
64,192,57039,1,0,0:0:0:0:
320,192,57195,1,0,0:0:0:0:
448,192,57195,1,0,0:0:0:0:
192,192,57273,1,0,0:0:0:0:
64,192,57351,1,0,0:0:0:0:
448,192,57351,1,0,0:0:0:0:
320,192,57351,1,0,0:0:0:0:
64,192,57664,1,0,0:0:0:0:
192,192,57664,1,0,0:0:0:0:
64,192,57820,1,0,0:0:0:0:
192,192,57820,1,0,0:0:0:0:
320,192,57898,1,0,0:0:0:0:
448,192,57898,1,0,0:0:0:0:
192,192,57976,1,0,0:0:0:0:
448,192,58133,1,0,0:0:0:0:
320,192,58133,1,0,0:0:0:0:
320,192,58289,1,0,0:0:0:0:
448,192,58289,1,0,0:0:0:0:
64,192,58445,1,0,0:0:0:0:
192,192,58445,1,0,0:0:0:0:
448,192,58445,1,0,0:0:0:0:
320,192,58523,1,0,0:0:0:0:
192,192,58601,1,0,0:0:0:0:
64,192,58601,1,0,0:0:0:0:
448,192,58758,1,0,0:0:0:0:
320,192,58758,1,0,0:0:0:0:
320,192,58914,1,0,0:0:0:0:
448,192,58914,1,0,0:0:0:0:
192,192,58992,1,0,0:0:0:0:
64,192,59070,1,0,0:0:0:0:
320,192,59070,1,0,0:0:0:0:
64,192,59226,1,0,0:0:0:0:
192,192,59226,1,0,0:0:0:0:
320,192,59304,1,0,0:0:0:0:
448,192,59383,1,0,0:0:0:0:
192,192,59383,1,0,0:0:0:0:
64,192,59461,1,0,0:0:0:0:
448,192,59539,1,0,0:0:0:0:
320,192,59539,1,0,0:0:0:0:
192,192,59617,1,0,0:0:0:0:
320,192,59695,1,0,0:0:0:0:
64,192,59695,1,0,0:0:0:0:
320,192,59851,1,0,0:0:0:0:
448,192,59851,1,0,0:0:0:0:
192,192,59929,1,0,0:0:0:0:
64,192,59929,1,0,0:0:0:0:
448,192,60008,1,0,0:0:0:0:
320,192,60008,1,0,0:0:0:0:
448,192,60164,1,0,0:0:0:0:
320,192,60164,1,0,0:0:0:0:
192,192,60242,1,0,0:0:0:0:
64,192,60242,1,0,0:0:0:0:
448,192,60320,1,0,0:0:0:0:
320,192,60320,1,0,0:0:0:0:
64,192,60398,1,0,0:0:0:0:
448,192,60476,1,0,0:0:0:0:
320,192,60476,1,0,0:0:0:0:
192,192,60554,1,0,0:0:0:0:
64,192,60554,1,0,0:0:0:0:
320,192,60633,1,0,0:0:0:0:
448,192,60633,1,0,0:0:0:0:
64,192,60711,1,0,0:0:0:0:
192,192,60711,1,0,0:0:0:0:
448,192,60789,1,0,0:0:0:0:
320,192,60867,1,0,0:0:0:0:
192,192,60945,1,0,0:0:0:0:
64,192,60945,1,0,0:0:0:0:
448,192,61023,1,0,0:0:0:0:
64,192,61101,1,0,0:0:0:0:
192,192,61101,1,0,0:0:0:0:
320,192,61179,1,0,0:0:0:0:
448,192,61179,1,0,0:0:0:0:
64,192,61258,1,0,0:0:0:0:
192,192,61258,1,0,0:0:0:0:
64,192,61414,1,0,0:0:0:0:
320,192,61570,1,0,0:0:0:0:
448,192,61570,1,0,0:0:0:0:
192,192,61648,1,0,0:0:0:0:
64,192,61726,1,0,0:0:0:0:
448,192,61726,1,0,0:0:0:0:
320,192,61804,1,0,0:0:0:0:
64,192,61883,1,0,0:0:0:0:
192,192,61883,1,0,0:0:0:0:
448,192,61961,1,0,0:0:0:0:
320,192,62039,1,0,0:0:0:0:
192,192,62039,1,0,0:0:0:0:
64,192,62195,1,0,0:0:0:0:
448,192,62195,1,0,0:0:0:0:
320,192,62273,1,0,0:0:0:0:
448,192,62351,1,0,0:0:0:0:
192,192,62351,1,0,0:0:0:0:
64,192,62351,1,0,0:0:0:0:
320,192,62508,1,0,0:0:0:0:
192,192,62586,1,0,0:0:0:0:
64,192,62664,1,0,0:0:0:0:
448,192,62664,1,0,0:0:0:0:
320,192,62742,1,0,0:0:0:0:
192,192,62820,1,0,0:0:0:0:
64,192,62820,1,0,0:0:0:0:
448,192,62820,1,0,0:0:0:0:
64,192,62976,1,0,0:0:0:0:
192,192,62976,1,0,0:0:0:0:
320,192,63054,1,0,0:0:0:0:
448,192,63133,1,0,0:0:0:0:
192,192,63133,1,0,0:0:0:0:
64,192,63211,1,0,0:0:0:0:
320,192,63289,1,0,0:0:0:0:
448,192,63289,1,0,0:0:0:0:
64,192,63445,1,0,0:0:0:0:
320,192,63445,1,0,0:0:0:0:
448,192,63445,1,0,0:0:0:0:
192,192,63523,1,0,0:0:0:0:
320,192,63601,1,0,0:0:0:0:
448,192,63679,1,0,0:0:0:0:
64,192,63758,1,0,0:0:0:0:
192,192,63758,1,0,0:0:0:0:
320,192,63836,1,0,0:0:0:0:
448,192,63914,1,0,0:0:0:0:
192,192,63914,1,0,0:0:0:0:
64,192,63992,1,0,0:0:0:0:
320,192,64070,1,0,0:0:0:0:
448,192,64070,1,0,0:0:0:0:
192,192,64148,1,0,0:0:0:0:
64,192,64226,1,0,0:0:0:0:
448,192,64226,1,0,0:0:0:0:
320,192,64304,1,0,0:0:0:0:
192,192,64383,1,0,0:0:0:0:
64,192,64383,1,0,0:0:0:0:
320,192,64461,1,0,0:0:0:0:
448,192,64539,1,0,0:0:0:0:
64,192,64539,1,0,0:0:0:0:
320,192,64695,1,0,0:0:0:0:
448,192,64695,1,0,0:0:0:0:
192,192,64773,1,0,0:0:0:0:
64,192,64851,1,0,0:0:0:0:
320,192,64851,1,0,0:0:0:0:
448,192,64851,1,0,0:0:0:0:
64,192,65008,1,0,0:0:0:0:
192,192,65086,1,0,0:0:0:0:
320,192,65164,1,0,0:0:0:0:
448,192,65164,1,0,0:0:0:0:
64,192,65242,1,0,0:0:0:0:
320,192,65320,1,0,0:0:0:0:
448,192,65320,1,0,0:0:0:0:
64,192,65398,1,0,0:0:0:0:
192,192,65398,1,0,0:0:0:0:
320,192,65476,1,0,0:0:0:0:
448,192,65476,1,0,0:0:0:0:
64,192,65554,1,0,0:0:0:0:
192,192,65554,1,0,0:0:0:0:
320,192,65633,1,0,0:0:0:0:
448,192,65633,1,0,0:0:0:0:
64,192,65711,1,0,0:0:0:0:
192,192,65789,1,0,0:0:0:0:
320,192,65789,1,0,0:0:0:0:
448,192,65867,1,0,0:0:0:0:
192,192,65945,1,0,0:0:0:0:
64,192,65945,1,0,0:0:0:0:
320,192,66023,1,0,0:0:0:0:
448,192,66023,1,0,0:0:0:0:
64,192,66101,1,0,0:0:0:0:
192,192,66101,1,0,0:0:0:0:
448,192,66179,1,0,0:0:0:0:
320,192,66179,1,0,0:0:0:0:
64,192,66258,1,0,0:0:0:0:
192,192,66258,1,0,0:0:0:0:
320,192,66336,1,0,0:0:0:0:
64,192,66414,1,0,0:0:0:0:
320,192,66570,1,0,0:0:0:0:
448,192,66570,1,0,0:0:0:0:
64,192,66648,1,0,0:0:0:0:
192,192,66648,1,0,0:0:0:0:
320,192,66726,1,0,0:0:0:0:
448,192,66804,1,0,0:0:0:0:
64,192,66883,1,0,0:0:0:0:
192,192,66883,1,0,0:0:0:0:
320,192,66961,1,0,0:0:0:0:
448,192,67039,1,0,0:0:0:0:
192,192,67039,1,0,0:0:0:0:
64,192,67117,1,0,0:0:0:0:
448,192,67195,1,0,0:0:0:0:
320,192,67195,1,0,0:0:0:0:
64,192,67351,1,0,0:0:0:0:
192,192,67351,1,0,0:0:0:0:
448,192,67351,1,0,0:0:0:0:
64,192,67508,1,0,0:0:0:0:
192,192,67586,1,0,0:0:0:0:
320,192,67664,1,0,0:0:0:0:
448,192,67664,1,0,0:0:0:0:
64,192,67742,1,0,0:0:0:0:
320,192,67820,1,0,0:0:0:0:
448,192,67820,1,0,0:0:0:0:
192,192,67820,1,0,0:0:0:0:
64,192,67898,1,0,0:0:0:0:
448,192,67976,1,0,0:0:0:0:
320,192,68054,1,0,0:0:0:0:
64,192,68133,1,0,0:0:0:0:
192,192,68133,1,0,0:0:0:0:
320,192,68211,1,0,0:0:0:0:
64,192,68289,1,0,0:0:0:0:
192,192,68289,1,0,0:0:0:0:
448,192,68289,1,0,0:0:0:0:
64,192,68445,1,0,0:0:0:0:
320,192,68445,1,0,0:0:0:0:
448,192,68445,1,0,0:0:0:0:
192,192,68523,1,0,0:0:0:0:
64,192,68601,1,0,0:0:0:0:
448,192,68601,1,0,0:0:0:0:
320,192,68679,1,0,0:0:0:0:
64,192,68758,1,0,0:0:0:0:
192,192,68758,1,0,0:0:0:0:
448,192,68758,1,0,0:0:0:0:
320,192,68836,1,0,0:0:0:0:
192,192,68914,1,0,0:0:0:0:
64,192,68992,1,0,0:0:0:0:
320,192,69070,1,0,0:0:0:0:
448,192,69070,1,0,0:0:0:0:
192,192,69148,1,0,0:0:0:0:
448,192,69226,1,0,0:0:0:0:
320,192,69304,1,0,0:0:0:0:
64,192,69383,1,0,0:0:0:0:
192,192,69383,1,0,0:0:0:0:
448,192,69383,1,0,0:0:0:0:
320,192,69461,1,0,0:0:0:0:
64,192,69539,1,0,0:0:0:0:
192,192,69539,1,0,0:0:0:0:
320,192,69617,1,0,0:0:0:0:
448,192,69617,1,0,0:0:0:0:
192,192,69695,1,0,0:0:0:0:
64,192,69695,1,0,0:0:0:0:
448,192,69773,1,0,0:0:0:0:
320,192,69851,1,0,0:0:0:0:
192,192,69851,1,0,0:0:0:0:
64,192,70008,1,0,0:0:0:0:
320,192,70008,1,0,0:0:0:0:
448,192,70008,1,0,0:0:0:0:
192,192,70086,1,0,0:0:0:0:
448,192,70164,1,0,0:0:0:0:
320,192,70242,1,0,0:0:0:0:
192,192,70320,1,0,0:0:0:0:
64,192,70320,1,0,0:0:0:0:
320,192,70398,1,0,0:0:0:0:
448,192,70476,1,0,0:0:0:0:
64,192,70633,1,0,0:0:0:0:
192,192,70633,1,0,0:0:0:0:
320,192,70711,1,0,0:0:0:0:
448,192,70789,1,0,0:0:0:0:
192,192,70789,1,0,0:0:0:0:
64,192,70867,1,0,0:0:0:0:
320,192,70945,1,0,0:0:0:0:
448,192,70945,1,0,0:0:0:0:
192,192,71023,1,0,0:0:0:0:
64,192,71101,1,0,0:0:0:0:
448,192,71101,1,0,0:0:0:0:
320,192,71179,1,0,0:0:0:0:
64,192,71258,1,0,0:0:0:0:
192,192,71258,1,0,0:0:0:0:
448,192,71258,1,0,0:0:0:0:
320,192,71336,1,0,0:0:0:0:
192,192,71414,1,0,0:0:0:0:
64,192,71414,1,0,0:0:0:0:
320,192,71570,1,0,0:0:0:0:
448,192,71570,1,0,0:0:0:0:
64,192,71570,1,0,0:0:0:0:
192,192,71648,1,0,0:0:0:0:
320,192,71726,1,0,0:0:0:0:
448,192,71726,1,0,0:0:0:0:
320,192,71883,1,0,0:0:0:0:
192,192,71883,1,0,0:0:0:0:
192,192,72039,1,0,0:0:0:0:
448,192,72039,1,0,0:0:0:0:
64,192,72039,128,0,72195:0:0:0:0:
448,192,72195,128,0,72508:0:0:0:0:
192,192,72195,128,0,72351:0:0:0:0:
320,192,72195,1,0,0:0:0:0:
64,192,72273,1,0,0:0:0:0:
320,192,72351,128,0,72508:0:0:0:0:
64,192,72508,128,0,72664:0:0:0:0:
192,192,72508,1,0,0:0:0:0:
320,192,72664,128,0,72820:0:0:0:0:
448,192,72820,128,0,72976:0:0:0:0:
192,192,72976,128,0,73133:0:0:0:0:
320,192,73133,128,0,73445:0:0:0:0:
64,192,73445,128,0,73758:0:0:0:0:
320,192,73758,1,0,0:0:0:0:
448,192,73758,1,0,0:0:0:0:
192,192,73758,1,0,0:0:0:0:
448,192,73862,1,0,0:0:0:0:
320,192,73914,1,0,0:0:0:0:
192,192,73966,1,0,0:0:0:0:
64,192,74070,1,0,0:0:0:0:
320,192,74070,1,0,0:0:0:0:
448,192,74148,1,0,0:0:0:0:
192,192,74226,1,0,0:0:0:0:
64,192,74226,1,0,0:0:0:0:
320,192,74304,1,0,0:0:0:0:
448,192,74383,1,0,0:0:0:0:
192,192,74383,1,0,0:0:0:0:
64,192,74461,1,0,0:0:0:0:
320,192,74539,1,0,0:0:0:0:
448,192,74539,1,0,0:0:0:0:
64,192,74695,1,0,0:0:0:0:
192,192,74695,1,0,0:0:0:0:
320,192,74773,1,0,0:0:0:0:
448,192,74851,1,0,0:0:0:0:
192,192,74851,1,0,0:0:0:0:
64,192,74851,1,0,0:0:0:0:
320,192,74929,1,0,0:0:0:0:
448,192,75008,1,0,0:0:0:0:
192,192,75086,1,0,0:0:0:0:
320,192,75164,1,0,0:0:0:0:
448,192,75164,1,0,0:0:0:0:
192,192,75242,1,0,0:0:0:0:
64,192,75320,1,0,0:0:0:0:
320,192,75320,1,0,0:0:0:0:
448,192,75320,1,0,0:0:0:0:
192,192,75476,1,0,0:0:0:0:
320,192,75633,1,0,0:0:0:0:
448,192,75633,1,0,0:0:0:0:
192,192,75711,1,0,0:0:0:0:
64,192,75789,1,0,0:0:0:0:
320,192,75789,1,0,0:0:0:0:
448,192,75789,1,0,0:0:0:0:
64,192,75945,1,0,0:0:0:0:
192,192,75945,1,0,0:0:0:0:
320,192,76023,1,0,0:0:0:0:
448,192,76101,1,0,0:0:0:0:
64,192,76179,1,0,0:0:0:0:
192,192,76258,1,0,0:0:0:0:
320,192,76258,1,0,0:0:0:0:
64,192,76414,1,0,0:0:0:0:
192,192,76492,1,0,0:0:0:0:
320,192,76570,1,0,0:0:0:0:
448,192,76570,1,0,0:0:0:0:
192,192,76648,1,0,0:0:0:0:
64,192,76726,1,0,0:0:0:0:
320,192,76883,1,0,0:0:0:0:
448,192,76883,1,0,0:0:0:0:
192,192,76961,1,0,0:0:0:0:
64,192,77039,1,0,0:0:0:0:
320,192,77039,1,0,0:0:0:0:
448,192,77117,1,0,0:0:0:0:
192,192,77195,1,0,0:0:0:0:
64,192,77195,1,0,0:0:0:0:
320,192,77273,1,0,0:0:0:0:
448,192,77351,1,0,0:0:0:0:
192,192,77351,1,0,0:0:0:0:
64,192,77351,1,0,0:0:0:0:
320,192,77429,1,0,0:0:0:0:
448,192,77508,1,0,0:0:0:0:
192,192,77664,1,0,0:0:0:0:
64,192,77664,1,0,0:0:0:0:
320,192,77820,1,0,0:0:0:0:
448,192,77820,1,0,0:0:0:0:
64,192,77898,1,0,0:0:0:0:
192,192,77898,1,0,0:0:0:0:
320,192,77976,1,0,0:0:0:0:
448,192,77976,1,0,0:0:0:0:
192,192,78054,1,0,0:0:0:0:
448,192,78133,1,0,0:0:0:0:
64,192,78133,1,0,0:0:0:0:
320,192,78211,1,0,0:0:0:0:
448,192,78289,1,0,0:0:0:0:
192,192,78289,1,0,0:0:0:0:
64,192,78289,1,0,0:0:0:0:
64,192,78445,1,0,0:0:0:0:
192,192,78445,1,0,0:0:0:0:
448,192,78445,1,0,0:0:0:0:
64,192,78601,1,0,0:0:0:0:
192,192,78679,1,0,0:0:0:0:
320,192,78758,1,0,0:0:0:0:
448,192,78758,1,0,0:0:0:0:
64,192,78758,1,0,0:0:0:0:
192,192,78836,1,0,0:0:0:0:
448,192,78914,1,0,0:0:0:0:
64,192,79070,1,0,0:0:0:0:
192,192,79070,1,0,0:0:0:0:
320,192,79226,1,0,0:0:0:0:
448,192,79383,1,0,0:0:0:0:
64,192,79383,1,0,0:0:0:0:
192,192,79461,1,0,0:0:0:0:
320,192,79539,1,0,0:0:0:0:
448,192,79617,1,0,0:0:0:0:
64,192,79695,1,0,0:0:0:0:
192,192,79695,1,0,0:0:0:0:
320,192,79773,1,0,0:0:0:0:
448,192,79851,1,0,0:0:0:0:
192,192,79851,1,0,0:0:0:0:
64,192,79851,1,0,0:0:0:0:
320,192,79929,1,0,0:0:0:0:
448,192,80008,1,0,0:0:0:0:
64,192,80164,1,0,0:0:0:0:
192,192,80164,1,0,0:0:0:0:
320,192,80164,1,0,0:0:0:0:
448,192,80242,1,0,0:0:0:0:
64,192,80320,1,0,0:0:0:0:
192,192,80320,1,0,0:0:0:0:
320,192,80398,1,0,0:0:0:0:
448,192,80476,1,0,0:0:0:0:
192,192,80476,1,0,0:0:0:0:
64,192,80554,1,0,0:0:0:0:
320,192,80633,1,0,0:0:0:0:
448,192,80633,1,0,0:0:0:0:
192,192,80711,1,0,0:0:0:0:
64,192,80789,1,0,0:0:0:0:
448,192,80789,1,0,0:0:0:0:
320,192,80789,1,0,0:0:0:0:
64,192,80945,1,0,0:0:0:0:
192,192,80945,1,0,0:0:0:0:
320,192,80945,1,0,0:0:0:0:
448,192,81023,1,0,0:0:0:0:
192,192,81101,1,0,0:0:0:0:
64,192,81101,1,0,0:0:0:0:
320,192,81179,1,0,0:0:0:0:
192,192,81258,1,0,0:0:0:0:
448,192,81258,1,0,0:0:0:0:
64,192,81258,1,0,0:0:0:0:
320,192,81414,1,0,0:0:0:0:
64,192,81570,1,0,0:0:0:0:
192,192,81570,1,0,0:0:0:0:
320,192,81648,1,0,0:0:0:0:
448,192,81726,1,0,0:0:0:0:
192,192,81726,1,0,0:0:0:0:
64,192,81883,1,0,0:0:0:0:
320,192,81883,1,0,0:0:0:0:
448,192,81883,1,0,0:0:0:0:
192,192,81961,1,0,0:0:0:0:
64,192,82039,1,0,0:0:0:0:
448,192,82039,1,0,0:0:0:0:
320,192,82117,1,0,0:0:0:0:
64,192,82195,1,0,0:0:0:0:
192,192,82195,1,0,0:0:0:0:
448,192,82195,1,0,0:0:0:0:
320,192,82273,1,0,0:0:0:0:
64,192,82351,1,0,0:0:0:0:
192,192,82351,1,0,0:0:0:0:
320,192,82586,1,0,0:0:0:0:
192,192,82664,1,0,0:0:0:0:
64,192,82664,1,0,0:0:0:0:
448,192,82742,1,0,0:0:0:0:
192,192,82820,1,0,0:0:0:0:
320,192,82820,1,0,0:0:0:0:
64,192,82898,1,0,0:0:0:0:
320,192,82976,1,0,0:0:0:0:
448,192,82976,1,0,0:0:0:0:
192,192,83054,1,0,0:0:0:0:
64,192,83133,1,0,0:0:0:0:
320,192,83133,1,0,0:0:0:0:
448,192,83133,1,0,0:0:0:0:
64,192,83289,1,0,0:0:0:0:
192,192,83289,1,0,0:0:0:0:
320,192,83367,1,0,0:0:0:0:
448,192,83367,1,0,0:0:0:0:
192,192,83445,1,0,0:0:0:0:
64,192,83445,1,0,0:0:0:0:
320,192,83601,1,0,0:0:0:0:
448,192,83601,1,0,0:0:0:0:
448,192,83758,128,0,83914:0:0:0:0:
64,192,83758,1,0,0:0:0:0:
192,192,83758,1,0,0:0:0:0:
64,192,84070,128,0,84226:0:0:0:0:
320,192,84226,128,0,84383:0:0:0:0:
64,192,84383,1,0,0:0:0:0:
448,192,84383,128,0,85008:0:0:0:0:
192,192,84539,128,0,84695:0:0:0:0:
320,192,84851,128,0,85008:0:0:0:0:
64,192,85008,128,0,85320:0:0:0:0:
320,192,85164,1,0,0:0:0:0:
192,192,85320,128,0,85633:0:0:0:0:
448,192,85476,1,0,0:0:0:0:
320,192,85633,128,0,85945:0:0:0:0:
64,192,85633,128,0,85945:0:0:0:0:
448,192,85789,1,0,0:0:0:0:
448,192,85945,128,0,86101:0:0:0:0:
192,192,85945,128,0,86258:0:0:0:0:
320,192,86258,128,0,86414:0:0:0:0:
448,192,86258,128,0,86414:0:0:0:0:
64,192,86336,1,0,0:0:0:0:
320,192,86570,128,0,86726:0:0:0:0:
192,192,86726,128,0,86883:0:0:0:0:
64,192,86883,128,0,87508:0:0:0:0:
320,192,86883,1,0,0:0:0:0:
448,192,87039,128,0,87195:0:0:0:0:
192,192,87195,1,0,0:0:0:0:
320,192,87351,128,0,87508:0:0:0:0:
192,192,87508,128,0,87820:0:0:0:0:
448,192,87664,1,0,0:0:0:0:
320,192,87716,1,0,0:0:0:0:
448,192,87820,128,0,88133:0:0:0:0:
64,192,87820,1,0,0:0:0:0:
320,192,87976,1,0,0:0:0:0:
192,192,88133,1,0,0:0:0:0:
320,192,88133,128,0,88445:0:0:0:0:
64,192,88185,1,0,0:0:0:0:
448,192,88289,1,0,0:0:0:0:
192,192,88445,128,0,88758:0:0:0:0:
64,192,88445,1,0,0:0:0:0:
448,192,88445,1,0,0:0:0:0:
320,192,88549,1,0,0:0:0:0:
64,192,88758,128,0,88914:0:0:0:0:
448,192,88758,128,0,89383:0:0:0:0:
320,192,88758,128,0,89070:0:0:0:0:
192,192,89070,128,0,89226:0:0:0:0:
64,192,89226,128,0,89383:0:0:0:0:
320,192,89383,128,0,90008:0:0:0:0:
192,192,89539,128,0,89695:0:0:0:0:
64,192,89695,1,0,0:0:0:0:
448,192,89773,1,0,0:0:0:0:
64,192,89851,128,0,90008:0:0:0:0:
192,192,89851,1,0,0:0:0:0:
448,192,89929,1,0,0:0:0:0:
192,192,90008,128,0,90320:0:0:0:0:
64,192,90164,1,0,0:0:0:0:
320,192,90268,1,0,0:0:0:0:
448,192,90320,128,0,90633:0:0:0:0:
64,192,90320,1,0,0:0:0:0:
192,192,90476,1,0,0:0:0:0:
320,192,90476,1,0,0:0:0:0:
320,192,90633,128,0,90945:0:0:0:0:
64,192,90633,1,0,0:0:0:0:
192,192,90711,1,0,0:0:0:0:
448,192,90789,1,0,0:0:0:0:
64,192,90789,1,0,0:0:0:0:
64,192,90945,128,0,91101:0:0:0:0:
192,192,90945,128,0,91258:0:0:0:0:
320,192,91101,1,0,0:0:0:0:
448,192,91101,1,0,0:0:0:0:
64,192,91258,128,0,91883:0:0:0:0:
320,192,91258,128,0,91414:0:0:0:0:
448,192,91258,1,0,0:0:0:0:
192,192,91414,1,0,0:0:0:0:
448,192,91492,1,0,0:0:0:0:
192,192,91570,128,0,91726:0:0:0:0:
320,192,91570,1,0,0:0:0:0:
320,192,91726,128,0,91883:0:0:0:0:
448,192,91883,1,0,0:0:0:0:
192,192,91883,128,0,92039:0:0:0:0:
64,192,92039,128,0,92195:0:0:0:0:
320,192,92039,128,0,92195:0:0:0:0:
448,192,92195,128,0,92351:0:0:0:0:
192,192,92195,1,0,0:0:0:0:
64,192,92351,128,0,92508:0:0:0:0:
192,192,92351,128,0,92508:0:0:0:0:
320,192,92508,128,0,92664:0:0:0:0:
448,192,92508,1,0,0:0:0:0:
192,192,92664,128,0,92820:0:0:0:0:
64,192,92664,1,0,0:0:0:0:
320,192,92742,1,0,0:0:0:0:
64,192,92820,128,0,92976:0:0:0:0:
448,192,92820,1,0,0:0:0:0:
448,192,92976,128,0,93133:0:0:0:0:
320,192,92976,1,0,0:0:0:0:
192,192,93054,1,0,0:0:0:0:
64,192,93133,1,0,0:0:0:0:
320,192,93133,128,0,93367:0:0:0:0:
448,192,93289,1,0,0:0:0:0:
192,192,93367,128,0,93601:0:0:0:0:
320,192,93445,1,0,0:0:0:0:
64,192,93445,1,0,0:0:0:0:
448,192,93601,128,0,93758:0:0:0:0:
320,192,93758,128,0,93914:0:0:0:0:
64,192,93758,1,0,0:0:0:0:
192,192,93758,1,0,0:0:0:0:
192,192,93914,128,0,94070:0:0:0:0:
64,192,94070,128,0,94226:0:0:0:0:
448,192,94070,128,0,94226:0:0:0:0:
320,192,94226,128,0,94383:0:0:0:0:
192,192,94226,128,0,94383:0:0:0:0:
448,192,94383,1,0,0:0:0:0:
64,192,94383,1,0,0:0:0:0:
64,192,94539,128,0,94695:0:0:0:0:
448,192,94539,128,0,94695:0:0:0:0:
192,192,94695,128,0,94851:0:0:0:0:
320,192,94851,128,0,95008:0:0:0:0:
448,192,94851,128,0,95008:0:0:0:0:
64,192,95008,1,0,0:0:0:0:
192,192,95164,1,0,0:0:0:0:
320,192,95164,128,0,95320:0:0:0:0:
192,192,95320,128,0,95476:0:0:0:0:
64,192,95320,1,0,0:0:0:0:
448,192,95476,128,0,95633:0:0:0:0:
320,192,95476,1,0,0:0:0:0:
64,192,95554,1,0,0:0:0:0:
320,192,95633,128,0,95867:0:0:0:0:
192,192,95633,1,0,0:0:0:0:
448,192,95789,1,0,0:0:0:0:
64,192,95867,128,0,96023:0:0:0:0:
320,192,95945,1,0,0:0:0:0:
448,192,96023,128,0,96258:0:0:0:0:
192,192,96101,1,0,0:0:0:0:
64,192,96258,128,0,96414:0:0:0:0:
320,192,96258,1,0,0:0:0:0:
192,192,96258,128,0,96414:0:0:0:0:
320,192,96414,128,0,96492:0:0:0:0:
448,192,96492,128,0,96570:0:0:0:0:
64,192,96570,128,0,96726:0:0:0:0:
192,192,96570,128,0,96648:0:0:0:0:
320,192,96648,128,0,96726:0:0:0:0:
448,192,96726,128,0,96883:0:0:0:0:
192,192,96726,128,0,96883:0:0:0:0:
320,192,96883,128,0,97039:0:0:0:0:
64,192,96883,1,0,0:0:0:0:
448,192,97039,128,0,97195:0:0:0:0:
64,192,97039,128,0,97195:0:0:0:0:
192,192,97195,128,0,97351:0:0:0:0:
320,192,97351,128,0,97508:0:0:0:0:
448,192,97351,128,0,97508:0:0:0:0:
192,192,97508,128,0,97664:0:0:0:0:
64,192,97664,128,0,97820:0:0:0:0:
320,192,97664,1,0,0:0:0:0:
448,192,97664,1,0,0:0:0:0:
448,192,97820,128,0,97976:0:0:0:0:
320,192,97976,128,0,98133:0:0:0:0:
64,192,98133,128,0,98445:0:0:0:0:
192,192,98289,1,0,0:0:0:0:
448,192,98289,1,0,0:0:0:0:
320,192,98367,1,0,0:0:0:0:
448,192,98445,128,0,98601:0:0:0:0:
192,192,98549,1,0,0:0:0:0:
320,192,98601,128,0,98758:0:0:0:0:
64,192,98758,128,0,98914:0:0:0:0:
192,192,98758,128,0,98914:0:0:0:0:
448,192,98758,1,0,0:0:0:0:
448,192,99070,128,0,99226:0:0:0:0:
64,192,99070,128,0,99226:0:0:0:0:
320,192,99226,128,0,99539:0:0:0:0:
192,192,99226,128,0,99383:0:0:0:0:
64,192,99383,1,0,0:0:0:0:
448,192,99383,1,0,0:0:0:0:
192,192,99539,128,0,99695:0:0:0:0:
448,192,99539,128,0,99695:0:0:0:0:
64,192,99695,128,0,99851:0:0:0:0:
320,192,99851,128,0,100008:0:0:0:0:
448,192,99851,128,0,100008:0:0:0:0:
192,192,100008,128,0,100164:0:0:0:0:
64,192,100164,128,0,100476:0:0:0:0:
320,192,100164,1,0,0:0:0:0:
448,192,100164,1,0,0:0:0:0:
192,192,100320,1,0,0:0:0:0:
320,192,100320,1,0,0:0:0:0:
320,192,100476,128,0,100633:0:0:0:0:
448,192,100476,1,0,0:0:0:0:
192,192,100554,1,0,0:0:0:0:
448,192,100633,1,0,0:0:0:0:
64,192,100633,1,0,0:0:0:0:
64,192,100789,128,0,100945:0:0:0:0:
192,192,100789,1,0,0:0:0:0:
320,192,100945,128,0,101101:0:0:0:0:
448,192,100945,128,0,101101:0:0:0:0:
192,192,101101,128,0,101258:0:0:0:0:
64,192,101258,128,0,101414:0:0:0:0:
320,192,101258,128,0,101414:0:0:0:0:
448,192,101414,128,0,101570:0:0:0:0:
192,192,101570,128,0,101726:0:0:0:0:
64,192,101570,128,0,101726:0:0:0:0:
320,192,101726,128,0,101883:0:0:0:0:
448,192,101726,128,0,101883:0:0:0:0:
64,192,101883,1,0,0:0:0:0:
192,192,101883,1,0,0:0:0:0:
448,192,102039,128,0,102195:0:0:0:0:
64,192,102039,128,0,102195:0:0:0:0:
320,192,102039,1,0,0:0:0:0:
192,192,102117,1,0,0:0:0:0:
320,192,102195,128,0,102351:0:0:0:0:
64,192,102351,128,0,102508:0:0:0:0:
192,192,102351,128,0,102508:0:0:0:0:
448,192,102351,1,0,0:0:0:0:
320,192,102508,1,0,0:0:0:0:
448,192,102508,1,0,0:0:0:0:
448,192,102664,128,0,102820:0:0:0:0:
64,192,102664,1,0,0:0:0:0:
320,192,102664,1,0,0:0:0:0:
192,192,102742,1,0,0:0:0:0:
64,192,102820,128,0,102976:0:0:0:0:
320,192,102976,128,0,103133:0:0:0:0:
448,192,102976,1,0,0:0:0:0:
192,192,103133,128,0,103289:0:0:0:0:
64,192,103133,1,0,0:0:0:0:
448,192,103133,1,0,0:0:0:0:
448,192,103289,128,0,103601:0:0:0:0:
320,192,103289,1,0,0:0:0:0:
64,192,103445,1,0,0:0:0:0:
192,192,103445,1,0,0:0:0:0:
320,192,103601,1,0,0:0:0:0:
192,192,103601,128,0,103758:0:0:0:0:
448,192,103758,1,0,0:0:0:0:
64,192,103758,1,0,0:0:0:0:
320,192,103758,1,0,0:0:0:0:
448,192,104070,128,0,104383:0:0:0:0:
64,192,104070,1,0,0:0:0:0:
320,192,104148,1,0,0:0:0:0:
64,192,104226,1,0,0:0:0:0:
192,192,104226,1,0,0:0:0:0:
320,192,104304,1,0,0:0:0:0:
192,192,104383,128,0,104695:0:0:0:0:
64,192,104539,1,0,0:0:0:0:
320,192,104539,1,0,0:0:0:0:
64,192,104695,128,0,104851:0:0:0:0:
448,192,104695,1,0,0:0:0:0:
320,192,104695,1,0,0:0:0:0:
192,192,104773,1,0,0:0:0:0:
320,192,104851,128,0,105008:0:0:0:0:
448,192,104851,1,0,0:0:0:0:
192,192,104929,1,0,0:0:0:0:
64,192,105008,128,0,105320:0:0:0:0:
448,192,105008,1,0,0:0:0:0:
192,192,105164,1,0,0:0:0:0:
320,192,105242,1,0,0:0:0:0:
448,192,105320,128,0,105476:0:0:0:0:
192,192,105320,1,0,0:0:0:0:
320,192,105476,128,0,105789:0:0:0:0:
64,192,105476,1,0,0:0:0:0:
448,192,105633,1,0,0:0:0:0:
192,192,105633,1,0,0:0:0:0:
192,192,105789,128,0,105945:0:0:0:0:
64,192,105789,1,0,0:0:0:0:
448,192,105945,1,0,0:0:0:0:
320,192,105945,1,0,0:0:0:0:
64,192,105945,128,0,106258:0:0:0:0:
192,192,106258,1,0,0:0:0:0:
448,192,106258,1,0,0:0:0:0:
320,192,106258,1,0,0:0:0:0:
64,192,106336,1,0,0:0:0:0:
192,192,106414,1,0,0:0:0:0:
448,192,106492,1,0,0:0:0:0:
320,192,106570,128,0,106726:0:0:0:0:
64,192,106570,1,0,0:0:0:0:
192,192,106622,1,0,0:0:0:0:
448,192,106674,1,0,0:0:0:0:
192,192,106726,128,0,106883:0:0:0:0:
64,192,106726,1,0,0:0:0:0:
64,192,106883,128,0,107039:0:0:0:0:
320,192,107039,128,0,107195:0:0:0:0:
192,192,107039,1,0,0:0:0:0:
64,192,107195,128,0,107351:0:0:0:0:
448,192,107195,1,0,0:0:0:0:
192,192,107195,1,0,0:0:0:0:
448,192,107351,1,0,0:0:0:0:
192,192,107351,128,0,107508:0:0:0:0:
320,192,107429,1,0,0:0:0:0:
448,192,107508,128,0,107664:0:0:0:0:
64,192,107508,1,0,0:0:0:0:
192,192,107586,1,0,0:0:0:0:
320,192,107664,1,0,0:0:0:0:
64,192,107742,1,0,0:0:0:0:
320,192,107820,128,0,107976:0:0:0:0:
192,192,107820,1,0,0:0:0:0:
448,192,107820,1,0,0:0:0:0:
64,192,107898,1,0,0:0:0:0:
448,192,107976,128,0,108133:0:0:0:0:
192,192,107976,1,0,0:0:0:0:
320,192,108133,1,0,0:0:0:0:
64,192,108133,1,0,0:0:0:0:
192,192,108289,1,0,0:0:0:0:
320,192,108289,128,0,108445:0:0:0:0:
448,192,108445,128,0,108758:0:0:0:0:
64,192,108445,1,0,0:0:0:0:
192,192,108445,1,0,0:0:0:0:
64,192,108601,1,0,0:0:0:0:
192,192,108679,1,0,0:0:0:0:
320,192,108758,1,0,0:0:0:0:
64,192,108758,1,0,0:0:0:0:
192,192,108836,1,0,0:0:0:0:
448,192,108914,1,0,0:0:0:0:
320,192,108914,1,0,0:0:0:0:
64,192,108992,1,0,0:0:0:0:
192,192,109070,128,0,109383:0:0:0:0:
448,192,109226,1,0,0:0:0:0:
320,192,109383,128,0,109695:0:0:0:0:
448,192,109461,1,0,0:0:0:0:
192,192,109539,1,0,0:0:0:0:
64,192,109539,1,0,0:0:0:0:
192,192,109695,128,0,110008:0:0:0:0:
64,192,109695,1,0,0:0:0:0:
448,192,109695,1,0,0:0:0:0:
320,192,110008,1,0,0:0:0:0:
448,192,110008,1,0,0:0:0:0:
64,192,110008,1,0,0:0:0:0:
64,192,110164,1,0,0:0:0:0:
192,192,110164,1,0,0:0:0:0:
320,192,110242,1,0,0:0:0:0:
448,192,110320,128,0,110633:0:0:0:0:
192,192,110320,1,0,0:0:0:0:
64,192,110476,1,0,0:0:0:0:
192,192,110554,1,0,0:0:0:0:
320,192,110633,1,0,0:0:0:0:
448,192,110711,1,0,0:0:0:0:
192,192,110789,1,0,0:0:0:0:
64,192,110789,1,0,0:0:0:0:
320,192,110867,1,0,0:0:0:0:
192,192,110945,1,0,0:0:0:0:
448,192,110945,1,0,0:0:0:0:
64,192,110945,1,0,0:0:0:0:
448,192,111101,1,0,0:0:0:0:
320,192,111101,1,0,0:0:0:0:
192,192,111179,1,0,0:0:0:0:
448,192,111258,1,0,0:0:0:0:
64,192,111258,1,0,0:0:0:0:
320,192,111258,1,0,0:0:0:0:
192,192,111336,1,0,0:0:0:0:
448,192,111414,1,0,0:0:0:0:
64,192,111414,1,0,0:0:0:0:
320,192,111492,1,0,0:0:0:0:
192,192,111570,1,0,0:0:0:0:
64,192,111570,1,0,0:0:0:0:
448,192,111726,1,0,0:0:0:0:
320,192,111726,1,0,0:0:0:0:
192,192,111726,1,0,0:0:0:0:
64,192,111804,1,0,0:0:0:0:
448,192,111883,1,0,0:0:0:0:
320,192,111883,1,0,0:0:0:0:
192,192,111961,1,0,0:0:0:0:
64,192,112039,1,0,0:0:0:0:
320,192,112039,1,0,0:0:0:0:
192,192,112195,1,0,0:0:0:0:
64,192,112195,1,0,0:0:0:0:
320,192,112273,1,0,0:0:0:0:
192,192,112351,1,0,0:0:0:0:
448,192,112351,1,0,0:0:0:0:
192,192,112508,128,0,112586:0:0:0:0:
64,192,112508,128,0,112586:0:0:0:0:
448,192,112664,128,0,112742:0:0:0:0:
320,192,112664,128,0,112742:0:0:0:0:
448,192,112820,128,0,112898:0:0:0:0:
320,192,112820,128,0,112898:0:0:0:0:
64,192,112976,128,0,113133:0:0:0:0:
320,192,113133,128,0,113289:0:0:0:0:
192,192,113289,128,0,113445:0:0:0:0:
320,192,113445,128,0,113601:0:0:0:0:
448,192,113601,128,0,113758:0:0:0:0:
64,192,113758,1,0,0:0:0:0:
192,192,113758,1,0,0:0:0:0:
320,192,113758,1,0,0:0:0:0:
64,192,113914,1,0,0:0:0:0:
448,192,113914,1,0,0:0:0:0:
192,192,113992,1,0,0:0:0:0:
320,192,114070,1,0,0:0:0:0:
448,192,114070,1,0,0:0:0:0:
64,192,114070,1,0,0:0:0:0:
192,192,114226,1,0,0:0:0:0:
320,192,114226,1,0,0:0:0:0:
448,192,114304,1,0,0:0:0:0:
192,192,114383,1,0,0:0:0:0:
64,192,114383,1,0,0:0:0:0:
320,192,114539,1,0,0:0:0:0:
448,192,114539,1,0,0:0:0:0:
192,192,114617,1,0,0:0:0:0:
448,192,114695,1,0,0:0:0:0:
64,192,114695,1,0,0:0:0:0:
320,192,114695,1,0,0:0:0:0:
320,192,114851,1,0,0:0:0:0:
448,192,114851,1,0,0:0:0:0:
192,192,114851,1,0,0:0:0:0:
192,192,115164,1,0,0:0:0:0:
320,192,115164,1,0,0:0:0:0:
64,192,115242,1,0,0:0:0:0:
192,192,115320,1,0,0:0:0:0:
448,192,115320,1,0,0:0:0:0:
320,192,115320,1,0,0:0:0:0:
64,192,115476,1,0,0:0:0:0:
448,192,115476,1,0,0:0:0:0:
192,192,115554,1,0,0:0:0:0:
448,192,115633,1,0,0:0:0:0:
320,192,115633,1,0,0:0:0:0:
192,192,115789,1,0,0:0:0:0:
320,192,115789,1,0,0:0:0:0:
448,192,115867,1,0,0:0:0:0:
192,192,115945,1,0,0:0:0:0:
64,192,115945,1,0,0:0:0:0:
320,192,115945,1,0,0:0:0:0:
64,192,116101,1,0,0:0:0:0:
448,192,116101,1,0,0:0:0:0:
320,192,116179,1,0,0:0:0:0:
64,192,116258,1,0,0:0:0:0:
192,192,116258,1,0,0:0:0:0:
320,192,116414,1,0,0:0:0:0:
448,192,116414,1,0,0:0:0:0:
192,192,116492,1,0,0:0:0:0:
64,192,116570,1,0,0:0:0:0:
448,192,116570,1,0,0:0:0:0:
320,192,116570,1,0,0:0:0:0:
64,192,116726,1,0,0:0:0:0:
192,192,116726,1,0,0:0:0:0:
320,192,116804,1,0,0:0:0:0:
448,192,116883,1,0,0:0:0:0:
192,192,116883,1,0,0:0:0:0:
448,192,117039,1,0,0:0:0:0:
320,192,117039,1,0,0:0:0:0:
192,192,117117,1,0,0:0:0:0:
320,192,117195,1,0,0:0:0:0:
448,192,117195,1,0,0:0:0:0:
64,192,117195,1,0,0:0:0:0:
64,192,117351,1,0,0:0:0:0:
192,192,117351,1,0,0:0:0:0:
320,192,117351,1,0,0:0:0:0:
192,192,117664,1,0,0:0:0:0:
320,192,117664,1,0,0:0:0:0:
64,192,117820,1,0,0:0:0:0:
448,192,117820,1,0,0:0:0:0:
320,192,117898,1,0,0:0:0:0:
192,192,117898,1,0,0:0:0:0:
64,192,117976,1,0,0:0:0:0:
448,192,117976,1,0,0:0:0:0:
320,192,118054,1,0,0:0:0:0:
192,192,118054,1,0,0:0:0:0:
64,192,118133,1,0,0:0:0:0:
448,192,118133,1,0,0:0:0:0:
320,192,118289,1,0,0:0:0:0:
448,192,118289,1,0,0:0:0:0:
192,192,118289,1,0,0:0:0:0:
64,192,118367,1,0,0:0:0:0:
320,192,118445,1,0,0:0:0:0:
448,192,118445,1,0,0:0:0:0:
192,192,118445,1,0,0:0:0:0:
192,192,118601,1,0,0:0:0:0:
64,192,118601,1,0,0:0:0:0:
192,192,118758,1,0,0:0:0:0:
64,192,118758,1,0,0:0:0:0:
448,192,118758,1,0,0:0:0:0:
320,192,118914,1,0,0:0:0:0:
448,192,118914,1,0,0:0:0:0:
192,192,118992,1,0,0:0:0:0:
64,192,119070,1,0,0:0:0:0:
320,192,119070,1,0,0:0:0:0:
448,192,119070,1,0,0:0:0:0:
192,192,119226,1,0,0:0:0:0:
320,192,119226,1,0,0:0:0:0:
64,192,119304,1,0,0:0:0:0:
192,192,119383,1,0,0:0:0:0:
448,192,119383,1,0,0:0:0:0:
64,192,119539,1,0,0:0:0:0:
320,192,119539,1,0,0:0:0:0:
448,192,119617,1,0,0:0:0:0:
320,192,119695,1,0,0:0:0:0:
192,192,119695,1,0,0:0:0:0:
64,192,119695,1,0,0:0:0:0:
192,192,119851,1,0,0:0:0:0:
64,192,119851,1,0,0:0:0:0:
448,192,119851,1,0,0:0:0:0:
320,192,120164,1,0,0:0:0:0:
64,192,120164,1,0,0:0:0:0:
192,192,120242,1,0,0:0:0:0:
320,192,120320,1,0,0:0:0:0:
448,192,120320,1,0,0:0:0:0:
64,192,120320,1,0,0:0:0:0:
192,192,120476,1,0,0:0:0:0:
448,192,120476,1,0,0:0:0:0:
320,192,120554,1,0,0:0:0:0:
192,192,120633,1,0,0:0:0:0:
64,192,120633,1,0,0:0:0:0:
64,192,120789,1,0,0:0:0:0:
448,192,120789,1,0,0:0:0:0:
192,192,120867,1,0,0:0:0:0:
320,192,120945,1,0,0:0:0:0:
448,192,120945,1,0,0:0:0:0:
64,192,120945,1,0,0:0:0:0:
192,192,121101,1,0,0:0:0:0:
320,192,121101,1,0,0:0:0:0:
448,192,121179,1,0,0:0:0:0:
192,192,121258,1,0,0:0:0:0:
64,192,121258,1,0,0:0:0:0:
64,192,121414,1,0,0:0:0:0:
320,192,121414,1,0,0:0:0:0:
192,192,121492,1,0,0:0:0:0:
64,192,121570,1,0,0:0:0:0:
320,192,121570,1,0,0:0:0:0:
448,192,121570,1,0,0:0:0:0:
192,192,121726,1,0,0:0:0:0:
448,192,121726,1,0,0:0:0:0:
320,192,121804,1,0,0:0:0:0:
192,192,121883,1,0,0:0:0:0:
64,192,121883,1,0,0:0:0:0:
64,192,122039,1,0,0:0:0:0:
448,192,122039,1,0,0:0:0:0:
192,192,122117,1,0,0:0:0:0:
64,192,122195,1,0,0:0:0:0:
320,192,122195,1,0,0:0:0:0:
448,192,122195,1,0,0:0:0:0:
320,192,122351,1,0,0:0:0:0:
448,192,122351,1,0,0:0:0:0:
192,192,122429,1,0,0:0:0:0:
64,192,122508,1,0,0:0:0:0:
320,192,122508,1,0,0:0:0:0:
448,192,122508,1,0,0:0:0:0:
448,192,122664,1,0,0:0:0:0:
64,192,122664,1,0,0:0:0:0:
192,192,122742,1,0,0:0:0:0:
320,192,122742,1,0,0:0:0:0:
64,192,122820,1,0,0:0:0:0:
448,192,122820,1,0,0:0:0:0:
320,192,122898,1,0,0:0:0:0:
64,192,122976,1,0,0:0:0:0:
192,192,122976,1,0,0:0:0:0:
320,192,123054,1,0,0:0:0:0:
448,192,123054,1,0,0:0:0:0:
64,192,123133,1,0,0:0:0:0:
192,192,123133,1,0,0:0:0:0:
448,192,123211,1,0,0:0:0:0:
320,192,123289,1,0,0:0:0:0:
192,192,123289,1,0,0:0:0:0:
64,192,123367,1,0,0:0:0:0:
448,192,123367,1,0,0:0:0:0:
320,192,123445,1,0,0:0:0:0:
192,192,123445,1,0,0:0:0:0:
64,192,123523,1,0,0:0:0:0:
320,192,123601,1,0,0:0:0:0:
448,192,123601,1,0,0:0:0:0:
192,192,123679,1,0,0:0:0:0:
64,192,123758,1,0,0:0:0:0:
320,192,123758,1,0,0:0:0:0:
448,192,123758,1,0,0:0:0:0:
192,192,123914,1,0,0:0:0:0:
448,192,123914,1,0,0:0:0:0:
320,192,123992,1,0,0:0:0:0:
192,192,124070,1,0,0:0:0:0:
64,192,124070,1,0,0:0:0:0:
448,192,124070,1,0,0:0:0:0:
320,192,124226,1,0,0:0:0:0:
64,192,124226,1,0,0:0:0:0:
192,192,124304,1,0,0:0:0:0:
320,192,124383,1,0,0:0:0:0:
448,192,124383,1,0,0:0:0:0:
192,192,124539,1,0,0:0:0:0:
64,192,124539,1,0,0:0:0:0:
320,192,124617,1,0,0:0:0:0:
192,192,124695,1,0,0:0:0:0:
64,192,124695,1,0,0:0:0:0:
448,192,124695,1,0,0:0:0:0:
64,192,124851,1,0,0:0:0:0:
320,192,124851,1,0,0:0:0:0:
448,192,124851,1,0,0:0:0:0:
192,192,125164,1,0,0:0:0:0:
64,192,125164,1,0,0:0:0:0:
320,192,125242,1,0,0:0:0:0:
192,192,125320,1,0,0:0:0:0:
64,192,125320,1,0,0:0:0:0:
448,192,125320,1,0,0:0:0:0:
320,192,125476,1,0,0:0:0:0:
448,192,125476,1,0,0:0:0:0:
192,192,125554,1,0,0:0:0:0:
64,192,125633,1,0,0:0:0:0:
448,192,125633,1,0,0:0:0:0:
320,192,125789,1,0,0:0:0:0:
64,192,125789,1,0,0:0:0:0:
448,192,125867,1,0,0:0:0:0:
320,192,125945,1,0,0:0:0:0:
192,192,125945,1,0,0:0:0:0:
64,192,125945,1,0,0:0:0:0:
192,192,126101,1,0,0:0:0:0:
448,192,126101,1,0,0:0:0:0:
320,192,126179,1,0,0:0:0:0:
64,192,126258,1,0,0:0:0:0:
448,192,126258,1,0,0:0:0:0:
192,192,126414,1,0,0:0:0:0:
320,192,126414,1,0,0:0:0:0:
64,192,126492,1,0,0:0:0:0:
192,192,126570,1,0,0:0:0:0:
448,192,126570,1,0,0:0:0:0:
320,192,126570,1,0,0:0:0:0:
192,192,126726,1,0,0:0:0:0:
448,192,126726,1,0,0:0:0:0:
320,192,126804,1,0,0:0:0:0:
64,192,126883,1,0,0:0:0:0:
192,192,126883,1,0,0:0:0:0:
64,192,127039,1,0,0:0:0:0:
320,192,127039,1,0,0:0:0:0:
192,192,127117,1,0,0:0:0:0:
448,192,127195,1,0,0:0:0:0:
320,192,127195,1,0,0:0:0:0:
64,192,127195,1,0,0:0:0:0:
192,192,127351,1,0,0:0:0:0:
320,192,127351,1,0,0:0:0:0:
448,192,127351,1,0,0:0:0:0:
448,192,127664,1,0,0:0:0:0:
192,192,127664,1,0,0:0:0:0:
320,192,127820,1,0,0:0:0:0:
64,192,127820,1,0,0:0:0:0:
192,192,127898,1,0,0:0:0:0:
448,192,127898,1,0,0:0:0:0:
320,192,127976,1,0,0:0:0:0:
64,192,127976,1,0,0:0:0:0:
192,192,128054,1,0,0:0:0:0:
64,192,128133,1,0,0:0:0:0:
320,192,128133,1,0,0:0:0:0:
448,192,128133,1,0,0:0:0:0:
192,192,128289,1,0,0:0:0:0:
448,192,128289,1,0,0:0:0:0:
320,192,128289,1,0,0:0:0:0:
192,192,128445,1,0,0:0:0:0:
64,192,128445,1,0,0:0:0:0:
320,192,128523,1,0,0:0:0:0:
448,192,128523,1,0,0:0:0:0:
192,192,128601,1,0,0:0:0:0:
64,192,128601,1,0,0:0:0:0:
320,192,128679,1,0,0:0:0:0:
448,192,128758,1,0,0:0:0:0:
64,192,128758,1,0,0:0:0:0:
192,192,128758,1,0,0:0:0:0:
320,192,128914,1,0,0:0:0:0:
448,192,128914,1,0,0:0:0:0:
192,192,128992,1,0,0:0:0:0:
64,192,129070,1,0,0:0:0:0:
320,192,129070,1,0,0:0:0:0:
448,192,129070,1,0,0:0:0:0:
192,192,129226,1,0,0:0:0:0:
64,192,129226,1,0,0:0:0:0:
320,192,129304,1,0,0:0:0:0:
192,192,129383,1,0,0:0:0:0:
448,192,129383,1,0,0:0:0:0:
320,192,129539,1,0,0:0:0:0:
64,192,129539,1,0,0:0:0:0:
192,192,129617,1,0,0:0:0:0:
64,192,129695,1,0,0:0:0:0:
320,192,129695,1,0,0:0:0:0:
448,192,129695,1,0,0:0:0:0:
192,192,129851,1,0,0:0:0:0:
64,192,129851,1,0,0:0:0:0:
448,192,129851,1,0,0:0:0:0:
320,192,130164,1,0,0:0:0:0:
192,192,130164,1,0,0:0:0:0:
64,192,130242,1,0,0:0:0:0:
192,192,130320,1,0,0:0:0:0:
320,192,130320,1,0,0:0:0:0:
448,192,130320,1,0,0:0:0:0:
64,192,130476,1,0,0:0:0:0:
448,192,130476,1,0,0:0:0:0:
320,192,130554,1,0,0:0:0:0:
192,192,130633,1,0,0:0:0:0:
64,192,130633,1,0,0:0:0:0:
320,192,130789,1,0,0:0:0:0:
448,192,130789,1,0,0:0:0:0:
64,192,130789,1,0,0:0:0:0:
192,192,130945,1,0,0:0:0:0:
320,192,130945,1,0,0:0:0:0:
448,192,130945,1,0,0:0:0:0:
192,192,131101,1,0,0:0:0:0:
64,192,131101,1,0,0:0:0:0:
320,192,131179,1,0,0:0:0:0:
192,192,131258,1,0,0:0:0:0:
64,192,131258,1,0,0:0:0:0:
448,192,131258,1,0,0:0:0:0:
320,192,131414,1,0,0:0:0:0:
64,192,131570,1,0,0:0:0:0:
320,192,131570,1,0,0:0:0:0:
448,192,131570,1,0,0:0:0:0:
192,192,131726,1,0,0:0:0:0:
448,192,131726,1,0,0:0:0:0:
192,192,131883,1,0,0:0:0:0:
64,192,131883,1,0,0:0:0:0:
320,192,131883,1,0,0:0:0:0:
64,192,132039,1,0,0:0:0:0:
448,192,132039,1,0,0:0:0:0:
192,192,132195,1,0,0:0:0:0:
320,192,132195,1,0,0:0:0:0:
448,192,132195,1,0,0:0:0:0:
192,192,132351,1,0,0:0:0:0:
64,192,132351,1,0,0:0:0:0:
64,192,132508,1,0,0:0:0:0:
320,192,132508,1,0,0:0:0:0:
448,192,132508,1,0,0:0:0:0:
192,192,132664,1,0,0:0:0:0:
448,192,132664,1,0,0:0:0:0:
320,192,132820,1,0,0:0:0:0:
192,192,132820,1,0,0:0:0:0:
64,192,132820,1,0,0:0:0:0:
64,192,132976,1,0,0:0:0:0:
448,192,132976,1,0,0:0:0:0:
192,192,133133,1,0,0:0:0:0:
320,192,133133,1,0,0:0:0:0:
448,192,133133,1,0,0:0:0:0:
192,192,133289,1,0,0:0:0:0:
64,192,133289,1,0,0:0:0:0:
64,192,133445,1,0,0:0:0:0:
320,192,133445,1,0,0:0:0:0:
448,192,133445,1,0,0:0:0:0:
192,192,133601,1,0,0:0:0:0:
320,192,133601,1,0,0:0:0:0:
192,192,133758,1,0,0:0:0:0:
64,192,133758,1,0,0:0:0:0:
448,192,133758,1,0,0:0:0:0:
448,192,133914,1,0,0:0:0:0:
320,192,134070,1,0,0:0:0:0:
192,192,134070,1,0,0:0:0:0:
64,192,134070,1,0,0:0:0:0:
192,192,134226,1,0,0:0:0:0:
448,192,134226,1,0,0:0:0:0:
64,192,134383,1,0,0:0:0:0:
320,192,134383,1,0,0:0:0:0:
448,192,134383,1,0,0:0:0:0:
192,192,134539,1,0,0:0:0:0:
64,192,134539,1,0,0:0:0:0:
320,192,134695,1,0,0:0:0:0:
448,192,134695,1,0,0:0:0:0:
192,192,134695,1,0,0:0:0:0:
64,192,134851,1,0,0:0:0:0:
320,192,134851,1,0,0:0:0:0:
192,192,135008,1,0,0:0:0:0:
64,192,135008,1,0,0:0:0:0:
448,192,135008,128,0,135164:0:0:0:0:
320,192,135164,1,0,0:0:0:0:
192,192,135320,1,0,0:0:0:0:
64,192,135476,1,0,0:0:0:0:
320,192,135633,128,0,135945:0:0:0:0:
448,192,135945,128,0,136258:0:0:0:0:
192,192,136258,1,0,0:0:0:0:
320,192,136258,1,0,0:0:0:0:
64,192,136258,128,0,136414:0:0:0:0:
320,192,136414,128,0,136492:0:0:0:0:
320,192,136570,128,0,136726:0:0:0:0:
64,192,136726,128,0,136883:0:0:0:0:
320,192,136883,128,0,136961:0:0:0:0:
192,192,136883,1,0,0:0:0:0:
320,192,137039,128,0,137195:0:0:0:0:
64,192,137195,128,0,137351:0:0:0:0:
320,192,137351,128,0,137508:0:0:0:0:
448,192,137508,128,0,137664:0:0:0:0:
192,192,137664,128,0,137820:0:0:0:0:
320,192,137820,128,0,137976:0:0:0:0:
64,192,137976,128,0,138133:0:0:0:0:
448,192,138133,128,0,138289:0:0:0:0:
320,192,138133,1,0,0:0:0:0:
192,192,138289,128,0,138523:0:0:0:0:
192,192,138601,128,0,138758:0:0:0:0:
448,192,138758,1,0,0:0:0:0:
320,192,138758,1,0,0:0:0:0:
64,192,138758,128,0,138836:0:0:0:0:
64,192,138914,128,0,139148:0:0:0:0:
64,192,139226,128,0,139383:0:0:0:0:
448,192,139383,128,0,139539:0:0:0:0:
192,192,139383,1,0,0:0:0:0:
64,192,139539,1,0,0:0:0:0:
320,192,139539,1,0,0:0:0:0:
192,192,139617,1,0,0:0:0:0:
64,192,139695,1,0,0:0:0:0:
448,192,139695,1,0,0:0:0:0:
320,192,139695,1,0,0:0:0:0:
192,192,139773,1,0,0:0:0:0:
320,192,139851,1,0,0:0:0:0:
448,192,139851,1,0,0:0:0:0:
192,192,139929,1,0,0:0:0:0:
448,192,140008,1,0,0:0:0:0:
64,192,140008,1,0,0:0:0:0:
320,192,140008,1,0,0:0:0:0:
192,192,140086,1,0,0:0:0:0:
320,192,140164,1,0,0:0:0:0:
64,192,140242,1,0,0:0:0:0:
448,192,140320,1,0,0:0:0:0:
192,192,140398,1,0,0:0:0:0:
320,192,140476,1,0,0:0:0:0:
64,192,140554,1,0,0:0:0:0:
192,192,140633,1,0,0:0:0:0:
320,192,140633,1,0,0:0:0:0:
448,192,140711,128,0,141258:0:0:0:0:
192,192,141258,1,0,0:0:0:0:
320,192,141258,1,0,0:0:0:0:
64,192,141258,1,0,0:0:0:0:
320,192,141414,1,0,0:0:0:0:
448,192,141570,1,0,0:0:0:0:
320,192,141570,128,0,141648:0:0:0:0:
192,192,141648,128,0,141726:0:0:0:0:
448,192,141726,1,0,0:0:0:0:
64,192,141726,1,0,0:0:0:0:
192,192,141804,1,0,0:0:0:0:
64,192,141883,1,0,0:0:0:0:
448,192,141883,128,0,141961:0:0:0:0:
320,192,141883,1,0,0:0:0:0:
320,192,142039,1,0,0:0:0:0:
192,192,142039,128,0,142117:0:0:0:0:
64,192,142195,1,0,0:0:0:0:
192,192,142195,128,0,142273:0:0:0:0:
320,192,142351,1,0,0:0:0:0:
64,192,142508,1,0,0:0:0:0:
448,192,142508,128,0,142586:0:0:0:0:
320,192,142664,1,0,0:0:0:0:
448,192,142664,1,0,0:0:0:0:
192,192,142742,128,0,142820:0:0:0:0:
64,192,142820,1,0,0:0:0:0:
192,192,142976,1,0,0:0:0:0:
320,192,142976,128,0,143054:0:0:0:0:
192,192,143133,1,0,0:0:0:0:
448,192,143133,1,0,0:0:0:0:
64,192,143133,128,0,143211:0:0:0:0:
320,192,143289,1,0,0:0:0:0:
64,192,143289,128,0,143367:0:0:0:0:
192,192,143445,128,0,143523:0:0:0:0:
64,192,143601,1,0,0:0:0:0:
320,192,143601,128,0,143679:0:0:0:0:
64,192,143758,1,0,0:0:0:0:
192,192,143758,1,0,0:0:0:0:
448,192,143836,1,0,0:0:0:0:
320,192,143914,1,0,0:0:0:0:
192,192,143992,1,0,0:0:0:0:
64,192,144070,1,0,0:0:0:0:
448,192,144226,1,0,0:0:0:0:
320,192,144226,1,0,0:0:0:0:
192,192,144304,1,0,0:0:0:0:
64,192,144383,1,0,0:0:0:0:
448,192,144383,1,0,0:0:0:0:
320,192,144383,1,0,0:0:0:0:
448,192,144461,1,0,0:0:0:0:
192,192,144539,128,0,144617:0:0:0:0:
64,192,144539,128,0,144617:0:0:0:0:
192,192,144695,128,0,144851:0:0:0:0:
64,192,144695,128,0,144773:0:0:0:0:
320,192,144851,1,0,0:0:0:0:
320,192,144929,1,0,0:0:0:0:
192,192,145008,1,0,0:0:0:0:
64,192,145008,1,0,0:0:0:0:
448,192,145086,1,0,0:0:0:0:
320,192,145164,1,0,0:0:0:0:
64,192,145242,1,0,0:0:0:0:
192,192,145242,1,0,0:0:0:0:
320,192,145320,1,0,0:0:0:0:
64,192,145398,1,0,0:0:0:0:
192,192,145476,1,0,0:0:0:0:
448,192,145476,1,0,0:0:0:0:
320,192,145554,1,0,0:0:0:0:
192,192,145633,1,0,0:0:0:0:
64,192,145633,1,0,0:0:0:0:
448,192,145633,1,0,0:0:0:0:
320,192,145711,1,0,0:0:0:0:
192,192,145789,1,0,0:0:0:0:
448,192,145867,1,0,0:0:0:0:
64,192,145945,1,0,0:0:0:0:
192,192,146023,1,0,0:0:0:0:
320,192,146101,1,0,0:0:0:0:
448,192,146179,1,0,0:0:0:0:
192,192,146258,1,0,0:0:0:0:
64,192,146258,1,0,0:0:0:0:
320,192,146258,1,0,0:0:0:0:
320,192,146414,1,0,0:0:0:0:
64,192,146570,1,0,0:0:0:0:
448,192,146570,128,0,146648:0:0:0:0:
320,192,146648,128,0,146726:0:0:0:0:
64,192,146726,1,0,0:0:0:0:
192,192,146726,1,0,0:0:0:0:
320,192,146804,1,0,0:0:0:0:
448,192,146883,1,0,0:0:0:0:
192,192,146883,1,0,0:0:0:0:
64,192,146883,128,0,146961:0:0:0:0:
320,192,147039,1,0,0:0:0:0:
448,192,147039,128,0,147117:0:0:0:0:
64,192,147195,1,0,0:0:0:0:
192,192,147195,128,0,147273:0:0:0:0:
320,192,147351,128,0,147429:0:0:0:0:
192,192,147351,1,0,0:0:0:0:
64,192,147508,1,0,0:0:0:0:
448,192,147508,128,0,147586:0:0:0:0:
320,192,147664,1,0,0:0:0:0:
448,192,147664,1,0,0:0:0:0:
192,192,147742,128,0,147820:0:0:0:0:
64,192,147820,1,0,0:0:0:0:
192,192,147976,1,0,0:0:0:0:
320,192,147976,128,0,148054:0:0:0:0:
192,192,148133,1,0,0:0:0:0:
448,192,148133,1,0,0:0:0:0:
64,192,148133,128,0,148211:0:0:0:0:
320,192,148289,1,0,0:0:0:0:
64,192,148289,128,0,148367:0:0:0:0:
448,192,148445,1,0,0:0:0:0:
192,192,148445,128,0,148523:0:0:0:0:
64,192,148601,1,0,0:0:0:0:
320,192,148601,128,0,148679:0:0:0:0:
64,192,148758,1,0,0:0:0:0:
192,192,148758,1,0,0:0:0:0:
448,192,148836,1,0,0:0:0:0:
320,192,148914,1,0,0:0:0:0:
192,192,148992,1,0,0:0:0:0:
64,192,149070,1,0,0:0:0:0:
448,192,149226,1,0,0:0:0:0:
320,192,149226,1,0,0:0:0:0:
192,192,149304,1,0,0:0:0:0:
64,192,149383,1,0,0:0:0:0:
448,192,149383,1,0,0:0:0:0:
320,192,149383,1,0,0:0:0:0:
448,192,149461,1,0,0:0:0:0:
192,192,149539,128,0,149617:0:0:0:0:
64,192,149539,128,0,149617:0:0:0:0:
192,192,149695,128,0,149851:0:0:0:0:
64,192,149695,128,0,149773:0:0:0:0:
320,192,149851,1,0,0:0:0:0:
320,192,149929,1,0,0:0:0:0:
192,192,150008,1,0,0:0:0:0:
64,192,150008,1,0,0:0:0:0:
320,192,150242,1,0,0:0:0:0:
448,192,150242,1,0,0:0:0:0:
320,192,150476,1,0,0:0:0:0:
448,192,150476,1,0,0:0:0:0:
192,192,150554,1,0,0:0:0:0:
64,192,150633,1,0,0:0:0:0:
448,192,150633,1,0,0:0:0:0:
320,192,150633,1,0,0:0:0:0:
192,192,150737,1,0,0:0:0:0:
64,192,150737,1,0,0:0:0:0:
320,192,150841,1,0,0:0:0:0:
448,192,150841,1,0,0:0:0:0:
192,192,150945,1,0,0:0:0:0:
64,192,150945,1,0,0:0:0:0:
320,192,151049,1,0,0:0:0:0:
448,192,151049,1,0,0:0:0:0:
192,192,151153,1,0,0:0:0:0:
64,192,151153,1,0,0:0:0:0:
64,192,151258,1,0,0:0:0:0:
448,192,151258,1,0,0:0:0:0:
320,192,151258,128,0,153758:0:0:0:0:
448,192,153445,128,0,153758:0:0:0:0:
192,192,153758,1,0,0:0:0:0:
64,192,153758,1,0,0:0:0:0:
448,192,153914,1,0,0:0:0:0:
192,192,154070,1,0,0:0:0:0:
320,192,154226,1,0,0:0:0:0:
64,192,154383,1,0,0:0:0:0:
192,192,154539,1,0,0:0:0:0:
320,192,154695,1,0,0:0:0:0:
64,192,154851,1,0,0:0:0:0:
448,192,154851,1,0,0:0:0:0:
192,192,155008,1,0,0:0:0:0:
320,192,155164,1,0,0:0:0:0:
64,192,155320,1,0,0:0:0:0:
320,192,155476,1,0,0:0:0:0:
448,192,155633,1,0,0:0:0:0:
64,192,155789,1,0,0:0:0:0:
192,192,155945,1,0,0:0:0:0:
448,192,156258,1,0,0:0:0:0:
320,192,156258,1,0,0:0:0:0:
192,192,156414,1,0,0:0:0:0:
64,192,156570,1,0,0:0:0:0:
192,192,156726,1,0,0:0:0:0:
320,192,156883,1,0,0:0:0:0:
64,192,157039,1,0,0:0:0:0:
448,192,157195,1,0,0:0:0:0:
320,192,157351,1,0,0:0:0:0:
192,192,157351,1,0,0:0:0:0:
64,192,157664,1,0,0:0:0:0:
320,192,157820,1,0,0:0:0:0:
448,192,157859,1,0,0:0:0:0:
64,192,157976,1,0,0:0:0:0:
192,192,157976,1,0,0:0:0:0:
192,192,158445,1,0,0:0:0:0:
320,192,158445,1,0,0:0:0:0:
320,192,158758,1,0,0:0:0:0:
448,192,158758,1,0,0:0:0:0:
192,192,158914,1,0,0:0:0:0:
448,192,159070,1,0,0:0:0:0:
64,192,159226,1,0,0:0:0:0:
192,192,159304,1,0,0:0:0:0:
320,192,159383,1,0,0:0:0:0:
448,192,159539,1,0,0:0:0:0:
192,192,159695,1,0,0:0:0:0:
64,192,159851,1,0,0:0:0:0:
448,192,159851,1,0,0:0:0:0:
320,192,160164,128,0,160320:0:0:0:0:
192,192,160320,1,0,0:0:0:0:
64,192,160320,1,0,0:0:0:0:
448,192,160476,128,0,160633:0:0:0:0:
320,192,160633,1,0,0:0:0:0:
64,192,160633,1,0,0:0:0:0:
192,192,160789,128,0,160945:0:0:0:0:
320,192,160945,1,0,0:0:0:0:
448,192,160945,1,0,0:0:0:0:
64,192,161101,128,0,161258:0:0:0:0:
192,192,161258,1,0,0:0:0:0:
320,192,161258,1,0,0:0:0:0:
448,192,161414,128,0,161570:0:0:0:0:
192,192,161570,1,0,0:0:0:0:
64,192,161570,128,0,162351:0:0:0:0:
448,192,161726,1,0,0:0:0:0:
320,192,161883,1,0,0:0:0:0:
192,192,162039,1,0,0:0:0:0:
320,192,162195,1,0,0:0:0:0:
448,192,162195,1,0,0:0:0:0:
192,192,162351,1,0,0:0:0:0:
320,192,162351,1,0,0:0:0:0:
448,192,162351,128,0,162664:0:0:0:0:
192,192,162664,1,0,0:0:0:0:
64,192,162664,1,0,0:0:0:0:
320,192,162820,1,0,0:0:0:0:
448,192,162820,1,0,0:0:0:0:
64,192,162820,1,0,0:0:0:0:
192,192,162976,1,0,0:0:0:0:
448,192,162976,1,0,0:0:0:0:
320,192,163054,1,0,0:0:0:0:
64,192,163054,1,0,0:0:0:0:
192,192,163133,1,0,0:0:0:0:
448,192,163133,1,0,0:0:0:0:
320,192,163211,1,0,0:0:0:0:
192,192,163289,1,0,0:0:0:0:
64,192,163289,1,0,0:0:0:0:
320,192,163367,1,0,0:0:0:0:
192,192,163445,1,0,0:0:0:0:
64,192,163445,1,0,0:0:0:0:
448,192,163445,1,0,0:0:0:0:
64,192,163758,1,0,0:0:0:0:
320,192,163758,1,0,0:0:0:0:
448,192,163758,1,0,0:0:0:0:
192,192,163914,1,0,0:0:0:0:
448,192,163914,1,0,0:0:0:0:
64,192,164070,1,0,0:0:0:0:
192,192,164070,1,0,0:0:0:0:
64,192,164226,1,0,0:0:0:0:
320,192,164226,1,0,0:0:0:0:
320,192,164383,1,0,0:0:0:0:
448,192,164383,1,0,0:0:0:0:
448,192,164539,1,0,0:0:0:0:
192,192,164539,1,0,0:0:0:0:
192,192,164695,1,0,0:0:0:0:
64,192,164695,1,0,0:0:0:0:
320,192,164851,1,0,0:0:0:0:
64,192,164851,1,0,0:0:0:0:
320,192,165008,1,0,0:0:0:0:
448,192,165008,1,0,0:0:0:0:
448,192,165164,1,0,0:0:0:0:
192,192,165164,1,0,0:0:0:0:
192,192,165320,1,0,0:0:0:0:
64,192,165320,1,0,0:0:0:0:
64,192,165476,1,0,0:0:0:0:
320,192,165476,1,0,0:0:0:0:
320,192,165633,1,0,0:0:0:0:
448,192,165633,1,0,0:0:0:0:
448,192,165789,1,0,0:0:0:0:
192,192,165789,1,0,0:0:0:0:
192,192,165945,1,0,0:0:0:0:
64,192,165945,1,0,0:0:0:0:
64,192,166101,1,0,0:0:0:0:
320,192,166101,1,0,0:0:0:0:
192,192,166258,1,0,0:0:0:0:
448,192,166258,1,0,0:0:0:0:
320,192,166414,1,0,0:0:0:0:
192,192,166414,1,0,0:0:0:0:
64,192,166570,1,0,0:0:0:0:
320,192,166570,1,0,0:0:0:0:
320,192,166726,1,0,0:0:0:0:
192,192,166726,1,0,0:0:0:0:
192,192,166883,1,0,0:0:0:0:
448,192,166883,1,0,0:0:0:0:
192,192,167039,1,0,0:0:0:0:
320,192,167039,1,0,0:0:0:0:
320,192,167195,1,0,0:0:0:0:
64,192,167195,1,0,0:0:0:0:
192,192,167351,1,0,0:0:0:0:
320,192,167351,1,0,0:0:0:0:
448,192,167508,1,0,0:0:0:0:
64,192,167508,1,0,0:0:0:0:
192,192,167664,1,0,0:0:0:0:
448,192,167664,1,0,0:0:0:0:
64,192,167820,1,0,0:0:0:0:
448,192,167820,1,0,0:0:0:0:
64,192,167976,1,0,0:0:0:0:
320,192,167976,1,0,0:0:0:0:
448,192,168133,1,0,0:0:0:0:
64,192,168133,1,0,0:0:0:0:
192,192,168289,1,0,0:0:0:0:
448,192,168289,1,0,0:0:0:0:
64,192,168445,1,0,0:0:0:0:
448,192,168445,1,0,0:0:0:0:
320,192,168601,1,0,0:0:0:0:
64,192,168601,1,0,0:0:0:0:
192,192,168758,1,0,0:0:0:0:
64,192,168758,1,0,0:0:0:0:
448,192,168758,1,0,0:0:0:0:
320,192,168836,1,0,0:0:0:0:
64,192,168914,1,0,0:0:0:0:
448,192,168914,1,0,0:0:0:0:
192,192,168992,1,0,0:0:0:0:
320,192,168992,1,0,0:0:0:0:
448,192,169070,1,0,0:0:0:0:
64,192,169070,1,0,0:0:0:0:
192,192,169148,1,0,0:0:0:0:
320,192,169226,1,0,0:0:0:0:
448,192,169226,1,0,0:0:0:0:
192,192,169304,1,0,0:0:0:0:
64,192,169304,1,0,0:0:0:0:
320,192,169383,1,0,0:0:0:0:
448,192,169383,1,0,0:0:0:0:
64,192,169461,1,0,0:0:0:0:
192,192,169539,1,0,0:0:0:0:
320,192,169539,1,0,0:0:0:0:
448,192,169617,1,0,0:0:0:0:
64,192,169617,1,0,0:0:0:0:
320,192,169695,1,0,0:0:0:0:
192,192,169695,1,0,0:0:0:0:
448,192,169773,1,0,0:0:0:0:
192,192,169851,1,0,0:0:0:0:
64,192,169851,1,0,0:0:0:0:
320,192,169929,1,0,0:0:0:0:
448,192,169929,1,0,0:0:0:0:
192,192,170008,1,0,0:0:0:0:
64,192,170008,1,0,0:0:0:0:
320,192,170086,1,0,0:0:0:0:
64,192,170164,1,0,0:0:0:0:
448,192,170164,1,0,0:0:0:0:
320,192,170242,1,0,0:0:0:0:
192,192,170242,1,0,0:0:0:0:
64,192,170320,1,0,0:0:0:0:
448,192,170320,1,0,0:0:0:0:
192,192,170398,1,0,0:0:0:0:
320,192,170476,1,0,0:0:0:0:
448,192,170476,1,0,0:0:0:0:
64,192,170554,1,0,0:0:0:0:
192,192,170554,1,0,0:0:0:0:
320,192,170633,1,0,0:0:0:0:
448,192,170633,1,0,0:0:0:0:
64,192,170711,1,0,0:0:0:0:
320,192,170789,1,0,0:0:0:0:
192,192,170789,1,0,0:0:0:0:
448,192,170867,1,0,0:0:0:0:
64,192,170867,1,0,0:0:0:0:
320,192,170945,1,0,0:0:0:0:
192,192,170945,1,0,0:0:0:0:
448,192,171023,1,0,0:0:0:0:
64,192,171023,1,0,0:0:0:0:
192,192,171101,1,0,0:0:0:0:
320,192,171101,1,0,0:0:0:0:
448,192,171179,1,0,0:0:0:0:
64,192,171179,1,0,0:0:0:0:
192,192,171258,128,0,171336:0:0:0:0:
320,192,171258,128,0,171336:0:0:0:0:
192,192,171414,128,0,171492:0:0:0:0:
320,192,171414,128,0,171492:0:0:0:0:
320,192,171570,1,0,0:0:0:0:
448,192,171570,1,0,0:0:0:0:
64,192,171726,1,0,0:0:0:0:
192,192,171726,1,0,0:0:0:0:
320,192,171804,1,0,0:0:0:0:
64,192,171883,1,0,0:0:0:0:
448,192,171883,1,0,0:0:0:0:
64,192,172195,1,0,0:0:0:0:
320,192,172195,1,0,0:0:0:0:
192,192,172351,1,0,0:0:0:0:
64,192,172508,1,0,0:0:0:0:
448,192,172508,1,0,0:0:0:0:
320,192,172664,1,0,0:0:0:0:
64,192,172820,1,0,0:0:0:0:
192,192,172820,1,0,0:0:0:0:
64,192,172976,1,0,0:0:0:0:
448,192,172976,1,0,0:0:0:0:
192,192,173054,1,0,0:0:0:0:
320,192,173133,1,0,0:0:0:0:
448,192,173133,1,0,0:0:0:0:
192,192,173289,1,0,0:0:0:0:
320,192,173289,1,0,0:0:0:0:
64,192,173445,1,0,0:0:0:0:
192,192,173445,1,0,0:0:0:0:
320,192,173523,1,0,0:0:0:0:
448,192,173601,1,0,0:0:0:0:
192,192,173601,1,0,0:0:0:0:
64,192,173601,1,0,0:0:0:0:
320,192,173758,1,0,0:0:0:0:
64,192,173758,1,0,0:0:0:0:
448,192,174851,1,0,0:0:0:0:
320,192,174851,1,0,0:0:0:0:
64,192,174929,1,0,0:0:0:0:
192,192,174929,1,0,0:0:0:0:
320,192,175008,128,0,175086:0:0:0:0:
448,192,175008,128,0,175086:0:0:0:0:
320,192,175164,128,0,175242:0:0:0:0:
448,192,175164,128,0,175242:0:0:0:0:
448,192,175320,128,0,175633:0:0:0:0:
64,192,175633,128,0,175711:0:0:0:0:
192,192,175633,128,0,175711:0:0:0:0:
64,192,175789,128,0,175867:0:0:0:0:
192,192,175789,128,0,175867:0:0:0:0:
64,192,175945,128,0,176258:0:0:0:0:
448,192,176258,1,0,0:0:0:0:
320,192,176258,1,0,0:0:0:0:
192,192,176336,1,0,0:0:0:0:
64,192,176336,1,0,0:0:0:0:
320,192,176414,1,0,0:0:0:0:
192,192,176492,1,0,0:0:0:0:
64,192,176570,1,0,0:0:0:0:
448,192,176570,1,0,0:0:0:0:
320,192,176570,1,0,0:0:0:0:
64,192,176726,1,0,0:0:0:0:
448,192,176726,1,0,0:0:0:0:
192,192,176804,1,0,0:0:0:0:
64,192,176883,1,0,0:0:0:0:
320,192,176883,1,0,0:0:0:0:
192,192,177039,1,0,0:0:0:0:
448,192,177039,1,0,0:0:0:0:
320,192,177117,1,0,0:0:0:0:
192,192,177195,1,0,0:0:0:0:
64,192,177195,1,0,0:0:0:0:
448,192,177195,1,0,0:0:0:0:
64,192,177351,1,0,0:0:0:0:
448,192,177351,1,0,0:0:0:0:
320,192,177351,1,0,0:0:0:0:
192,192,177664,1,0,0:0:0:0:
64,192,177664,1,0,0:0:0:0:
320,192,177742,1,0,0:0:0:0:
192,192,177820,1,0,0:0:0:0:
64,192,177820,1,0,0:0:0:0:
448,192,177820,1,0,0:0:0:0:
320,192,177976,1,0,0:0:0:0:
448,192,177976,1,0,0:0:0:0:
192,192,178054,1,0,0:0:0:0:
64,192,178133,1,0,0:0:0:0:
320,192,178133,1,0,0:0:0:0:
192,192,178289,1,0,0:0:0:0:
64,192,178289,1,0,0:0:0:0:
320,192,178367,1,0,0:0:0:0:
192,192,178445,1,0,0:0:0:0:
64,192,178445,1,0,0:0:0:0:
448,192,178445,1,0,0:0:0:0:
320,192,178601,1,0,0:0:0:0:
448,192,178601,1,0,0:0:0:0:
64,192,178679,1,0,0:0:0:0:
192,192,178758,1,0,0:0:0:0:
320,192,178758,1,0,0:0:0:0:
448,192,178914,1,0,0:0:0:0:
64,192,178914,1,0,0:0:0:0:
192,192,178992,1,0,0:0:0:0:
64,192,179070,1,0,0:0:0:0:
320,192,179070,1,0,0:0:0:0:
448,192,179070,1,0,0:0:0:0:
192,192,179226,1,0,0:0:0:0:
320,192,179226,1,0,0:0:0:0:
64,192,179304,1,0,0:0:0:0:
192,192,179383,1,0,0:0:0:0:
448,192,179383,1,0,0:0:0:0:
320,192,179539,1,0,0:0:0:0:
448,192,179539,1,0,0:0:0:0:
64,192,179617,1,0,0:0:0:0:
192,192,179695,1,0,0:0:0:0:
320,192,179695,1,0,0:0:0:0:
448,192,179695,1,0,0:0:0:0:
64,192,179851,1,0,0:0:0:0:
192,192,179851,1,0,0:0:0:0:
320,192,179851,1,0,0:0:0:0:
64,192,180164,1,0,0:0:0:0:
448,192,180164,1,0,0:0:0:0:
192,192,180320,1,0,0:0:0:0:
320,192,180320,1,0,0:0:0:0:
64,192,180398,1,0,0:0:0:0:
448,192,180398,1,0,0:0:0:0:
320,192,180476,1,0,0:0:0:0:
192,192,180476,1,0,0:0:0:0:
64,192,180554,1,0,0:0:0:0:
448,192,180554,1,0,0:0:0:0:
320,192,180633,1,0,0:0:0:0:
192,192,180633,1,0,0:0:0:0:
320,192,180789,1,0,0:0:0:0:
448,192,180789,1,0,0:0:0:0:
64,192,180789,1,0,0:0:0:0:
192,192,180867,1,0,0:0:0:0:
320,192,180945,1,0,0:0:0:0:
448,192,180945,1,0,0:0:0:0:
64,192,180945,1,0,0:0:0:0:
192,192,181101,1,0,0:0:0:0:
64,192,181101,1,0,0:0:0:0:
64,192,181258,1,0,0:0:0:0:
320,192,181258,1,0,0:0:0:0:
448,192,181258,1,0,0:0:0:0:
192,192,181414,1,0,0:0:0:0:
448,192,181414,1,0,0:0:0:0:
320,192,181492,1,0,0:0:0:0:
192,192,181570,1,0,0:0:0:0:
64,192,181570,1,0,0:0:0:0:
448,192,181570,1,0,0:0:0:0:
64,192,181726,1,0,0:0:0:0:
320,192,181726,1,0,0:0:0:0:
192,192,181804,1,0,0:0:0:0:
64,192,181883,1,0,0:0:0:0:
448,192,181883,1,0,0:0:0:0:
320,192,182039,1,0,0:0:0:0:
192,192,182039,1,0,0:0:0:0:
448,192,182117,1,0,0:0:0:0:
192,192,182195,1,0,0:0:0:0:
64,192,182195,1,0,0:0:0:0:
320,192,182195,1,0,0:0:0:0:
64,192,182351,1,0,0:0:0:0:
320,192,182351,1,0,0:0:0:0:
448,192,182351,1,0,0:0:0:0:
192,192,182664,1,0,0:0:0:0:
448,192,182664,1,0,0:0:0:0:
320,192,182742,1,0,0:0:0:0:
192,192,182820,1,0,0:0:0:0:
64,192,182820,1,0,0:0:0:0:
448,192,182820,1,0,0:0:0:0:
320,192,182976,1,0,0:0:0:0:
448,192,182976,1,0,0:0:0:0:
192,192,183054,1,0,0:0:0:0:
64,192,183133,1,0,0:0:0:0:
320,192,183133,1,0,0:0:0:0:
192,192,183289,1,0,0:0:0:0:
64,192,183289,1,0,0:0:0:0:
448,192,183367,1,0,0:0:0:0:
320,192,183445,1,0,0:0:0:0:
192,192,183445,1,0,0:0:0:0:
64,192,183445,1,0,0:0:0:0:
320,192,183601,1,0,0:0:0:0:
448,192,183601,1,0,0:0:0:0:
192,192,183679,1,0,0:0:0:0:
64,192,183758,1,0,0:0:0:0:
448,192,183758,1,0,0:0:0:0:
192,192,183914,1,0,0:0:0:0:
64,192,183914,1,0,0:0:0:0:
320,192,183992,1,0,0:0:0:0:
64,192,184070,1,0,0:0:0:0:
448,192,184070,1,0,0:0:0:0:
192,192,184070,1,0,0:0:0:0:
320,192,184226,1,0,0:0:0:0:
192,192,184226,1,0,0:0:0:0:
448,192,184304,1,0,0:0:0:0:
64,192,184383,1,0,0:0:0:0:
320,192,184383,1,0,0:0:0:0:
448,192,184539,1,0,0:0:0:0:
192,192,184539,1,0,0:0:0:0:
64,192,184617,1,0,0:0:0:0:
320,192,184695,1,0,0:0:0:0:
448,192,184695,1,0,0:0:0:0:
192,192,184695,1,0,0:0:0:0:
64,192,184851,1,0,0:0:0:0:
192,192,184851,1,0,0:0:0:0:
320,192,184929,1,0,0:0:0:0:
448,192,185008,1,0,0:0:0:0:
64,192,185008,1,0,0:0:0:0:
192,192,185008,1,0,0:0:0:0:
64,192,185164,1,0,0:0:0:0:
320,192,185164,1,0,0:0:0:0:
192,192,185242,1,0,0:0:0:0:
448,192,185242,1,0,0:0:0:0:
64,192,185320,1,0,0:0:0:0:
320,192,185320,1,0,0:0:0:0:
192,192,185398,1,0,0:0:0:0:
320,192,185476,1,0,0:0:0:0:
448,192,185476,1,0,0:0:0:0:
64,192,185554,1,0,0:0:0:0:
192,192,185554,1,0,0:0:0:0:
448,192,185633,1,0,0:0:0:0:
320,192,185633,1,0,0:0:0:0:
192,192,185711,1,0,0:0:0:0:
64,192,185789,1,0,0:0:0:0:
448,192,185789,1,0,0:0:0:0:
320,192,185867,1,0,0:0:0:0:
192,192,185867,1,0,0:0:0:0:
64,192,185945,1,0,0:0:0:0:
448,192,185945,1,0,0:0:0:0:
320,192,186023,1,0,0:0:0:0:
192,192,186101,1,0,0:0:0:0:
64,192,186101,1,0,0:0:0:0:
320,192,186179,1,0,0:0:0:0:
192,192,186258,1,0,0:0:0:0:
64,192,186258,1,0,0:0:0:0:
448,192,186258,1,0,0:0:0:0:
448,192,186414,1,0,0:0:0:0:
320,192,186414,1,0,0:0:0:0:
64,192,186492,1,0,0:0:0:0:
192,192,186570,1,0,0:0:0:0:
320,192,186570,1,0,0:0:0:0:
448,192,186570,1,0,0:0:0:0:
64,192,186726,1,0,0:0:0:0:
320,192,186726,1,0,0:0:0:0:
192,192,186804,1,0,0:0:0:0:
64,192,186883,1,0,0:0:0:0:
448,192,186883,1,0,0:0:0:0:
320,192,187039,1,0,0:0:0:0:
448,192,187039,1,0,0:0:0:0:
192,192,187117,1,0,0:0:0:0:
64,192,187195,1,0,0:0:0:0:
320,192,187195,1,0,0:0:0:0:
448,192,187195,1,0,0:0:0:0:
192,192,187351,1,0,0:0:0:0:
64,192,187351,1,0,0:0:0:0:
320,192,187351,1,0,0:0:0:0:
192,192,187664,1,0,0:0:0:0:
448,192,187664,1,0,0:0:0:0:
320,192,187742,1,0,0:0:0:0:
192,192,187820,1,0,0:0:0:0:
64,192,187820,1,0,0:0:0:0:
448,192,187820,1,0,0:0:0:0:
64,192,187976,1,0,0:0:0:0:
320,192,187976,1,0,0:0:0:0:
192,192,188054,1,0,0:0:0:0:
320,192,188133,1,0,0:0:0:0:
448,192,188133,1,0,0:0:0:0:
64,192,188289,1,0,0:0:0:0:
192,192,188289,1,0,0:0:0:0:
320,192,188367,1,0,0:0:0:0:
64,192,188445,1,0,0:0:0:0:
448,192,188445,1,0,0:0:0:0:
192,192,188445,1,0,0:0:0:0:
320,192,188601,1,0,0:0:0:0:
448,192,188601,1,0,0:0:0:0:
64,192,188679,1,0,0:0:0:0:
192,192,188758,1,0,0:0:0:0:
448,192,188758,1,0,0:0:0:0:
64,192,188914,1,0,0:0:0:0:
320,192,188914,1,0,0:0:0:0:
448,192,188992,1,0,0:0:0:0:
320,192,189070,1,0,0:0:0:0:
192,192,189070,1,0,0:0:0:0:
64,192,189070,1,0,0:0:0:0:
192,192,189226,1,0,0:0:0:0:
448,192,189226,1,0,0:0:0:0:
320,192,189304,1,0,0:0:0:0:
64,192,189383,1,0,0:0:0:0:
448,192,189383,1,0,0:0:0:0:
64,192,189539,1,0,0:0:0:0:
320,192,189539,1,0,0:0:0:0:
192,192,189617,1,0,0:0:0:0:
320,192,189695,1,0,0:0:0:0:
448,192,189695,1,0,0:0:0:0:
64,192,189695,1,0,0:0:0:0:
192,192,189851,1,0,0:0:0:0:
320,192,189851,1,0,0:0:0:0:
448,192,189851,1,0,0:0:0:0:
192,192,190164,1,0,0:0:0:0:
64,192,190164,1,0,0:0:0:0:
320,192,190242,1,0,0:0:0:0:
64,192,190320,1,0,0:0:0:0:
448,192,190320,1,0,0:0:0:0:
320,192,190398,1,0,0:0:0:0:
192,192,190398,1,0,0:0:0:0:
64,192,190476,1,0,0:0:0:0:
448,192,190476,1,0,0:0:0:0:
192,192,190554,1,0,0:0:0:0:
320,192,190554,1,0,0:0:0:0:
64,192,190633,1,0,0:0:0:0:
448,192,190633,1,0,0:0:0:0:
192,192,190789,1,0,0:0:0:0:
320,192,190789,1,0,0:0:0:0:
320,192,190945,1,0,0:0:0:0:
448,192,190945,1,0,0:0:0:0:
192,192,191023,1,0,0:0:0:0:
64,192,191023,1,0,0:0:0:0:
320,192,191101,1,0,0:0:0:0:
448,192,191101,1,0,0:0:0:0:
192,192,191179,1,0,0:0:0:0:
320,192,191258,1,0,0:0:0:0:
448,192,191258,1,0,0:0:0:0:
64,192,191258,1,0,0:0:0:0:
64,192,191414,1,0,0:0:0:0:
192,192,191414,1,0,0:0:0:0:
320,192,191492,1,0,0:0:0:0:
64,192,191570,1,0,0:0:0:0:
448,192,191570,1,0,0:0:0:0:
192,192,191570,1,0,0:0:0:0:
320,192,191726,1,0,0:0:0:0:
448,192,191726,1,0,0:0:0:0:
64,192,191804,1,0,0:0:0:0:
192,192,191883,1,0,0:0:0:0:
448,192,191883,1,0,0:0:0:0:
320,192,192039,1,0,0:0:0:0:
64,192,192039,1,0,0:0:0:0:
448,192,192117,1,0,0:0:0:0:
192,192,192195,1,0,0:0:0:0:
320,192,192195,1,0,0:0:0:0:
64,192,192195,1,0,0:0:0:0:
192,192,192351,1,0,0:0:0:0:
64,192,192351,1,0,0:0:0:0:
448,192,192351,1,0,0:0:0:0:
320,192,192664,1,0,0:0:0:0:
448,192,192664,1,0,0:0:0:0:
64,192,192742,1,0,0:0:0:0:
192,192,192820,1,0,0:0:0:0:
320,192,192820,1,0,0:0:0:0:
448,192,192820,1,0,0:0:0:0:
64,192,192976,1,0,0:0:0:0:
448,192,192976,1,0,0:0:0:0:
320,192,193054,1,0,0:0:0:0:
192,192,193133,1,0,0:0:0:0:
64,192,193133,1,0,0:0:0:0:
320,192,193289,1,0,0:0:0:0:
192,192,193289,1,0,0:0:0:0:
448,192,193289,1,0,0:0:0:0:
320,192,193445,1,0,0:0:0:0:
448,192,193445,1,0,0:0:0:0:
64,192,193445,1,0,0:0:0:0:
64,192,193601,1,0,0:0:0:0:
192,192,193601,1,0,0:0:0:0:
64,192,193758,1,0,0:0:0:0:
320,192,193758,1,0,0:0:0:0:
448,192,193758,1,0,0:0:0:0:
320,192,193914,1,0,0:0:0:0:
192,192,194070,1,0,0:0:0:0:
64,192,194070,1,0,0:0:0:0:
448,192,194070,1,0,0:0:0:0:
320,192,194226,1,0,0:0:0:0:
448,192,194226,1,0,0:0:0:0:
192,192,194383,1,0,0:0:0:0:
64,192,194383,1,0,0:0:0:0:
320,192,194383,1,0,0:0:0:0:
64,192,194539,1,0,0:0:0:0:
448,192,194539,1,0,0:0:0:0:
192,192,194695,1,0,0:0:0:0:
320,192,194695,1,0,0:0:0:0:
448,192,194695,1,0,0:0:0:0:
192,192,194851,1,0,0:0:0:0:
64,192,194851,1,0,0:0:0:0:
64,192,195008,1,0,0:0:0:0:
320,192,195008,1,0,0:0:0:0:
448,192,195008,1,0,0:0:0:0:
192,192,195164,1,0,0:0:0:0:
448,192,195164,1,0,0:0:0:0:
64,192,195320,1,0,0:0:0:0:
192,192,195320,1,0,0:0:0:0:
320,192,195320,1,0,0:0:0:0:
448,192,195476,1,0,0:0:0:0:
320,192,195476,1,0,0:0:0:0:
192,192,195633,1,0,0:0:0:0:
448,192,195633,1,0,0:0:0:0:
64,192,195633,1,0,0:0:0:0:
320,192,195789,1,0,0:0:0:0:
64,192,195789,1,0,0:0:0:0:
192,192,195945,1,0,0:0:0:0:
320,192,195945,1,0,0:0:0:0:
448,192,195945,1,0,0:0:0:0:
192,192,196101,1,0,0:0:0:0:
64,192,196101,1,0,0:0:0:0:
64,192,196258,1,0,0:0:0:0:
320,192,196258,1,0,0:0:0:0:
448,192,196258,1,0,0:0:0:0:
448,192,196414,1,0,0:0:0:0:
64,192,196570,1,0,0:0:0:0:
192,192,196570,1,0,0:0:0:0:
320,192,196570,1,0,0:0:0:0:
192,192,196726,1,0,0:0:0:0:
448,192,196726,1,0,0:0:0:0:
64,192,196883,1,0,0:0:0:0:
320,192,196883,1,0,0:0:0:0:
448,192,196883,1,0,0:0:0:0:
192,192,197039,1,0,0:0:0:0:
64,192,197039,1,0,0:0:0:0:
64,192,197195,1,0,0:0:0:0:
448,192,197195,1,0,0:0:0:0:
320,192,197195,1,0,0:0:0:0:
192,192,197273,1,0,0:0:0:0:
320,192,197351,1,0,0:0:0:0:
64,192,197429,1,0,0:0:0:0:
192,192,197508,1,0,0:0:0:0:
320,192,197508,1,0,0:0:0:0:
448,192,197508,1,0,0:0:0:0:
192,192,197664,1,0,0:0:0:0:
64,192,197664,1,0,0:0:0:0:
64,192,197820,1,0,0:0:0:0:
320,192,197820,1,0,0:0:0:0:
448,192,197820,1,0,0:0:0:0:
192,192,197976,1,0,0:0:0:0:
448,192,197976,1,0,0:0:0:0:
64,192,198133,1,0,0:0:0:0:
192,192,198133,1,0,0:0:0:0:
320,192,198289,1,0,0:0:0:0:
64,192,198289,1,0,0:0:0:0:
320,192,198445,1,0,0:0:0:0:
448,192,198445,1,0,0:0:0:0:
192,192,198445,1,0,0:0:0:0:
192,192,198601,1,0,0:0:0:0:
64,192,198601,1,0,0:0:0:0:
64,192,198758,1,0,0:0:0:0:
320,192,198758,1,0,0:0:0:0:
448,192,198758,1,0,0:0:0:0:
448,192,198914,1,0,0:0:0:0:
192,192,199070,1,0,0:0:0:0:
64,192,199070,1,0,0:0:0:0:
320,192,199070,1,0,0:0:0:0:
192,192,199226,1,0,0:0:0:0:
448,192,199226,1,0,0:0:0:0:
64,192,199383,1,0,0:0:0:0:
320,192,199383,1,0,0:0:0:0:
448,192,199383,1,0,0:0:0:0:
192,192,199539,1,0,0:0:0:0:
64,192,199539,1,0,0:0:0:0:
320,192,199695,1,0,0:0:0:0:
64,192,199695,1,0,0:0:0:0:
448,192,199695,1,0,0:0:0:0:
192,192,199851,1,0,0:0:0:0:
448,192,199851,1,0,0:0:0:0:
320,192,200008,1,0,0:0:0:0:
192,192,200008,1,0,0:0:0:0:
64,192,200008,1,0,0:0:0:0:
320,192,200164,1,0,0:0:0:0:
448,192,200164,1,0,0:0:0:0:
192,192,200320,1,0,0:0:0:0:
64,192,200320,1,0,0:0:0:0:
448,192,200320,1,0,0:0:0:0:
64,192,200476,1,0,0:0:0:0:
320,192,200476,1,0,0:0:0:0:
448,192,200633,1,0,0:0:0:0:
192,192,200633,1,0,0:0:0:0:
320,192,200633,1,0,0:0:0:0:
192,192,200789,1,0,0:0:0:0:
64,192,200789,1,0,0:0:0:0:
64,192,200945,1,0,0:0:0:0:
320,192,200945,1,0,0:0:0:0:
448,192,200945,1,0,0:0:0:0:
192,192,201101,1,0,0:0:0:0:
320,192,201101,1,0,0:0:0:0:
448,192,201258,1,0,0:0:0:0:
64,192,201258,1,0,0:0:0:0:
192,192,201258,1,0,0:0:0:0:
320,192,201336,1,0,0:0:0:0:
192,192,201414,1,0,0:0:0:0:
64,192,201414,1,0,0:0:0:0:
320,192,201492,1,0,0:0:0:0:
64,192,201570,1,0,0:0:0:0:
448,192,201570,1,0,0:0:0:0:
192,192,201570,1,0,0:0:0:0:
64,192,201726,1,0,0:0:0:0:
448,192,201726,1,0,0:0:0:0:
320,192,201726,1,0,0:0:0:0:
320,192,201883,1,0,0:0:0:0:
192,192,201883,1,0,0:0:0:0:
448,192,202039,1,0,0:0:0:0:
320,192,202039,1,0,0:0:0:0:
192,192,202117,1,0,0:0:0:0:
64,192,202117,1,0,0:0:0:0:
448,192,202195,1,0,0:0:0:0:
64,192,202273,1,0,0:0:0:0:
320,192,202351,1,0,0:0:0:0:
448,192,202351,1,0,0:0:0:0:
192,192,202429,1,0,0:0:0:0:
64,192,202429,1,0,0:0:0:0:
448,192,202508,1,0,0:0:0:0:
320,192,202508,1,0,0:0:0:0:
192,192,202664,1,0,0:0:0:0:
320,192,202664,1,0,0:0:0:0:
64,192,202664,1,0,0:0:0:0:
192,192,202820,1,0,0:0:0:0:
64,192,202820,1,0,0:0:0:0:
448,192,202820,1,0,0:0:0:0:
448,192,202976,1,0,0:0:0:0:
320,192,202976,1,0,0:0:0:0:
64,192,203133,128,0,203289:0:0:0:0:
320,192,203133,1,0,0:0:0:0:
192,192,203289,128,0,203445:0:0:0:0:
448,192,203289,1,0,0:0:0:0:
320,192,203445,128,0,203601:0:0:0:0:
64,192,203445,1,0,0:0:0:0:
448,192,203601,128,0,203758:0:0:0:0:
192,192,203601,1,0,0:0:0:0:
64,192,203758,128,0,205789:0:0:0:0:
320,192,205789,1,0,0:0:0:0:
448,192,205789,1,0,0:0:0:0:
192,192,205867,1,0,0:0:0:0:
64,192,205945,1,0,0:0:0:0:
320,192,205945,1,0,0:0:0:0:
448,192,205945,1,0,0:0:0:0:
448,192,206101,1,0,0:0:0:0:
64,192,206101,1,0,0:0:0:0:
320,192,206101,1,0,0:0:0:0:
