osu file format v14

[General]
AudioFilename: audio.ogg
AudioLeadIn: 0
PreviewTime: 150120
Countdown: 0
SampleSet: Soft
StackLeniency: 0.7
Mode: 0
LetterboxInBreaks: 0
WidescreenStoryboard: 1

[Editor]
Bookmarks: 21325,26721,28231,35138,48951,55857,62764,76577,90390,107656,121469,128375,135282,149095,150821,162908,165929,178447,192260,198088,206073
DistanceSpacing: 0.1
BeatDivisor: 4
GridSize: 32
TimelineZoom: 2.799999

[Metadata]
Title:Ai Kotoba IV feat. Hatsune Miku
TitleUnicode:愛言葉Ⅳ feat. 初音ミク
Artist:DECO*27
ArtistUnicode:DECO*27
Creator:[Hatsune Miku]
Version:XLT's Insane
Source:
Tags:VOCALOID japanese jpop j-pop pop X Light Surou kanor
BeatmapID:3804248
BeatmapSetID:1772712

[Difficulty]
HPDrainRate:5
CircleSize:4
OverallDifficulty:7
ApproachRate:8
SliderMultiplier:1.8
SliderTickRate:1

[Events]
//Background and Video events
0,0,"bg.jpg",0,0
//Break Periods
2,121615,134262
//Storyboard Layer 0 (Background)
//Storyboard Layer 1 (Fail)
//Storyboard Layer 2 (Pass)
//Storyboard Layer 3 (Foreground)
//Storyboard Layer 4 (Overlay)
//Storyboard Sound Samples

[TimingPoints]
552,431.654676258993,4,2,1,60,1,0
3789,-100,4,2,2,60,0,0
5947,-100,4,2,1,60,0,0
7458,-100,4,2,3,70,0,0
21271,-133.333333333333,4,2,1,40,0,0
28177,-83.3333333333333,4,2,1,50,0,0
29472,-100,4,2,1,50,0,0
32494,-83.3333333333333,4,2,1,50,0,0
32926,-100,4,2,1,50,0,0
35084,-100,4,2,2,70,0,0
48897,-100,4,2,1,60,0,0
50300,-100,4,2,1,5,0,0
50408,-100,4,2,1,60,0,0
54293,-100,4,2,1,5,0,0
54400,-100,4,2,1,60,0,0
55803,-100,4,2,1,70,0,0
59257,-100,4,2,1,60,0,0
60120,-100,4,2,1,75,0,0
62710,-100,4,2,3,90,0,0
76091,-100,4,2,1,70,0,0
76523,-100,4,2,3,90,0,0
88177,-100,4,2,1,90,0,0
88501,-100,4,2,1,5,0,0
88609,-100,4,2,1,90,0,0
90336,-133.333333333333,4,2,1,80,0,0
90983,-100,4,2,1,80,0,0
91631,-83.3333333333333,4,2,1,80,0,0
92926,-100,4,2,1,80,0,0
93789,-133.333333333333,4,2,1,60,0,0
107170,-100,4,2,1,60,0,0
107602,-100,4,2,1,70,0,0
114508,-100,4,2,1,70,0,0
121415,-100,4,2,1,60,0,0
131775,-100,4,2,1,70,0,0
133501,-100,4,2,1,80,0,0
134364,-100,4,2,1,40,0,0
135228,-100,4,2,2,70,0,0
142350,-100,4,3,2,80,0,0
149041,-100,4,2,1,40,0,0
150120,-100,4,2,1,45,0,0
150336,-100,4,2,1,50,0,0
150552,-100,4,2,1,55,0,0
150767,-100,4,2,3,90,0,0
164149,-100,4,2,1,70,0,0
164580,-100,4,2,3,90,0,0
176235,-100,4,2,1,50,0,0
176451,-100,4,2,1,60,0,0
176667,-100,4,2,1,70,0,0
176882,-100,4,2,1,80,0,0
177746,-86.9565217391304,4,2,1,80,0,0
178285,-86.9565217391304,4,2,1,5,0,0
178393,-86.9565217391304,4,2,2,90,0,0
191775,-100,4,2,2,90,0,0
192206,-166.666666666667,4,2,2,90,0,0
192638,-166.666666666667,4,2,1,90,0,0
192962,-166.666666666667,4,2,2,90,0,0
193069,-90.9090909090909,4,2,2,90,0,0
195767,-90.9090909090909,4,2,2,5,0,0
195875,-90.9090909090909,4,2,2,90,0,0
201271,-100,4,2,2,90,0,0
206019,-100,4,2,2,60,0,0
209472,-133.333333333333,4,2,2,60,0,0
215947,-100,4,2,2,90,0,0

[Colours]
Combo1 : 255,223,125
Combo2 : 255,170,213
Combo3 : 150,225,254
Combo4 : 248,116,136

[HitObjects]
129,122,5947,5,4,1:2:0:0:
282,177,6163,1,4,1:2:0:0:
165,214,6379,5,0,0:0:0:0:
165,214,6487,1,0,0:0:0:0:
165,214,6595,1,4,1:2:0:0:
197,70,6810,1,4,1:2:0:0:
72,173,7026,6,0,P|11:200|0:264,1,135
21,332,7458,5,4,3:2:0:0:
104,299,7674,1,2,0:0:0:0:
47,234,7890,5,0,1:0:0:0:
190,309,8105,1,2,0:0:0:0:
119,189,8321,5,0,3:0:0:0:
170,60,8537,1,2,0:0:0:0:
82,29,8753,5,0,1:0:0:0:
188,145,8969,2,0,P|243:128|278:120,1,90,2|0,0:0|3:0,0:0:0:0:
440,138,9400,6,0,P|476:105|457:55,1,90,2|0,0:0|1:0,0:0:0:0:
380,10,9832,2,0,P|344:43|363:93,1,90,2|0,0:0|3:0,0:0:0:0:
424,243,10264,6,0,P|465:225|510:217,1,90,2|0,0:2|1:0,0:0:0:0:
334,187,10695,1,2,0:0:0:0:
385,310,10911,5,0,3:0:0:0:
417,155,11127,1,2,0:0:0:0:
311,272,11343,5,0,1:0:0:0:
464,355,11559,1,2,0:0:0:0:
424,243,11775,5,0,3:0:0:0:
320,360,11990,1,2,0:0:0:0:
160,332,12206,5,0,1:0:0:0:
235,379,12422,2,0,P|241:325|255:272,1,90,2|0,0:0|3:0,0:0:0:0:
85,158,12854,6,0,P|28:172|6:201,1,90,2|0,0:0|1:0,0:0:0:0:
54,290,13285,2,0,P|111:276|133:247,1,90,2|0,0:0|3:0,0:0:0:0:
213,86,13717,5,2,0:0:0:0:
213,86,13825,1,0,0:0:0:0:
213,86,13933,2,0,P|206:135|204:177,1,90,2|2,1:2|1:2,0:0:0:0:
359,302,14364,5,0,3:0:0:0:
243,284,14580,1,2,0:0:0:0:
255,257,14688,1,0,0:0:0:0:
278,237,14796,1,0,1:0:0:0:
304,146,15012,1,2,0:0:0:0:
209,179,15228,5,0,3:0:0:0:
209,179,15444,1,2,0:0:0:0:
351,246,15659,1,0,1:0:0:0:
386,103,15875,6,0,P|327:112|297:141,1,90,2|0,0:0|3:0,0:0:0:0:
164,233,16307,2,0,P|80:213|64:193,1,90,2|0,0:0|1:0,0:0:0:0:
195,358,16739,2,0,P|279:378|295:398,1,90,2|4,0:0|1:2,0:0:0:0:
33,342,17170,6,0,P|97:325|141:305,1,90,2|4,0:0|1:2,0:0:0:0:
223,241,17602,1,2,0:0:0:0:
195,358,17818,5,0,3:0:0:0:
88,211,18034,1,2,0:0:0:0:
118,216,18141,1,0,0:0:0:0:
140,237,18249,1,0,1:0:0:0:
175,151,18465,1,2,0:0:0:0:
78,296,18681,5,0,3:0:0:0:
0,212,18897,1,2,0:0:0:0:
0,212,19113,1,0,1:0:0:0:
171,256,19328,6,0,P|161:318|158:361,1,90,2|0,0:0|3:0,0:0:0:0:
268,308,19760,2,0,P|285:354|325:373,1,90,2|0,0:0|1:0,0:0:0:0:
369,288,20192,2,0,P|416:260|420:200,1,90,2|0,0:0|3:0,0:0:0:0:
344,154,20623,1,2,1:2:0:0:
394,76,20839,5,0,1:0:0:0:
406,47,20947,1,0,0:0:0:0:
430,26,21055,1,2,1:2:0:0:
461,21,21163,1,0,0:0:0:0:
493,30,21271,2,0,P|481:91|476:110,1,67.5000025749208,4|0,3:2|0:0,0:0:0:0:
500,202,21703,5,0,3:0:0:0:
401,119,21918,2,0,P|462:146|500:202,1,135.000005149842
422,272,22566,2,0,P|360:288|349:295,1,67.5000025749208,0|0,3:0|0:0,0:0:0:0:
251,354,22998,5,0,3:0:0:0:
324,364,23213,1,0,0:0:0:0:
282,271,23429,5,0,3:0:0:0:
219,232,23644,1,0,0:0:0:0:
169,287,23861,2,0,P|142:328|77:338,1,101.250003862381,0|0,3:0|0:0,0:0:0:0:
80,334,24293,2,0,P|38:342|11:347,1,67.5000025749208,0|0,3:0|0:0,0:0:0:0:
35,238,24724,6,0,L|60:175,1,67.5000025749208,0|0,3:0|0:0,0:0:0:0:
46,71,25156,1,0,3:0:0:0:
132,152,25372,2,0,P|107:92|45:70,1,135.000005149842
171,37,26019,2,0,P|214:28|239:19,1,67.5000025749208,0|0,3:0|0:0,0:0:0:0:
285,97,26451,5,0,3:0:0:0:
246,160,26667,1,2,0:0:0:0:
175,219,26882,5,0,0:0:0:0:
228,271,27098,1,0,0:0:0:0:
169,347,27314,5,2,3:2:0:0:
175,355,27422,1,2,0:0:0:0:
250,375,27638,5,2,0:0:0:0:
255,365,27746,2,0,P|294:348|353:333,1,101.250003862381,2|0,3:2|0:0,0:0:0:0:
394,268,28177,6,0,P|454:292|479:349,1,107.999996704102,2|0,3:2|0:0,0:0:0:0:
466,353,28501,1,0,0:0:0:0:
466,353,28609,1,2,3:2:0:0:
357,333,28825,1,0,0:0:0:0:
422,270,29041,6,0,P|431:192|458:111,1,161.999995056153,2|2,3:2|0:0,0:0:0:0:
471,119,29472,2,0,P|458:56|447:18,1,90,0|2,3:0|0:0,0:0:0:0:
243,33,29904,5,0,3:0:0:0:
299,91,30120,1,2,0:0:0:0:
379,128,30336,5,2,3:2:0:0:
252,205,30552,1,2,0:0:0:0:
416,254,30767,6,0,P|372:245|340:215,1,90,2|0,3:2|0:0,0:0:0:0:
201,128,31199,2,0,P|137:152|104:161,1,90,2|2,3:2|0:0,0:0:0:0:
9,104,31631,6,0,P|-5:67|55:17,1,90,2|0,3:2|0:0,0:0:0:0:
50,28,31954,1,0,0:0:0:0:
50,28,32062,1,2,3:2:0:0:
136,82,32278,1,0,0:0:0:0:
0,184,32494,6,0,P|42:249|74:341,1,161.999995056153,2|0,3:2|0:0,0:0:0:0:
61,344,32926,1,2,3:2:0:0:
185,381,33141,1,2,0:0:0:0:
139,287,33357,5,10,3:2:0:0:
139,287,33465,2,0,P|147:209|150:166,1,90,10|2,3:2|0:0,0:0:0:0:
226,173,33789,1,8,3:2:0:0:
226,173,33897,2,0,P|242:239|252:276,1,90,8|0,3:2|0:0,0:0:0:0:
325,239,34221,5,10,3:2:0:0:
327,221,34328,1,8,0:0:0:0:
329,203,34436,1,8,0:0:0:0:
405,166,34652,6,0,L|420:209,1,45,8|0,3:2|0:0,0:0:0:0:
500,216,34868,2,0,L|503:169,1,45,10|10,0:0|0:0,0:0:0:0:
483,294,35084,6,0,P|403:337|421:376,1,135,6|0,3:2|0:0,0:0:0:0:
421,376,35516,2,0,P|373:340|336:353,1,90,10|0,3:2|0:0,0:0:0:0:
172,347,35947,5,2,0:0:0:0:
292,287,36163,1,2,0:0:0:0:
262,376,36379,5,8,3:2:0:0:
262,376,36595,1,2,0:0:0:0:
193,256,36810,2,0,P|170:196|151:153,1,90,0|2,3:0|0:0,0:0:0:0:
201,53,37242,5,8,3:2:0:0:
76,69,37458,2,0,P|143:76|260:164,1,180,2|2,0:0|0:0,0:0:0:0:
411,91,38105,2,0,P|456:66|455:20,1,90,8|2,0:0|0:0,0:0:0:0:
338,25,38537,6,0,P|315:123|306:191,1,135,2|0,3:2|0:0,0:0:0:0:
296,173,38969,2,0,P|312:221|318:270,1,90,10|0,3:2|0:0,0:0:0:0:
183,355,39400,5,2,3:2:0:0:
125,293,39616,1,2,0:0:0:0:
197,237,39832,1,8,3:2:0:0:
293,380,40048,6,0,B|349:363|349:363|368:309|368:309|435:292,1,180,2|2,0:0|0:0,0:0:0:0:
512,326,40695,5,8,3:2:0:0:
350,230,40911,2,0,B|327:188|327:188|344:142,1,90,2|0,0:0|3:0,0:0:0:0:
408,91,41343,5,2,0:0:0:0:
445,210,41559,2,0,P|431:271|423:319,1,90,8|2,3:2|0:0,0:0:0:0:
291,316,41990,6,0,P|218:314|165:252,1,135,2|0,3:2|0:0,0:0:0:0:
159,265,42422,2,0,P|185:316|169:359,1,90,10|0,3:2|0:0,0:0:0:0:
16,271,42854,5,2,3:2:0:0:
125,172,43070,1,2,0:0:0:0:
0,172,43286,5,8,3:2:0:0:
92,241,43502,1,2,0:0:0:0:
63,121,43717,2,0,P|77:80|81:27,1,90,0|2,3:0|0:0,0:0:0:0:
149,173,44149,5,8,3:2:0:0:
157,88,44365,2,0,P|224:81|303:174,1,180,2|2,0:0|0:0,0:0:0:0:
353,275,45012,2,0,P|328:320|282:319,1,90,8|2,3:2|0:0,0:0:0:0:
221,220,45444,6,0,P|319:197|387:188,1,135,2|0,3:2|3:0,0:0:0:0:
369,178,45876,2,0,P|417:194|466:200,1,90,10|0,3:2|3:0,0:0:0:0:
443,101,46307,5,2,3:2:0:0:
381,43,46523,1,2,3:2:0:0:
463,20,46739,1,8,3:2:0:0:
463,20,46954,1,2,0:0:0:0:
283,13,47170,6,0,P|299:65|305:104,1,90,0|8,3:0|3:0,0:0:0:0:
322,117,47494,1,0,3:0:0:0:
234,177,47710,1,4,3:0:0:0:
217,187,47818,1,0,3:0:0:0:
327,247,48034,6,0,P|315:208|314:202,1,45,4|0,3:0|0:0,0:0:0:0:
414,168,48249,2,0,P|400:201|398:216,1,45
454,285,48465,1,4,0:0:0:0:
47,185,48897,5,4,3:1:0:0:
142,211,49113,2,0,P|61:234|32:249,1,90,2|0,0:0|0:0,0:0:0:0:
26,315,49436,5,2,0:0:0:0:
55,318,49544,1,2,3:2:0:0:
74,329,49652,1,2,0:0:0:0:
91,346,49760,1,10,3:2:0:0:
208,325,49976,2,0,P|201:365|198:387,1,45,2|0,0:0|0:0,0:0:0:0:
337,39,50408,5,2,3:2:0:0:
337,39,50516,1,2,3:2:0:0:
337,39,50623,2,0,L|256:64,2,67.5,2|2|2,3:2|0:0|3:2,0:0:0:0:
262,80,51055,2,0,L|273:158,2,67.5,2|2|2,0:2|0:0|0:0,0:0:0:0:
226,181,51487,6,0,P|265:201|293:249,1,90,10|0,3:2|0:0,0:0:0:0:
369,274,51810,1,2,0:0:0:0:
373,255,51918,1,2,0:0:0:0:
237,379,52242,5,2,0:0:0:0:
237,379,52350,1,2,3:2:0:0:
220,351,52458,1,2,0:0:0:0:
193,335,52566,1,2,0:0:0:0:
161,330,52674,1,2,3:2:0:0:
133,344,52782,6,0,L|79:357,1,45,2|2,0:0|0:0,0:0:0:0:
18,304,52998,1,2,3:2:0:0:
153,247,53213,5,10,3:2:0:0:
164,231,53321,1,2,0:0:0:0:
163,212,53429,1,2,0:0:0:0:
172,195,53537,1,2,0:0:0:0:
93,315,53753,2,0,B|106:334|106:334|101:358,2,45,2|2|2,0:0|3:2|3:2,0:0:0:0:
81,294,54077,6,0,P|68:203|38:124,1,135,2|0,3:2|3:0,0:0:0:0:
23,75,54508,2,0,P|30:39|65:11,2,67.5,2|2|2,0:0|0:0|0:0,0:0:0:0:
64,144,54940,6,0,P|112:153|158:170,1,90,10|2,3:2|3:2,0:0:0:0:
196,104,55264,1,2,3:2:0:0:
210,91,55372,2,0,P|289:75|334:69,1,90,2|0,3:2|3:0,0:0:0:0:
231,195,55803,5,4,3:2:0:0:
144,170,56019,1,0,3:0:0:0:
71,221,56235,1,10,3:2:0:0:
53,308,56451,1,0,3:0:0:0:
53,308,56559,1,0,3:0:0:0:
53,308,56667,2,0,P|96:315|148:332,1,90,0|0,3:0|3:0,0:0:0:0:
274,246,57098,1,10,3:2:0:0:
231,384,57314,6,0,P|225:320|168:243,1,135,0|0,3:0|0:0,0:0:0:0:
174,248,57746,2,0,P|178:203|210:166,1,90,0|10,3:0|3:2,0:0:0:0:
179,87,58177,1,0,3:0:0:0:
268,36,58393,6,0,P|322:54|370:64,1,90,0|0,3:0|3:0,0:0:0:0:
508,65,58825,2,0,P|465:108|417:118,1,90,10|0,3:2|3:0,0:0:0:0:
419,134,59149,1,0,0:0:0:0:
400,157,59257,6,0,P|362:146|353:125,3,45,0|0|0|0,3:0|3:0|3:0|3:0,0:0:0:0:
464,212,59688,2,0,P|504:250|505:262,1,45,10|0,3:2|3:0,0:0:0:0:
416,275,59904,2,0,P|416:303|406:320,1,45,0|0,3:0|3:0,0:0:0:0:
330,297,60120,5,0,3:0:0:0:
470,366,60336,1,0,3:0:0:0:
278,361,60552,5,10,3:2:0:0:
352,218,60767,1,0,3:0:0:0:
90,101,61199,5,4,1:2:0:0:
176,264,61415,1,4,1:2:0:0:
198,56,61846,5,4,1:2:0:0:
24,177,62062,1,4,1:2:0:0:
33,179,62278,6,0,P|75:191|159:230,1,135
185,228,62710,6,0,P|197:283|203:334,1,90,4|2,3:1|0:0,0:0:0:0:
113,313,63141,1,0,1:0:0:0:
360,328,63357,5,2,0:0:0:0:
353,332,63465,2,0,P|296:347|265:396,1,90,2|0,0:0|0:0,0:0:0:0:
189,384,63789,2,0,P|194:348|206:318,1,45,2|0,0:0|0:0,0:0:0:0:
277,249,64005,5,0,1:0:0:0:
130,174,64221,1,2,0:0:0:0:
247,116,64436,6,0,P|291:75|301:19,1,90,0|2,3:0|0:0,0:0:0:0:
105,71,64868,1,0,1:0:0:0:
208,194,65084,5,2,0:0:0:0:
208,194,65192,2,0,P|192:127|169:78,1,90,2|0,0:0|0:0,0:0:0:0:
231,0,65516,2,0,P|220:48|217:57,1,45,2|0,0:0|0:0,0:0:0:0:
278,150,65731,5,0,1:0:0:0:
383,31,65947,1,2,0:0:0:0:
494,110,66163,6,0,P|418:124|394:139,1,90,0|2,3:0|0:0,0:0:0:0:
301,55,66595,1,0,1:0:0:0:
362,251,66810,5,2,0:0:0:0:
354,238,66918,2,0,P|332:164|318:129,1,90,2|0,0:0|0:0,0:0:0:0:
215,88,67242,2,0,P|231:106|247:133,1,45,2|0,0:0|0:0,0:0:0:0:
253,202,67458,5,0,1:0:0:0:
301,55,67674,1,2,0:0:0:0:
122,135,67890,6,0,P|74:106|61:64,1,90,0|2,3:0|0:0,0:0:0:0:
0,256,68321,1,0,1:0:0:0:
66,209,68537,5,2,0:0:0:0:
66,209,68645,2,0,P|129:230|172:259,1,90,2|0,0:0|0:0,0:0:0:0:
168,262,68969,2,0,P|200:242|228:228,1,45,2|0,0:0|0:0,0:0:0:0:
246,311,69185,2,0,P|294:290|348:289,1,90,0|2,1:0|0:0,0:0:0:0:
426,372,69616,6,0,B|455:344|455:344|432:295,1,90,0|2,3:0|0:0,0:0:0:0:
344,214,70048,1,0,1:0:0:0:
447,210,70264,6,0,B|394:198|366:241|371:245|348:282|287:268,1,180,2|2,0:0|0:0,0:0:0:0:
101,300,70911,1,0,1:0:0:0:
214,238,71127,6,0,P|191:291|184:334,1,90,2|0,0:0|3:0,0:0:0:0:
23,340,71559,1,2,0:0:0:0:
61,230,71775,1,0,1:0:0:0:
126,384,71990,6,0,P|107:319|87:289,1,90,2|0,0:0|3:0,0:0:0:0:
127,139,72422,1,2,0:0:0:0:
24,216,72638,1,0,1:0:0:0:
174,281,72854,6,0,P|232:266|274:259,1,90,2|0,0:0|3:0,0:0:0:0:
306,191,73177,5,0,0:0:0:0:
319,169,73285,1,2,0:0:0:0:
321,148,73393,1,0,0:0:0:0:
311,127,73501,2,0,L|299:81,1,45,0|0,1:0|0:0,0:0:0:0:
215,81,73717,2,0,L|212:126,1,45,2|0,0:0|0:0,0:0:0:0:
389,95,73933,6,0,L|391:49,1,45,0|0,3:0|0:0,0:0:0:0:
479,12,74149,1,2,0:0:0:0:
494,27,74256,1,0,0:0:0:0:
502,54,74364,2,0,P|492:107|491:178,1,90,0|2,1:0|0:0,0:0:0:0:
390,232,74796,5,0,3:0:0:0:
489,291,75012,5,0,3:0:0:0:
487,262,75120,1,0,3:0:0:0:
470,237,75228,1,8,1:3:0:0:
337,100,75444,5,0,3:0:0:0:
331,129,75551,1,0,3:0:0:0:
313,152,75659,1,4,3:0:0:0:
272,324,75875,5,0,3:0:0:0:
291,328,75983,1,0,3:0:0:0:
316,328,76091,2,0,P|352:313|374:311,1,45,4|0,1:2|0:0,0:0:0:0:
200,243,76523,6,0,P|152:224|115:182,1,90,4|2,3:1|0:0,0:0:0:0:
227,147,76954,1,0,1:0:0:0:
0,279,77170,5,2,0:0:0:0:
10,281,77278,2,0,P|63:284|117:291,1,90,2|0,0:0|0:0,0:0:0:0:
162,341,77602,2,0,P|183:369|196:399,1,45,2|0,0:0|0:0,0:0:0:0:
209,234,77818,5,0,1:0:0:0:
266,73,78034,1,2,0:0:0:0:
376,175,78249,6,0,P|420:134|430:78,1,90,0|2,3:0|0:0,0:0:0:0:
214,150,78681,1,0,1:0:0:0:
296,198,78897,5,2,0:0:0:0:
296,198,79005,2,0,P|311:258|303:320,1,90,2|0,0:0|0:0,0:0:0:0:
262,361,79329,2,0,P|214:350|205:347,1,45,2|0,0:0|0:0,0:0:0:0:
226,265,79544,5,0,1:0:0:0:
345,381,79760,1,2,0:0:0:0:
411,304,79976,6,0,P|464:277|471:234,1,90,0|2,3:0|0:0,0:0:0:0:
377,175,80408,1,0,1:0:0:0:
255,302,80623,5,2,0:0:0:0:
255,302,80731,2,0,P|195:331|144:341,1,90,2|0,0:0|0:0,0:0:0:0:
86,296,81055,2,0,P|74:276|62:257,1,45,2|0,0:0|0:0,0:0:0:0:
0,322,81271,1,0,1:0:0:0:
74,377,81487,1,2,0:0:0:0:
152,246,81703,6,0,P|176:196|167:142,1,90,0|2,3:0|0:0,0:0:0:0:
18,113,82134,1,0,1:0:0:0:
123,29,82350,5,2,0:0:0:0:
116,44,82458,2,0,P|105:98|98:143,1,90,2|2,0:0|0:0,0:0:0:0:
26,191,82782,2,0,P|63:205|77:233,1,45,2|0,0:0|0:0,0:0:0:0:
174,162,82998,2,0,P|217:168|258:118,1,90,0|2,1:0|0:0,0:0:0:0:
387,38,83429,6,0,B|356:7|356:7|310:20,1,90,0|2,3:0|0:0,0:0:0:0:
244,128,83861,1,0,1:0:0:0:
258,223,84077,6,0,P|322:206|306:81,1,180,2|2,0:0|0:0,0:0:0:0:
426,249,84724,1,0,1:0:0:0:
512,182,84940,6,0,P|459:159|413:156,1,90,2|0,0:0|3:0,0:0:0:0:
335,238,85372,2,0,B|317:281|317:281|342:321,1,90,2|0,0:0|1:0,0:0:0:0:
149,362,85803,6,0,P|214:343|244:323,1,90,2|0,0:0|3:0,0:0:0:0:
241,240,86235,1,2,0:0:0:0:
290,384,86451,1,0,1:0:0:0:
346,246,86667,6,0,P|337:201|325:158,1,90,2|0,0:0|3:0,0:0:0:0:
267,84,86990,6,0,L|275:23,2,45,0|2|0,0:0|0:0|0:0,0:0:0:0:
256,96,87314,2,0,L|193:116,1,45,0|0,1:0|0:0,0:0:0:0:
142,60,87530,2,0,L|95:75,1,45,2|0,0:0|0:0,0:0:0:0:
127,171,87746,5,0,3:0:0:0:
95,171,87854,1,0,3:0:0:0:
66,157,87962,1,2,3:2:0:0:
57,126,88069,1,0,3:0:0:0:
70,97,88177,1,4,1:2:0:0:
29,293,88609,5,0,1:0:0:0:
115,267,88825,5,0,1:0:0:0:
223,269,89041,5,0,1:0:0:0:
339,338,89257,5,0,1:0:0:0:
29,283,90336,6,0,P|4:247|16:205,1,67.5000025749208,4|0,3:2|0:0,0:0:0:0:
16,203,90659,2,0,L|30:148,1,33.7500012874604,0|0,3:0|0:0,0:0:0:0:
124,345,90983,6,0,P|107:283|103:257,1,90,0|0,3:0|0:0,0:0:0:0:
112,236,91307,2,0,L|128:167,1,45,0|0,3:0|0:0,0:0:0:0:
287,316,91631,6,0,P|215:318|199:268,1,107.999996704102,0|0,3:0|0:0,0:0:0:0:
217,264,91954,2,0,L|231:192,1,53.9999983520508,0|0,3:0|0:0,0:0:0:0:
267,120,92278,5,0,3:0:0:0:
275,126,92386,1,0,3:0:0:0:
283,132,92494,1,0,3:0:0:0:
160,166,92710,1,0,3:0:0:0:
196,75,92926,6,0,L|187:33,4,22.5,0|0|0|0|0,3:0|3:0|3:0|3:0|1:0,0:0:0:0:
233,213,93357,2,0,P|282:221|315:253,1,90,0|0,1:0|1:0,0:0:0:0:
504,329,93789,6,0,P|442:322|422:319,1,67.5000025749208,4|2,3:1|0:0,0:0:0:0:
406,236,94221,5,0,3:0:0:0:
331,342,94436,2,0,P|352:278|405:236,1,135.000005149842,2|0,0:0|0:0,0:0:0:0:
512,180,95084,2,0,P|450:164|439:157,1,67.5000025749208,0|0,3:0|0:0,0:0:0:0:
356,78,95516,5,2,3:2:0:0:
396,4,95731,1,2,0:0:0:0:
433,81,95947,5,0,3:0:0:0:
314,6,96162,1,2,0:0:0:0:
287,125,96379,2,0,P|260:166|195:176,1,101.250003862381,0|0,3:0|0:0,0:0:0:0:
198,172,96811,2,0,P|156:180|129:185,1,67.5000025749208,0|0,3:0|0:0,0:0:0:0:
31,222,97242,6,0,L|43:148,1,67.5000025749208,2|2,3:2|0:0,0:0:0:0:
126,191,97674,1,0,3:0:0:0:
9,57,97890,2,0,P|90:66|118:115,1,135.000005149842,2|0,0:0|0:0,0:0:0:0:
195,56,98537,2,0,P|238:47|263:38,1,67.5000025749208,0|0,3:0|0:0,0:0:0:0:
348,107,98969,5,2,3:2:0:0:
329,12,99185,1,2,0:0:0:0:
263,144,99400,5,0,3:0:0:0:
348,190,99616,1,2,0:0:0:0:
227,244,99832,5,0,3:0:0:0:
212,255,99940,1,0,0:0:0:0:
199,266,100048,1,0,0:0:0:0:
312,266,100264,2,0,P|340:324|353:368,1,101.250003862381,2|2,3:2|0:0,0:0:0:0:
435,360,100695,6,0,B|469:344|469:344|475:300,1,67.5000025749208,0|2,3:0|0:0,0:0:0:0:
401,280,101127,1,0,3:0:0:0:
492,233,101343,1,2,0:0:0:0:
345,354,101559,6,0,L|260:363,1,67.5000025749208,2|2,3:2|0:0,0:0:0:0:
247,284,101990,2,0,L|165:275,1,67.5000025749208,2|0,3:2|0:0,0:0:0:0:
122,232,102314,1,2,0:0:0:0:
115,221,102422,1,2,3:2:0:0:
96,314,102638,5,2,0:0:0:0:
195,202,102854,1,0,3:0:0:0:
50,165,103070,1,2,0:0:0:0:
179,276,103285,6,0,P|223:285|267:331,1,101.250003862381,0|2,3:0|0:0,0:0:0:0:
279,305,103717,2,0,P|322:292|364:276,1,90,2|0,3:2|0:0,0:0:0:0:
455,187,104149,5,0,3:0:0:0:
365,150,104364,1,2,0:0:0:0:
406,63,104580,1,0,3:0:0:0:
494,98,104796,1,2,0:0:0:0:
373,157,105012,6,0,P|307:187|258:217,1,101.250003862381,0|0,3:0|0:0,0:0:0:0:
156,154,105444,1,0,3:0:0:0:
210,24,105659,1,2,0:0:0:0:
240,108,105875,5,10,3:2:0:0:
120,67,106091,1,0,0:0:0:0:
120,67,106199,1,8,0:0:0:0:
120,67,106307,2,0,P|129:102|140:158,1,67.5000025749208,0|8,3:0|0:0,0:0:0:0:
27,237,106739,2,0,L|102:216,1,67.5000025749208,4|0,0:0|0:0,0:0:0:0:
219,240,107170,5,2,0:0:0:0:
219,240,107278,2,0,P|263:215|276:172,1,90,2|2,0:0|0:0,0:0:0:0:
352,110,107602,5,4,3:1:0:0:
370,211,107818,2,0,P|451:234|480:249,1,90,2|10,0:0|0:0,0:0:0:0:
486,315,108141,5,2,0:0:0:0:
457,318,108249,1,2,0:0:0:0:
438,329,108357,1,2,0:0:0:0:
421,346,108465,1,2,3:2:0:0:
311,325,108681,2,0,P|322:362|325:384,1,45,2|0,0:0|0:0,0:0:0:0:
121,299,109113,5,0,0:0:0:0:
121,299,109221,1,0,0:0:0:0:
121,299,109328,2,0,L|40:324,2,67.5,2|2|2,3:2|0:0|0:0,0:0:0:0:
196,317,109760,2,0,L|207:395,2,67.5,10|2|2,0:0|0:0|0:0,0:0:0:0:
230,250,110192,6,0,P|232:206|204:157,1,90,2|0,3:2|0:0,0:0:0:0:
128,156,110515,1,2,0:0:0:0:
121,179,110623,1,10,0:0:0:0:
23,103,111055,5,2,3:2:0:0:
40,75,111163,1,2,0:0:0:0:
67,59,111271,1,2,0:0:0:0:
99,54,111379,1,2,0:0:0:0:
127,68,111487,6,0,L|181:81,1,45,10|2,0:0|0:0,0:0:0:0:
240,22,111703,2,0,L|191:9,1,45,2|2,0:0|0:0,0:0:0:0:
283,104,111918,5,2,3:2:0:0:
299,93,112026,1,2,0:0:0:0:
314,78,112134,1,2,0:0:0:0:
335,67,112242,1,2,0:0:0:0:
415,19,112458,2,0,B|429:38|429:38|457:42,2,45,2|2|2,0:0|0:0|0:0,0:0:0:0:
409,50,112782,6,0,P|419:94|424:121,1,67.5,2|2,3:2|0:0,0:0:0:0:
498,139,113105,1,2,0:0:0:0:
504,150,113213,2,0,P|497:186|462:214,2,67.5,10|2|2,0:0|0:0|0:0,0:0:0:0:
450,202,113645,6,0,P|402:211|356:228,1,90,2|0,3:2|0:0,0:0:0:0:
313,141,113969,5,2,0:0:0:0:
299,128,114077,2,0,P|220:112|175:106,1,90,10|0,0:0|0:0,0:0:0:0:
58,118,114508,6,0,P|76:163|124:170,1,90,2|0,3:2|0:0,0:0:0:0:
223,280,114940,2,0,P|205:334|163:353,1,90,10|0,0:2|0:0,0:0:0:0:
16,271,115372,5,2,3:2:0:0:
149,173,115587,1,2,0:2:0:0:
0,172,115804,5,8,3:2:0:0:
110,267,116020,1,2,0:0:0:0:
63,121,116235,2,0,P|77:80|81:27,1,90,0|2,3:0|0:0,0:0:0:0:
149,173,116667,5,8,0:0:0:0:
185,98,116883,2,0,P|252:91|331:184,1,180,2|2,0:0|0:0,0:0:0:0:
353,275,117530,2,0,P|328:320|282:319,1,90,8|2,0:0|0:0,0:0:0:0:
221,220,117962,6,0,P|319:197|387:188,1,135,2|0,3:2|0:0,0:0:0:0:
369,178,118394,2,0,P|417:194|466:200,1,90,10|0,0:0|0:0,0:0:0:0:
443,101,118825,5,2,3:2:0:0:
381,43,119041,1,2,0:0:0:0:
463,20,119257,1,8,0:0:0:0:
463,20,119472,1,2,0:0:0:0:
283,13,119688,6,0,P|299:65|305:104,1,90,4|0,3:0|0:0,0:0:0:0:
322,117,120012,1,4,3:0:0:0:
334,141,120120,1,8,1:3:0:0:
254,280,120336,1,4,3:0:0:0:
261,206,120552,6,0,P|249:167|248:161,1,45,0|0,3:0|1:0,0:0:0:0:
341,245,120767,2,0,P|327:278|325:293,1,45,4|0,3:0|0:0,0:0:0:0:
410,215,120983,1,4,1:2:0:0:
504,315,121415,5,4,3:1:0:0:
7,321,135012,5,2,0:0:0:0:
7,321,135228,2,0,P|62:301|77:265,1,90,4|0,3:1|0:0,0:0:0:0:
158,289,135659,2,0,P|158:247|116:204,1,90,8|0,3:2|0:0,0:0:0:0:
314,43,136091,6,0,P|266:76|260:115,1,90,0|0,3:0|0:0,0:0:0:0:
176,112,136522,2,0,P|186:152|238:183,1,90,8|0,3:2|0:0,0:0:0:0:
405,176,136954,5,0,3:0:0:0:
289,264,137170,1,0,0:0:0:0:
326,192,137386,1,8,3:2:0:0:
402,165,137602,1,0,0:0:0:0:
480,185,137818,5,4,1:2:0:0:
312,71,138034,1,4,1:2:0:0:
485,0,138681,5,0,3:0:0:0:
485,0,138897,1,0,0:0:0:0:
474,97,139113,2,0,B|426:92|426:92|393:42,1,90,8|0,3:2|0:0,0:0:0:0:
266,102,139544,5,0,3:0:0:0:
266,102,139652,1,0,0:0:0:0:
266,102,139760,1,0,0:0:0:0:
204,176,139976,2,0,P|148:187|104:198,1,90,8|0,3:2|0:0,0:0:0:0:
111,281,140408,5,0,3:0:0:0:
227,369,140624,1,0,0:0:0:0:
190,297,140840,1,8,3:2:0:0:
114,270,141056,1,0,0:0:0:0:
36,290,141272,5,4,1:2:0:0:
260,206,141488,1,4,1:2:0:0:
28,84,141918,5,0,0:0:0:0:
28,84,142134,2,0,P|76:101|105:140,1,90,0|0,3:0|0:0,0:0:0:0:
122,115,142458,1,0,0:0:0:0:
122,115,142566,2,0,P|174:112|210:86,1,90,8|0,0:2|0:0,0:0:0:0:
226,98,142890,1,0,0:0:0:0:
235,88,142998,6,0,L|218:29,2,45
332,8,143429,2,0,L|328:66,1,45,8|0,0:2|0:0,0:0:0:0:
284,156,143645,2,0,L|294:206,1,45
369,135,143861,6,0,P|409:139|455:172,1,90
481,193,144185,1,0,0:0:0:0:
481,193,144293,2,0,P|431:219|412:261,1,90,8|0,0:2|0:0,0:0:0:0:
418,278,144616,1,0,0:0:0:0:
418,278,144724,6,0,L|426:323,1,45
334,302,144940,2,0,L|338:354,1,45
253,268,145156,2,0,L|248:312,3,45,8|0|0|0,0:2|0:0|0:0|0:0,0:0:0:0:
232,315,145587,6,0,P|173:283|130:289,1,90
124,273,145911,1,0,0:0:0:0:
124,273,146019,2,0,P|83:254|69:205,1,90,8|0,0:2|0:0,0:0:0:0:
84,185,146343,1,0,0:0:0:0:
84,185,146451,2,0,P|95:152|109:139,2,45
181,79,146882,6,0,L|133:71,1,45,8|0,0:2|0:0,0:0:0:0:
162,200,147098,2,0,L|207:210,1,45
277,272,147314,5,0,0:0:0:0:
338,182,147530,1,0,0:0:0:0:
338,182,147638,1,0,0:0:0:0:
338,182,147746,1,8,0:2:0:0:
246,129,147962,1,0,0:0:0:0:
407,244,148177,5,8,0:2:0:0:
382,77,148393,1,8,0:2:0:0:
498,0,148609,5,8,0:2:0:0:
478,194,148825,1,8,0:2:0:0:
341,248,150120,5,2,3:2:0:0:
437,160,150336,1,2,3:2:0:0:
478,275,150552,1,2,3:2:0:0:
327,156,150767,6,0,P|315:101|309:50,1,90,4|2,3:1|0:0,0:0:0:0:
379,11,151198,1,0,1:0:0:0:
159,83,151414,5,2,0:0:0:0:
159,83,151522,2,0,P|209:112|266:99,1,90,0|0,3:0|0:0,0:0:0:0:
262,3,151846,2,0,P|232:29|225:57,1,45,2|0,0:0|0:0,0:0:0:0:
245,124,152062,5,0,1:0:0:0:
355,181,152278,1,2,0:0:0:0:
250,294,152493,6,0,P|189:296|143:263,1,90,0|2,3:0|0:0,0:0:0:0:
260,202,152925,1,0,1:0:0:0:
336,268,153141,5,2,0:0:0:0:
336,268,153249,2,0,L|325:372,1,90,0|0,3:0|1:0,0:0:0:0:
404,355,153573,2,0,L|454:372,1,45,2|0,0:0|0:0,0:0:0:0:
431,287,153788,5,0,1:0:0:0:
331,367,154004,1,2,0:0:0:0:
237,227,154220,6,0,P|202:200|158:207,1,90,0|2,3:0|0:0,0:0:0:0:
211,329,154652,1,0,1:0:0:0:
446,175,154868,5,2,0:0:0:0:
446,175,154976,2,0,P|383:154|340:125,1,90,0|0,3:0|0:0,0:0:0:0:
344,122,155300,2,0,P|312:142|284:156,1,45,2|0,0:0|0:0,0:0:0:0:
266,73,155516,2,0,P|218:94|164:95,1,90,0|2,1:0|0:0,0:0:0:0:
312,141,155947,6,0,P|360:160|397:202,1,90,0|2,3:0|0:0,0:0:0:0:
285,237,156378,1,0,1:0:0:0:
512,105,156594,5,2,0:0:0:0:
502,103,156702,2,0,P|449:100|395:93,1,90,2|0,3:2|1:0,0:0:0:0:
350,43,157026,2,0,P|329:15|316:-15,1,45,2|0,0:0|0:0,0:0:0:0:
303,150,157242,5,0,1:0:0:0:
184,251,157458,1,2,0:0:0:0:
86,12,157673,6,0,B|57:40|57:40|80:89,1,90,0|2,3:0|0:0,0:0:0:0:
168,170,158105,1,0,1:0:0:0:
65,174,158321,6,0,B|118:186|146:143|141:139|164:102|225:116,1,180,2|2,0:0|0:0,0:0:0:0:
411,84,158968,1,0,1:0:0:0:
298,146,159184,6,0,P|321:93|328:50,1,90,2|0,0:0|3:0,0:0:0:0:
489,44,159616,1,2,0:0:0:0:
451,154,159832,1,0,1:0:0:0:
386,0,160047,6,0,P|405:65|425:95,1,90,2|0,0:0|3:0,0:0:0:0:
385,245,160479,1,2,0:0:0:0:
488,168,160695,1,0,1:0:0:0:
338,103,160911,6,0,P|280:118|238:125,1,90,2|0,0:0|3:0,0:0:0:0:
207,248,161235,5,0,0:0:0:0:
194,270,161343,1,2,0:0:0:0:
192,291,161451,1,0,0:0:0:0:
202,312,161559,2,0,L|214:358,1,45,0|0,1:0|0:0,0:0:0:0:
290,375,161775,2,0,L|293:330,1,45,2|0,0:0|0:0,0:0:0:0:
371,286,161991,6,0,L|377:335,1,45,0|0,3:0|0:0,0:0:0:0:
479,365,162207,1,2,0:0:0:0:
464,350,162314,1,0,0:0:0:0:
457,328,162422,2,0,P|468:268|481:216,1,90,0|2,1:0|0:0,0:0:0:0:
403,109,162854,5,0,3:0:0:0:
385,212,163069,5,2,3:2:0:0:
355,214,163177,1,0,3:0:0:0:
330,231,163285,1,8,1:3:0:0:
256,152,163501,5,2,3:2:0:0:
232,134,163609,1,0,3:0:0:0:
219,107,163716,1,4,3:0:0:0:
189,234,163932,5,2,3:2:0:0:
170,230,164040,1,0,3:0:0:0:
145,230,164148,2,0,P|109:245|87:247,2,45,4|0|0,1:2|0:0|0:0,0:0:0:0:
263,34,164580,6,0,P|209:10|171:33,1,90,4|2,3:1|0:0,0:0:0:0:
154,140,165012,1,0,1:0:0:0:
259,220,165227,5,2,0:0:0:0:
259,220,165335,2,0,L|241:105,1,90,2|2,3:2|0:0,0:0:0:0:
324,80,165659,2,0,P|331:103|326:125,1,45,2|2,3:2|0:0,0:0:0:0:
378,190,165875,1,0,1:0:0:0:
476,227,166091,1,2,0:0:0:0:
512,101,166307,6,0,P|462:115|448:161,1,90,0|2,3:0|0:0,0:0:0:0:
476,227,166738,1,0,1:0:0:0:
382,272,166954,5,2,0:0:0:0:
382,272,167062,2,0,P|374:316|365:360,1,90,2|2,3:2|1:2,0:0:0:0:
491,342,167386,2,0,P|454:328|440:300,1,45,2|2,3:2|0:0,0:0:0:0:
315,233,167602,2,0,P|272:227|231:277,1,90,0|2,1:0|0:0,0:0:0:0:
101,220,168034,6,0,P|57:179|64:124,1,90,0|2,3:0|0:0,0:0:0:0:
138,299,168466,1,0,1:0:0:0:
200,173,168682,5,2,0:0:0:0:
200,173,168790,2,0,L|186:55,1,90,2|2,3:2|0:0,0:0:0:0:
250,23,169114,2,0,P|298:34|307:37,1,45,2|2,3:2|0:0,0:0:0:0:
286,119,169329,5,0,1:0:0:0:
167,3,169545,1,2,0:0:0:0:
113,111,169760,5,0,3:0:0:0:
254,18,169976,1,2,0:0:0:0:
286,119,170192,6,0,P|360:141|381:163,1,90,0|2,1:0|0:0,0:0:0:0:
380,166,170516,2,0,P|429:155|474:149,1,90,2|2,3:2|1:2,0:0:0:0:
506,85,170839,1,2,3:2:0:0:
415,77,171055,5,2,1:2:0:0:
511,219,171271,1,2,0:0:0:0:
386,298,171486,6,0,B|355:329|355:329|309:316,1,90,0|2,3:0|0:0,0:0:0:0:
243,208,171918,1,0,1:0:0:0:
265,108,172134,6,0,P|329:125|313:250,1,180,2|2,0:0|0:0,0:0:0:0:
179,275,172781,1,0,1:0:0:0:
157,371,172997,6,0,P|210:348|256:345,1,90,2|0,0:0|3:0,0:0:0:0:
179,275,173429,2,0,B|197:232|197:232|172:192,1,90,2|0,0:0|1:0,0:0:0:0:
47,125,173861,6,0,B|24:88|24:88|42:45,1,90,2|0,0:0|3:0,0:0:0:0:
240,111,174292,1,2,0:0:0:0:
157,5,174508,1,0,1:0:0:0:
136,90,174724,6,0,P|126:153|124:187,1,90,2|0,0:0|3:0,0:0:0:0:
69,246,175047,6,0,L|12:269,2,45,0|2|0,0:0|0:0|0:0,0:0:0:0:
92,260,175371,2,0,L|140:304,1,45,0|0,1:0|0:0,0:0:0:0:
201,211,175587,2,0,L|167:180,1,45,2|0,0:0|0:0,0:0:0:0:
179,370,175803,5,0,3:0:0:0:
211,370,175911,1,0,0:0:0:0:
240,356,176019,1,2,0:0:0:0:
255,331,176126,1,0,0:0:0:0:
416,242,176451,6,0,P|357:256|312:274,1,90,2|0,1:2|1:0,0:0:0:0:
178,227,176882,2,0,P|168:160|162:126,1,90,2|0,1:2|1:0,0:0:0:0:
186,40,177314,6,0,L|226:20,2,45,2|0|0,3:2|3:0|3:0,0:0:0:0:
77,52,177745,5,2,3:2:0:0:
164,138,177961,1,4,1:2:0:0:
18,201,178177,1,0,0:0:0:0:
134,233,178393,6,0,P|188:237|260:164,1,155.250002961159,4|0,3:1|0:0,0:0:0:0:
276,164,178825,2,0,P|267:101|248:53,1,103.500001974106,0|2,1:0|0:0,0:0:0:0:
347,9,179257,5,0,3:0:0:0:
433,101,179472,1,2,0:0:0:0:
512,36,179688,1,0,1:0:0:0:
355,140,179904,6,0,P|380:178|444:189,1,103.500001974106,2|0,0:0|3:0,0:0:0:0:
496,273,180336,2,0,P|434:298|408:336,1,103.500001974106,2|0,0:0|1:0,0:0:0:0:
273,225,180767,1,2,0:0:0:0:
318,383,180983,5,0,3:0:0:0:
353,278,181199,1,2,0:0:0:0:
225,345,181415,2,0,P|183:341|153:292,1,103.500001974106,0|2,1:0|0:0,0:0:0:0:
0,254,181846,6,0,P|101:226|172:189,1,155.250002961159,0|0,3:0|0:0,0:0:0:0:
145,182,182278,2,0,P|208:196|222:255,1,103.500001974106,0|2,1:0|0:0,0:0:0:0:
381,350,182710,5,0,3:0:0:0:
269,305,182926,1,2,0:0:0:0:
430,227,183141,1,0,1:0:0:0:
322,210,183357,6,0,B|343:163|306:139|311:146|266:117|294:63,1,155.250002961159,2|0,0:0|0:0,0:0:0:0:
311,48,183789,1,2,0:0:0:0:
384,101,184005,1,0,1:0:0:0:
384,101,184221,1,2,0:0:0:0:
217,179,184436,6,0,P|158:209|125:241,1,103.500001974106,0|2,3:0|0:0,0:0:0:0:
36,183,184868,2,0,P|26:127|5:79,1,103.500001974106,0|2,1:0|0:0,0:0:0:0:
108,28,185300,6,0,P|118:115|131:240,1,207.000003948212,0|0,3:0|1:0,0:0:0:0:
1,362,185947,1,2,0:0:0:0:
1,362,186055,1,0,0:0:0:0:
1,362,186163,2,0,P|66:334|63:293,1,103.500001974106,0|2,3:0|0:0,0:0:0:0:
216,189,186595,5,0,1:0:0:0:
121,242,186810,2,0,P|192:265|271:341,1,155.250002961159,2|0,0:0|0:0,0:0:0:0:
258,341,187242,2,0,P|312:369|346:349,1,103.500001974106,2|0,0:0|1:0,0:0:0:0:
216,189,187674,6,0,P|283:155|298:80,1,155.250002961159,2|0,0:0|0:0,0:0:0:0:
262,61,188105,1,2,0:0:0:0:
380,121,188321,1,0,1:0:0:0:
325,205,188537,1,2,0:0:0:0:
367,32,188753,6,0,P|422:23|470:10,2,103.500001974106,0|2|0,3:0|0:0|1:0,0:0:0:0:
509,101,189400,1,2,0:0:0:0:
433,168,189616,2,0,P|483:205|496:247,1,103.500001974106,0|2,3:0|0:0,0:0:0:0:
401,288,190048,1,0,1:3:0:0:
500,367,190264,6,0,B|442:373|426:336|431:335|411:295|351:281|316:318,1,207.000003948212,2|2,0:0|0:0,0:0:0:0:
120,364,190911,1,0,3:0:0:0:
185,186,191127,1,2,0:0:0:0:
219,326,191343,5,8,3:0:0:0:
224,345,191451,1,4,3:0:0:0:
228,365,191559,1,4,3:0:0:0:
79,252,191775,6,0,P|130:254|172:264,1,90,4|0,1:2|0:0,0:0:0:0:
173,268,192206,2,0,P|230:252|253:211,1,107.999996704102,0|4,3:0|1:0,0:0:0:0:
400,16,193069,6,0,P|413:85|425:194,1,148.50000453186,0|0,3:0|0:0,0:0:0:0:
406,176,193501,1,0,1:0:0:0:
272,134,193717,6,0,B|229:106|229:106|243:50,1,99.0000030212403,2|0,0:0|3:0,0:0:0:0:
400,16,194149,2,0,P|366:64|316:58,1,99.0000030212403,2|0,0:0|1:0,0:0:0:0:
165,15,194580,5,2,0:0:0:0:
220,184,194796,2,0,P|258:109|240:44,1,148.50000453186,0|0,3:0|0:0,0:0:0:0:
239,63,195228,1,0,1:0:0:0:
53,148,195444,6,0,B|102:135|102:135|147:168,1,99.0000030212403,2|0,0:0|0:0,0:0:0:0:
201,319,195875,1,2,0:0:0:0:
201,319,195983,1,2,0:0:0:0:
201,319,196091,1,0,1:0:0:0:
17,285,196307,5,2,0:0:0:0:
40,277,196415,1,2,0:0:0:0:
59,261,196523,1,0,3:0:0:0:
108,384,196739,2,0,P|120:315|136:263,1,99.0000030212403,2|0,0:0|1:0,0:0:0:0:
212,231,197170,6,0,B|275:249|275:249|300:306|300:306|369:327,1,198.000006042481,2|2,0:0|0:0,0:0:0:0:
400,209,197818,1,0,1:0:0:0:
274,331,198034,1,2,0:0:0:0:
462,383,198249,6,0,P|448:322|455:268,1,99.0000030212403,0|2,3:0|0:0,0:0:0:0:
400,209,198681,2,0,P|405:146|386:79,1,99.0000030212403,0|2,1:0|0:0,0:0:0:0:
466,26,199113,6,0,P|402:76|307:58,1,148.50000453186,4|0,3:2|0:0,0:0:0:0:
308,51,199544,1,8,1:2:0:0:
203,195,199760,2,0,P|259:176|254:121,1,99.0000030212403,2|0,0:0|3:0,0:0:0:0:
205,15,200192,2,0,P|191:72|188:115,1,99.0000030212403,2|8,0:0|1:2,0:0:0:0:
315,228,200623,6,0,P|377:248|438:320,1,148.50000453186,2|0,0:0|0:0,0:0:0:0:
458,328,201055,1,2,0:0:0:0:
350,350,201271,1,8,1:2:0:0:
510,384,201487,1,2,0:0:0:0:
512,207,201703,6,0,P|456:220|409:224,1,90,2|2,3:2|0:2,0:0:0:0:
350,350,202134,2,0,P|273:334|247:272,1,135,8|0,1:2|0:0,0:0:0:0:
260,273,202566,6,0,P|256:203|238:156,1,90,0|2,3:0|0:0,0:0:0:0:
170,156,202998,1,8,1:2:0:0:
288,45,203213,1,2,0:0:0:0:
104,16,203429,6,0,P|108:86|126:133,1,90,0|2,3:0|0:0,0:0:0:0:
181,241,203861,2,0,P|144:274|98:265,1,90,8|2,1:2|0:0,0:0:0:0:
0,171,204293,5,0,3:0:0:0:
181,106,204508,1,2,3:2:0:0:
181,106,204616,1,0,3:0:0:0:
181,106,204724,1,12,1:2:0:0:
121,184,204940,1,2,3:2:0:0:
86,64,205156,6,0,L|79:126,1,45,8|0,3:0|0:0,0:0:0:0:
121,184,205372,2,0,L|126:230,1,45,4|0,3:0|0:0,0:0:0:0:
69,299,205587,5,12,1:2:0:0:
156,347,205803,1,0,0:0:0:0:
4,371,206019,5,4,3:1:0:0:
156,347,206451,1,8,1:2:0:0:
226,272,206667,1,2,0:0:0:0:
297,323,206882,6,0,L|385:338,1,90,2|0,3:2|0:0,0:0:0:0:
473,371,207314,2,0,B|500:335|500:335|484:289,1,90,8|0,1:2|0:0,0:0:0:0:
381,233,207746,5,2,3:2:0:0:
377,142,207962,1,2,0:0:0:0:
429,69,208177,1,8,1:2:0:0:
511,37,208393,5,2,0:0:0:0:
509,44,208609,1,2,3:2:0:0:
375,1,208825,1,2,0:0:0:0:
408,146,209041,1,8,1:2:0:0:
429,69,209257,5,2,3:2:0:0:
322,140,209472,2,0,P|280:123|267:92,2,67.5000025749208,2|0|0,0:0|0:0|0:0,0:0:0:0:
253,108,210120,2,0,P|266:53|271:29,1,67.5000025749208,2|0,0:0|0:0,0:0:0:0:
166,2,210552,2,0,P|158:34|150:67,1,67.5000025749208,2|0,0:0|0:0,0:0:0:0:
45,179,210983,6,0,P|32:124|27:100,1,67.5000025749208,2|0,0:0|0:0,0:0:0:0:
135,70,211415,2,0,P|142:102|150:135,1,67.5000025749208,2|0,0:0|0:0,0:0:0:0:
251,253,211846,6,0,P|264:198|269:174,1,67.5000025749208,2|0,0:0|0:0,0:0:0:0:
169,143,212278,2,0,P|161:175|153:208,1,67.5000025749208,2|0,0:0|0:0,0:0:0:0:
94,283,212710,1,2,0:0:0:0:
182,324,212926,5,10,0:0:0:0:
108,283,213141,1,2,0:0:0:0:
244,263,213357,6,0,P|295:254|324:246,1,67.5000025749208,10|0,0:0|0:0,0:0:0:0:
335,262,213681,1,2,0:0:0:0:
336,262,213789,1,10,0:0:0:0:
375,186,214005,1,2,0:0:0:0:
286,183,214221,6,0,P|303:134|311:105,1,67.5000025749208,8|0,0:0|0:0,0:0:0:0:
329,102,214545,1,2,0:0:0:0:
330,102,214653,1,10,0:0:0:0:
284,30,214869,1,2,0:0:0:0:
240,109,215084,6,0,P|206:69|185:48,1,67.5000025749208,10|0,0:0|0:0,0:0:0:0:
193,30,215408,1,2,0:0:0:0:
193,29,215516,1,10,0:0:0:0:
129,106,215732,1,2,0:0:0:0:
53,53,215947,5,10,0:0:0:0:
53,53,216163,1,10,0:0:0:0:
