osu file format v14

[General]
AudioFilename: audio.ogg
AudioLeadIn: 0
PreviewTime: 150120
Countdown: 0
SampleSet: Soft
StackLeniency: 0.7
Mode: 0
LetterboxInBreaks: 0
WidescreenStoryboard: 1

[Editor]
Bookmarks: 7458,21325,28177,35138,48897,48951,55857,62764,76577,90390,93789,107656,121469,123141,128375,135282,148177,149095,150821,162908,165929,178447,192260,198088,206073
DistanceSpacing: 1.2
BeatDivisor: 4
GridSize: 4
TimelineZoom: 1.7

[Metadata]
Title:Ai Kotoba IV feat. Hatsune Miku
TitleUnicode:愛言葉Ⅳ feat. 初音ミク
Artist:DECO*27
ArtistUnicode:DECO*27
Creator:[Hatsune Miku]
Version:Surou's Hard
Source:
Tags:VOCALOID japanese jpop j-pop pop X Light Surou kanor
BeatmapID:3652150
BeatmapSetID:1772712

[Difficulty]
HPDrainRate:6
CircleSize:3.8
OverallDifficulty:6
ApproachRate:7
SliderMultiplier:1.5
SliderTickRate:1

[Events]
//Background and Video events
0,0,"bg.jpg",0,0
//Break Periods
2,121631,127421
//Storyboard Layer 0 (Background)
//Storyboard Layer 1 (Fail)
//Storyboard Layer 2 (Pass)
//Storyboard Layer 3 (Foreground)
//Storyboard Layer 4 (Overlay)
//Storyboard Sound Samples

[TimingPoints]
552,431.654676258993,4,2,1,60,1,0
4005,-100,4,2,2,60,0,0
5947,-100,4,2,1,60,0,0
6055,-100,4,2,1,5,0,0
6163,-100,4,2,1,60,0,0
6271,-100,4,2,1,5,0,0
6379,-100,4,2,1,60,0,0
6595,-100,4,2,1,80,0,0
6703,-100,4,2,1,5,0,0
6810,-100,4,2,1,80,0,0
6918,-100,4,2,1,5,0,0
7026,-100,4,2,1,45,0,0
7350,-100,4,2,1,5,0,0
7458,-100,4,2,3,70,0,0
21271,-100,4,2,1,40,0,0
28177,-100,4,2,1,50,0,0
35084,-100,4,2,2,70,0,0
48897,-100,4,2,1,60,0,0
50300,-100,4,2,1,5,0,0
50408,-100,4,2,1,60,0,0
54293,-100,4,2,1,5,0,0
54400,-100,4,2,1,60,0,0
55695,-100,4,2,1,5,0,0
55803,-100,4,2,1,70,0,0
59257,-100,4,2,1,60,0,0
60120,-100,4,2,1,75,0,0
62710,-86.9565217391304,4,2,3,90,0,0
76091,-86.9565217391304,4,2,1,70,0,0
76523,-86.9565217391304,4,2,3,90,0,0
88177,-86.9565217391304,4,2,1,90,0,0
88501,-86.9565217391304,4,2,1,5,0,0
88609,-86.9565217391304,4,2,1,90,0,0
90336,-100,4,2,1,80,0,0
93789,-100,4,2,1,60,0,0
107602,-100,4,2,1,70,0,0
121415,-100,4,2,1,60,0,0
131775,-100,4,2,1,70,0,0
133501,-100,4,2,1,80,0,0
134364,-100,4,2,1,40,0,0
135228,-100,4,2,2,70,0,0
142350,-100,4,3,2,80,0,0
149041,-100,4,2,1,40,0,0
150120,-100,4,2,1,45,0,0
150336,-100,4,2,1,50,0,0
150552,-100,4,2,1,55,0,0
150767,-86.9565217391304,4,2,3,90,0,0
164149,-86.9565217391304,4,2,1,70,0,0
164580,-86.9565217391304,4,2,3,90,0,0
176235,-86.9565217391304,4,2,1,50,0,0
176451,-86.9565217391304,4,2,1,60,0,0
176667,-86.9565217391304,4,2,1,70,0,0
176882,-86.9565217391304,4,2,1,80,0,0
178285,-86.9565217391304,4,2,1,5,0,0
178393,-86.9565217391304,4,2,2,90,0,1
192206,-86.9565217391304,4,2,2,90,0,0
192638,-80,4,2,1,90,0,1
192962,-80,4,2,2,90,0,1
193069,-86.9565217391304,4,2,2,90,0,1
195767,-86.9565217391304,4,2,2,5,0,1
195875,-86.9565217391304,4,2,2,90,0,1
206019,-86.9565217391304,4,2,2,60,0,0
212926,-100,4,2,2,70,0,0
214652,-86.9565217391304,4,2,2,80,0,0
215947,-86.9565217391304,4,2,2,90,0,0

[Colours]
Combo1 : 255,223,125
Combo2 : 255,170,213
Combo3 : 150,225,254
Combo4 : 248,116,136

[HitObjects]
80,108,552,6,0,L|63:205,2,75,2|2|0,0:0|0:0|0:0,0:0:0:0:
140,41,1199,2,0,P|46:76|-13:31,2,150,2|2|2,0:0|0:0|0:0,0:0:0:0:
229,28,2278,1,0,0:0:0:0:
229,28,2494,2,0,P|277:91|248:171,1,150,2|2,0:0|0:2,0:0:0:0:
183,317,3357,2,0,P|135:254|164:174,1,150,2|2,0:0|0:0,0:0:0:0:
229,243,4005,5,2,3:2:0:0:
229,243,4221,2,0,P|270:249|328:263,1,75,2|8,0:0|0:0,0:0:0:0:
346,334,4652,2,0,P|452:332|472:280,1,150,10|2,0:0|0:0,0:0:0:0:
427,229,5300,1,8,0:0:0:0:
427,229,5516,2,0,P|421:188|407:130,1,75,2|0,3:2|3:0,0:0:0:0:
342,109,5947,5,4,1:2:0:0:
342,109,6163,1,4,1:2:0:0:
191,205,6595,1,4,1:2:0:0:
191,205,6810,1,4,1:2:0:0:
434,95,7458,6,0,P|444:56|454:23,2,75,4|2|0,3:1|0:0|1:0,0:0:0:0:
370,159,8105,2,0,P|425:125|505:166,2,150,2|2|2,0:0|0:0|0:0,0:0:0:0:
328,241,9185,5,0,3:0:0:0:
328,241,9401,2,0,P|339:280|350:323,1,75,2|0,0:0|1:0,0:0:0:0:
289,382,9832,2,0,P|239:374|215:342,1,75,2|2,0:0|0:2,0:0:0:0:
224,267,10264,2,0,P|197:227|89:233,1,150,2|2,0:0|0:0,0:0:0:0:
54,361,10911,5,0,3:0:0:0:
54,361,11127,2,0,P|44:319|34:288,1,75,2|0,0:0|1:0,0:0:0:0:
11,200,11559,2,0,P|32:118|56:49,1,150,2|2,0:0|0:0,0:0:0:0:
139,21,12206,1,0,1:0:0:0:
139,21,12422,6,0,P|173:45|168:102,1,75,2|0,0:0|3:0,0:0:0:0:
125,148,12854,2,0,P|137:191|145:239,1,75,2|0,0:0|1:0,0:0:0:0:
118,307,13285,2,0,P|163:355|252:316,1,150,2|2,0:0|0:0,0:0:0:0:
294,265,13933,1,2,1:2:0:0:
294,265,14149,1,2,1:2:0:0:
203,128,14364,6,0,P|168:112|115:97,2,75,0|2|0,3:0|0:0|1:0,0:0:0:0:
279,176,15012,2,0,P|319:159|367:147,1,75,2|0,0:0|3:0,0:0:0:0:
413,87,15444,1,2,0:0:0:0:
413,87,15552,1,0,0:0:0:0:
413,87,15659,2,0,P|447:113|482:148,1,75,0|2,1:0|0:0,0:0:0:0:
501,220,16091,6,0,L|478:306,1,75,0|2,3:0|0:0,0:0:0:0:
489,341,16415,1,0,0:0:0:0:
489,341,16523,2,0,P|454:302|414:302,1,75,0|2,1:0|0:0,0:0:0:0:
351,334,16954,2,0,L|271:357,1,75,4|2,1:2|0:0,0:0:0:0:
205,302,17386,2,0,P|197:283|192:260,3,37.5,4|0|2|0,1:2|0:0|0:0|0:0,0:0:0:0:
214,226,17818,5,0,3:0:0:0:
280,165,18034,1,2,0:0:0:0:
280,165,18141,1,0,0:0:0:0:
280,165,18249,2,0,P|292:126|300:82,1,75,0|2,1:0|0:0,0:0:0:0:
241,28,18681,1,0,3:0:0:0:
241,28,18897,2,0,P|201:37|159:52,1,75,2|0,0:0|1:0,0:0:0:0:
85,7,19328,1,2,0:0:0:0:
181,136,19544,6,0,P|174:173|164:213,1,75,0|2,3:0|0:0,0:0:0:0:
169,299,19976,2,0,P|132:292|92:282,1,75,0|2,1:0|0:0,0:0:0:0:
6,287,20408,2,0,P|13:250|23:210,1,75,0|2,3:0|1:2,0:0:0:0:
18,125,20839,2,0,P|55:131|95:141,1,75,0|2,1:0|1:2,0:0:0:0:
165,209,21271,5,4,3:1:0:0:
165,209,21918,1,0,0:0:0:0:
165,209,22566,2,0,P|191:240|183:288,1,75,0|0,3:0|0:0,0:0:0:0:
190,363,22998,2,0,P|230:349|275:338,1,75,0|0,3:0|0:0,0:0:0:0:
320,273,23429,2,0,P|359:287|401:307,1,75,0|0,3:0|0:0,0:0:0:0:
447,370,23861,1,0,3:0:0:0:
500,197,24293,1,0,3:0:0:0:
389,54,24724,5,0,3:0:0:0:
389,54,25372,1,0,0:0:0:0:
389,54,26019,2,0,P|361:76|307:62,1,75,0|0,3:0|0:0,0:0:0:0:
255,22,26451,1,0,3:0:0:0:
255,22,26667,2,0,P|237:99|221:184,1,150,2|0,0:0|0:0,0:0:0:0:
291,227,27314,1,2,3:2:0:0:
196,380,27746,1,2,3:2:0:0:
27,316,28177,6,0,P|89:280|91:208,1,150,2|2,3:2|3:2,0:0:0:0:
43,133,28825,2,0,P|45:61|107:25,1,150
201,34,29472,1,0,3:0:0:0:
201,34,29688,1,2,0:0:0:0:
241,114,29904,2,0,P|228:156|213:196,1,75,0|2,3:0|0:0,0:0:0:0:
281,249,30336,2,0,P|291:284|304:320,1,75,2|2,3:2|0:0,0:0:0:0:
380,367,30767,2,0,P|452:363|485:284,1,150,2|2,3:2|3:2,0:0:0:0:
433,127,31631,6,0,P|366:103|273:79,1,150,2|2,3:2|3:2,0:0:0:0:
223,21,32278,2,0,P|152:33|60:59,1,150
51,142,32926,1,0,0:0:0:0:
51,142,33141,1,2,3:2:0:0:
130,185,33357,6,0,P|144:202|151:218,1,37.5,10|10,3:2|3:2,0:0:0:0:
285,206,33789,2,0,P|282:227|276:244,1,37.5,10|10,3:2|3:2,0:0:0:0:
382,327,34221,2,0,P|365:341|349:348,2,37.5,10|8|8,3:2|0:0|0:0,0:0:0:0:
401,239,34652,1,8,3:2:0:0:
496,227,34868,1,10,0:0:0:0:
496,227,34976,1,10,0:0:0:0:
496,227,35084,6,0,P|474:147|449:75,1,150,6|10,3:2|3:2,0:0:0:0:
386,22,35731,1,0,0:0:0:0:
299,46,35947,2,0,P|270:94|170:78,1,150,2|8,0:0|3:2,0:0:0:0:
11,143,36810,6,0,P|22:184|30:231,1,75,0|2,3:0|0:0,0:0:0:0:
96,275,37242,2,0,P|138:282|183:294,1,75,8|2,3:2|0:0,0:0:0:0:
348,264,37890,2,0,P|362:298|372:334,2,75,2|8|2,0:0|0:0|0:0,0:0:0:0:
248,228,38537,6,0,P|249:188|285:157,1,75,2|0,3:2|0:0,0:0:0:0:
319,158,38861,1,0,0:0:0:0:
319,158,38969,1,10,3:2:0:0:
376,88,39185,1,0,0:0:0:0:
327,12,39400,2,0,P|291:3|240:-2,1,75,2|2,3:2|0:0,0:0:0:0:
168,29,39832,1,8,3:2:0:0:
170,119,40048,6,0,P|148:173|73:185,1,112.5,2|0,0:0|0:0,0:0:0:0:
55,185,40480,2,0,P|76:216|82:267,2,75,2|8|2,0:0|3:2|0:0,0:0:0:0:
7,361,41343,1,2,0:0:0:0:
7,361,41559,2,0,P|37:339|95:346,1,75,8|2,3:2|0:0,0:0:0:0:
188,382,41990,6,0,P|184:342|176:294,1,75,2|0,3:2|0:0,0:0:0:0:
214,278,42314,1,0,0:0:0:0:
214,278,42422,2,0,P|218:238|226:190,1,75,10|0,3:2|0:0,0:0:0:0:
153,146,42854,2,0,P|157:71|230:46,1,150,2|8,3:2|3:2,0:0:0:0:
295,90,43501,1,2,0:0:0:0:
352,20,43717,6,0,P|399:4|431:12,1,75,0|2,3:0|0:0,0:0:0:0:
501,53,44149,2,0,P|517:100|509:132,1,75,8|2,3:2|0:0,0:0:0:0:
339,175,44796,1,2,0:0:0:0:
419,225,45012,1,8,3:2:0:0:
419,225,45228,1,2,0:0:0:0:
370,318,45444,6,0,P|331:326|276:343,1,75,2|0,3:2|3:2,0:0:0:0:
264,367,45767,1,0,3:0:0:0:
264,367,45875,2,0,P|226:354|170:341,1,75,10|0,3:2|3:0,0:0:0:0:
109,376,46307,1,2,3:2:0:0:
109,376,46523,1,2,3:2:0:0:
36,322,46739,2,0,P|35:280|62:251,1,75,8|2,3:2|0:0,0:0:0:0:
136,166,47170,6,0,P|181:173|237:188,1,75,0|8,3:0|3:0,0:0:0:0:
247,213,47494,1,0,3:0:0:0:
247,213,47602,2,0,P|256:236|262:261,2,37.5,0|4|0,0:0|3:0|3:0,0:0:0:0:
292,120,48034,1,4,3:0:0:0:
376,149,48249,1,0,0:0:0:0:
359,62,48465,1,4,0:0:0:0:
494,180,48897,6,0,B|478:198|478:198|462:296,2,112.5,4|0|2,3:1|3:0|3:2,0:0:0:0:
456,98,49760,2,0,B|446:42|446:42|455:24,1,75,10|2,3:2|0:0,0:0:0:0:
283,61,50408,1,2,3:2:0:0:
283,61,50516,1,2,3:2:0:0:
283,61,50623,6,0,B|261:40|261:40|169:19,2,112.5,2|2|0,3:2|3:2|0:0,0:0:0:0:
319,149,51487,1,10,3:2:0:0:
319,149,51703,1,0,0:0:0:0:
349,233,51918,2,0,L|398:247,2,37.5,2|0|0,0:0|0:0|0:0,0:0:0:0:
247,277,52350,6,0,B|262:304|262:304|244:398,2,112.5,2|2|2,3:2|3:2|3:2,0:0:0:0:
158,294,53213,2,0,P|85:310|31:251,1,150,10|0,3:2|0:0,0:0:0:0:
71,184,53861,1,2,3:2:0:0:
71,184,53969,1,2,3:2:0:0:
71,184,54077,6,0,B|83:160|83:160|53:52,2,112.5,2|0|0,3:2|3:0|3:0,0:0:0:0:
157,208,54940,2,0,P|196:195|245:181,1,75,10|2,3:2|3:2,0:0:0:0:
262,155,55264,1,2,3:2:0:0:
262,155,55372,2,0,P|326:171|391:192,1,112.5,2|0,3:2|2:0,0:0:0:0:
402,215,55803,6,0,P|394:251|381:288,1,75,4|0,3:2|3:0,0:0:0:0:
403,374,56235,1,10,3:2:0:0:
473,317,56451,1,0,3:0:0:0:
473,317,56559,1,0,3:0:0:0:
473,317,56667,2,0,P|481:281|494:244,1,75,0|0,3:0|3:0,0:0:0:0:
473,161,57098,1,10,3:2:0:0:
473,161,57314,1,0,3:0:0:0:
305,53,57746,6,0,L|226:42,1,75,0|10,3:0|3:2,0:0:0:0:
159,94,58177,1,0,3:0:0:0:
159,94,58285,1,0,3:0:0:0:
159,94,58393,2,0,P|177:132|194:177,1,75,0|0,3:0|3:0,0:0:0:0:
267,207,58825,2,0,P|252:246|233:290,1,75,10|0,3:2|3:0,0:0:0:0:
154,348,59257,5,0,3:0:0:0:
28,219,59688,2,0,P|25:177|53:141,1,75,10|0,3:2|3:0,0:0:0:0:
72,65,60120,2,0,P|109:83|126:126,1,75,0|0,3:0|3:0,0:0:0:0:
183,180,60552,2,0,P|148:203|103:196,1,75,10|0,3:2|3:0,0:0:0:0:
42,150,60983,5,4,3:0:0:0:
124,111,61199,1,4,1:2:0:0:
124,111,61415,1,4,1:2:0:0:
298,153,61846,1,4,1:2:0:0:
216,192,62062,1,4,1:2:0:0:
67,361,62710,6,0,P|46:315|25:281,2,86.2500016450882,4|2|0,3:1|0:0|1:0,0:0:0:0:
150,312,63357,1,2,0:0:0:0:
150,312,63465,2,0,P|220:321|306:337,1,129.375002467632,2|2,0:0|0:0,0:0:0:0:
357,383,64005,2,0,P|371:335|406:305,1,86.2500016450882,0|2,1:0|0:0,0:0:0:0:
405,168,64436,6,0,P|446:156|488:148,2,86.2500016450882,0|2|0,3:0|0:0|1:0,0:0:0:0:
349,241,65084,1,2,0:0:0:0:
349,241,65192,2,0,P|285:255|200:268,1,129.375002467632,2|2,0:0|0:0,0:0:0:0:
127,269,65731,2,0,P|83:232|90:195,1,86.2500016450882,0|2,1:0|0:0,0:0:0:0:
45,72,66163,6,0,P|89:53|127:41,1,86.2500016450882,0|2,3:0|0:0,0:0:0:0:
195,106,66595,1,0,1:0:0:0:
271,49,66810,1,2,0:0:0:0:
271,49,66918,2,0,P|315:73|323:157,1,129.375002467632,2|2,0:0|0:0,0:0:0:0:
241,186,67458,2,0,P|223:228|208:279,1,86.2500016450882,0|2,1:0|0:0,0:0:0:0:
273,376,67890,6,0,P|319:356|366:355,1,86.2500016450882,0|2,3:0|0:0,0:0:0:0:
445,382,68321,1,0,1:0:0:0:
496,303,68537,1,2,0:0:0:0:
496,303,68645,2,0,P|479:234|457:161,1,129.375002467632,2|2,0:0|0:0,0:0:0:0:
495,90,69185,1,0,1:0:0:0:
428,23,69400,1,2,0:0:0:0:
308,72,69616,6,0,P|296:123|289:162,1,86.2500016450882,0|2,3:0|0:0,0:0:0:0:
362,218,70048,1,0,1:0:0:0:
335,309,70264,2,0,P|278:364|178:333,1,172.500003290176,2|2,0:0|0:0,0:0:0:0:
132,274,70911,1,0,1:0:0:0:
10,290,71127,6,0,P|25:205|45:121,1,172.500003290176,2|2,0:0|0:0,0:0:0:0:
105,47,71775,1,0,1:0:0:0:
186,94,71990,2,0,P|224:128|323:76,1,172.500003290176,2|2,0:0|0:0,0:0:0:0:
385,12,72638,2,0,P|437:17|464:60,1,86.2500016450882,0|2,1:0|0:0,0:0:0:0:
393,162,73069,6,0,L|371:262,1,86.2500016450882,0|2,3:0|0:0,0:0:0:0:
393,295,73393,1,0,0:0:0:0:
393,295,73501,2,0,P|359:270|317:278,1,86.2500016450882,0|2,1:0|0:0,0:0:0:0:
255,350,73933,2,0,P|213:358|179:333,1,86.2500016450882,0|2,3:0|0:0,0:0:0:0:
158,296,74257,1,0,0:0:0:0:
158,296,74364,1,0,1:0:0:0:
255,199,74580,6,0,P|246:153|233:102,1,86.2500016450882,2|0,0:0|3:0,0:0:0:0:
168,47,75012,2,0,P|173:27|182:5,2,43.1250008225441,0|0|8,3:0|3:0|1:3,0:0:0:0:
77,75,75444,2,0,P|62:60|47:41,2,43.1250008225441,0|0|4,3:0|3:0|3:0,0:0:0:0:
68,176,75875,1,0,3:0:0:0:
68,176,75983,1,0,3:0:0:0:
68,176,76091,2,0,P|54:222|43:264,1,86.2500016450882,4|0,1:2|0:0,0:0:0:0:
141,369,76523,6,0,P|182:343|224:349,1,86.2500016450882,4|2,3:1|0:0,0:0:0:0:
305,384,76954,1,0,1:0:0:0:
300,293,77170,1,2,0:0:0:0:
300,293,77278,2,0,P|287:232|268:159,1,129.375002467632,2|2,0:0|0:0,0:0:0:0:
192,111,77818,1,0,1:0:0:0:
192,111,78034,1,2,0:0:0:0:
264,11,78249,6,0,P|319:10|347:32,1,86.2500016450882,0|2,3:0|0:0,0:0:0:0:
354,121,78681,1,0,1:0:0:0:
433,67,78897,1,2,0:0:0:0:
433,67,79005,2,0,P|449:128|464:210,1,129.375002467632,2|2,0:0|0:0,0:0:0:0:
457,291,79544,1,0,1:0:0:0:
457,291,79760,1,2,0:0:0:0:
357,349,79976,5,0,3:0:0:0:
357,349,80192,1,2,0:0:0:0:
294,277,80408,1,0,1:0:0:0:
211,322,80623,1,2,0:0:0:0:
211,322,80731,2,0,P|161:356|101:328,1,129.375002467632,2|2,0:0|0:0,0:0:0:0:
43,256,81271,1,0,1:0:0:0:
43,256,81487,1,2,0:0:0:0:
119,150,81703,5,0,3:0:0:0:
119,150,81918,1,2,0:0:0:0:
72,67,82134,1,0,1:0:0:0:
144,5,82350,1,2,0:0:0:0:
144,5,82458,2,0,P|210:21|281:48,1,129.375002467632,2|2,0:0|0:0,0:0:0:0:
279,136,82998,1,0,1:0:0:0:
368,166,83213,1,2,0:0:0:0:
368,20,83429,6,0,P|414:33|459:50,1,86.2500016450882,0|2,3:0|0:0,0:0:0:0:
460,141,83861,1,0,1:0:0:0:
368,166,84077,2,0,P|316:237|269:313,1,172.500003290176,2|2,0:0|0:0,0:0:0:0:
340,373,84724,1,0,1:0:0:0:
189,352,84940,6,0,P|150:325|165:209,1,172.500003290176,2|2,0:0|0:0,0:0:0:0:
248,175,85587,1,0,1:0:0:0:
264,83,85803,2,0,P|194:32|94:41,1,172.500003290176,2|2,0:0|0:0,0:0:0:0:
25,71,86451,1,0,1:0:0:0:
25,71,86667,1,2,0:0:0:0:
109,150,86882,6,0,P|121:192|131:250,1,86.2500016450882,0|2,3:0|0:0,0:0:0:0:
108,278,87206,1,0,0:0:0:0:
108,278,87314,2,0,L|46:294,2,43.1250008225441,0|0|2,1:0|0:0|0:0,0:0:0:0:
177,343,87746,2,0,L|161:405,2,43.1250008225441,0|0|2,3:0|3:0|3:2,3:0:0:0:
222,323,88070,1,0,3:0:0:0:
222,323,88177,1,4,1:2:0:0:
234,197,88393,6,0,P|260:169|311:158,1,86.2500016450882,0|0,0:0|1:0,0:0:0:0:
370,227,88825,1,0,1:0:0:0:
452,180,89041,1,0,1:0:0:0:
452,274,89257,1,0,1:0:0:0:
452,274,90336,6,0,P|426:222|386:166,1,112.5,4|0,3:2|3:0,0:0:0:0:
420,44,90983,2,0,P|363:52|297:73,1,112.5,0|0,3:0|3:0,0:0:0:0:
189,7,91631,2,0,P|179:63|179:132,1,112.5,0|0,3:0|3:0,0:0:0:0:
86,218,92278,1,0,3:0:0:0:
86,218,92386,1,0,3:0:0:0:
86,218,92494,2,0,P|121:237|165:255,1,75,0|0,3:0|3:0,0:0:0:0:
236,215,92926,2,0,P|265:252|262:285,1,75,0|0,3:0|1:0,3:0:0:0:
181,314,93357,2,0,P|152:277|155:244,1,75,0|0,1:0|1:0,0:0:0:0:
150,126,93789,5,4,3:1:0:0:
150,126,94436,1,2,0:0:0:0:
150,126,95084,2,0,P|180:104|215:90,1,75,0|0,3:0|0:0,0:0:0:0:
281,28,95516,2,0,P|318:37|363:60,1,75,2|2,3:2|0:0,0:0:0:0:
410,120,95947,2,0,P|420:156|423:207,1,75,0|2,3:0|0:0,0:0:0:0:
343,233,96379,2,0,P|413:212|478:253,1,150,0|0,3:0|3:0,0:0:0:0:
338,365,97242,6,0,P|264:337|183:316,1,150,2|0,3:2|3:0,0:0:0:0:
115,360,97890,2,0,P|80:325|88:283,1,75,2|0,0:0|3:0,0:0:0:0:
252,242,98537,1,0,3:0:0:0:
252,242,98753,1,0,0:0:0:0:
290,160,98969,2,0,P|275:108|255:87,1,75,2|2,3:2|0:0,0:0:0:0:
293,8,99400,2,0,P|240:-5|212:1,1,75,0|2,3:0|0:0,0:0:0:0:
170,74,99832,1,0,3:0:0:0:
0,133,100264,1,2,3:2:0:0:
137,250,100695,6,0,P|211:219|278:199,1,150,0|0,3:0|3:0,0:0:0:0:
358,251,101343,1,2,0:0:0:0:
358,251,101559,2,0,P|366:292|367:334,2,75,2|2|2,3:2|0:0|3:2,0:0:0:0:
424,190,102206,1,0,0:0:0:0:
485,124,102422,6,0,P|493:87|498:43,1,75,2|2,3:2|0:0,0:0:0:0:
407,56,102854,2,0,P|370:48|326:43,1,75,0|2,3:0|0:0,0:0:0:0:
250,79,103285,2,0,P|227:135|298:210,1,150,0|2,3:0|3:2,0:0:0:0:
436,281,104149,6,0,P|475:287|522:305,2,75,0|2|0,3:0|0:0|3:0,0:0:0:0:
359,328,104796,2,0,P|281:341|195:359,1,150,2|2,0:0|0:0,0:0:0:0:
127,335,105444,1,0,3:0:0:0:
127,335,105659,1,2,0:0:0:0:
98,249,105875,6,0,B|81:227|81:227|-1:196,2,112.5,10|8|8,3:2|0:0|0:0,0:0:0:0:
156,180,106739,1,4,0:0:0:0:
243,197,106954,1,0,0:0:0:0:
272,281,107170,2,0,L|327:297,3,37.5,2|2|2|2,0:0|0:0|0:0|0:0,0:0:0:0:
341,322,107602,5,4,3:1:0:0:
382,242,107818,2,0,P|422:231|472:224,1,75,2|10,0:0|0:0,0:0:0:0:
509,156,108249,1,2,0:0:0:0:
509,156,108357,1,2,0:0:0:0:
509,156,108465,1,2,3:2:0:0:
467,75,108681,2,0,P|430:64|393:58,1,75,2|8,0:0|0:0,0:0:0:0:
233,139,109328,6,0,B|221:195,2,56.25,2|2|2,3:2|0:0|0:0,0:0:0:0:
263,105,109760,2,0,B|317:87,2,56.25,10|2|2,0:0|0:0|0:0,0:0:0:0:
218,96,110192,2,0,B|175:57,2,56.25,2|2|2,3:2|0:0|0:0,0:0:0:0:
233,139,110623,1,10,0:0:0:0:
382,242,111055,6,0,P|442:281|435:356,1,150,2|10,3:2|0:0,0:0:0:0:
258,370,111918,2,0,P|228:345|180:341,1,75,2|2,3:2|0:0,0:0:0:0:
154,358,112242,1,2,0:0:0:0:
154,358,112350,1,8,0:0:0:0:
88,190,112782,6,0,P|110:169|148:162,2,56.25,2|2|2,3:2|0:0|0:0,0:0:0:0:
81,234,113213,2,0,P|88:263|75:299,2,56.25,10|2|2,0:0|0:0|0:0,0:0:0:0:
46,205,113645,2,0,P|16:196|-8:167,2,56.25,2|2|2,3:2|0:0|0:0,0:0:0:0:
88,190,114077,1,10,0:0:0:0:
202,51,114508,6,0,P|167:33|126:22,2,75,2|0|10,3:2|0:0|0:2,0:0:0:0:
217,139,115156,1,0,0:0:0:0:
307,152,115372,2,0,P|342:134|383:123,2,75,2|2|8,3:2|0:2|3:2,0:0:0:0:
289,240,116019,1,2,0:0:0:0:
149,354,116451,5,2,0:0:0:0:
80,294,116667,1,8,0:0:0:0:
165,264,116882,1,2,0:0:0:0:
345,270,117314,1,2,0:0:0:0:
414,210,117530,1,8,0:0:0:0:
329,180,117745,1,2,0:0:0:0:
261,238,117962,5,2,3:2:0:0:
152,101,118393,1,10,0:0:0:0:
152,101,118609,1,0,0:0:0:0:
198,23,118825,2,0,P|234:3|276:4,1,75,2|2,3:2|0:0,0:0:0:0:
346,55,119257,1,8,0:0:0:0:
346,55,119472,1,2,0:0:0:0:
422,151,119688,6,0,B|405:167|405:167|388:260,1,112.5,4|4,3:0|3:0,0:0:0:0:
382,299,120120,1,8,1:3:0:0:
304,345,120336,2,0,B|291:324|291:324|230:311,1,75,4|0,3:0|3:0,0:0:0:0:
201,308,120659,1,0,1:0:0:0:
201,308,120767,1,4,3:0:0:0:
146,235,120983,2,0,B|176:211|176:211|194:87,1,150,4|4,1:2|3:1,0:0:0:0:
142,298,128321,6,0,P|105:340|166:315,3,150,0|0|10|2,3:0|0:0|3:2|3:2,0:0:0:0:
338,296,130048,2,0,P|411:315|486:346,1,150,2|0,3:2|0:0,0:0:0:0:
368,201,130911,2,0,P|298:172|226:153,1,150,2|10,3:2|3:2,0:0:0:0:
170,320,131775,5,2,3:2:0:0:
170,320,132206,1,0,0:0:0:0:
170,320,132638,1,10,3:2:0:0:
170,320,133069,1,2,3:2:0:0:
0,256,133501,1,2,3:2:0:0:
57,90,133933,1,0,0:0:0:0:
170,320,135228,6,0,P|243:294|329:276,1,150,4|8,3:1|3:2,0:0:0:0:
372,346,135875,1,0,0:0:0:0:
458,320,136091,2,0,P|481:288|480:249,1,75,0|0,3:0|0:0,0:0:0:0:
441,172,136523,2,0,P|409:149|370:150,1,75,8|0,3:2|0:0,0:0:0:0:
257,176,136954,6,0,P|241:134|215:100,2,75,0|0|8,3:0|0:0|3:2,0:0:0:0:
205,250,137602,1,0,0:0:0:0:
277,312,137818,1,4,1:2:0:0:
277,312,138034,1,4,1:2:0:0:
10,267,138681,6,0,L|26:341,2,75,0|0|8,3:0|0:0|3:2,0:0:0:0:
62,194,139328,1,0,0:0:0:0:
11,119,139544,2,0,P|28:81|63:64,1,75,0|0,3:0|0:0,0:0:0:0:
144,46,139976,2,0,P|185:50|212:78,1,75,8|0,3:2|0:0,0:0:0:0:
247,189,140408,6,0,P|278:159|320:135,2,75,0|0|8,3:0|0:0|3:2,0:0:0:0:
230,277,141055,1,0,0:0:0:0:
313,322,141271,1,4,1:2:0:0:
313,322,141487,1,4,1:2:0:0:
459,217,141918,1,0,0:0:0:0:
459,217,142134,6,0,P|439:142|416:70,1,150,4|8,3:1|0:2,0:0:0:0:
337,29,142782,1,0,0:0:0:0:
274,93,142998,2,0,P|243:116|194:103,1,75
180,85,143321,1,0,0:0:0:0:
180,85,143429,2,0,P|139:77|99:71,1,75,8|0,0:2|0:0,0:0:0:0:
7,143,143861,6,0,P|3:186|101:234,1,150,0|8,0:0|0:2,0:0:0:0:
160,193,144508,1,0,0:0:0:0:
232,245,144724,2,0,P|238:263|241:289,3,37.5
234,326,145156,2,0,P|271:301|324:312,1,75,8|0,0:2|0:0,0:0:0:0:
383,380,145587,6,0,P|398:307|418:227,1,150,0|8,0:0|0:2,0:0:0:0:
494,188,146235,1,0,0:0:0:0:
423,150,146451,1,0,0:0:0:0:
423,150,146559,1,0,0:0:0:0:
423,150,146667,2,0,P|419:124|414:98,2,37.5,0|0|8,0:0|0:0|0:2,0:0:0:0:
342,189,147098,1,0,0:0:0:0:
274,89,147314,6,0,P|249:60|201:55,1,75
129,82,147746,2,0,P|100:107|95:155,1,75,8|0,0:2|0:0,0:0:0:0:
161,206,148177,1,8,0:2:0:0:
109,281,148393,1,8,0:2:0:0:
109,281,148501,1,0,0:0:0:0:
109,281,148609,2,0,L|53:290,4,37.5,8|0|8|8|2,0:2|0:0|0:2|0:2|0:0,0:0:0:0:
440,300,150120,6,0,P|463:335|477:387,2,75,2|2|2,3:2|3:2|3:2,0:0:0:0:
380,226,150767,2,0,L|403:142,2,86.2500016450882,4|2|0,3:1|0:0|1:0,0:0:0:0:
307,286,151414,1,2,0:0:0:0:
307,286,151522,2,0,P|282:289|260:275,1,43.1250008225441,0|0,3:0|3:0,0:0:0:0:
215,200,151846,2,0,P|173:188|131:180,2,86.2500016450882,2|0|2,0:0|1:0|0:0,0:0:0:0:
98,272,152494,6,0,P|111:315|120:354,2,86.2500016450882,0|2|0,3:0|0:0|1:0,0:0:0:0:
24,220,153141,1,2,0:0:0:0:
24,220,153249,2,0,P|31:196|39:174,1,43.1250008225441,0|0,3:0|3:0,0:0:0:0:
79,93,153573,2,0,P|60:50|5:35,2,86.2500016450882,2|0|2,0:0|1:0|0:0,0:0:0:0:
189,172,154221,6,0,P|207:127|235:83,1,86.2500016450882,0|2,3:0|0:0,0:0:0:0:
299,33,154652,1,0,1:0:0:0:
347,120,154868,1,2,0:0:0:0:
347,120,154976,2,0,P|369:129|397:138,1,43.1250008225441,0|0,3:0|3:0,0:0:0:0:
469,86,155300,2,0,P|482:42|501:-3,2,86.2500016450882,2|0|2,0:0|1:0|0:0,0:0:0:0:
501,221,155947,6,0,P|454:234|405:254,1,86.2500016450882,0|2,3:0|0:2,0:0:0:0:
424,342,156379,1,0,1:0:0:0:
340,296,156595,1,2,0:0:0:0:
340,296,156703,2,0,P|328:276|325:249,1,43.1250008225441,2|0,3:2|3:0,0:0:0:0:
366,171,157026,1,2,0:0:0:0:
366,171,157242,1,0,1:0:0:0:
332,81,157458,1,2,0:0:0:0:
215,9,157674,6,0,P|168:24|121:45,1,86.2500016450882,0|2,3:0|0:0,0:0:0:0:
76,113,158105,1,0,1:0:0:0:
169,128,158321,2,0,P|210:199|152:283,1,172.500003290176,2|2,0:0|0:0,0:0:0:0:
83,310,158969,1,0,1:0:0:0:
210,362,159185,6,0,P|298:340|386:325,1,172.500003290176,2|2,0:0|0:0,0:0:0:0:
470,349,159832,1,0,1:0:0:0:
512,263,160048,2,0,P|487:205|381:194,1,172.500003290176,2|2,0:0|0:0,0:0:0:0:
311,245,160695,1,0,1:0:0:0:
311,245,160911,1,2,0:0:0:0:
336,109,161127,6,0,P|334:85|320:63,3,43.1250008225441,0|0|2|0,3:0|0:0|0:0|0:0,0:0:0:0:
290,34,161559,2,0,P|242:24|189:20,1,86.2500016450882,0|2,1:0|0:0,0:0:0:0:
111,40,161991,2,0,P|104:18|93:-8,2,43.1250008225441,0|0|2,3:0|0:0|0:0,0:0:0:0:
91,85,162315,1,0,0:0:0:0:
91,85,162422,1,0,1:0:0:0:
218,129,162638,6,0,P|231:178|239:225,1,86.2500016450882,2|0,0:0|3:0,0:0:0:0:
219,306,163069,2,0,P|242:314|272:328,2,43.1250008225441,2|0|8,3:2|3:0|1:3,0:0:0:0:
127,333,163501,2,0,P|131:356|134:389,2,43.1250008225441,2|0|4,3:2|3:0|3:0,0:0:0:0:
64,275,163933,1,2,3:2:0:0:
64,275,164041,1,0,3:0:0:0:
64,275,164149,1,4,1:2:0:0:
78,181,164364,1,0,0:0:0:0:
216,137,164580,6,0,P|259:146|310:168,1,86.2500016450882,4|2,3:1|0:0,0:0:0:0:
321,254,165012,1,0,1:0:0:0:
414,288,165228,1,2,0:0:0:0:
414,288,165336,2,0,P|437:277|464:268,1,43.1250008225441,2|0,3:2|0:0,0:0:0:0:
490,185,165659,1,2,3:2:0:0:
490,185,165875,2,0,P|473:139|447:88,1,86.2500016450882,0|2,1:0|0:0,0:0:0:0:
353,19,166307,6,0,P|319:53|258:41,1,86.2500016450882,0|2,3:0|0:0,0:0:0:0:
196,14,166739,1,0,1:0:0:0:
144,94,166954,1,2,0:0:0:0:
144,94,167062,2,0,P|145:118|155:146,1,43.1250008225441,2|0,3:2|0:0,0:0:0:0:
239,169,167386,1,2,3:2:0:0:
239,169,167602,2,0,P|251:209|261:255,1,86.2500016450882,0|2,1:0|0:0,0:0:0:0:
174,362,168034,6,0,P|135:366|99:325,1,86.2500016450882,0|2,3:0|0:0,0:0:0:0:
130,245,168465,1,0,1:0:0:0:
55,195,168681,1,2,0:0:0:0:
55,195,168789,1,2,3:2:0:0:
81,55,169113,1,2,3:2:0:0:
170,18,169328,1,0,1:0:0:0:
170,18,169544,1,2,0:0:0:0:
267,113,169760,6,0,P|311:127|371:143,1,86.2500016450882,0|2,3:0|0:0,0:0:0:0:
416,70,170192,1,0,1:0:0:0:
497,128,170408,1,2,0:0:0:0:
497,128,170516,1,2,3:2:0:0:
481,269,170839,1,2,3:2:0:0:
393,305,171055,1,2,1:2:0:0:
468,362,171271,1,2,0:0:0:0:
331,372,171487,6,0,P|287:352|241:338,1,86.2500016450882,0|2,3:0|0:0,0:0:0:0:
160,368,171918,1,0,1:0:0:0:
88,305,172134,2,0,P|70:225|146:172,1,172.500003290176,2|2,0:0|0:0,0:0:0:0:
212,228,172782,1,0,1:0:0:0:
347,202,172998,6,0,P|380:119|419:29,1,172.500003290176,2|2,0:0|0:0,0:0:0:0:
325,5,173645,1,0,1:0:0:0:
278,87,173861,2,0,P|215:96|165:49,1,129.375002467632,2|0,0:0|0:0,0:0:0:0:
148,11,174293,1,2,0:0:0:0:
54,26,174508,1,0,1:0:0:0:
42,120,174724,1,2,0:0:0:0:
128,223,174940,6,0,P|140:243|147:271,3,43.1250008225441,0|0|2|0,3:0|0:0|0:0|0:0,0:0:0:0:
137,308,175372,2,0,P|160:302|189:304,3,43.1250008225441,0|0|2|0,1:0|0:0|0:0|0:0,0:0:0:0:
221,326,175803,2,0,P|222:301|233:275,3,43.1250008225441,0|0|2|0,3:0|0:0|0:0|0:0,0:0:0:0:
263,251,176235,1,0,1:0:0:0:
211,161,176451,6,0,P|211:110|246:78,1,86.2500016450882,2|0,1:2|1:0,0:0:0:0:
323,53,176882,2,0,P|328:30|340:7,2,43.1250008225441,2|0|0,1:2|3:0|1:0,0:0:0:0:
349,144,177314,2,0,P|345:168|335:184,2,43.1250008225441,2|0|0,3:2|3:0|3:0,0:0:0:0:
425,87,177746,2,0,P|471:80|516:125,2,86.2500016450882,2|4|0,3:2|1:2|0:0,0:0:0:0:
437,218,178393,6,0,B|433:273|433:273|323:320,1,172.500003290176,4|0,3:1|1:0,0:0:0:0:
237,356,179041,1,2,0:0:0:0:
164,294,179257,2,0,L|176:199,1,86.2500016450882,0|2,3:0|0:0,0:0:0:0:
245,145,179688,2,0,B|283:126|283:126|333:149,1,86.2500016450882,0|2,1:0|0:0,0:0:0:0:
162,24,180336,5,2,0:0:0:0:
143,35,180444,1,0,0:0:0:0:
125,47,180552,2,0,L|114:132,1,86.2500016450882,0|2,1:0|0:0,0:0:0:0:
34,183,180983,2,0,P|11:221|25:257,1,86.2500016450882,0|2,3:0|0:0,0:0:0:0:
82,333,181415,2,0,P|120:356|156:342,1,86.2500016450882,0|2,1:0|0:0,0:0:0:0:
174,208,181846,6,0,B|246:156|246:156|328:170,1,172.500003290176,0|0,3:0|1:0,0:0:0:0:
422,188,182494,1,2,0:0:0:0:
458,275,182710,2,0,P|460:335|422:354,1,86.2500016450882,0|2,3:0|0:0,0:0:0:0:
351,334,183141,2,0,P|348:273|386:254,1,86.2500016450882,0|2,1:0|0:0,0:0:0:0:
512,105,183789,6,0,L|418:91,1,86.2500016450882,2|0,0:0|1:0,0:0:0:0:
363,20,184221,1,2,0:0:0:0:
287,75,184436,1,0,3:0:0:0:
287,75,184652,1,2,0:0:0:0:
348,147,184868,2,0,P|359:190|288:255,1,129.375002467632,0|0,1:0|0:0,0:0:0:0:
261,251,185300,5,0,3:0:0:0:
227,339,185516,1,2,0:0:0:0:
37,342,185947,1,2,0:0:0:0:
66,251,186163,2,0,B|75:203|75:203|86:129|14:100,1,172.500003290176,0|0,3:0|1:0,0:0:0:0:
120,16,186810,6,0,P|164:6|208:3,1,86.2500016450882,2|0,0:0|3:0,0:0:0:0:
233,46,187134,1,0,0:0:0:0:
233,46,187242,2,0,P|204:78|181:114,1,86.2500016450882,2|0,0:0|1:0,0:0:0:0:
169,209,187674,2,0,P|231:196|348:200,1,172.500003290176,2|2,0:0|0:0,0:0:0:0:
383,282,188321,1,0,1:0:0:0:
383,282,188537,1,2,0:0:0:0:
492,200,188753,5,0,3:0:0:0:
451,113,188969,1,2,0:0:0:0:
262,97,189400,1,2,0:0:0:0:
207,19,189616,2,0,P|165:22|121:31,1,86.2500016450882,0|2,3:0|0:0,0:0:0:0:
75,115,190048,1,0,1:3:0:0:
75,115,190264,1,6,0:2:0:0:
96,240,190480,6,0,B|40:215|40:215|13:222,2,86.2500016450882,0|6|0,0:0|0:0|0:0,0:0:0:0:
174,293,191127,1,6,0:0:0:0:
267,260,191343,1,8,3:0:0:0:
267,260,191451,1,4,3:0:0:0:
267,260,191559,1,4,3:0:0:0:
308,345,191775,2,0,P|372:350|428:300,1,129.375002467632,4|0,1:2|0:0,0:0:0:0:
436,266,192206,5,0,3:0:0:0:
299,101,192638,2,0,B|219:97|236:150|143:138,1,140.625,4|0,1:0|0:0,0:0:0:0:
125,115,193069,2,0,P|106:54|162:8,2,129.375002467632,0|0|2,3:0|0:0|0:0,0:0:0:0:
90,222,193933,5,0,3:0:0:0:
90,222,194149,2,0,P|124:261|111:304,1,86.2500016450882,2|0,0:0|1:0,0:0:0:0:
62,368,194580,1,2,0:0:0:0:
156,381,194796,2,0,P|192:348|233:336,1,86.2500016450882,0|2,3:0|0:0,0:0:0:0:
273,346,195120,2,0,P|302:362|313:380,1,43.1250008225441,0|0,0:0|1:0,0:0:0:0:
405,307,195444,6,0,P|421:265|449:207,1,86.2500016450882,2|0,0:0|0:0,0:0:0:0:
427,133,195875,2,0,P|450:119|477:110,2,43.1250008225441,2|2|0,0:0|0:0|1:0,0:0:0:0:
343,97,196307,1,2,0:0:0:0:
343,97,196415,1,2,0:0:0:0:
343,97,196523,2,0,P|301:121|252:134,1,86.2500016450882,0|2,3:0|0:0,0:0:0:0:
220,115,196846,2,0,P|206:99|200:74,1,43.1250008225441,2|0,0:0|1:0,0:0:0:0:
74,31,197170,6,0,P|3:73|15:168,1,172.500003290176,2|2,0:0|0:0,0:0:0:0:
76,225,197818,1,0,1:0:0:0:
76,225,198034,1,2,0:0:0:0:
152,169,198249,2,0,P|225:150|304:133,1,129.375002467632,0|0,3:0|0:0,0:0:0:0:
315,168,198681,2,0,P|309:120|343:88,1,86.2500016450882,0|2,1:0|0:0,0:0:0:0:
419,7,199113,6,0,P|473:26|492:116,1,129.375002467632,4|0,3:2|0:0,0:0:0:0:
464,121,199544,1,8,1:2:0:0:
500,208,199760,2,0,P|473:247|427:246,1,86.2500016450882,2|0,0:0|3:0,0:0:0:0:
398,337,200192,2,0,P|366:343|340:336,3,43.1250008225441,2|2|8|2,0:0|0:0|1:2|0:0,0:0:0:0:
315,317,200623,6,0,P|287:275|301:223,1,86.2500016450882,2|0,0:0|3:0,0:0:0:0:
214,183,201055,2,0,P|223:133|270:106,1,86.2500016450882,2|8,0:0|1:2,0:0:0:0:
291,30,201487,1,2,0:0:0:0:
291,30,201595,1,0,0:0:0:0:
291,30,201703,2,0,P|340:44|362:82,1,86.2500016450882,2|2,3:2|0:2,0:0:0:0:
381,163,202134,2,0,P|367:212|329:234,1,86.2500016450882,8|2,1:2|0:0,0:0:0:0:
235,326,202566,5,0,3:0:0:0:
235,326,202782,1,2,0:0:0:0:
163,272,202998,1,8,1:2:0:0:
163,272,203213,1,2,0:0:0:0:
70,292,203429,2,0,P|33:261|30:224,1,86.2500016450882,0|2,3:0|0:0,0:0:0:0:
5,133,203861,2,0,P|45:107|82:115,1,86.2500016450882,8|2,1:2|0:0,0:0:0:0:
179,24,204293,6,0,P|226:63|229:99,1,86.2500016450882,0|2,3:0|3:2,0:0:0:0:
209,127,204616,1,0,3:0:0:0:
209,127,204724,1,12,1:2:0:0:
239,226,204940,1,2,3:2:0:0:
239,226,205048,1,0,3:0:0:0:
239,226,205156,2,0,P|279:239|335:246,1,86.2500016450882,8|4,3:0|3:0,0:0:0:0:
302,338,205587,2,0,P|262:325|206:318,1,86.2500016450882,12|0,1:2|0:0,0:0:0:0:
114,244,206019,5,4,3:1:0:0:
35,296,206235,1,2,0:0:0:0:
28,201,206451,1,8,1:2:0:0:
107,149,206667,1,2,0:0:0:0:
212,329,207098,1,2,0:0:0:0:
304,350,207314,1,8,1:2:0:0:
396,371,207530,1,2,0:0:0:0:
435,242,207746,6,0,P|479:241|515:215,2,86.2500016450882,0|2|8,3:0|0:0|1:2,0:0:0:0:
369,172,208393,1,2,0:0:0:0:
281,136,208609,2,0,P|235:145|194:161,1,86.2500016450882,0|2,3:0|0:0,0:0:0:0:
136,232,209041,1,8,1:2:0:0:
136,232,209257,5,4,3:1:0:0:
9,90,209688,1,2,0:0:0:0:
195,130,210120,1,2,0:0:0:0:
21,206,210552,1,2,0:0:0:0:
117,42,210983,1,2,0:0:0:0:
302,82,211415,5,2,0:0:0:0:
321,270,211846,1,2,0:0:0:0:
416,106,212278,1,2,0:0:0:0:
242,182,212710,1,2,0:0:0:0:
332,183,212926,6,0,P|373:200|415:228,1,75,8|2,3:2|0:0,0:0:0:0:
488,224,213357,2,0,P|471:265|443:307,1,75,8|2,3:2|0:0,0:0:0:0:
447,380,213789,2,0,P|406:363|364:335,1,75,8|2,3:2|0:0,0:0:0:0:
291,339,214221,2,0,P|308:298|336:256,1,75,8|2,3:2|0:0,0:0:0:0:
331,157,214652,6,0,P|338:109|315:73,1,86.2500016450882,8|2,3:2|0:0,0:0:0:0:
222,41,215084,2,0,P|176:58|157:96,1,86.2500016450882,8|2,3:2|0:0,0:0:0:0:
177,194,215516,2,0,P|215:224|257:222,1,86.2500016450882,8|2,3:2|0:0,0:0:0:0:
242,132,215947,1,4,3:0:0:0:
242,132,216163,1,4,1:0:0:0:
