osu file format v14

[General]
AudioFilename: audio.ogg
AudioLeadIn: 0
PreviewTime: 150120
Countdown: 0
SampleSet: Soft
StackLeniency: 0.7
Mode: 0
LetterboxInBreaks: 0
WidescreenStoryboard: 1

[Editor]
Bookmarks: 21325,26721,28231,35138,48951,55857,62764,76577,90390,107656,121469,128375,135282,149095,150821,162908,165929,178447,192260,198088,206073
DistanceSpacing: 1
BeatDivisor: 4
GridSize: 4
TimelineZoom: 2.799999

[Metadata]
Title:Ai Kotoba IV feat. Hatsune Miku
TitleUnicode:愛言葉Ⅳ feat. 初音ミク
Artist:DECO*27
ArtistUnicode:DECO*27
Creator:[Hatsune Miku]
Version:Daisuki
Source:
Tags:VOCALOID japanese jpop j-pop pop X Light Surou kanor
BeatmapID:3629429
BeatmapSetID:1772712

[Difficulty]
HPDrainRate:6
CircleSize:4.5
OverallDifficulty:8
ApproachRate:9
SliderMultiplier:1.8
SliderTickRate:1

[Events]
//Background and Video events
0,0,"bg.jpg",0,0
//Break Periods
//Storyboard Layer 0 (Background)
//Storyboard Layer 1 (Fail)
//Storyboard Layer 2 (Pass)
//Storyboard Layer 3 (Foreground)
//Storyboard Layer 4 (Overlay)
//Storyboard Sound Samples

[TimingPoints]
552,431.654676258993,4,2,1,60,1,0
3789,-100,4,2,2,60,0,0
5947,-100,4,2,1,60,0,0
6055,-100,4,2,1,5,0,0
6163,-100,4,2,1,60,0,0
6271,-100,4,2,1,5,0,0
6379,-100,4,2,1,60,0,0
6595,-80,4,2,1,80,0,0
6703,-80,4,2,1,5,0,0
6810,-80,4,2,1,80,0,0
6918,-80,4,2,1,5,0,0
7026,-133.333333333333,4,2,1,45,0,0
7350,-133.333333333333,4,2,1,5,0,0
7458,-100,4,2,3,70,0,0
21271,-133.333333333333,4,2,1,40,0,0
28177,-100,4,2,1,50,0,0
35084,-100,4,2,2,70,0,0
48897,-133.333333333333,4,2,1,60,0,0
50300,-133.333333333333,4,2,1,5,0,0
50408,-133.333333333333,4,2,1,60,0,0
54293,-133.333333333333,4,2,1,5,0,0
54400,-133.333333333333,4,2,1,60,0,0
55803,-100,4,2,1,70,0,0
59257,-100,4,2,1,60,0,0
60120,-100,4,2,1,75,0,0
62710,-80,4,2,3,90,0,0
76091,-100,4,2,1,70,0,0
76523,-80,4,2,3,90,0,0
88177,-66.6666666666667,4,2,1,90,0,0
88501,-66.6666666666667,4,2,1,5,0,0
88609,-80,4,2,1,90,0,0
90336,-100,4,2,1,80,0,0
93789,-133.333333333333,4,2,1,60,0,0
94005,-133.333333333333,4,2,1,60,0,0
107170,-133.333333333333,4,2,1,60,0,0
107602,-100,4,2,1,70,0,0
121415,-100,4,2,1,60,0,0
131775,-100,4,2,1,70,0,0
133501,-100,4,2,1,80,0,0
134364,-100,4,2,1,40,0,0
135228,-80,4,2,2,70,0,0
142350,-80,4,3,2,80,0,0
149041,-133.333333333333,4,2,1,40,0,0
150120,-133.333333333333,4,2,1,45,0,0
150336,-133.333333333333,4,2,1,50,0,0
150552,-133.333333333333,4,2,1,55,0,0
150767,-80,4,2,3,90,0,0
164149,-100,4,2,1,70,0,0
164580,-80,4,2,3,90,0,0
176235,-80,4,2,1,50,0,0
176451,-80,4,2,1,60,0,0
176667,-80,4,2,1,70,0,0
176882,-80,4,2,1,80,0,0
177962,-133.333333333333,4,2,1,80,0,0
178285,-133.333333333333,4,2,1,5,0,0
178393,-80,4,2,2,90,0,0
192638,-66.6666666666667,4,2,1,90,0,0
192962,-80,4,2,2,90,0,0
195767,-80,4,2,2,5,0,0
195875,-80,4,2,2,90,0,0
206019,-100,4,2,2,60,0,0
212926,-100,4,2,2,70,0,0
214652,-100,4,2,2,80,0,0
215947,-100,4,2,2,90,0,0

[Colours]
Combo1 : 255,223,125
Combo2 : 255,170,213
Combo3 : 150,225,254
Combo4 : 248,116,136

[HitObjects]
122,152,336,5,2,0:0:0:0:
130,167,444,1,2,0:0:0:0:
123,201,552,5,2,0:0:0:0:
59,117,767,1,2,0:0:0:0:
123,201,983,1,0,0:0:0:0:
227,187,1199,1,2,0:0:0:0:
123,201,1415,1,0,0:0:0:0:
84,299,1631,1,2,0:0:0:0:
123,201,1846,1,0,0:0:0:0:
162,103,2062,1,2,0:0:0:0:
123,201,2278,1,0,0:0:0:0:
219,330,2494,6,0,L|212:291,2,22.5,2|0|0,0:0|0:0|0:0,0:0:0:0:
224,352,2710,1,0,0:0:0:0:
414,273,2926,2,0,L|408:306,3,22.5,2|0|0|0,3:2|3:0|3:0|3:0,3:0:0:0:
420,250,3141,5,8,0:0:0:0:
392,251,3249,1,8,0:0:0:0:
262,260,3465,1,8,0:0:0:0:
283,269,3573,2,0,L|297:198,1,45,8|8,0:0|0:0,0:0:0:0:
372,143,3789,5,2,0:0:0:0:
392,151,3897,1,2,0:0:0:0:
434,135,4005,5,2,3:2:0:0:
278,131,4221,1,2,0:0:0:0:
357,58,4436,1,8,0:0:0:0:
356,228,4652,5,10,0:0:0:0:
356,228,4760,1,8,0:0:0:0:
356,228,4868,1,0,3:2:0:0:
512,232,5084,1,2,0:0:0:0:
433,305,5300,1,8,0:0:0:0:
434,135,5516,5,2,3:2:0:0:
448,117,5623,1,8,3:2:0:0:
461,99,5731,1,0,3:0:0:0:
468,28,5947,6,0,P|442:29|417:42,1,45,4|0,1:2|0:0,0:0:0:0:
429,206,6163,2,0,P|454:204|479:191,1,45,4|0,1:2|0:0,0:0:0:0:
448,117,6379,5,0,3:0:0:0:
403,122,6487,1,0,3:0:0:0:
358,127,6595,2,0,P|333:139|306:172,1,56.25,4|0,1:2|0:0,0:0:0:0:
268,376,6810,2,0,P|293:364|320:331,1,56.25,4|0,1:2|0:0,0:0:0:0:
332,266,7026,6,2,P|305:254|327:268,1,101.250003862381,2|0,0:1|0:0,0:1:0:0:
391,328,7458,5,4,3:1:0:0:
484,248,7674,1,2,0:0:0:0:
382,158,7890,1,0,1:0:0:0:
484,248,8105,1,2,0:0:0:0:
511,115,8321,1,0,3:0:0:0:
347,0,8537,1,2,0:0:0:0:
433,117,8753,1,0,1:0:0:0:
356,70,8969,1,2,0:0:0:0:
289,133,9185,5,0,3:0:0:0:
433,117,9400,1,2,0:0:0:0:
289,133,9616,1,0,1:0:0:0:
347,0,9832,1,2,0:0:0:0:
382,158,10048,5,2,0:2:0:0:
397,180,10156,2,0,P|351:177|315:207,1,90,2|2,1:2|0:0,0:0:0:0:
288,269,10480,1,0,1:0:0:0:
191,384,10695,1,2,0:0:0:0:
37,261,10911,5,0,3:0:0:0:
56,168,11127,2,0,L|45:69,1,90,2|0,0:0|1:0,0:0:0:0:
124,101,11451,1,0,0:0:0:0:
124,101,11559,2,0,B|165:119|165:119|212:102,1,90,2|0,0:0|3:0,0:0:0:0:
376,36,11990,2,0,B|335:18|335:18|288:35,1,90,2|0,0:0|1:0,0:0:0:0:
292,33,12422,1,2,0:0:0:0:
239,272,12638,5,0,3:0:0:0:
63,272,12854,2,0,P|101:249|146:247,1,90,2|0,0:0|1:0,0:0:0:0:
181,320,13177,1,0,0:0:0:0:
181,320,13285,1,2,0:0:0:0:
207,192,13501,5,0,3:0:0:0:
219,173,13609,2,0,P|178:153|160:93,1,90,2|0,1:2|0:0,0:0:0:0:
173,38,13933,1,2,1:2:0:0:
146,247,14149,1,2,1:2:0:0:
312,136,14364,5,0,3:0:0:0:
299,225,14580,1,2,0:0:0:0:
395,102,14796,1,0,1:0:0:0:
465,157,15012,1,2,0:0:0:0:
243,81,15228,1,0,3:0:0:0:
159,114,15444,1,2,0:0:0:0:
299,225,15659,1,0,1:0:0:0:
312,136,15875,1,2,0:0:0:0:
142,315,16091,5,0,3:0:0:0:
28,234,16307,1,2,0:0:0:0:
125,304,16523,1,0,1:0:0:0:
200,354,16739,1,2,0:0:0:0:
21,304,16954,5,4,1:2:0:0:
21,304,17170,1,2,0:0:0:0:
209,287,17386,5,4,1:2:0:0:
209,287,17602,1,2,0:0:0:0:
97,68,17818,5,0,3:0:0:0:
181,36,18034,2,0,L|165:129,1,90,2|0,0:0|1:0,0:0:0:0:
143,212,18465,2,0,P|99:203|52:197,1,90,2|0,0:0|3:0,0:0:0:0:
8,53,18897,2,0,P|52:62|99:68,1,90,2|0,0:0|1:0,0:0:0:0:
196,59,19328,1,2,0:0:0:0:
397,264,19544,5,0,3:0:0:0:
341,193,19760,2,0,P|387:174|427:178,1,90,2|0,0:0|1:0,0:0:0:0:
508,217,20192,1,2,0:0:0:0:
382,320,20408,5,0,3:0:0:0:
377,299,20516,1,0,3:0:0:0:
397,264,20624,5,2,1:2:0:0:
256,144,20839,1,0,1:0:0:0:
115,264,21055,1,2,1:2:0:0:
256,384,21271,5,4,3:1:0:0:
256,384,21703,1,0,3:0:0:0:
182,372,21918,2,0,L|103:361,1,67.5000025749208,0|0,0:0|3:0,0:0:0:0:
121,353,22566,2,0,L|187:362,1,67.5000025749208,0|0,3:0|0:0,0:0:0:0:
252,303,22998,5,0,3:0:0:0:
275,230,23213,1,0,0:0:0:0:
325,286,23429,1,0,3:0:0:0:
396,308,23645,1,0,0:0:0:0:
468,291,23861,5,0,3:0:0:0:
275,230,24293,1,0,3:0:0:0:
424,93,24724,5,0,3:0:0:0:
424,93,25156,1,0,3:0:0:0:
491,62,25372,2,0,P|507:33|504:0,1,67.5000025749208,0|0,0:0|3:0,0:0:0:0:
424,93,26019,1,0,3:0:0:0:
374,38,26235,1,0,0:0:0:0:
302,16,26451,1,0,3:0:0:0:
229,34,26667,2,0,P|204:80|214:130,1,101.250003862381,2|2,0:0|0:0,0:0:0:0:
212,126,27098,1,0,0:0:0:0:
325,222,27314,5,2,3:2:0:0:
325,222,27422,1,2,0:0:0:0:
391,287,27638,1,2,0:0:0:0:
391,287,27746,2,0,P|414:244|398:169,1,101.250003862381,2|0,3:2|0:0,0:0:0:0:
374,48,28177,6,0,P|356:89|363:143,1,90,2|0,3:2|0:0,0:0:0:0:
485,172,28501,1,0,0:0:0:0:
485,172,28609,2,0,P|497:218|494:263,1,90,2|0,3:2|0:0,0:0:0:0:
381,375,28933,1,0,0:0:0:0:
381,375,29041,2,0,P|378:330|390:286,1,90,2|0,3:2|0:0,0:0:0:0:
455,325,29364,2,0,P|453:355|466:383,1,45,2|0,0:0|3:0,0:0:0:0:
311,215,29688,2,0,P|313:237|308:258,1,45,2|0,0:0|0:0,0:0:0:0:
161,175,29904,5,0,3:0:0:0:
161,175,30120,1,2,0:0:0:0:
161,175,30228,1,2,0:0:0:0:
161,175,30336,1,2,3:2:0:0:
247,155,30552,1,2,0:0:0:0:
270,77,30767,2,0,P|304:47|435:39,1,180,2|2,3:2|3:2,0:0:0:0:
432,38,31307,1,2,0:0:0:0:
432,38,31415,1,2,0:0:0:0:
247,155,31631,5,2,3:2:0:0:
180,47,31846,2,0,L|188:94,1,45
187,91,32062,1,2,3:2:0:0:
61,212,32278,2,0,L|69:165,1,45
68,168,32494,5,2,3:2:0:0:
236,291,32710,1,0,0:0:0:0:
236,291,32818,1,2,0:0:0:0:
45,374,33034,1,0,0:0:0:0:
45,374,33142,1,2,3:2:0:0:
157,379,33357,5,10,3:2:0:0:
141,362,33465,2,0,L|126:252,1,90,10|2,3:2|0:0,0:0:0:0:
161,121,33789,1,10,3:2:0:0:
177,138,33897,2,0,L|192:248,1,90,10|2,3:2|0:0,0:0:0:0:
202,239,34221,5,10,3:2:0:0:
216,249,34328,1,8,0:0:0:0:
229,260,34436,1,8,0:0:0:0:
180,60,34652,1,8,3:2:0:0:
61,130,34868,1,10,0:0:0:0:
82,135,34976,1,10,0:0:0:0:
111,168,35084,5,6,3:2:0:0:
181,67,35300,1,0,0:0:0:0:
69,9,35516,1,10,3:2:0:0:
69,9,35731,1,0,0:0:0:0:
111,168,35947,1,2,0:0:0:0:
69,9,36163,1,2,0:0:0:0:
111,168,36379,1,8,3:2:0:0:
33,123,36595,1,2,0:0:0:0:
143,336,36810,5,0,3:0:0:0:
221,291,37026,1,2,0:0:0:0:
251,159,37242,1,8,3:2:0:0:
190,27,37458,2,0,B|170:66|170:66|196:134,1,90,2|0,0:0|3:0,0:0:0:0:
317,133,37890,5,2,0:0:0:0:
271,17,38105,1,8,0:0:0:0:
186,109,38321,1,2,0:0:0:0:
303,279,38537,2,0,B|323:240|323:240|297:172,1,90,2|0,3:2|0:0,0:0:0:0:
194,115,38969,5,10,3:2:0:0:
160,225,39185,1,0,0:0:0:0:
308,199,39400,1,2,3:2:0:0:
183,253,39616,1,2,0:0:0:0:
293,335,39832,1,8,3:2:0:0:
188,286,40048,2,0,L|80:278,1,90,2|0,0:0|3:0,0:0:0:0:
24,190,40480,1,2,0:0:0:0:
109,163,40695,1,8,3:2:0:0:
9,165,40911,2,0,P|-7:123|2:76,1,90,2|0,0:0|3:0,0:0:0:0:
199,59,41343,5,2,0:0:0:0:
110,41,41559,1,8,3:2:0:0:
186,87,41775,1,2,0:0:0:0:
331,20,41990,5,2,3:2:0:0:
285,109,42206,1,0,0:0:0:0:
424,166,42422,1,10,3:2:0:0:
324,173,42638,1,0,0:0:0:0:
344,322,42853,1,2,3:2:0:0:
287,238,43069,1,2,0:0:0:0:
169,329,43285,1,8,3:2:0:0:
212,238,43501,1,2,0:0:0:0:
73,180,43717,5,0,3:0:0:0:
212,238,43933,1,2,0:0:0:0:
91,329,44149,1,8,3:2:0:0:
173,173,44364,2,0,L|182:115,2,45,2|0|0,0:0|0:0|3:0,0:0:0:0:
324,173,44796,5,2,0:0:0:0:
287,238,45012,1,8,3:2:0:0:
212,238,45228,1,2,0:0:0:0:
77,137,45444,5,2,3:2:0:0:
214,197,45659,1,0,3:2:0:0:
214,197,45767,1,0,3:0:0:0:
214,197,45875,1,10,3:2:0:0:
151,348,46091,5,0,3:0:0:0:
372,316,46307,1,2,3:2:0:0:
309,367,46523,1,2,3:2:0:0:
228,379,46739,1,8,3:2:0:0:
151,348,46954,1,2,0:0:0:0:
359,241,47170,5,0,3:0:0:0:
259,282,47386,1,8,3:0:0:0:
266,303,47494,1,0,3:0:0:0:
458,274,47710,1,4,3:0:0:0:
465,253,47818,1,0,3:0:0:0:
372,316,48034,2,0,B|357:253|357:253|372:210|372:210|355:123,1,180,4|4,3:0|0:0,0:0:0:0:
159,179,48897,5,4,3:1:0:0:
289,100,49113,1,2,0:0:0:0:
289,100,49221,1,0,3:0:0:0:
157,26,49436,1,2,0:0:0:0:
165,40,49544,1,2,3:2:0:0:
173,54,49652,1,2,0:0:0:0:
181,68,49760,1,10,3:2:0:0:
233,154,49976,2,0,L|281:250,1,101.250003862381,2|0,0:0|0:0,0:0:0:0:
349,212,50408,5,2,3:2:0:0:
349,212,50516,1,2,3:2:0:0:
349,212,50623,2,0,L|322:152,1,50.6250019311906,2|2,3:2|0:0,0:0:0:0:
351,291,50947,5,2,3:2:0:0:
351,291,51055,2,0,L|314:342,1,50.6250019311906,2|2,0:2|0:0,0:0:0:0:
422,255,51379,5,2,0:0:0:0:
422,255,51487,2,0,L|485:257,1,50.6250019311906,10|2,3:2|0:0,0:0:0:0:
349,212,51810,5,2,0:0:0:0:
349,212,51918,1,2,0:0:0:0:
239,308,52242,5,2,0:0:0:0:
243,320,52350,1,2,3:2:0:0:
200,329,52458,1,2,0:0:0:0:
198,342,52566,1,2,0:0:0:0:
155,327,52674,1,2,3:2:0:0:
147,337,52782,1,2,0:0:0:0:
117,302,52890,1,2,0:0:0:0:
105,307,52998,6,0,P|85:246|90:222,1,67.5000025749208,2|10,3:2|3:2,0:0:0:0:
95,230,53321,1,2,0:0:0:0:
105,216,53429,1,2,0:0:0:0:
115,202,53537,1,2,0:0:0:0:
94,103,53753,5,2,0:0:0:0:
84,117,53861,1,2,3:2:0:0:
74,131,53969,1,2,3:2:0:0:
64,145,54077,2,0,P|120:126|169:147,1,101.250003862381,2|0,3:2|3:0,0:0:0:0:
158,138,54508,2,0,P|149:117|149:84,1,50.6250019311906,2|2,0:0|0:0,0:0:0:0:
230,17,54832,1,2,0:0:0:0:
243,32,54940,2,0,L|316:44,1,67.5000025749208,10|2,3:2|3:2,0:0:0:0:
389,67,55264,1,2,3:2:0:0:
389,67,55372,1,2,3:2:0:0:
389,67,55480,2,0,L|419:74,2,16.8750006437302,0|0|0,3:0|3:0|3:0,0:0:0:0:
329,114,55695,1,0,3:0:0:0:
319,146,55803,5,4,3:2:0:0:
440,255,56019,1,0,3:0:0:0:
446,233,56127,1,0,3:0:0:0:
452,211,56235,1,10,3:2:0:0:
330,270,56451,1,0,3:0:0:0:
337,297,56559,1,0,3:0:0:0:
344,324,56667,1,0,3:0:0:0:
231,235,56882,1,0,3:0:0:0:
240,193,56990,1,0,3:0:0:0:
250,154,57098,1,10,3:2:0:0:
133,292,57314,6,0,L|140:329,3,22.5,0|0|0|0,3:0|3:0|3:0|3:0,0:0:0:0:
126,281,57530,2,0,P|66:272|40:243,1,90,0|0,3:0|3:0,0:0:0:0:
16,115,57962,2,0,P|76:124|102:153,1,90,10|0,3:2|3:0,0:0:0:0:
176,108,58285,1,0,3:0:0:0:
157,96,58393,2,0,P|134:39|146:2,1,90,0|0,3:0|3:0,0:0:0:0:
209,42,58717,1,0,3:0:0:0:
229,51,58825,1,10,3:2:0:0:
353,97,59041,6,0,L|381:92,3,22.5,0|0|0|0,3:0|0:0|0:0|0:0,3:0:0:0:
331,89,59257,1,0,3:0:0:0:
322,109,59364,1,0,3:0:0:0:
314,130,59472,1,0,3:0:0:0:
305,151,59580,1,0,3:0:0:0:
297,172,59688,1,10,3:2:0:0:
305,192,59795,1,0,3:0:0:0:
313,213,59903,1,0,3:0:0:0:
322,234,60011,1,0,3:0:0:0:
390,238,60120,5,0,3:0:0:0:
348,249,60227,1,0,3:0:0:0:
320,284,60335,1,0,3:0:0:0:
318,328,60443,1,0,3:0:0:0:
342,365,60551,1,10,3:2:0:0:
383,381,60659,1,0,3:0:0:0:
426,369,60767,1,0,3:0:0:0:
454,335,60875,2,0,L|461:282,1,45,0|4,3:0|3:0,0:0:0:0:
287,158,61199,5,4,1:2:0:0:
427,136,61415,1,4,1:2:0:0:
223,126,61846,5,4,1:2:0:0:
493,167,62062,1,4,1:2:0:0:
0,350,62710,5,4,3:1:0:0:
135,378,62925,1,2,0:0:0:0:
89,246,63141,1,0,1:0:0:0:
265,262,63357,1,2,0:0:0:0:
265,262,63465,2,0,B|214:283|214:283|136:264,1,112.5,2|0,0:0|0:0,0:0:0:0:
89,246,63789,5,2,0:0:0:0:
217,359,64005,1,0,1:0:0:0:
325,230,64221,1,2,0:0:0:0:
197,121,64436,5,0,3:0:0:0:
209,213,64652,1,2,0:0:0:0:
314,344,64868,1,0,1:0:0:0:
491,326,65084,1,2,0:0:0:0:
491,326,65192,2,0,B|440:305|440:305|362:324,1,112.5,2|0,0:0|0:0,0:0:0:0:
314,344,65516,5,2,0:0:0:0:
431,218,65731,1,0,1:0:0:0:
350,69,65947,1,2,0:0:0:0:
261,213,66163,5,0,3:0:0:0:
160,162,66379,1,2,0:0:0:0:
38,184,66595,1,0,1:0:0:0:
106,24,66810,1,2,0:0:0:0:
106,24,66918,2,0,L|95:154,1,112.5,2|0,0:0|0:0,0:0:0:0:
38,184,67242,5,2,0:0:0:0:
206,246,67458,1,0,1:0:0:0:
65,375,67674,5,2,0:0:0:0:
51,343,67782,1,0,0:0:0:0:
37,311,67890,2,0,L|105:327,1,56.25,0|0,3:0|0:0,0:0:0:0:
170,336,68105,1,2,0:0:0:0:
137,191,68321,1,0,1:0:0:0:
51,343,68537,1,2,0:0:0:0:
37,311,68645,2,0,B|101:326|101:326|139:310|139:310|218:332,1,168.75,2|2,0:0|0:0,0:0:0:0:
307,357,69185,1,0,1:0:0:0:
481,368,69400,5,2,0:0:0:0:
413,308,69616,1,0,3:0:0:0:
430,219,69832,1,2,0:0:0:0:
413,308,70048,1,0,1:0:0:0:
268,348,70264,2,0,B|240:303|240:303|267:224,1,112.5,2|0,0:0|3:0,0:0:0:0:
268,90,70695,5,2,0:0:0:0:
285,179,70911,1,0,1:0:0:0:
466,169,71127,2,0,B|494:124|494:124|467:45,1,112.5,2|0,0:0|3:0,0:0:0:0:
199,149,71559,5,2,0:0:0:0:
285,179,71775,1,0,1:0:0:0:
389,113,71990,1,2,0:0:0:0:
131,209,72422,5,2,0:0:0:0:
199,149,72638,1,0,1:0:0:0:
286,170,72854,2,0,B|314:215|314:215|287:294,1,112.5,2|0,0:0|3:0,0:0:0:0:
270,340,73177,5,0,0:0:0:0:
236,334,73285,1,2,0:0:0:0:
202,328,73393,1,0,0:0:0:0:
140,368,73501,5,0,1:0:0:0:
106,361,73609,1,0,0:0:0:0:
72,355,73717,1,2,0:0:0:0:
38,349,73825,1,0,0:0:0:0:
36,275,73933,5,0,3:0:0:0:
69,281,74041,1,0,0:0:0:0:
103,288,74149,1,2,0:0:0:0:
137,294,74257,1,0,0:0:0:0:
202,328,74364,6,0,B|241:332|241:332|264:348|264:348|325:353,1,112.5,0|2,1:0|0:0,0:0:0:0:
223,95,74796,5,0,3:0:0:0:
147,98,75012,1,0,3:0:0:0:
147,98,75120,2,0,L|138:143,1,28.125,0|0,3:0|3:0,0:0:0:0:
138,145,75228,1,8,1:3:0:0:
300,100,75444,5,0,3:0:0:0:
304,66,75552,1,0,3:0:0:0:
308,32,75659,1,4,3:0:0:0:
446,84,75875,5,0,3:0:0:0:
446,84,75983,2,0,L|476:78,1,28.125,0|0,3:0|3:0,0:0:0:0:
500,74,76091,2,0,P|485:137|423:154,1,135,4|0,1:2|0:0,0:0:0:0:
354,123,76523,5,4,3:1:0:0:
420,229,76739,1,2,0:0:0:0:
422,256,76846,1,0,0:0:0:0:
424,283,76954,1,0,1:0:0:0:
322,302,77170,1,2,0:0:0:0:
320,275,77278,1,2,0:0:0:0:
318,248,77385,1,0,3:0:0:0:
244,241,77602,5,2,0:0:0:0:
424,283,77818,1,0,1:0:0:0:
250,322,78034,1,2,0:0:0:0:
71,286,78249,5,0,3:0:0:0:
99,284,78357,1,0,0:0:0:0:
126,281,78465,1,2,0:0:0:0:
29,223,78681,1,0,1:0:0:0:
122,154,78897,1,2,0:0:0:0:
95,157,79005,1,2,0:0:0:0:
67,159,79113,1,0,3:0:0:0:
29,223,79328,5,2,0:0:0:0:
106,60,79544,1,0,1:0:0:0:
208,208,79760,1,2,0:0:0:0:
339,42,79976,5,0,3:0:0:0:
310,44,80084,1,0,0:0:0:0:
281,46,80192,1,2,0:0:0:0:
431,105,80408,1,0,1:0:0:0:
386,221,80623,1,2,0:0:0:0:
385,194,80731,1,2,0:0:0:0:
384,165,80839,1,0,3:0:0:0:
431,105,81055,5,2,0:0:0:0:
274,193,81271,1,0,1:0:0:0:
428,284,81487,1,2,0:0:0:0:
270,372,81703,5,0,3:0:0:0:
275,344,81810,1,0,0:0:0:0:
281,316,81918,1,2,0:0:0:0:
205,232,82134,1,0,1:0:0:0:
92,227,82350,1,2,0:0:0:0:
87,254,82457,1,2,0:0:0:0:
83,282,82565,1,0,3:0:0:0:
103,299,82674,1,2,0:0:0:0:
126,317,82782,5,2,0:0:0:0:
205,232,82998,1,0,1:0:0:0:
34,180,83213,5,2,0:0:0:0:
221,158,83429,1,0,3:0:0:0:
69,113,83645,1,2,0:0:0:0:
205,232,83861,1,0,1:0:0:0:
221,158,84077,2,0,L|236:47,1,112.5,2|0,0:0|3:0,0:0:0:0:
132,256,84508,5,2,0:0:0:0:
205,232,84724,1,0,1:0:0:0:
335,197,84940,2,0,B|325:268|325:268|285:298,1,112.5,2|0,0:0|3:0,0:0:0:0:
148,181,85372,5,2,0:0:0:0:
189,306,85587,1,0,1:0:0:0:
400,218,85803,2,0,L|415:107,1,112.5,2|0,0:0|3:0,0:0:0:0:
75,205,86235,5,2,0:0:0:0:
221,158,86451,1,0,1:0:0:0:
387,334,86667,2,0,B|362:301|362:301|291:291,1,112.5,2|0,0:0|3:0,0:0:0:0:
222,261,86990,5,0,0:0:0:0:
194,256,87098,1,2,0:0:0:0:
166,251,87206,1,0,0:0:0:0:
138,246,87314,1,0,1:0:0:0:
147,272,87422,1,0,0:0:0:0:
157,299,87530,1,2,0:0:0:0:
167,326,87638,1,0,0:0:0:0:
106,374,87746,6,0,L|74:383,1,28.125,0|0,3:0|3:0,3:0:0:0:
96,347,87854,2,0,L|64:356,1,28.125,0|0,3:0|3:0,3:0:0:0:
86,320,87962,2,0,L|54:329,1,28.125,2|0,3:2|3:0,3:0:0:0:
77,294,88069,2,0,L|45:303,1,28.125,0|0,3:0|3:0,3:0:0:0:
64,265,88177,6,0,B|51:238|51:238|76:92|76:92|66:64,1,202.500007724762,4|0,1:2|0:0,0:0:0:0:
256,192,88609,5,0,1:0:0:0:
256,192,88825,1,0,1:0:0:0:
256,192,89041,1,0,1:0:0:0:
256,192,89257,1,0,1:0:0:0:
144,289,90336,6,0,B|134:327|134:327|202:259,1,135,4|0,3:2|3:0,0:0:0:0:
227,46,90983,2,0,B|200:18|200:18|224:111,1,135,0|0,3:0|3:0,0:0:0:0:
396,239,91631,2,0,B|433:230|433:230|341:205,1,135,0|0,3:0|3:0,0:0:0:0:
256,192,92278,5,0,3:0:0:0:
256,192,92386,1,0,3:0:0:0:
256,192,92494,1,0,3:0:0:0:
202,259,92710,1,0,3:0:0:0:
224,111,92926,2,0,L|222:72,3,22.5,0|0|0|0,3:0|3:0|3:0|3:0,3:0:0:0:
226,125,93141,5,0,1:0:0:0:
341,205,93357,1,0,1:0:0:0:
202,259,93573,1,0,1:0:0:0:
68,216,93789,6,0,P|122:213|153:226,1,67.5000025749208,4|2,3:1|0:0,0:0:0:0:
202,259,94221,1,0,3:0:0:0:
133,203,94436,2,0,P|100:197|67:203,1,67.5000025749208,2|0,0:0|3:0,0:0:0:0:
395,325,95084,5,0,3:0:0:0:
320,336,95300,1,0,0:0:0:0:
363,215,95516,1,2,3:2:0:0:
436,204,95731,1,2,0:0:0:0:
460,132,95947,1,0,3:0:0:0:
404,84,96163,1,2,0:0:0:0:
476,60,96379,2,0,L|508:50,2,33.7500012874604,0|0|0,3:0|0:0|0:0,0:0:0:0:
392,91,96810,2,0,P|376:53|385:13,1,67.5000025749208,0|0,3:0|0:0,0:0:0:0:
192,60,97242,6,0,L|271:73,1,67.5000025749208,2|2,3:2|0:0,0:0:0:0:
331,92,97674,1,0,3:0:0:0:
256,87,97890,2,0,L|189:76,1,67.5000025749208,2|0,0:0|3:0,0:0:0:0:
187,248,98537,5,0,3:0:0:0:
112,240,98753,1,0,0:0:0:0:
45,271,98969,1,2,3:2:0:0:
2,330,99185,1,2,0:0:0:0:
76,337,99400,1,0,3:0:0:0:
142,307,99616,1,2,0:0:0:0:
187,248,99832,5,0,3:0:0:0:
31,106,100264,2,0,B|22:91|22:91|24:64,3,33.7500012874604,2|2|2|2,3:2|0:0|0:0|0:0,0:0:0:0:
25,127,100695,6,0,L|85:117,1,33.7500012874604,0|0,3:0|0:0,0:0:0:0:
76,120,100911,1,2,0:0:0:0:
149,107,101127,1,0,3:0:0:0:
223,95,101343,1,2,0:0:0:0:
196,165,101559,5,2,3:2:0:0:
142,306,101775,1,2,0:0:0:0:
291,281,101990,1,2,3:2:0:0:
212,253,102206,5,0,0:0:0:0:
212,253,102314,1,2,0:0:0:0:
212,253,102422,1,2,3:2:0:0:
223,327,102638,1,2,0:0:0:0:
319,212,102854,1,0,3:0:0:0:
291,281,103070,1,2,0:0:0:0:
431,229,103285,1,0,3:0:0:0:
372,276,103501,5,2,0:0:0:0:
363,294,103608,1,2,0:0:0:0:
358,313,103717,1,2,3:2:0:0:
358,333,103824,1,2,0:0:0:0:
363,352,103932,1,2,0:0:0:0:
461,344,104149,5,0,3:0:0:0:
461,344,104364,2,0,P|463:310|462:276,1,67.5000025749208,2|0,0:0|3:0,0:0:0:0:
341,186,104796,2,0,P|335:266|338:347,1,135.000005149842,2|2,0:0|0:0,0:0:0:0:
239,350,105444,2,0,P|241:316|240:282,1,67.5000025749208,0|2,3:0|0:0,0:0:0:0:
150,234,105875,5,10,3:2:0:0:
30,328,106199,1,8,0:0:0:0:
30,328,106307,1,0,3:0:0:0:
8,177,106523,1,8,0:0:0:0:
150,234,106739,1,4,0:0:0:0:
150,234,107170,5,2,0:0:0:0:
166,231,107278,1,2,0:0:0:0:
182,228,107386,1,2,0:0:0:0:
198,226,107494,1,2,0:0:0:0:
229,194,107602,5,4,3:1:0:0:
349,254,107818,1,2,0:0:0:0:
475,301,108034,1,10,0:0:0:0:
433,285,108141,1,2,0:0:0:0:
417,327,108249,1,2,0:0:0:0:
459,343,108357,1,2,0:0:0:0:
475,301,108465,5,2,3:2:0:0:
453,169,108681,1,2,0:0:0:0:
431,37,108897,1,8,0:0:0:0:
304,84,109185,5,2,0:0:0:0:
238,130,109328,2,0,P|225:96|229:55,1,67.5,2|2,3:2|0:0,0:0:0:0:
235,45,109652,5,2,0:0:0:0:
249,209,109760,2,0,P|213:203|183:179,1,67.5,10|2,0:0|0:0,0:0:0:0:
172,173,110084,5,2,0:0:0:0:
323,239,110192,2,0,P|300:267|264:281,1,67.5,2|2,3:2|0:0,0:0:0:0:
253,287,110515,5,2,0:0:0:0:
385,189,110623,2,8,P|397:223|392:261,1,67.5,10|0,0:0|0:0,0:0:0:0:
174,364,111055,5,2,3:2:0:0:
148,357,111162,1,2,0:0:0:0:
122,359,111270,1,2,0:0:0:0:
97,369,111378,1,2,0:0:0:0:
56,308,111487,5,10,0:0:0:0:
75,289,111594,1,2,0:0:0:0:
87,264,111702,1,2,0:0:0:0:
91,238,111810,1,2,0:0:0:0:
36,205,111918,5,2,3:2:0:0:
36,205,112025,1,2,0:0:0:0:
36,205,112134,1,2,0:0:0:0:
36,205,112242,2,0,P|23:225|19:253,1,45,2|8,0:0|0:0,0:0:0:0:
152,280,112458,5,2,0:0:0:0:
177,271,112565,1,2,0:0:0:0:
203,262,112673,5,2,0:0:0:0:
272,295,112782,2,0,L|286:367,1,67.5,2|2,3:2|0:0,0:0:0:0:
288,379,113105,5,2,0:0:0:0:
385,307,113213,2,0,L|371:240,1,67.5,10|2,0:0|0:0,0:0:0:0:
365,219,113537,5,2,0:0:0:0:
306,117,113645,2,0,L|292:185,1,67.5,2|2,3:2|0:0,0:0:0:0:
286,216,113969,5,2,0:0:0:0:
416,144,114077,2,0,L|439:-3,1,135,10|0,0:0|0:0,0:0:0:0:
450,28,114508,1,2,3:2:0:0:
286,216,114724,5,0,0:0:0:0:
179,234,114940,1,10,0:2:0:0:
72,216,115156,1,0,0:0:0:0:
58,336,115372,1,2,3:2:0:0:
165,318,115588,1,2,0:2:0:0:
272,336,115803,1,8,3:2:0:0:
373,315,116019,2,0,L|476:333,1,90,2|0,0:0|3:0,0:0:0:0:
461,330,116451,5,2,0:0:0:0:
387,384,116667,1,8,0:0:0:0:
332,261,116882,2,0,P|318:211|342:146,1,90,2|0,0:0|3:0,0:0:0:0:
338,156,117206,1,0,0:0:0:0:
356,143,117314,5,2,0:0:0:0:
210,244,117530,1,8,0:0:0:0:
373,315,117746,1,2,0:0:0:0:
506,207,117962,2,0,P|512:162|498:120,1,90,2|0,3:2|0:0,0:0:0:0:
355,26,118393,5,10,0:0:0:0:
402,190,118609,1,0,0:0:0:0:
235,151,118825,1,2,3:2:0:0:
355,26,119041,1,2,0:0:0:0:
313,191,119257,1,8,0:0:0:0:
188,71,119472,1,2,0:0:0:0:
38,250,119688,6,0,P|80:262|125:260,1,90,4|4,3:0|3:0,0:0:0:0:
187,212,120012,1,4,3:0:0:0:
187,212,120120,1,8,1:3:0:0:
284,296,120336,2,0,P|249:284|165:299,1,90,4|0,3:0|3:0,0:0:0:0:
143,340,120659,1,0,1:0:0:0:
143,340,120767,2,0,L|150:400,1,45,4|0,3:0|0:0,0:0:0:0:
223,384,120983,6,0,L|201:199,1,180,4|4,1:2|3:1,0:0:0:0:
109,97,121631,5,2,0:0:0:0:
287,117,122062,1,2,0:0:0:0:
455,52,122494,1,2,0:0:0:0:
348,196,122926,1,2,0:0:0:0:
320,374,123357,1,2,0:0:0:0:
248,209,123789,1,2,0:0:0:0:
108,96,124221,1,2,0:0:0:0:
348,196,124652,1,2,0:0:0:0:
248,209,124868,5,0,3:0:0:0:
287,117,125084,5,2,0:0:0:0:
309,288,125516,1,2,0:0:0:0:
188,130,125947,1,2,0:0:0:0:
385,103,126379,1,2,0:0:0:0:
214,236,126811,1,2,0:0:0:0:
281,75,127242,1,2,0:0:0:0:
386,213,127458,5,8,3:0:0:0:
386,213,127566,1,4,3:0:0:0:
386,213,127674,1,4,3:0:0:0:
309,288,127890,1,8,3:2:0:0:
214,236,128105,1,0,3:0:0:0:
72,336,128321,5,0,3:0:0:0:
124,190,128537,1,2,0:0:0:0:
124,190,128645,2,0,B|138:234|138:234|122:275,1,90,2|0,3:2|0:0,0:0:0:0:
72,336,128969,1,2,3:2:0:0:
147,371,129185,2,0,L|193:378,2,45,10|0|0,3:2|0:0|0:0,0:0:0:0:
28,272,129616,2,0,B|14:228|14:228|30:187,1,90,2|2,3:2|0:0,0:0:0:0:
79,133,129940,5,0,0:0:0:0:
79,133,130048,1,2,3:2:0:0:
223,45,130264,1,2,0:0:0:0:
234,64,130372,2,0,L|144:53,1,90,10|0,3:2|0:0,0:0:0:0:
125,41,130695,2,0,L|133:105,1,45,2|0,3:2|0:0,0:0:0:0:
282,168,130911,6,0,L|287:123,2,45,2|10|2,3:2|0:0|0:0,0:0:0:0:
431,34,131343,2,0,L|436:78,1,45,10|0,3:2|0:0,0:0:0:0:
364,103,131559,1,8,3:2:0:0:
361,125,131667,1,8,3:2:0:0:
358,147,131775,1,2,3:2:0:0:
462,261,131990,5,2,3:2:0:0:
440,254,132098,1,2,0:0:0:0:
332,324,132314,1,2,3:2:0:0:
354,317,132422,1,2,0:0:0:0:
431,362,132638,2,0,L|476:375,2,45,10|0|0,3:2|0:0|0:0,0:0:0:0:
286,261,133069,2,0,L|242:273,1,45,2|0,3:2|0:0,0:0:0:0:
172,295,133285,1,0,3:0:0:0:
177,316,133393,1,0,3:0:0:0:
182,337,133501,1,2,3:2:0:0:
130,187,133717,5,2,3:2:0:0:
152,194,133825,1,10,0:0:0:0:
44,250,134041,1,2,3:2:0:0:
22,257,134149,1,2,0:0:0:0:
118,334,134364,5,2,0:0:0:0:
112,253,134580,1,2,0:0:0:0:
64,187,134796,1,2,0:0:0:0:
58,106,135012,1,2,0:0:0:0:
256,125,135228,6,0,B|208:153|208:153|153:136,1,112.5,4|0,3:1|0:0,0:0:0:0:
429,70,135659,2,0,B|374:53|374:53|326:81,1,112.5,8|0,3:2|0:0,0:0:0:0:
267,178,136091,2,0,P|257:155|256:123,2,56.25,0|0|0,3:0|0:0|0:0,0:0:0:0:
447,189,136523,2,0,B|399:217|399:217|344:200,1,112.5,8|0,3:2|0:0,0:0:0:0:
458,352,136954,2,0,B|457:296|457:296|499:257,1,112.5,0|0,3:0|0:0,0:0:0:0:
310,279,137386,2,0,B|359:306|359:306|372:363,1,112.5,8|0,3:2|0:0,0:0:0:0:
111,224,137818,5,4,1:2:0:0:
0,212,138033,1,4,1:2:0:0:
336,318,138681,6,0,L|344:179,1,112.5,0|0,3:0|0:0,0:0:0:0:
344,91,139113,1,8,3:2:0:0:
440,153,139328,1,0,0:0:0:0:
344,91,139544,2,0,P|329:63|331:28,2,56.25,0|0|0,3:0|0:0|0:0,0:0:0:0:
512,58,139976,2,0,L|399:47,1,112.5,8|0,3:2|0:0,0:0:0:0:
151,82,140408,2,0,L|262:92,1,112.5,0|0,3:0|0:0,0:0:0:0:
351,193,140839,2,0,L|238:182,1,112.5,8|0,3:2|0:0,0:0:0:0:
0,212,141271,5,4,1:2:0:0:
111,224,141486,1,4,1:2:0:0:
104,217,141918,5,0,0:0:0:0:
137,384,142134,2,0,B|161:332|161:332|153:272,1,112.5,4|0,3:1|0:0,0:0:0:0:
104,217,142458,1,0,0:0:0:0:
104,217,142566,2,0,L|29:207,1,56.25,8|0,0:2|0:0,0:0:0:0:
153,277,142782,2,0,L|195:282,3,28.125,0|0|0|0,0:0|0:0|0:0|0:0,0:0:0:0:
254,271,142998,2,0,P|251:309|236:333,1,56.25
312,163,143213,2,0,P|280:184|267:209,1,56.25,0|0,0:0|0:0,0:0:0:0:
336,234,143429,2,0,L|400:244,1,56.25,8|0,0:2|0:0,0:0:0:0:
470,167,143645,6,0,L|421:159,2,28.125
483,186,143861,2,0,B|510:133|510:133|496:81,1,112.5,0|0,0:0|0:0,0:0:0:0:
448,23,144185,1,0,0:0:0:0:
448,23,144293,2,0,L|389:13,1,56.25,8|0,0:2|0:0,0:0:0:0:
351,84,144508,2,0,P|364:106|365:123,3,28.125
335,64,144724,2,0,L|276:54,1,56.25,0|0,0:0|0:0,0:0:0:0:
210,37,144940,2,0,P|207:65|218:91,1,56.25
81,75,145156,2,0,L|136:84,1,56.25,8|0,0:2|0:0,0:0:0:0:
222,163,145372,2,0,P|224:176|222:190,3,28.125,0|0|0|0,0:0|0:0|0:0|0:0,0:0:0:0:
214,216,145587,5,0,0:0:0:0:
75,252,145803,1,0,0:0:0:0:
101,242,145911,1,0,0:0:0:0:
127,232,146019,2,0,L|114:308,1,56.25,8|0,0:2|0:0,0:0:0:0:
170,345,146235,2,0,L|204:337,3,28.125
201,260,146451,5,0,0:0:0:0:
227,270,146559,1,0,0:0:0:0:
253,280,146667,1,0,0:0:0:0:
279,290,146775,1,0,0:0:0:0:
305,300,146882,2,0,L|295:244,1,56.25,8|0,0:2|0:0,0:0:0:0:
368,200,147098,2,0,L|376:151,3,28.125,0|0|0|0,0:0|0:0|0:0|0:0,0:0:0:0:
394,158,147314,5,0,0:0:0:0:
512,261,147530,1,0,0:0:0:0:
507,288,147637,1,0,0:0:0:0:
502,316,147746,2,0,L|491:374,1,56.25,8|0,0:2|0:0,0:0:0:0:
423,332,147962,2,0,L|429:298,3,28.125,0|0|0|0,0:0|0:0|0:0|0:0,0:0:0:0:
420,360,148177,5,8,0:2:0:0:
370,323,148285,1,0,0:0:0:0:
320,285,148393,1,8,0:2:0:0:
270,248,148501,1,0,0:0:0:0:
212,272,148609,1,8,0:2:0:0:
155,297,148717,1,0,0:0:0:0:
98,321,148825,2,0,L|62:314,3,28.125,8|0|8|0,0:2|0:0|0:2|0:0,0:0:0:0:
27,320,149041,6,0,B|11:290|11:290|26:230,4,67.5000025749208,2|2|2|2|2,0:0|0:0|0:0|0:0|0:0,0:0:0:0:
171,351,150120,6,0,L|177:389,1,33.7500012874604,2|0,3:2|3:0,0:0:0:0:
124,288,150336,2,0,L|87:275,1,33.7500012874604,2|0,3:2|3:0,0:0:0:0:
199,280,150552,2,0,L|227:253,1,33.7500012874604,2|0,3:2|3:0,0:0:0:0:
137,110,150767,5,4,3:1:0:0:
137,110,150875,1,0,0:0:0:0:
137,110,150983,1,2,0:0:0:0:
8,0,151199,1,0,1:0:0:0:
166,34,151415,1,2,0:0:0:0:
187,15,151523,2,0,B|199:40|199:40|193:67,1,56.25,0|0,3:0|3:0,0:0:0:0:
141,179,151846,5,2,0:0:0:0:
103,14,152062,1,0,1:0:0:0:
271,14,152278,1,2,0:0:0:0:
342,210,152494,5,0,3:0:0:0:
342,210,152602,1,0,0:0:0:0:
342,210,152710,1,2,0:0:0:0:
504,165,152926,1,0,1:0:0:0:
398,35,153141,1,2,0:0:0:0:
376,16,153249,2,0,B|364:41|364:41|369:68,1,56.25,0|0,3:0|3:0,0:0:0:0:
393,145,153465,5,0,1:0:0:0:
393,145,153573,1,2,0:0:0:0:
498,276,153789,1,0,1:0:0:0:
348,354,154005,1,2,0:0:0:0:
222,158,154221,5,0,3:0:0:0:
222,158,154328,1,0,0:0:0:0:
222,158,154436,1,2,0:0:0:0:
60,206,154652,1,0,1:0:0:0:
187,347,154868,1,2,0:0:0:0:
207,365,154976,2,0,B|219:339|219:339|217:301,1,56.25,0|0,3:0|3:0,0:0:0:0:
118,257,155300,5,2,0:0:0:0:
5,131,155516,1,0,1:0:0:0:
117,6,155731,5,2,0:0:0:0:
107,38,155839,1,0,0:0:0:0:
97,71,155947,2,0,L|32:62,1,56.25,0|0,3:0|0:0,0:0:0:0:
115,180,156163,1,2,0:2:0:0:
278,106,156379,1,0,1:0:0:0:
132,1,156595,1,2,0:0:0:0:
176,35,156703,1,2,3:2:0:0:
231,34,156810,6,0,L|305:25,1,56.25,0|0,3:0|1:0,0:0:0:0:
359,60,157026,2,0,L|481:45,1,112.5,2|0,0:0|1:0,0:0:0:0:
339,175,157458,5,2,0:0:0:0:
261,256,157674,1,0,3:0:0:0:
159,207,157890,1,2,0:0:0:0:
261,256,158105,1,0,1:0:0:0:
334,365,158321,2,0,B|277:355|277:355|229:381,1,112.5,2|0,0:0|3:0,0:0:0:0:
240,137,158753,5,2,0:0:0:0:
261,256,158969,1,0,1:0:0:0:
79,350,159185,2,0,B|136:360|136:360|183:333,1,112.5,2|0,0:0|3:0,0:0:0:0:
159,207,159616,5,2,0:0:0:0:
339,175,159832,1,0,1:0:0:0:
470,291,160048,2,0,B|422:317|422:317|365:307,1,112.5,2|0,0:0|3:0,0:0:0:0:
240,137,160480,5,2,0:0:0:0:
132,106,160695,1,0,1:0:0:0:
24,75,160911,2,0,L|40:190,1,112.5,2|0,0:0|3:0,0:0:0:0:
88,241,161235,5,0,0:0:0:0:
93,273,161342,1,2,0:0:0:0:
99,306,161450,1,0,0:0:0:0:
166,276,161559,5,0,1:0:0:0:
186,301,161666,1,0,0:0:0:0:
208,327,161774,1,2,0:0:0:0:
230,353,161882,1,0,0:0:0:0:
272,293,161990,5,0,3:0:0:0:
301,305,162097,1,0,0:0:0:0:
333,316,162205,1,2,0:0:0:0:
365,328,162313,1,0,0:0:0:0:
371,255,162422,6,0,L|345:121,1,112.5,0|2,1:0|0:0,0:0:0:0:
432,297,162854,1,0,3:0:0:0:
387,13,163069,5,2,3:2:0:0:
387,13,163177,2,0,P|381:39|382:50,1,28.125,0|0,3:0|3:0,0:0:0:0:
375,61,163285,1,8,1:3:0:0:
266,157,163501,5,2,3:2:0:0:
273,129,163609,1,0,3:0:0:0:
280,101,163717,1,4,3:0:0:0:
228,10,163933,5,2,3:2:0:0:
228,10,164041,2,0,P|211:31|202:37,1,28.125,0|0,3:0|3:0,0:0:0:0:
188,28,164149,2,0,P|134:83|65:62,1,135,4|0,1:2|0:0,0:0:0:0:
22,32,164580,5,4,3:1:0:0:
85,156,164796,1,2,0:0:0:0:
111,164,164904,1,0,0:0:0:0:
139,161,165012,1,0,1:0:0:0:
310,213,165228,1,2,0:0:0:0:
302,185,165336,1,2,3:2:0:0:
247,86,165552,1,2,0:0:0:0:
239,114,165660,1,2,3:2:0:0:
231,142,165767,1,2,0:0:0:0:
223,170,165875,5,0,1:0:0:0:
387,132,166091,1,2,0:0:0:0:
486,268,166307,5,0,3:0:0:0:
460,260,166415,1,0,0:0:0:0:
432,263,166523,1,2,0:0:0:0:
348,338,166739,1,0,1:0:0:0:
263,264,166954,1,2,0:0:0:0:
258,291,167062,1,2,3:2:0:0:
152,206,167278,1,2,1:2:0:0:
178,214,167386,1,2,3:2:0:0:
206,211,167494,1,2,0:0:0:0:
230,196,167602,5,0,1:0:0:0:
67,150,167818,1,2,0:0:0:0:
108,314,168034,5,0,3:0:0:0:
115,287,168141,1,0,0:0:0:0:
122,259,168249,1,2,0:0:0:0:
158,131,168465,1,0,1:0:0:0:
68,29,168681,1,2,0:0:0:0:
61,57,168789,1,2,3:2:0:0:
193,32,169005,1,2,0:0:0:0:
219,24,169113,1,2,3:2:0:0:
247,27,169221,1,2,0:0:0:0:
271,42,169328,5,0,1:0:0:0:
376,173,169544,1,2,0:0:0:0:
492,50,169760,5,0,3:0:0:0:
464,45,169868,1,0,0:0:0:0:
438,56,169976,1,2,0:0:0:0:
376,173,170192,1,0,1:0:0:0:
248,218,170408,1,2,0:0:0:0:
275,225,170516,1,2,3:2:0:0:
393,303,170731,5,2,1:2:0:0:
366,310,170839,1,2,3:2:0:0:
339,317,170947,1,2,0:0:0:0:
312,324,171055,1,2,1:2:0:0:
146,359,171271,5,2,0:0:0:0:
103,279,171487,1,0,3:0:0:0:
159,209,171703,1,2,0:0:0:0:
103,279,171918,1,0,1:0:0:0:
47,349,172134,2,0,P|17:302|29:230,1,112.5,2|0,0:0|3:0,0:0:0:0:
202,289,172566,5,2,0:0:0:0:
159,209,172782,1,0,1:0:0:0:
263,78,172998,2,0,L|247:190,1,112.5,2|0,0:0|3:0,0:0:0:0:
103,279,173429,5,2,0:0:0:0:
235,262,173645,1,0,1:0:0:0:
142,97,173861,2,0,L|159:209,1,112.5,2|0,0:0|3:0,0:0:0:0:
103,279,174293,5,2,0:0:0:0:
247,190,174508,1,0,1:0:0:0:
512,237,174724,2,0,L|401:254,1,112.5,2|0,0:0|3:0,0:0:0:0:
327,268,175048,5,0,0:0:0:0:
304,270,175156,1,2,0:0:0:0:
281,272,175264,1,0,0:0:0:0:
246,300,175372,5,0,1:0:0:0:
205,280,175480,1,0,0:0:0:0:
182,282,175588,1,2,0:0:0:0:
159,284,175696,1,0,0:0:0:0:
121,259,175803,5,0,3:0:0:0:
93,294,175911,1,0,0:0:0:0:
70,296,176019,1,2,0:0:0:0:
47,298,176127,1,0,0:0:0:0:
17,331,176235,5,0,1:0:0:0:
121,259,176451,1,2,1:2:0:0:
246,300,176667,1,0,1:0:0:0:
350,228,176882,5,2,1:2:0:0:
350,228,176990,1,0,3:0:0:0:
361,202,177098,2,0,B|375:174|375:174|370:149,1,56.25,0|0,1:0|0:0,0:0:0:0:
306,59,177314,5,2,3:2:0:0:
277,56,177422,2,0,L|255:17,1,28.125,0|0,3:0|3:0,0:0:0:0:
248,53,177530,1,0,3:0:0:0:
219,50,177638,2,0,L|197:89,1,28.125,0|0,3:0|3:0,0:0:0:0:
190,47,177746,1,2,3:2:0:0:
161,44,177854,2,0,L|139:5,1,28.125,0|0,3:0|3:0,0:0:0:0:
132,41,177962,2,0,L|30:30,1,101.250003862381,4|0,1:2|0:0,0:0:0:0:
70,109,178393,6,0,P|39:151|49:219,1,112.5,4|2,3:1|0:0,0:0:0:0:
256,126,178825,2,0,L|144:113,1,112.5,0|2,1:0|0:0,0:0:0:0:
262,244,179257,2,0,P|284:213|277:164,1,56.25,0|0,3:0|0:0,0:0:0:0:
256,126,179472,1,2,0:0:0:0:
198,284,179688,1,0,1:0:0:0:
364,256,179904,2,0,L|475:268,1,112.5,2|0,0:0|3:0,0:0:0:0:
350,371,180336,1,2,0:0:0:0:
331,350,180443,1,0,0:0:0:0:
325,323,180551,1,0,1:0:0:0:
374,143,180767,5,2,0:0:0:0:
500,167,180983,1,0,3:0:0:0:
374,150,181199,1,2,0:0:0:0:
502,160,181415,1,0,1:0:0:0:
447,43,181631,1,2,0:0:0:0:
284,187,181846,6,0,L|204:167,2,56.25,0|0|2,3:0|0:0|0:0,0:0:0:0:
124,187,182278,2,0,P|95:233|114:299,1,112.5,0|2,1:0|0:0,0:0:0:0:
183,368,182710,1,0,3:0:0:0:
291,336,182926,1,2,0:0:0:0:
295,302,183034,1,0,0:0:0:0:
299,268,183141,2,0,L|219:288,1,56.25,0|0,1:0|0:0,0:0:0:0:
183,368,183357,2,0,B|127:381|127:381|69:354,1,112.5,2|0,0:0|3:0,0:0:0:0:
396,346,183789,2,0,B|346:322|346:322|290:335,1,112.5,2|0,0:0|1:0,0:0:0:0:
183,368,184221,5,2,0:0:0:0:
113,174,184436,1,0,3:0:0:0:
299,268,184652,1,2,0:0:0:0:
105,287,184868,2,0,L|114:174,1,112.5,0|2,1:0|0:0,0:0:0:0:
232,56,185300,2,0,L|220:200,2,112.5,0|2|0,3:0|0:0|1:0,0:0:0:0:
123,187,185947,5,2,0:0:0:0:
281,245,186163,1,0,3:0:0:0:
115,277,186379,1,2,0:0:0:0:
62,118,186595,1,0,1:0:0:0:
232,56,186810,2,0,B|178:38|178:38|101:60,1,112.5,2|0,0:0|3:0,0:0:0:0:
222,167,187242,2,0,P|221:104|232:55,1,112.5,2|0,0:0|1:0,0:0:0:0:
62,118,187674,2,0,P|72:170|71:230,1,112.5,2|0,0:0|3:0,0:0:0:0:
173,247,188105,5,2,0:0:0:0:
0,180,188321,1,0,1:0:0:0:
162,93,188537,1,2,0:0:0:0:
330,157,188753,5,0,3:0:0:0:
259,213,188969,2,0,P|241:141|279:83,1,112.5,2|0,0:0|1:0,0:0:0:0:
406,100,189400,5,2,0:0:0:0:
330,157,189616,1,0,3:0:0:0:
417,194,189832,1,2,0:0:0:0:
492,137,190048,1,0,1:3:0:0:
406,100,190264,5,6,0:2:0:0:
72,52,190695,1,6,0:0:0:0:
197,365,191127,1,6,0:0:0:0:
207,275,191343,5,8,3:0:0:0:
207,275,191451,1,4,3:0:0:0:
207,275,191559,1,4,3:0:0:0:
217,72,191775,2,0,L|211:185,1,112.5,4|0,1:2|0:0,0:0:0:0:
197,365,192206,1,0,3:0:0:0:
197,365,192638,2,0,B|141:369|141:369|120:379|120:379|64:382,1,135.000005149842,4|0,1:0|0:0,0:0:0:0:
162,236,193069,5,0,3:0:0:0:
2,272,193285,1,2,0:0:0:0:
21,251,193393,2,0,L|101:242,1,56.25,0|0,0:0|1:0,0:0:0:0:
244,273,193717,2,0,L|380:257,1,112.5,2|0,0:0|3:0,0:0:0:0:
464,129,194149,2,0,B|472:155|472:155|455:197,1,56.25,2|0,0:0|0:0,0:0:0:0:
461,181,194364,1,0,1:0:0:0:
316,86,194580,1,2,0:0:0:0:
404,12,194796,2,0,L|384:134,1,112.5,0|2,3:0|0:0,0:0:0:0:
365,143,195120,2,0,L|352:216,1,56.25,0|0,0:0|1:0,0:0:0:0:
121,86,195444,6,0,B|176:79|176:79|229:101|229:101|283:90,1,168.75,2|0,0:0|0:0,0:0:0:0:
315,155,195875,1,2,0:0:0:0:
288,162,195983,1,2,0:0:0:0:
261,169,196091,2,0,L|145:190,1,112.5,0|2,1:0|0:0,0:0:0:0:
148,261,196414,1,2,0:0:0:0:
165,260,196523,2,0,B|196:286|196:286|183:362,1,112.5,0|2,3:0|0:0,0:0:0:0:
254,371,196846,2,0,L|264:314,1,56.25,2|0,0:0|1:0,0:0:0:0:
385,123,197170,6,0,L|366:234,1,112.5,2|0,0:0|3:0,0:0:0:0:
319,86,197602,1,2,0:0:0:0:
450,192,197818,1,0,1:0:0:0:
335,311,198034,1,2,0:0:0:0:
204,205,198249,2,0,L|134:197,2,56.25,0|0|2,3:0|1:0|0:0,0:0:0:0:
343,304,198681,2,0,B|290:297|290:297|240:340,1,112.5,0|2,1:0|0:0,0:0:0:0:
183,382,199005,1,0,3:0:0:0:
183,382,199113,6,0,L|55:367,1,112.5,4|2,3:2|0:0,0:0:0:0:
5,251,199544,1,8,1:2:0:0:
131,298,199760,2,0,B|151:272|151:272|141:170,1,112.5,2|0,0:0|3:0,0:0:0:0:
199,69,200192,5,2,0:0:0:0:
202,97,200299,1,2,0:0:0:0:
205,125,200407,1,8,1:2:0:0:
208,153,200515,1,2,0:0:0:0:
230,135,200623,1,2,0:0:0:0:
253,118,200731,1,2,0:0:0:0:
276,102,200839,1,0,3:0:0:0:
392,171,201055,2,0,L|517:165,1,112.5,2|8,0:0|1:2,0:0:0:0:
344,22,201487,2,0,B|338:33|338:33|340:49,3,28.125,2|0|0|0,0:0|0:0|0:0|0:0,0:0:0:0:
354,74,201703,5,2,3:2:0:0:
385,86,201810,1,2,0:0:0:0:
418,81,201918,1,2,0:2:0:0:
442,57,202026,1,2,0:0:0:0:
448,24,202134,2,0,B|460:58|460:58|444:154,1,112.5,8|2,1:2|0:0,0:0:0:0:
417,242,202566,1,0,3:0:0:0:
447,133,202782,5,2,0:0:0:0:
316,258,202998,1,8,1:2:0:0:
489,308,203213,1,2,0:0:0:0:
254,297,203429,6,0,P|244:272|245:244,2,56.25,0|0|2,3:0|0:0|0:0,0:0:0:0:
391,343,203861,2,0,P|423:283|415:237,1,112.5,8|2,1:2|0:0,0:0:0:0:
213,178,204293,1,0,3:0:0:0:
290,70,204508,1,2,3:2:0:0:
290,70,204616,2,0,L|338:57,1,28.125,0|0,3:0|3:0,0:0:0:0:
346,58,204724,2,0,B|364:112|364:112|335:176,1,112.5,12|2,1:2|3:2,0:0:0:0:
328,188,205048,1,0,3:0:0:0:
316,213,205156,5,8,3:0:0:0:
241,321,205372,1,4,3:0:0:0:
0,197,205587,2,0,P|77:172|155:202,1,168.75,12|0,1:2|0:0,0:0:0:0:
169,276,206019,5,4,3:1:0:0:
250,237,206235,1,2,0:0:0:0:
339,243,206451,1,8,1:2:0:0:
413,292,206667,1,2,0:0:0:0:
219,149,207098,5,2,0:0:0:0:
308,155,207314,1,8,1:2:0:0:
389,116,207530,1,2,0:0:0:0:
145,100,207746,5,0,3:0:0:0:
65,57,207962,1,2,0:0:0:0:
145,100,208177,1,8,1:2:0:0:
147,190,208393,1,2,0:0:0:0:
145,100,208609,1,0,3:0:0:0:
222,54,208825,1,2,0:0:0:0:
65,57,209041,1,8,1:2:0:0:
147,190,209257,1,4,3:1:0:0:
212,162,209688,5,2,0:0:0:0:
277,190,210120,1,2,0:0:0:0:
342,162,210552,1,2,0:0:0:0:
407,190,210983,1,2,0:0:0:0:
351,26,211415,5,2,0:0:0:0:
286,54,211847,1,2,0:0:0:0:
221,26,212279,1,2,0:0:0:0:
156,54,212710,1,2,0:0:0:0:
351,26,212926,6,0,P|342:78|362:125,1,90,8|2,3:2|0:0,0:0:0:0:
289,150,213249,1,0,0:0:0:0:
284,172,213357,2,0,P|240:162|197:174,1,90,8|2,3:2|0:0,0:0:0:0:
126,156,213681,1,0,0:0:0:0:
108,141,213789,2,0,B|90:182|90:182|106:225,1,90,8|2,3:2|0:0,0:0:0:0:
194,338,214221,2,0,B|212:297|212:297|195:253,1,90,8|2,3:2|0:0,0:0:0:0:
132,295,214544,5,0,0:0:0:0:
109,297,214652,2,0,L|9:307,1,90,8|2,3:2|0:0,0:0:0:0:
194,338,214976,1,0,0:0:0:0:
215,332,215084,2,0,B|256:314|256:314|302:325,1,90,8|2,3:2|0:0,0:0:0:0:
473,260,215407,1,0,0:0:0:0:
451,263,215516,2,0,L|351:273,1,90,8|2,3:2|0:0,0:0:0:0:
263,384,215947,5,4,3:0:0:0:
236,133,216163,1,4,1:0:0:0:
