osu file format v14

[General]
AudioFilename: audio.mp3
AudioLeadIn: 0
PreviewTime: 63135
Countdown: 0
SampleSet: Soft
StackLeniency: 0.7
Mode: 2
LetterboxInBreaks: 0
WidescreenStoryboard: 0

[Editor]
Bookmarks: 836,7843,21857,35872,49887,63901,77916,91930,105945,119960,133974,147989,162003,177770,191784,205799,220252,233828
DistanceSpacing: 1.4
BeatDivisor: 4
GridSize: 8
TimelineZoom: 4.199999

[Metadata]
Title:Ai Kotoba III feat. Hatsune Miku
TitleUnicode:愛言葉Ⅲ feat. 初音ミク
Artist:DECO*27
ArtistUnicode:デコ・ニーナ
Creator:Yumeno Himiko
Version:Rain
Source:
Tags:niconico Vocaloid Rockwell 八三
BeatmapID:1802273
BeatmapSetID:861504

[Difficulty]
HPDrainRate:6
CircleSize:4
OverallDifficulty:9
ApproachRate:9
SliderMultiplier:2.4
SliderTickRate:2

[Events]
//Background and Video events
0,0,"10shunen.jpg",0,0
//Break Periods
//Storyboard Layer 0 (Background)
//Storyboard Layer 1 (Fail)
//Storyboard Layer 2 (Pass)
//Storyboard Layer 3 (Foreground)
//Storyboard Sound Samples

[TimingPoints]
836,437.956204379562,4,2,1,80,1,0
1273,-100,4,2,1,30,0,0
1492,-100,4,2,1,80,0,0
1711,-100,4,2,1,40,0,0
1930,-100,4,2,1,60,0,0
2149,-100,4,2,1,40,0,0
2368,-100,4,2,1,60,0,0
2587,-100,4,2,1,40,0,0
2806,-100,4,2,1,80,0,0
3025,-100,4,2,1,40,0,0
3244,-100,4,2,1,70,0,0
3463,-100,4,2,1,40,0,0
3682,-100,4,2,1,60,0,0
3901,-100,4,2,1,40,0,0
4120,-100,4,2,1,60,0,0
4996,-100,4,2,1,65,0,0
5215,-100,4,2,1,70,0,0
5434,-100,4,2,1,75,0,0
5653,-100,4,2,1,80,0,0
21857,-100,4,3,1,60,0,0
35872,-100,4,3,1,70,0,0
49887,-100,4,2,1,80,0,0
63463,-83.3333333333333,4,2,1,80,0,0
63901,-100,4,2,1,80,0,1
70908,-100,4,2,1,80,0,0
77916,-100,4,2,1,80,0,1
84485,-100,4,2,1,50,0,1
84704,-100,4,2,1,80,0,1
91054,-100,4,2,1,40,0,1
91930,-100,4,2,1,80,0,0
105945,-100,4,3,1,60,0,0
119960,-100,4,3,1,70,0,0
133974,-100,4,2,1,80,0,0
147989,-100,4,2,1,70,0,0
154996,-100,4,3,1,60,0,0
158500,-100,4,3,1,70,0,0
160908,-100,4,2,1,50,0,0
162003,-100,4,2,1,80,0,1
176018,-100,4,2,1,70,0,0
177770,-83.3333333333333,4,2,1,80,0,1
184777,-83.3333333333333,4,2,1,80,0,0
185653,-71.4285714285714,4,2,1,80,0,0
185845,-71.4285714285714,4,2,1,20,0,0
185872,-62.5,4,2,1,80,0,0
186064,-62.5,4,2,1,20,0,0
186091,-62.5,4,2,1,80,0,0
186310,-83.3333333333333,4,2,1,80,0,0
187405,-71.4285714285714,4,2,1,80,0,0
187596,-71.4285714285714,4,2,1,20,0,0
187624,-62.5,4,2,1,80,0,0
187815,-62.5,4,2,1,20,0,0
187843,-62.5,4,2,1,80,0,0
188062,-83.3333333333333,4,2,1,80,0,0
191784,-83.3333333333333,4,2,1,80,0,1
198792,-83.3333333333333,4,2,1,80,0,0
199668,-71.4285714285714,4,2,1,80,0,0
199859,-71.4285714285714,4,2,1,20,0,0
199887,-62.5,4,2,1,80,0,0
200078,-62.5,4,2,1,20,0,0
200106,-62.5,4,2,1,80,0,0
200325,-83.3333333333333,4,2,1,80,0,0
201419,-71.4285714285714,4,2,1,80,0,0
201611,-71.4285714285714,4,2,1,20,0,0
201638,-62.5,4,2,1,80,0,0
201830,-62.5,4,2,1,20,0,0
201857,-62.5,4,2,1,80,0,0
202076,-83.3333333333333,4,2,1,80,0,0
205799,-83.3333333333333,4,2,1,80,0,1
209494,-83.3333333333333,4,2,1,20,0,1
209522,-62.5,4,2,1,80,0,1
209713,-62.5,4,2,1,20,0,1
209741,-62.5,4,2,1,80,0,1
209960,-83.3333333333333,4,2,1,80,0,1
212806,-62.5,4,2,1,80,0,1
212998,-62.5,4,2,1,20,0,1
213025,-62.5,4,2,1,80,0,1
213217,-62.5,4,2,1,20,0,1
213244,-62.5,4,2,1,80,0,1
213436,-62.5,4,2,1,20,0,1
213463,-62.5,4,2,1,80,0,1
213655,-62.5,4,2,1,20,0,1
213682,-55.5555555555556,4,2,1,80,0,1
213874,-55.5555555555556,4,2,1,20,0,1
213901,-55.5555555555556,4,2,1,80,0,1
214093,-55.5555555555556,4,2,1,20,0,1
214120,-41.6666666666667,4,2,1,80,0,1
214312,-41.6666666666667,4,2,1,20,0,1
214339,-41.6666666666667,4,2,1,80,0,1
214531,-41.6666666666667,4,2,1,20,0,1
214558,-55.5555555555556,4,2,1,90,0,1
214750,-55.5555555555556,4,2,1,20,0,1
214777,-55.5555555555556,4,2,1,90,0,1
214969,-55.5555555555556,4,2,1,20,0,1
214996,-50,4,2,1,90,0,1
215215,-83.3333333333333,4,2,1,80,0,1
219814,-83.3333333333333,4,2,1,60,0,0
220252,-83.3333333333333,4,2,1,80,0,1
233828,-100,4,2,1,80,0,0

[Colours]
Combo1 : 236,210,176
Combo2 : 123,169,238
Combo3 : 247,239,91

[HitObjects]
104,256,179,5,0,3:0:0:0:
384,192,398,1,4,0:0:0:0:
104,144,836,5,4,1:0:0:0:
296,112,1054,2,0,L|280:248,1,120,2|0,0:0|0:0,0:0:0:0:
80,336,1492,2,0,L|96:208,1,120,2|0,0:0|0:0,0:0:0:0:
296,112,1930,2,0,L|280:248,1,120,2|0,0:0|0:0,0:0:0:0:
80,336,2368,6,0,L|96:208,1,120,2|0,0:0|0:0,0:0:0:0:
352,112,2806,2,0,L|336:248,1,120,2|0,0:0|0:0,0:0:0:0:
144,336,3244,2,0,L|160:208,1,120,2|0,0:0|0:0,0:0:0:0:
328,112,3682,2,0,L|312:248,1,120,2|4,0:0|0:0,0:0:0:0:
160,296,4120,1,2,0:0:0:0:
448,296,4339,6,0,L|464:152,1,120,4|0,0:0|0:0,0:0:0:0:
312,160,4777,1,0,3:0:0:0:
472,104,4996,1,0,3:0:0:0:
288,64,5215,1,0,3:0:0:0:
488,16,5434,1,0,3:0:0:0:
272,280,5653,1,0,3:0:0:0:
368,256,5763,1,0,3:0:0:0:
464,232,5872,1,0,3:0:0:0:
176,192,6091,6,0,L|48:192,1,120,0|4,3:0|3:0,0:0:0:0:
248,192,6529,2,0,L|256:48,1,120,4|0,3:0|0:0,0:0:0:0:
40,80,6967,1,4,3:0:0:0:
232,80,7186,1,4,3:0:0:0:
32,272,7405,1,0,3:0:0:0:
16,176,7514,1,0,3:0:0:0:
0,80,7623,1,0,3:0:0:0:
288,48,7843,6,0,L|432:32,1,120,4|2,1:0|0:0,0:0:0:0:
120,192,8281,1,8,0:0:0:0:
312,192,8500,2,0,L|304:320,1,120,2|0,0:0|0:0,0:0:0:0:
112,312,8938,1,2,0:0:0:0:
400,312,9157,2,0,L|272:312,1,120,8|2,0:0|0:0,0:0:0:0:
472,312,9595,6,0,L|480:176,1,120,0|2,3:0|0:0,0:0:0:0:
176,184,10033,2,0,L|168:64,1,120,8|2,0:0|0:0,0:0:0:0:
360,64,10471,2,0,L|368:208,1,120,0|2,3:0|0:0,0:0:0:0:
88,272,10908,1,8,0:0:0:0:
184,264,11017,1,0,0:0:0:0:
280,256,11126,1,2,0:0:0:0:
0,112,11346,6,0,L|16:248,1,120,4|2,0:0|0:0,0:0:0:0:
304,176,11784,2,0,L|176:192,1,120,8|2,0:0|0:0,0:0:0:0:
376,224,12222,2,0,L|384:88,1,120,0|2,3:0|0:0,0:0:0:0:
88,80,12660,2,0,L|224:88,1,120,8|2,0:0|0:0,0:0:0:0:
48,192,13098,6,0,L|40:48,1,120,0|2,3:0|0:0,0:0:0:0:
344,48,13536,2,0,L|192:64,1,120,8|2,0:0|0:0,0:0:0:0:
408,152,13974,2,0,L|416:16,1,120,0|2,3:0|0:0,0:0:0:0:
80,264,14412,1,12,0:0:0:0:
272,264,14631,1,2,0:0:0:0:
80,264,14850,6,0,L|64:120,1,120,0|2,3:0|0:0,0:0:0:0:
352,120,15288,2,0,L|496:104,1,120,8|2,0:0|0:0,0:0:0:0:
280,120,15726,2,0,L|136:104,1,120,0|2,3:0|0:0,0:0:0:0:
440,72,16164,2,0,L|424:208,1,120,8|2,0:0|0:0,0:0:0:0:
240,232,16602,5,0,3:0:0:0:
432,272,16821,1,2,0:0:0:0:
136,280,17040,2,0,L|128:152,1,120,8|2,0:0|0:0,0:0:0:0:
320,144,17478,1,0,3:0:0:0:
327,84,17587,1,0,0:0:0:0:
334,24,17696,1,2,0:0:0:0:
48,32,17916,2,0,L|184:40,1,120,8|2,0:0|0:0,0:0:0:0:
360,48,18354,6,0,L|376:200,1,120,0|2,3:0|0:0,0:0:0:0:
80,304,18792,2,0,L|96:152,1,120,8|2,0:0|0:0,0:0:0:0:
280,136,19230,1,0,3:0:0:0:
104,80,19449,1,2,0:0:0:0:
400,48,19668,1,8,0:0:0:0:
396,107,19777,1,0,3:0:0:0:
392,167,19886,1,2,0:0:0:0:
104,304,20106,5,4,0:0:0:0:
440,272,20325,2,0,L|296:264,1,120,8|8,0:0|0:0,0:0:0:0:
128,248,20763,1,2,0:0:0:0:
416,184,20981,5,0,3:0:0:0:
424,88,21091,1,0,3:0:0:0:
328,72,21200,1,0,3:0:0:0:
424,88,21310,1,0,3:0:0:0:
328,112,21419,1,0,3:0:0:0:
232,136,21529,1,0,3:0:0:0:
328,112,21638,1,0,3:0:0:0:
424,88,21748,1,0,3:0:0:0:
184,64,21857,5,4,2:0:0:0:
308,190,22295,1,0,0:0:0:0:
112,240,22733,2,0,L|104:104,1,120,0|0,0:0|2:0,0:0:0:0:
296,160,23171,2,0,L|304:32,1,120,0|0,0:0|2:0,0:0:0:0:
120,320,23609,5,0,0:0:0:0:
120,320,23828,1,0,0:0:0:0:
248,288,24047,1,0,0:0:0:0:
248,288,24266,1,0,0:0:0:0:
112,208,24485,1,0,0:0:0:0:
248,184,24704,1,0,0:0:0:0:
112,208,24923,1,0,0:0:0:0:
248,184,25142,1,0,0:0:0:0:
432,136,25361,5,2,0:2:0:0:
432,136,25580,1,0,0:0:0:0:
432,136,25799,1,2,0:2:0:0:
312,288,26018,2,0,L|296:32,1,240,2|0,0:2|0:0,0:0:0:0:
440,288,26675,1,2,0:2:0:0:
248,280,26894,6,0,L|480:144,1,240,2|0,0:2|0:0,0:0:0:0:
280,160,27551,2,0,L|272:32,1,120,2|0,0:2|0:0,0:0:0:0:
424,104,27989,1,0,0:0:0:0:
424,104,28208,1,0,0:0:0:0:
288,240,28427,1,0,0:0:0:0:
424,232,28646,1,0,0:0:0:0:
232,248,28865,6,0,L|104:256,1,120,2|0,0:2|0:0,0:0:0:0:
288,248,29303,1,2,0:2:0:0:
144,160,29522,1,2,0:2:0:0:
144,160,29741,1,2,0:2:0:0:
288,72,29960,2,0,L|272:328,1,240,2|2,0:2|0:2,0:0:0:0:
128,328,30617,5,0,0:0:0:0:
128,328,30835,1,0,0:0:0:0:
272,272,31054,1,0,0:0:0:0:
272,272,31273,1,0,0:0:0:0:
88,208,31492,1,0,0:0:0:0:
88,208,31711,1,0,0:0:0:0:
280,192,31930,2,0,L|288:64,1,120,2|0,0:2|0:0,0:0:0:0:
80,56,32368,6,0,P|64:128|200:208,1,240,2|0,0:2|0:0,0:0:0:0:
344,216,33025,1,2,0:2:0:0:
176,296,33244,1,2,0:2:0:0:
176,296,33463,1,0,0:0:0:0:
328,256,33682,1,2,0:2:0:0:
328,256,33901,1,2,0:2:0:0:
176,240,34120,6,0,L|168:112,1,120,2|0,0:2|0:0,0:0:0:0:
320,96,34558,1,2,0:2:0:0:
168,112,34777,1,0,0:0:0:0:
336,280,34996,2,0,L|352:136,1,120,2|0,0:2|0:0,0:0:0:0:
160,72,35434,1,0,0:0:0:0:
152,131,35543,1,0,0:0:0:0:
145,191,35652,1,4,0:0:0:0:
432,280,35872,6,0,L|448:160,1,120,4|2,2:0|0:2,0:0:0:0:
232,136,36310,1,2,2:0:0:0:
24,88,36529,2,0,L|160:80,1,120,2|0,2:0|0:0,0:0:0:0:
360,72,36967,1,2,0:2:0:0:
144,296,37186,2,0,L|136:176,1,120,4|2,0:0|0:2,0:0:0:0:
448,136,37624,6,0,L|320:152,2,120,4|2|0,0:0|0:2|0:0,0:0:0:0:
232,160,38281,2,0,L|376:176,2,120,2|0|2,0:2|0:0|0:2,0:0:0:0:
448,184,38938,2,0,L|472:56,1,120,4|2,0:0|0:2,0:0:0:0:
168,312,39376,6,0,L|32:288,1,120,4|2,2:0|0:2,0:0:0:0:
248,208,39814,1,2,0:2:0:0:
456,152,40033,2,0,L|472:24,1,120,2|0,0:2|0:0,0:0:0:0:
256,32,40471,1,2,0:2:0:0:
40,24,40690,1,4,0:0:0:0:
280,152,40908,6,0,L|32:176,1,240,2|2,0:2|0:2,0:0:0:0:
240,264,41565,2,0,L|256:112,1,120,2|0,0:2|0:0,0:0:0:0:
40,88,42003,1,0,0:0:0:0:
256,88,42222,2,0,L|112:88,1,120,2|2,0:2|0:2,0:0:0:0:
352,88,42660,1,0,0:0:0:0:
64,312,42879,6,0,L|48:176,1,120,4|2,2:0|0:2,0:0:0:0:
256,120,43317,1,2,0:2:0:0:
40,88,43536,1,4,0:0:0:0:
256,64,43755,2,0,L|112:80,1,120,2|2,0:2|0:2,0:0:0:0:
352,56,44193,2,0,L|344:192,1,120,0|2,0:0|0:2,0:0:0:0:
128,192,44631,6,0,L|272:168,1,120,4|2,0:0|0:2,0:0:0:0:
464,144,45069,1,0,0:0:0:0:
248,176,45288,2,0,L|264:40,1,120,2|0,0:2|0:0,0:0:0:0:
480,48,45726,1,2,0:2:0:0:
264,56,45945,2,0,L|400:48,1,120,0|2,0:0|0:2,0:0:0:0:
88,64,46383,6,0,L|360:56,1,240,4|0,0:2|0:0,0:0:0:0:
128,144,47040,1,2,0:2:0:0:
344,144,47259,2,0,L|336:296,1,120,2|0,0:2|0:0,0:0:0:0:
120,280,47697,2,0,L|248:272,1,120,2|0,0:2|0:0,0:0:0:0:
456,264,48135,5,2,0:2:0:0:
120,144,48354,1,6,0:2:0:0:
336,144,48573,2,0,L|392:8,1,120,2|0,0:2|0:0,0:0:0:0:
168,32,49011,2,0,L|288:48,1,120,2|0,0:2|0:0,0:0:0:0:
208,120,49339,1,0,0:0:0:0:
120,176,49449,1,0,0:0:0:0:
208,192,49558,1,0,0:0:0:0:
296,208,49668,1,0,0:0:0:0:
16,248,49887,6,0,P|8:144|240:72,1,360,4|0,0:0|0:0,0:0:0:0:
72,216,50763,2,0,L|64:88,1,120,0|2,1:0|0:0,0:0:0:0:
256,72,51200,2,0,L|128:80,1,120,2|0,0:0|0:0,0:0:0:0:
416,264,51638,6,0,P|464:208|280:80,1,360,4|0,0:0|0:0,0:0:0:0:
480,128,52514,1,0,1:0:0:0:
320,232,52733,2,0,L|328:96,1,120,0|2,0:0|0:0,0:0:0:0:
480,128,53171,1,2,0:0:0:0:
192,272,53390,6,0,P|96:224|128:96,1,240,4|0,0:0|0:0,0:0:0:0:
256,72,54047,1,0,0:0:0:0:
448,72,54266,2,0,L|440:208,1,120,0|0,1:0|0:0,0:0:0:0:
224,240,54704,2,0,L|72:248,1,120,4|0,0:0|0:0,0:0:0:0:
392,296,55142,6,0,P|464:264|376:168,1,240,2|0,0:0|0:0,0:0:0:0:
240,152,55799,1,0,0:0:0:0:
48,144,56018,2,0,L|32:16,1,120,0|0,1:0|0:0,0:0:0:0:
224,24,56456,1,0,3:0:0:0:
164,31,56565,1,0,3:0:0:0:
104,38,56674,1,0,3:0:0:0:
400,256,56894,6,0,L|408:120,1,120,4|2,0:0|0:0,0:0:0:0:
216,160,57332,2,0,L|200:32,1,120,8|2,0:0|0:0,0:0:0:0:
392,32,57770,1,0,0:0:0:0:
200,64,57989,1,2,0:0:0:0:
392,80,58208,2,0,L|472:192,1,120,8|2,0:0|0:0,0:0:0:0:
176,256,58646,6,0,P|160:184|296:128,1,240,2|8,0:0|0:0,0:0:0:0:
96,112,59303,2,0,L|352:96,1,240,2|2,0:0|0:0,0:0:0:0:
168,192,59960,2,0,L|88:88,1,120,8|2,0:0|0:0,0:0:0:0:
400,64,60398,6,0,P|448:128|416:168,1,120,4|0,0:0|0:0,0:0:0:0:
376,232,60726,1,0,3:0:0:0:
160,272,60835,2,0,L|88:280,1,60,0|0,3:0|0:0,0:0:0:0:
304,168,61054,2,0,L|496:152,1,180,4|0,0:0|0:0,0:0:0:0:
240,128,61492,1,0,3:0:0:0:
162,97,61601,1,0,3:0:0:0:
86,60,61710,1,0,3:0:0:0:
166,34,61820,1,0,3:0:0:0:
340,28,61930,6,0,B|438:15|438:15|346:28,1,180,2|0,0:0|0:0,0:0:0:0:
80,72,62368,2,0,L|136:128,1,60,4|0,0:0|0:0,0:0:0:0:
304,144,62587,1,4,0:0:0:0:
243,203,62697,1,0,0:0:0:0:
186,265,62806,1,0,0:0:0:0:
480,264,63025,5,4,0:0:0:0:
462,239,63079,1,0,0:0:0:0:
442,217,63134,1,0,0:0:0:0:
418,199,63189,1,0,0:0:0:0:
391,185,63243,1,0,0:0:0:0:
363,176,63298,1,0,0:0:0:0:
333,171,63353,1,0,0:0:0:0:
303,171,63408,1,0,0:0:0:0:
274,175,63463,2,0,L|431:168,1,143.999995605469,2|2,0:0|0:0,0:0:0:0:
132,288,63901,6,0,L|2:283,2,120,4|2|10,0:0|0:0|0:0,0:0:0:0:
438,67,64558,2,0,L|181:84,1,240,2|2,0:0|0:0,0:0:0:0:
390,90,65215,2,0,L|393:228,1,120,8|2,0:0|0:0,0:0:0:0:
114,201,65653,6,0,L|239:216,2,120,2|2|10,0:0|0:0|0:0,0:0:0:0:
420,280,66310,2,0,L|427:141,1,120,2|0,0:0|0:0,0:0:0:0:
331,142,66638,1,0,0:0:0:0:
235,127,66748,1,2,0:0:0:0:
44,102,66967,2,0,L|182:97,1,120,8|0,0:0|0:0,0:0:0:0:
454,289,67405,6,0,L|466:160,1,120,4|2,0:0|0:0,0:0:0:0:
278,120,67843,1,10,0:0:0:0:
0,77,68062,2,0,L|261:68,1,240,2|2,0:0|0:0,0:0:0:0:
80,178,68719,2,0,L|232:171,1,120,8|2,0:0|0:0,0:0:0:0:
392,160,69157,5,2,0:0:0:0:
89,328,69376,2,0,L|80:201,1,120,2|8,0:0|0:0,0:0:0:0:
273,215,69814,2,0,P|348:174|246:99,1,240,2|2,0:0|0:0,0:0:0:0:
73,92,70471,1,10,0:0:0:0:
397,73,70690,1,2,0:0:0:0:
206,83,70908,6,0,P|150:117|253:201,1,240,4|10,0:0|0:0,0:0:0:0:
431,208,71565,1,2,0:0:0:0:
239,221,71784,2,0,L|392:211,2,120,2|2|10,0:0|0:0|0:0,0:0:0:0:
426,265,72441,1,0,0:0:0:0:
141,274,72660,6,0,P|162:185|327:144,1,240,0|10,0:0|0:0,0:0:0:0:
480,157,73317,1,2,0:0:0:0:
295,210,73536,2,0,L|454:202,2,120,2|2|10,0:0|0:0|0:0,0:0:0:0:
12,219,74193,6,0,L|272:246,1,240,2|0,0:0|0:0,0:0:0:0:
125,96,74850,1,10,0:0:0:0:
316,86,75069,2,0,P|372:133|283:244,1,240,2|0,0:0|0:0,0:0:0:0:
108,302,75726,1,8,0:0:0:0:
107,242,75835,1,0,3:0:0:0:
107,182,75944,1,0,3:0:0:0:
435,104,76164,5,4,0:0:0:0:
253,165,76383,1,8,0:0:0:0:
445,302,76602,2,0,L|462:168,1,120,8|0,0:0|3:0,0:0:0:0:
365,163,76930,1,0,3:0:0:0:
157,136,77040,5,0,3:0:0:0:
97,129,77149,1,0,3:0:0:0:
37,123,77258,1,0,3:0:0:0:
119,73,77368,1,0,3:0:0:0:
208,37,77478,1,8,0:0:0:0:
297,4,77587,1,0,3:0:0:0:
213,224,77697,1,8,0:0:0:0:
119,204,77806,1,0,3:0:0:0:
333,243,77916,6,0,L|483:269,2,120,4|2|8,0:0|0:0|0:0,0:0:0:0:
39,178,78573,2,0,L|287:157,1,240,2|2,0:0|0:0,0:0:0:0:
106,245,79230,2,0,L|93:103,1,120,10|2,0:0|0:0,0:0:0:0:
386,72,79668,6,0,L|507:61,2,120,2|2|10,0:0|0:0|0:0,0:0:0:0:
193,83,80325,2,0,L|333:96,1,120,2|0,0:0|0:0,0:0:0:0:
229,143,80653,1,0,3:0:0:0:
145,190,80763,1,2,3:2:0:0:
329,238,80981,2,0,L|338:115,1,120,8|0,0:0|0:0,0:0:0:0:
57,53,81419,6,0,L|45:194,1,120,4|0,0:0|0:0,0:0:0:0:
239,233,81857,1,8,0:0:0:0:
435,284,82076,2,0,L|447:32,1,240,2|2,0:0|0:0,0:0:0:0:
253,48,82733,2,0,L|122:43,1,120,8|2,0:0|0:0,0:0:0:0:
325,50,83171,5,0,0:0:0:0:
43,272,83390,2,0,L|34:128,1,120,2|8,0:0|0:0,0:0:0:0:
228,156,83828,2,0,L|237:16,1,120,2|0,0:0|0:0,0:0:0:0:
42,38,84266,1,2,0:0:0:0:
233,56,84485,1,6,0:0:0:0:
37,131,84704,1,2,0:0:0:0:
355,137,84923,6,0,P|432:170|351:256,1,240,0|10,0:0|0:0,0:0:0:0:
162,273,85580,1,2,0:0:0:0:
351,239,85799,2,0,L|493:215,2,120,2|2|10,0:0|0:0|0:0,0:0:0:0:
504,301,86456,1,0,0:0:0:0:
198,313,86675,6,0,P|172:242|318:193,1,240,0|10,0:0|0:0,0:0:0:0:
482,207,87332,1,2,0:0:0:0:
291,179,87551,2,0,L|143:158,1,120,2|2,0:0|0:0,0:0:0:0:
358,111,87989,1,10,0:0:0:0:
66,105,88208,6,0,P|32:180|159:265,1,240,2|0,0:0|0:0,0:0:0:0:
315,228,88865,1,10,0:0:0:0:
491,103,89084,2,0,L|250:119,1,240,2|0,0:0|0:0,0:0:0:0:
414,222,89741,2,0,L|428:88,1,120,10|0,0:0|0:0,0:0:0:0:
101,71,90179,5,4,0:0:0:0:
321,160,90398,1,4,3:0:0:0:
26,277,90617,1,4,3:0:0:0:
316,274,91054,2,0,P|362:202|235:144,1,240,2|2,0:0|0:0,0:0:0:0:
112,131,91711,1,2,0:0:0:0:
451,294,91930,6,0,L|462:144,1,120,4|2,0:0|0:0,0:0:0:0:
268,152,92368,2,0,L|137:137,1,120,8|2,0:0|0:0,0:0:0:0:
325,60,92806,1,0,0:0:0:0:
134,37,93025,1,2,0:0:0:0:
411,294,93244,2,0,L|398:153,1,120,8|2,0:0|0:0,0:0:0:0:
207,159,93682,6,0,L|343:144,1,120,2|0,0:0|0:0,0:0:0:0:
48,313,94120,2,0,L|34:171,1,120,8|2,0:0|0:0,0:0:0:0:
229,198,94558,1,0,3:0:0:0:
231,138,94667,1,0,3:0:0:0:
234,78,94776,1,0,3:0:0:0:
42,60,94996,1,10,0:0:0:0:
233,45,95215,1,0,0:0:0:0:
509,261,95434,6,0,L|368:268,1,120,4|0,0:0|0:0,0:0:0:0:
98,132,95872,2,0,L|233:145,1,120,10|0,0:0|0:0,0:0:0:0:
409,163,96310,2,0,L|419:26,1,120,0|2,0:0|0:0,0:0:0:0:
119,330,96748,2,0,L|105:201,1,120,8|2,0:0|0:0,0:0:0:0:
294,168,97186,6,0,L|141:182,2,120,2|0|8,0:0|0:0|0:0,0:0:0:0:
122,78,97843,1,2,0:0:0:0:
313,58,98062,1,0,3:0:0:0:
307,117,98171,1,0,3:0:0:0:
302,177,98280,1,0,3:0:0:0:
20,328,98500,2,0,L|163:314,1,120,12|2,0:0|0:0,0:0:0:0:
440,272,98938,6,0,L|282:258,1,120,2|0,0:0|0:0,0:0:0:0:
128,247,99376,2,0,L|116:87,1,120,10|0,0:0|0:0,0:0:0:0:
305,77,99814,1,0,0:0:0:0:
112,77,100033,1,2,0:0:0:0:
433,198,100252,2,0,L|443:67,1,120,8|2,0:0|0:0,0:0:0:0:
250,57,100690,6,0,L|376:70,2,120,2|0|8,0:0|0:0|0:0,0:0:0:0:
59,33,101346,1,2,0:0:0:0:
207,155,101565,1,0,3:0:0:0:
147,158,101674,1,0,3:0:0:0:
87,162,101783,1,0,3:0:0:0:
372,283,102003,2,2,L|378:151,1,120,10|2,0:0|0:0,0:0:0:0:
86,298,102441,6,0,L|220:291,1,120,0|2,0:0|0:0,0:0:0:0:
484,285,102879,2,0,L|477:151,1,120,10|0,0:0|0:0,0:0:0:0:
287,135,103317,2,0,L|426:123,1,120,0|2,0:0|0:0,0:0:0:0:
119,61,103755,1,8,0:0:0:0:
125,120,103864,1,0,3:0:0:0:
132,180,103973,1,0,3:0:0:0:
455,280,104193,5,4,0:0:0:0:
99,307,104412,2,0,L|112:152,1,120,8|8,0:0|0:0,0:0:0:0:
301,174,104850,5,2,3:2:0:0:
208,147,104960,1,0,3:0:0:0:
119,110,105069,1,2,3:2:0:0:
212,85,105179,1,0,3:0:0:0:
304,61,105288,1,2,3:2:0:0:
398,41,105398,1,0,3:0:0:0:
304,61,105507,1,2,3:2:0:0:
212,85,105617,1,0,3:0:0:0:
303,113,105726,1,2,3:2:0:0:
396,136,105836,1,0,3:0:0:0:
172,325,105945,6,0,P|116:252|216:181,1,240,12|2,0:2|0:0,0:0:0:0:
427,143,106711,1,0,0:0:0:0:
354,147,106821,2,0,L|191:153,1,120,4|0,0:0|0:0,0:0:0:0:
431,283,107259,2,0,L|425:162,1,120,2|0,0:0|0:0,0:0:0:0:
232,165,107697,6,0,L|226:33,1,120,4|0,0:0|0:0,0:0:0:0:
418,33,108135,2,0,L|421:183,1,120,2|0,0:0|0:0,0:0:0:0:
350,172,108463,1,2,0:0:0:0:
279,187,108573,2,0,L|126:215,1,120
352,269,109011,2,0,L|483:298,1,120,2|0,0:0|0:0,0:0:0:0:
174,327,109449,6,0,L|158:191,1,120,4|0,0:2|0:0,0:0:0:0:
297,163,109887,1,2,0:0:0:0:
100,103,110106,2,0,P|42:159|134:281,1,240,4|0,0:0|0:0,0:0:0:0:
284,280,110763,1,0,0:0:0:0:
481,190,110981,6,0,L|234:167,1,240,2|0,0:0|0:0,0:0:0:0:
386,180,111638,2,0,L|397:56,1,120,2|0,0:0|0:0,0:0:0:0:
323,54,111967,1,0,0:0:0:0:
251,48,112076,2,0,L|381:61,1,120,4|0,0:0|0:0,0:0:0:0:
510,73,112514,2,0,L|500:222,1,120,2|0,0:0|0:0,0:0:0:0:
220,218,112952,6,0,L|59:201,1,120,4|0,0:2|0:0,0:0:0:0:
229,140,113390,2,0,P|293:160|243:296,1,240,4|0,0:0|0:0,0:0:0:0:
114,319,114047,1,0,0:0:0:0:
302,337,114266,2,0,L|310:205,1,120,2|0,0:0|0:0,0:0:0:0:
162,130,114704,6,0,L|291:146,2,120,4|0|2,0:0|0:0|0:0,0:0:0:0:
374,86,115471,1,0,0:0:0:0:
310,118,115580,2,0,P|296:192|339:240,1,120,4|0,0:0|0:0,0:0:0:0:
459,257,116018,2,0,L|323:276,1,120,2|0,0:0|0:0,0:0:0:0:
48,290,116456,6,0,L|316:317,1,240,4|0,0:2|0:0,0:0:0:0:
152,259,117113,1,0,0:0:0:0:
342,210,117332,2,0,L|206:192,1,120,2|0,0:0|0:0,0:0:0:0:
26,143,117770,2,0,L|186:126,1,120,2|0,0:0|0:0,0:0:0:0:
433,84,118208,6,0,L|289:81,2,120,2|0|4,0:0|0:0|0:2,0:0:0:0:
277,152,118865,1,0,0:0:0:0:
474,154,119084,2,0,L|481:282,1,120
338,301,119522,1,0,0:0:0:0:
397,298,119631,1,0,0:0:0:0:
457,296,119740,1,0,0:0:0:0:
96,308,119960,6,0,L|80:154,1,120,4|2,0:2|0:2,0:0:0:0:
269,135,120398,1,10,0:2:0:0:
81,92,120617,1,2,0:2:0:0:
270,66,120835,2,0,L|399:52,1,120,2|0,0:2|0:0,0:0:0:0:
241,176,121273,2,0,L|225:39,1,120,8|2,0:2|0:2,0:0:0:0:
506,261,121711,6,0,L|333:277,1,120
194,289,122149,2,0,L|365:280,1,120,8|0,0:2|0:0,0:0:0:0:
147,184,122587,1,0,0:0:0:0:
140,124,122696,1,0,0:0:0:0:
134,64,122805,1,0,0:0:0:0:
327,52,123025,1,8,0:2:0:0:
134,64,123244,1,0,0:0:0:0:
411,228,123463,6,0,L|258:225,1,120,4|2,0:2|0:2,0:0:0:0:
98,219,123901,1,8,0:2:0:0:
288,195,124120,1,2,0:2:0:0:
100,152,124339,2,0,L|96:12,1,120,2|2,0:2|0:2,0:0:0:0:
289,26,124777,1,10,0:2:0:0:
99,262,124996,6,0,L|362:235,1,240,2|0,0:2|0:0,0:0:0:0:
157,168,125653,2,0,L|19:148,1,120,8|2,0:2|0:2,0:0:0:0:
229,122,126091,1,0,0:0:0:0:
288,120,126200,1,0,0:0:0:0:
348,118,126309,1,0,0:0:0:0:
62,341,126529,2,0,L|59:216,1,120,4|0,0:2|0:0,0:0:0:0:
352,231,126967,6,0,L|365:77,1,120,2|2,0:2|0:2,0:0:0:0:
170,87,127405,1,10,0:2:0:0:
361,96,127624,1,2,0:2:0:0:
170,123,127843,1,2,0:2:0:0:
361,130,128062,2,0,L|83:164,1,240,2|0,0:2|0:0,0:0:0:0:
418,320,128719,6,0,L|432:188,1,120
244,151,129157,2,0,L|392:170,1,120,8|0,0:2|0:0,0:0:0:0:
171,142,129595,1,0,0:0:0:0:
169,82,129704,1,0,0:0:0:0:
167,22,129813,1,0,0:0:0:0:
360,17,130033,2,0,L|343:164,1,120,8|0,0:2|0:0,0:0:0:0:
62,241,130471,6,0,L|350:266,1,240,4|8,0:2|0:2,0:0:0:0:
119,322,131127,1,2,0:2:0:0:
283,223,131346,2,0,L|290:77,1,120,2|0,0:2|0:0,0:0:0:0:
95,98,131784,1,8,0:2:0:0:
154,104,131893,1,0,0:0:0:0:
214,110,132002,1,0,0:0:0:0:
499,134,132222,5,4,0:2:0:0:
206,275,132441,2,0,L|194:132,1,120,8|8,0:2|0:2,0:0:0:0:
287,123,132770,1,0,0:0:0:0:
377,91,132879,1,0,0:0:0:0:
284,64,132989,1,0,0:0:0:0:
97,30,133098,5,0,0:0:0:0:
60,119,133208,1,0,0:0:0:0:
152,144,133317,1,0,0:0:0:0:
60,119,133427,1,0,0:0:0:0:
151,145,133536,1,0,0:0:0:0:
244,169,133646,1,0,0:0:0:0:
153,198,133755,1,0,0:0:0:0:
61,229,133865,1,0,0:0:0:0:
305,302,133974,6,0,L|308:251,1,30,4|0,0:0|0:0,0:0:0:0:
198,240,134193,1,8,0:0:0:0:
474,183,134412,2,0,L|481:49,1,120,4|2,0:0|0:0,0:0:0:0:
288,47,134850,2,0,L|157:37,1,120,0|2,0:0|0:0,0:0:0:0:
335,133,135288,2,0,L|471:142,1,120,10|0,0:0|0:0,0:0:0:0:
161,315,135726,6,0,L|154:178,1,120,2|2,0:0|0:0,0:0:0:0:
346,176,136164,2,0,L|200:183,2,120,8|2|0,0:0|0:0|0:0,0:0:0:0:
164,110,136821,1,2,0:0:0:0:
353,79,137040,2,0,L|343:215,1,120,10|2,0:0|0:0,0:0:0:0:
65,320,137478,6,0,L|324:307,1,240,4|8,0:0|0:0,0:0:0:0:
128,230,138135,2,0,P|81:188|196:96,1,240,2|0,0:0|0:0,0:0:0:0:
366,93,138792,1,10,0:0:0:0:
90,314,139011,6,0,L|78:55,1,240,2|2,0:0|0:0,0:0:0:0:
271,70,139668,2,0,L|133:76,1,120,8|2,0:0|0:0,0:0:0:0:
353,231,140106,1,0,3:0:0:0:
356,171,140215,1,0,3:0:0:0:
360,111,140324,1,0,3:0:0:0:
172,154,140544,2,0,L|159:307,1,120,4|0,0:0|0:0,0:0:0:0:
459,325,140981,6,0,L|454:273,1,30,8|0,0:0|0:0,0:0:0:0:
323,245,141200,1,10,0:0:0:0:
39,201,141419,2,2,L|181:191,1,120,4|2,0:0|0:0,0:0:0:0:
351,185,141857,2,0,L|355:50,1,120,0|2,0:0|0:0,0:0:0:0:
162,52,142295,1,10,0:0:0:0:
353,66,142514,1,2,0:0:0:0:
74,343,142733,6,0,L|59:203,1,120,2|0,0:0|0:0,0:0:0:0:
218,172,143171,1,10,0:0:0:0:
405,129,143390,2,0,L|133:104,1,240,2|2,0:0|0:0,0:0:0:0:
349,48,144047,2,0,L|488:32,1,120,8|2,0:0|0:0,0:0:0:0:
180,321,144485,6,0,L|170:185,1,120,0|0,3:0|0:0,0:0:0:0:
356,149,144923,1,10,0:0:0:0:
167,110,145142,2,0,P|63:169|161:237,1,240,2|2,0:0|0:0,0:0:0:0:
308,268,145799,1,8,0:0:0:0:
312,208,145908,1,0,3:0:0:0:
317,148,146017,1,0,3:0:0:0:
33,59,146237,5,4,0:0:0:0:
195,161,146456,1,0,3:0:0:0:
20,240,146675,1,0,3:0:0:0:
205,309,146894,1,0,3:0:0:0:
14,336,147113,5,0,3:0:0:0:
9,277,147222,1,0,3:0:0:0:
45,231,147331,1,0,3:0:0:0:
103,223,147441,1,0,3:0:0:0:
310,217,147551,1,0,3:0:0:0:
314,158,147660,1,0,3:0:0:0:
278,112,147769,1,0,3:0:0:0:
220,104,147879,1,0,3:0:0:0:
30,106,147989,5,2,0:0:0:0:
230,263,148208,2,0,P|236:191|72:110,1,240,2|2,0:0|0:0,0:0:0:0:
463,259,149084,2,0,L|466:167,1,60,2|0,3:2|3:0,3:0:0:0:
369,188,149303,2,0,L|369:98,1,60,0|0,3:0|3:0,3:0:0:0:
467,98,149522,1,2,3:2:0:0:
149,130,149741,5,4,0:0:0:0:
437,309,149960,2,0,L|173:293,1,240,6|2,0:0|0:0,0:0:0:0:
509,69,150836,1,2,0:0:0:0:
317,73,151054,2,2,L|441:94,1,120
109,301,151492,6,0,L|96:162,1,120,4|0,0:0|0:0,0:0:0:0:
431,185,152149,2,0,L|439:111,1,60,2|0,3:2|3:0,3:0:0:0:
339,210,152368,1,0,3:0:0:0:
285,190,152477,1,0,3:0:0:0:
279,134,152587,1,2,3:2:0:0:
327,104,152696,1,0,3:0:0:0:
420,209,152806,1,0,3:0:0:0:
474,189,152915,1,0,3:0:0:0:
480,133,153024,1,2,3:2:0:0:
432,103,153134,1,0,3:0:0:0:
200,94,153244,5,4,0:0:0:0:
483,330,153463,2,0,L|229:334,1,240,6|2,0:0|0:0,0:0:0:0:
442,135,154339,1,2,0:0:0:0:
130,284,154558,2,0,L|117:142,1,120,12|2,0:0|0:0,0:0:0:0:
417,319,154996,6,0,L|424:173,1,120,2|2,0:2|0:2,0:0:0:0:
325,188,155325,1,0,0:0:0:0:
230,173,155434,2,0,L|225:40,1,120,0|2,0:0|0:2,0:0:0:0:
322,46,155763,1,0,0:0:0:0:
417,38,155872,5,0,0:0:0:0:
248,130,156091,1,2,0:2:0:0:
343,121,156200,1,0,0:0:0:0:
439,114,156310,2,0,L|430:251,1,120,0|2,0:0|0:2,0:0:0:0:
335,249,156638,1,0,0:0:0:0:
240,269,156748,6,0,L|101:290,1,120,0|2,0:0|0:2,0:0:0:0:
208,327,157076,1,0,0:0:0:0:
297,362,157186,1,0,0:0:0:0:
175,213,157405,1,2,0:2:0:0:
262,251,157514,1,0,0:0:0:0:
349,291,157624,5,0,0:0:0:0:
254,303,157733,1,0,0:0:0:0:
158,318,157843,1,2,0:2:0:0:
253,320,157952,1,0,0:0:0:0:
348,335,158062,2,0,L|343:206,1,120,0|2,0:0|0:2,0:0:0:0:
247,203,158390,1,0,0:0:0:0:
78,192,158500,6,0,L|82:54,1,120,4|2,0:2|0:2,0:0:0:0:
274,64,158938,2,0,L|405:55,1,120,0|2,0:0|0:2,0:0:0:0:
236,168,159376,1,0,0:0:0:0:
427,158,159595,1,2,0:2:0:0:
222,308,159814,1,0,0:0:0:0:
452,291,160033,1,2,0:2:0:0:
97,318,160252,6,0,L|79:181,1,120,0|2,0:0|0:2,0:0:0:0:
298,137,160690,1,0,0:0:0:0:
64,73,160908,2,0,L|309:87,2,240,2|2|2,0:0|0:0|0:0,0:0:0:0:
364,311,162003,6,0,L|374:168,1,120,4|0,0:0|0:0,0:0:0:0:
159,193,162441,2,0,L|146:51,1,120,8|2,0:0|0:0,0:0:0:0:
453,53,162879,1,10,0:0:0:0:
277,130,163098,1,0,0:0:0:0:
493,210,163317,1,10,0:0:0:0:
279,282,163536,1,0,0:0:0:0:
3,344,163755,6,0,L|146:336,1,120,10|0,0:0|0:0,0:0:0:0:
315,332,164193,2,0,L|327:206,1,120,8|0,0:0|0:0,0:0:0:0:
42,143,164631,1,4,0:0:0:0:
332,95,164850,1,4,0:0:0:0:
185,238,165069,2,2,L|178:108,1,120,0|2,0:0|0:0,0:0:0:0:
488,330,165507,6,0,L|494:201,1,120,4|0,0:0|0:0,0:0:0:0:
274,207,165945,2,0,L|106:205,1,120,8|2,0:0|0:0,0:0:0:0:
447,40,166383,5,10,0:0:0:0:
259,80,166602,1,0,0:0:0:0:
75,135,166821,1,10,0:0:0:0:
279,166,167040,1,0,0:0:0:0:
2,332,167259,6,0,L|14:193,1,120,10|0,0:0|0:0,0:0:0:0:
231,210,167697,1,8,0:0:0:0:
237,151,167806,1,0,3:0:0:0:
240,99,167916,1,0,3:0:0:0:
183,94,168025,1,0,3:0:0:0:
369,251,168135,5,4,0:0:0:0:
82,296,168354,1,4,0:0:0:0:
222,223,168573,2,0,L|65:209,1,120,0|2,0:0|0:0,0:0:0:0:
383,242,169011,6,0,L|395:103,1,120,4|0,0:0|0:0,0:0:0:0:
201,145,169449,2,0,L|183:6,1,120,8|2,0:0|0:0,0:0:0:0:
378,37,169887,2,0,L|208:62,1,120,10|0,0:0|0:0,0:0:0:0:
82,130,170325,2,0,L|223:151,1,120,10|0,0:0|0:0,0:0:0:0:
483,171,170763,6,0,L|341:192,1,120,10|0,0:0|0:0,0:0:0:0:
174,219,171200,1,8,0:0:0:0:
360,264,171419,1,2,0:0:0:0:
77,342,171638,2,0,L|65:184,1,120,10|0,0:0|0:0,0:0:0:0:
251,163,172076,1,8,0:0:0:0:
309,151,172185,1,0,3:0:0:0:
368,139,172294,1,0,3:0:0:0:
64,77,172514,6,0,L|304:105,1,240,4|8,0:0|0:0,0:0:0:0:
137,204,173171,1,2,0:0:0:0:
426,310,173390,2,0,L|431:170,1,120,10|0,0:0|0:0,0:0:0:0:
237,192,173828,2,0,L|226:49,1,120,8|2,0:0|0:0,0:0:0:0:
436,38,174266,5,10,0:0:0:0:
258,110,174485,1,0,0:0:0:0:
442,162,174704,1,8,0:0:0:0:
260,225,174923,1,0,0:0:0:0:
444,279,175142,1,2,3:2:0:0:
350,302,175252,1,0,3:0:0:0:
259,332,175361,1,2,3:2:0:0:
351,359,175471,1,0,3:0:0:0:
260,329,175580,1,0,3:0:0:0:
166,303,175690,1,0,3:0:0:0:
74,275,175799,1,0,3:0:0:0:
167,254,175908,1,0,3:0:0:0:
386,211,176018,6,0,L|241:204,1,120,0|2,0:0|0:0,0:0:0:0:
436,114,176456,2,0,L|287:108,1,120,0|2,0:0|0:0,0:0:0:0:
490,26,176894,1,0,0:0:0:0:
189,235,177113,2,0,L|43:234,2,120,2|2|2,0:0|0:0|0:0,0:0:0:0:
477,264,177770,6,0,L|314:264,1,143.999995605469,4|2,0:0|0:0,0:0:0:0:
130,267,178208,1,10,0:0:0:0:
432,135,178427,2,0,L|121:137,1,287.999991210938,2|2,0:0|0:0,0:0:0:0:
344,301,179084,2,0,L|348:149,1,143.999995605469,8|2,0:0|0:0,0:0:0:0:
32,66,179522,6,2,L|185:73,2,143.999995605469,2|2|10,0:0|0:0|0:0,0:0:0:0:
234,73,180179,2,0,L|220:232,1,143.999995605469,2|0,0:0|3:0,0:0:0:0:
128,256,180507,1,0,3:0:0:0:
38,302,180617,1,2,3:2:0:0:
355,306,180835,2,0,L|370:152,1,143.999995605469,8|2,0:0|0:0,0:0:0:0:
58,112,181273,6,2,L|235:135,1,143.999995605469,6|2,0:0|0:0,0:0:0:0:
32,242,181711,1,10,0:0:0:0:
392,279,181930,2,2,L|70:308,1,287.999991210938
306,326,182587,2,0,L|294:155,1,143.999995605469,8|2,0:0|0:0,0:0:0:0:
95,152,183025,5,2,0:0:0:0:
423,85,183244,2,0,L|254:68,1,143.999995605469,2|8,0:0|0:0,0:0:0:0:
97,254,183682,2,0,L|274:233,1,143.999995605469,2|0,0:0|3:0,0:0:0:0:
340,217,184011,1,0,3:0:0:0:
241,198,184120,1,0,3:0:0:0:
438,240,184339,2,0,L|459:89,1,143.999995605469,4|2,0:0|0:0,0:0:0:0:
152,75,184777,6,0,L|430:157,1,287.999991210938,0|10,0:0|0:0,0:0:0:0:
312,171,185325,1,2,0:0:0:0:
200,199,185434,1,2,0:0:0:0:
312,171,185544,1,2,0:0:0:0:
443,306,185653,6,0,L|280:295,1,146.999995513916,2|0,0:0|0:0,0:0:0:0:
296,296,185872,2,0,L|475:247,1,168,2|0,0:0|0:0,0:0:0:0:
458,251,186091,2,0,L|247:218,1,192,10|0,0:0|0:0,0:0:0:0:
66,203,186529,6,0,L|57:53,1,143.999995605469
243,48,186967,1,10,0:0:0:0:
130,71,187076,1,2,0:0:0:0:
227,132,187186,1,2,0:0:0:0:
326,189,187295,1,2,0:0:0:0:
183,210,187405,6,0,L|28:231,1,146.999995513916,2|0,0:0|0:0,0:0:0:0:
37,229,187624,2,0,L|211:254,1,168,2|0,0:0|0:0,0:0:0:0:
203,252,187843,2,0,L|-9:282,1,192,10|2,0:0|0:0,0:0:0:0:
341,329,188281,6,0,L|350:169,1,143.999995605469,0|2,0:0|0:0,0:0:0:0:
148,156,188719,2,0,L|141:4,1,143.999995605469,10|2,0:0|0:0,0:0:0:0:
343,24,189157,1,0,0:0:0:0:
150,84,189376,1,2,0:0:0:0:
348,118,189595,1,8,0:0:0:0:
418,130,189704,1,0,3:0:0:0:
489,142,189813,1,2,3:2:0:0:
139,287,190033,5,4,0:0:0:0:
432,247,190252,2,0,L|441:76,1,143.999995605469,8|8,0:0|0:0,0:0:0:0:
238,125,190690,1,0,3:0:0:0:
139,141,190799,1,0,3:0:0:0:
236,165,190908,5,0,3:0:0:0:
333,190,191018,1,0,3:0:0:0:
430,213,191127,1,2,3:2:0:0:
335,249,191237,1,0,3:0:0:0:
239,281,191346,1,2,3:2:0:0:
333,318,191456,1,0,3:0:0:0:
241,358,191565,1,2,3:2:0:0:
147,318,191675,1,0,3:0:0:0:
440,322,191784,6,0,L|453:165,1,143.999995605469,4|2,0:0|0:0,0:0:0:0:
249,163,192222,1,10,0:0:0:0:
47,156,192441,2,2,L|342:138,1,287.999991210938
137,92,193098,2,0,L|144:257,1,143.999995605469,10|2,0:0|0:0,0:0:0:0:
443,294,193536,6,2,L|279:307,2,143.999995605469,2|2|10,0:0|0:0|0:0,0:0:0:0:
131,135,194193,2,2,L|435:159,1,287.999991210938
242,258,194850,2,0,L|407:272,1,143.999995605469,8|0,0:0|0:0,0:0:0:0:
60,340,195288,6,0,L|57:181,1,143.999995605469,4|0,0:0|0:0,0:0:0:0:
261,148,195726,1,10,0:0:0:0:
484,90,195945,2,2,L|173:51,1,287.999991210938
345,189,196602,2,0,L|361:14,1,143.999995605469,8|2,0:0|0:0,0:0:0:0:
132,26,197040,5,0,0:0:0:0:
444,170,197259,2,0,L|249:191,1,143.999995605469,2|8,0:0|0:0,0:0:0:0:
100,217,197697,2,0,L|258:252,1,143.999995605469,2|0,0:0|0:0,0:0:0:0:
436,299,198135,1,2,0:0:0:0:
238,339,198354,1,12,0:0:0:0:
437,369,198573,1,2,0:0:0:0:
112,278,198792,6,0,L|442:267,1,287.999991210938,0|10,0:0|0:0,0:0:0:0:
213,188,199449,2,2,L|135:177,1,71.9999978027344
350,61,199668,6,0,L|502:46,1,146.999995513916,2|0,0:0|0:0,0:0:0:0:
496,46,199887,2,0,L|312:32,1,168,2|0,0:0|0:0,0:0:0:0:
328,33,200106,2,0,L|511:91,1,192,10|0,0:0|0:0,0:0:0:0:
298,259,200544,6,0,L|287:107,1,143.999995605469
486,82,200981,1,10,0:0:0:0:
313,84,201200,2,2,L|230:98,1,71.9999978027344
24,249,201419,6,0,L|177:256,1,146.999995513916,2|0,0:0|0:0,0:0:0:0:
170,255,201638,2,0,L|3:284,1,168,2|0,0:0|0:0,0:0:0:0:
5,283,201857,2,0,L|201:310,1,192,10|2,0:0|0:0,0:0:0:0:
486,339,202295,5,0,0:0:0:0:
296,270,202514,2,0,L|135:206,1,143.999995605469,2|10,0:0|0:0,0:0:0:0:
457,66,202952,2,2,L|149:106,1,287.999991210938
351,196,203609,1,10,3:2:0:0:
448,170,203719,1,0,3:2:0:0:
357,127,203828,1,2,3:2:0:0:
258,103,203938,1,0,3:2:0:0:
83,74,204047,5,0,3:2:0:0:
9,141,204156,1,0,3:2:0:0:
83,207,204265,1,4,3:2:0:0:
408,294,204485,2,0,L|429:129,1,143.999995605469,10|0,0:0|0:0,0:0:0:0:
126,108,204923,5,2,3:2:0:0:
27,84,205033,1,0,3:2:0:0:
124,61,205142,1,0,3:2:0:0:
222,39,205252,1,0,3:2:0:0:
124,61,205361,1,2,3:2:0:0:
222,83,205471,1,0,3:2:0:0:
320,101,205580,1,2,3:2:0:0:
222,129,205690,1,0,3:2:0:0:
29,311,205799,6,0,L|16:160,1,143.999995605469,4|2,0:0|0:0,0:0:0:0:
217,142,206237,1,10,0:0:0:0:
316,133,206346,1,2,0:0:0:0:
217,142,206456,1,2,0:0:0:0:
117,154,206565,1,2,0:0:0:0:
299,297,206675,6,0,L|464:311,1,143.999995605469,2|0,0:0|0:0,0:0:0:0:
246,237,207003,2,0,L|235:78,1,143.999995605469,2|0,0:0|0:0,0:0:0:0:
337,80,207332,1,2,0:0:0:0:
436,66,207441,1,0,0:0:0:0:
219,243,207551,5,2,0:0:0:0:
119,228,207660,1,2,0:0:0:0:
219,243,207770,1,2,0:0:0:0:
119,228,207879,1,2,0:0:0:0:
326,264,207989,2,0,L|339:146,1,71.9999978027344,10|0,0:0|0:0,0:0:0:0:
236,165,208208,2,0,L|232:79,1,71.9999978027344,2|0,0:0|0:0,0:0:0:0:
445,54,208427,6,0,L|435:211,1,143.999995605469,2|0,0:0|0:0,0:0:0:0:
323,235,208755,2,0,L|159:266,1,143.999995605469,2|0,0:0|0:0,0:0:0:0:
282,278,209084,1,0,0:0:0:0:
381,292,209193,1,0,0:0:0:0:
201,187,209303,6,0,L|66:172,1,125.999996154785,4|0,0:0|0:0,0:0:0:0:
75,173,209522,2,0,L|259:152,1,168,2|0,0:0|0:0,0:0:0:0:
241,153,209741,2,0,L|30:146,1,192,10|0,0:0|0:0,0:0:0:0:
254,308,210069,6,0,P|299:236|225:194,1,143.999995605469,2|2,0:0|0:0,0:0:0:0:
167,188,210398,2,2,L|158:96,1,71.9999978027344
260,102,210617,2,0,L|365:95,1,71.9999978027344,10|0,0:0|0:0,0:0:0:0:
111,94,210835,6,0,P|52:157|143:208,1,215.999993408203,2|0,0:0|0:0,0:0:0:0:
239,205,211273,1,2,0:0:0:0:
339,197,211383,1,2,0:0:0:0:
165,334,211492,2,0,L|-11:307,1,143.999995605469,10|2,0:0|0:0,0:0:0:0:
121,287,211821,6,0,P|181:226|126:174,1,143.999995605469,2|2,0:0|0:0,0:0:0:0:
58,177,212149,2,0,L|43:79,1,71.9999978027344,2|0,0:0|0:0,0:0:0:0:
272,79,212368,2,0,L|424:64,1,143.999995605469,4|0,0:0|0:0,0:0:0:0:
123,299,212806,6,0,L|298:289,1,168,2|0,0:0|0:0,0:0:0:0:
290,289,213025,2,0,L|112:273,1,168,2|0,0:0|0:0,0:0:0:0:
122,273,213244,2,0,L|298:255,1,168,10|0,0:0|0:0,0:0:0:0:
289,255,213463,2,0,L|108:232,1,168,2|0,0:0|0:0,0:0:0:0:
122,233,213682,6,0,L|328:214,1,188.999994232178,2|0,0:0|0:0,0:0:0:0:
310,215,213901,2,0,L|121:180,1,188.999994232178,2|0,0:0|0:0,0:0:0:0:
124,180,214120,2,0,L|405:155,1,251.999992309571,10|0,0:0|0:0,0:0:0:0:
375,157,214339,2,0,L|99:152,1,251.999992309571,2|0,0:0|0:0,0:0:0:0:
123,152,214558,6,0,L|326:128,1,188.999994232178,2|0,0:0|0:0,0:0:0:0:
310,129,214777,2,0,L|114:92,1,188.999994232178,2|0,0:0|0:0,0:0:0:0:
124,93,214996,2,0,L|388:87,1,240,10|2,0:0|0:0,0:0:0:0:
64,319,215434,2,0,P|37:229|75:185,1,143.999995605469,2|0,0:0|0:0,0:0:0:0:
166,142,215763,1,0,0:0:0:0:
378,319,215872,2,0,L|385:159,1,143.999995605469,10|0,0:0|0:0,0:0:0:0:
188,203,216310,5,4,0:0:0:0:
494,81,216529,2,2,L|333:98,1,143.999995605469,2|10,0:0|0:0,0:0:0:0:
150,125,216967,1,2,0:0:0:0:
326,222,217186,2,2,L|338:66,1,143.999995605469
163,182,217624,1,10,0:0:0:0:
234,189,217733,1,0,3:0:0:0:
457,244,217843,6,0,L|139:275,1,287.999991210938,4|10,0:0|0:0,0:0:0:0:
362,335,218500,1,10,0:0:0:0:
161,353,218719,1,10,0:0:0:0:
453,167,218938,1,2,3:2:0:0:
353,154,219047,1,0,3:0:0:0:
252,141,219157,1,0,3:0:0:0:
353,154,219266,1,0,3:0:0:0:
252,138,219376,5,2,3:2:0:0:
185,129,219449,1,0,3:0:0:0:
118,120,219522,1,0,3:0:0:0:
51,109,219595,1,0,3:0:0:0:
118,120,219668,1,0,3:0:0:0:
184,126,219741,1,0,3:0:0:0:
394,298,219814,6,0,L|399:132,1,143.999995605469,2|2,0:0|0:0,0:0:0:0:
60,269,220252,6,0,L|46:96,1,143.999995605469,4|2,0:0|0:0,0:0:0:0:
262,119,220690,2,0,L|419:111,1,143.999995605469,2|0,0:0|0:0,0:0:0:0:
205,92,221127,1,10,0:0:0:0:
492,306,221346,6,0,L|499:140,1,143.999995605469,2|0,0:0|0:0,0:0:0:0:
296,138,221784,2,0,L|126:114,1,143.999995605469,2|8,0:0|0:0,0:0:0:0:
353,148,222222,1,2,0:0:0:0:
451,169,222332,1,0,0:0:0:0:
352,185,222441,1,0,3:0:0:0:
251,197,222551,1,0,3:0:0:0:
353,228,222660,1,0,3:0:0:0:
158,280,222879,2,0,L|156:126,1,143.999995605469,8|0,0:0|0:0,0:0:0:0:
255,111,223208,1,0,0:0:0:0:
466,78,223317,6,0,L|279:72,1,143.999995605469,4|2,0:0|0:0,0:0:0:0:
112,228,223755,2,2,L|285:218,1,143.999995605469,8|0,0:0|0:0,0:0:0:0:
470,314,224193,2,2,L|136:287,1,287.999991210938
376,231,224850,2,2,L|53:204,1,287.999991210938
382,185,225507,6,0,L|399:30,1,143.999995605469,8|0,0:0|0:0,0:0:0:0:
195,45,225945,2,0,L|356:60,1,143.999995605469,2|0,0:0|0:0,0:0:0:0:
35,302,226383,2,0,L|24:144,1,143.999995605469,14|0,0:0|0:0,0:0:0:0:
378,281,226821,6,2,L|72:294,1,287.999991210938,2|10,0:0|0:0,0:0:0:0:
324,245,227478,2,2,L|336:86,1,143.999995605469,2|0,0:0|0:0,0:0:0:0:
133,127,227916,1,2,0:0:0:0:
328,177,228135,1,8,0:0:0:0:
31,302,228354,6,2,L|338:330,1,287.999991210938
132,247,229011,2,0,L|26:134,1,143.999995605469,8|2,0:0|0:0,0:0:0:0:
235,128,229449,1,2,3:2:0:0:
306,125,229558,1,0,3:0:0:0:
378,123,229667,1,0,3:0:0:0:
176,131,229887,2,0,L|162:285,1,143.999995605469,8|0,0:0|0:0,0:0:0:0:
494,289,230325,6,0,L|337:275,1,143.999995605469,4|0,0:0|0:0,0:0:0:0:
148,265,230763,1,8,0:0:0:0:
348,259,230981,1,0,0:0:0:0:
152,209,231200,2,0,L|146:55,1,143.999995605469,2|0,0:0|0:0,0:0:0:0:
348,63,231638,2,0,L|496:55,1,143.999995605469,10|0,0:0|0:0,0:0:0:0:
131,303,232076,6,0,L|292:302,1,143.999995605469,2|0,0:0|0:0,0:0:0:0:
477,300,232514,2,0,L|469:134,1,143.999995605469,10|0,0:0|0:0,0:0:0:0:
147,118,232952,2,2,L|333:134,2,143.999995605469,2|2|10,0:0|0:0|0:0,0:0:0:0:
337,188,233609,1,0,0:0:0:0:
53,321,233828,6,0,L|35:167,1,120,4|0,0:0|0:0,0:0:0:0:
229,173,234266,2,0,L|235:29,1,120,8|2,0:0|0:0,0:0:0:0:
41,57,234704,1,0,0:0:0:0:
227,102,234923,1,2,0:0:0:0:
412,152,235142,1,10,0:0:0:0:
227,206,235361,1,2,0:0:0:0:
505,307,235580,6,0,L|367:314,1,120,0|2,0:0|0:0,0:0:0:0:
193,330,236018,2,0,L|182:201,1,120,8|2,0:0|0:0,0:0:0:0:
375,210,236456,1,0,3:0:0:0:
380,150,236565,1,0,3:0:0:0:
385,90,236674,1,0,3:0:0:0:
103,105,236894,1,12,0:0:0:0:
416,290,237113,1,0,0:0:0:0:
256,192,237332,12,2,244120,0:0:0:0:
