osu file format v14

[General]
AudioFilename: audio.mp3
AudioLeadIn: 0
PreviewTime: 63250
Countdown: 0
SampleSet: Soft
StackLeniency: 0.3
Mode: 0
LetterboxInBreaks: 0
WidescreenStoryboard: 0

[Editor]
DistanceSpacing: 1.3
BeatDivisor: 4
GridSize: 32
TimelineZoom: 1

[Metadata]
Title:Ai Kotoba III
TitleUnicode:愛言葉Ⅲ
Artist:DECO*27
ArtistUnicode:DECO*27
Creator:No_Gu
Version:Insane
Source:
Tags:
BeatmapID:1800734
BeatmapSetID:860642

[Difficulty]
HPDrainRate:8
CircleSize:4
OverallDifficulty:8
ApproachRate:8
SliderMultiplier:1.6
SliderTickRate:1

[Events]
//Background and Video events
0,0,"background.jpg",0,0
//Break Periods
2,21844,35128
2,92374,105201
2,148195,161259
//Storyboard Layer 0 (Background)
//Storyboard Layer 1 (Fail)
//Storyboard Layer 2 (Pass)
//Storyboard Layer 3 (Foreground)
//Storyboard Sound Samples

[TimingPoints]
842,437.956204379562,4,2,1,70,1,0
7411,-200,4,2,1,70,0,0
7849,-100,4,2,1,70,0,0
49893,-200,4,2,1,70,0,0
56900,-100,4,2,1,70,0,0
63907,-90.9090909090909,4,2,1,70,0,1
90185,-90.9090909090909,4,2,1,70,0,0
105951,-133.333333333333,4,2,1,70,0,0
117776,-117.647058823529,4,2,1,70,0,0
118214,-105.263157894737,4,2,1,70,0,0
118652,-100,4,2,1,70,0,0
176024,-200,4,2,1,70,0,0
177776,-90.9090909090909,4,2,1,70,0,1
205805,-83.3333333333333,4,2,1,70,0,1
220148,-83.3333333333333,4,2,1,70,0,0
220258,-90.9090909090909,4,2,1,70,0,1
233834,-83.3333333333333,4,2,1,70,0,0

[Colours]
Combo1 : 128,255,128
Combo2 : 255,255,128
Combo3 : 128,255,255
Combo4 : 255,128,128

[HitObjects]
68,29,185,5,4,0:3:0:0:
129,229,404,1,12,0:0:0:0:
129,229,842,5,4,0:0:0:0:
68,29,1060,1,2,0:0:0:0:
147,82,1498,1,2,0:0:0:0:
238,59,1936,1,2,0:0:0:0:
317,112,2374,5,2,0:0:0:0:
233,154,2812,1,2,0:0:0:0:
312,207,3250,1,2,0:0:0:0:
403,184,3688,2,0,L|489:181,1,80,2|4,0:0|0:1,0:0:0:0:
449,267,4126,1,2,0:0:0:0:
438,100,4345,5,4,0:0:0:0:
438,100,4783,1,8,0:0:0:0:
278,152,5002,1,8,0:0:0:0:
377,16,5221,1,8,0:0:0:0:
377,185,5440,1,8,0:0:0:0:
278,48,5659,1,8,0:0:0:0:
278,48,5769,1,8,0:0:0:0:
278,48,5878,2,0,L|184:53,1,80
122,110,6316,5,8,0:0:0:0:
104,19,6535,1,8,0:0:0:0:
210,225,6754,2,0,P|214:187|211:127,1,80,0|8,0:0|0:0,0:0:0:0:
130,280,7192,1,8,0:0:0:0:
293,258,7411,2,0,L|336:260,1,40,0|2,0:0|0:0,0:0:0:0:
130,280,7849,5,4,0:0:0:0:
277,218,8068,2,0,L|363:222,1,80,2|8,0:0|0:0,0:0:0:0:
181,200,8506,2,0,P|178:161|185:113,1,80,2|0,0:0|0:0,0:0:0:0:
337,18,8944,2,0,P|340:57|333:105,1,80,2|8,0:0|0:0,0:0:0:0:
424,149,9382,6,0,P|455:124|481:94,1,80,2|0,0:0|0:0,0:0:0:0:
512,258,9820,2,0,P|472:254|433:243,1,80,2|8,0:0|0:0,0:0:0:0:
374,318,10258,2,0,P|393:353|419:383,1,80,2|0,0:0|0:0,0:0:0:0:
400,374,10586,2,0,P|358:356|283:368,1,120,8|8,0:0|0:0,0:0:0:0:
211,299,11133,1,2,0:0:0:0:
266,140,11352,6,0,P|271:181|270:225,1,80,4|0,0:0|0:0,0:0:0:0:
178,181,11790,1,8,0:0:0:0:
327,30,12009,2,0,L|407:21,1,80,2|0,0:0|0:0,0:0:0:0:
426,202,12447,2,0,L|346:211,1,80,2|8,0:0|0:0,0:0:0:0:
363,384,12885,6,0,L|443:375,1,80,2|0,0:0|0:0,0:0:0:0:
459,104,13323,2,0,L|379:113,1,80,2|8,0:0|0:0,0:0:0:0:
398,294,13761,2,0,L|478:285,1,80,2|0,0:0|0:0,0:0:0:0:
369,318,14090,2,0,B|397:294|397:294|353:299|322:261,1,120,8|12,0:0|0:0,0:0:0:0:
275,148,14637,1,8,0:0:0:0:
303,35,14856,6,0,P|334:9|380:2,1,80,4|0,0:0|0:0,0:0:0:0:
377,91,15294,1,8,0:0:0:0:
217,76,15513,2,0,L|130:70,1,80,2|0,0:0|0:0,0:0:0:0:
355,262,15951,2,0,L|429:216,1,80,2|8,0:0|0:0,0:0:0:0:
133,193,16389,6,0,L|101:274,1,80,2|0,0:0|0:0,0:0:0:0:
354,119,16827,2,0,L|333:34,1,80,2|8,0:0|0:0,0:0:0:0:
219,308,17265,2,0,L|286:364,1,80,2|0,0:0|0:0,0:0:0:0:
280,360,17593,1,8,0:0:0:0:
280,360,17703,1,2,0:0:0:0:
140,256,17922,2,0,P|92:244|52:253,1,80,8|2,0:0|0:0,0:0:0:0:
227,220,18360,6,0,P|230:179|229:133,1,80,0|2,0:0|0:0,0:0:0:0:
363,278,18798,2,0,P|360:319|361:365,1,80,8|2,0:0|0:0,0:0:0:0:
419,186,19236,2,0,L|334:177,1,80,0|2,0:0|0:0,0:0:0:0:
241,322,19674,1,8,0:0:0:0:
201,317,19783,1,8,0:0:0:0:
161,313,19892,1,0,0:0:0:0:
68,253,20112,5,4,0:0:0:0:
64,359,20331,1,8,0:0:0:0:
221,96,20550,1,8,0:0:0:0:
168,166,20769,2,0,L|144:199,2,40,4|4|0,3:0|3:0|0:0,0:0:0:0:
106,115,21097,2,8,L|87:122,2,20
112,34,21316,2,8,L|71:26,2,40
240,71,21644,1,4,0:3:0:0:
100,70,35878,5,8,0:0:0:0:
182,119,36097,2,0,L|276:112,1,80
100,70,36535,1,8,0:0:0:0:
103,237,36754,2,0,P|110:197|103:155,1,80
19,196,37192,1,8,0:0:0:0:
19,196,37630,5,8,0:0:0:0:
156,308,37849,2,0,L|262:303,1,80,2|0,0:0|0:0,0:0:0:0:
370,342,38287,2,0,L|365:236,1,80,2|0,0:0|0:0,0:0:0:0:
401,127,38725,2,0,L|295:132,1,80,2|0,0:0|0:0,0:0:0:0:
187,93,39163,2,0,L|192:199,1,80,2|8,0:0|0:0,0:0:0:0:
119,242,39601,5,0,0:0:0:0:
98,151,39820,1,0,0:0:0:0:
219,263,40039,2,0,P|256:271|307:267,1,80,8|0,0:0|0:0,0:0:0:0:
369,202,40477,1,0,0:0:0:0:
275,174,40696,1,8,0:0:0:0:
389,302,40914,1,0,0:0:0:0:
349,99,41133,5,8,0:0:0:0:
265,56,41352,2,0,P|228:52|174:63,1,80,2|0,0:0|0:0,0:0:0:0:
237,224,41790,2,0,P|241:187|230:133,1,80,2|0,0:0|0:0,0:0:0:0:
67,188,42228,2,0,P|104:192|158:181,1,80,2|0,0:0|0:0,0:0:0:0:
95,20,42666,2,0,P|91:57|102:111,1,80,2|8,0:0|0:0,0:0:0:0:
141,268,43104,6,0,P|145:305|134:359,1,80,2|0,0:0|0:0,0:0:0:0:
64,308,43542,2,0,L|227:306,1,160,8|0,0:0|0:0,0:0:0:0:
369,190,44199,2,0,L|450:189,1,80,8|0,0:0|0:0,0:0:0:0:
334,283,44637,5,8,0:0:0:0:
268,121,44856,2,0,P|265:81|276:36,1,80,2|0,0:0|0:0,0:0:0:0:
132,88,45294,2,0,P|151:123|179:152,1,80,2|0,0:0|0:0,0:0:0:0:
134,232,45732,2,0,P|94:228|51:209,1,80,2|0,0:0|0:0,0:0:0:0:
78,359,46170,2,0,P|116:347|149:325,1,80,2|8,0:0|0:0,0:0:0:0:
260,351,46608,5,0,0:0:0:0:
260,351,46717,1,0,0:0:0:0:
260,351,46827,1,0,0:0:0:0:
359,304,47046,2,0,L|355:215,1,80,8|0,0:0|0:0,0:0:0:0:
285,56,47484,2,0,L|287:11,2,40,0|0|8,0:0|0:0|0:0,0:0:0:0:
273,238,47922,1,8,0:0:0:0:
220,156,48141,5,0,0:0:0:0:
180,244,48360,1,12,0:0:0:0:
361,121,48579,1,12,0:0:0:0:
361,121,49017,1,0,0:0:0:0:
180,244,49236,1,8,0:0:0:0:
150,243,49345,1,8,0:0:0:0:
120,242,49454,1,8,0:0:0:0:
90,241,49564,1,8,0:0:0:0:
60,241,49673,1,0,0:0:0:0:
239,315,49893,6,0,P|266:268|254:201,1,120,4|0,0:0|0:0,0:0:0:0:
179,159,50769,1,8,0:0:0:0:
179,159,50878,1,0,0:0:0:0:
179,159,50987,1,0,0:0:0:0:
179,159,51097,1,0,0:0:0:0:
179,159,51206,2,0,L|127:157,1,40,0|8,0:0|0:0,0:0:0:0:
257,120,51644,6,0,L|309:122,1,40,0|8,0:0|0:0,0:0:0:0:
378,173,52082,2,0,L|430:171,1,40
498,212,52520,1,8,0:0:0:0:
432,83,52739,1,0,0:0:0:0:
435,282,52958,2,0,L|441:337,1,40,8|0,0:0|0:0,0:0:0:0:
364,235,53396,6,0,P|327:230|273:232,1,80,4|0,0:0|0:0,0:0:0:0:
214,282,54053,1,0,0:0:0:0:
143,234,54272,2,0,L|138:194,1,40,8|0,0:0|0:0,0:0:0:0:
214,282,54710,1,8,0:0:0:0:
75,139,54929,6,0,L|85:59,1,80,12|0,0:0|0:0,0:0:0:0:
14,256,55586,2,0,L|20:302,1,40,8|0,0:0|0:0,0:0:0:0:
138,269,56024,2,0,L|166:305,1,40,8|0,0:0|0:0,0:0:0:0:
267,238,56462,1,8,0:0:0:0:
285,245,56571,1,8,0:0:0:0:
303,253,56680,1,0,0:0:0:0:
343,132,56900,6,0,P|350:91|341:47,1,80,4|0,0:0|0:0,0:0:0:0:
260,17,57338,1,0,0:0:0:0:
177,60,57557,2,0,L|66:50,1,80,2|0,0:0|0:0,0:0:0:0:
54,285,57995,1,0,0:0:0:0:
138,260,58214,1,0,0:0:0:0:
114,176,58433,1,0,0:0:0:0:
29,200,58652,6,0,L|28:296,1,80,2|0,0:0|0:0,0:0:0:0:
114,176,59090,1,0,0:0:0:0:
1,159,59309,2,0,L|-1:351,1,160,2|0,0:0|0:0,0:0:0:0:
85,263,59966,1,0,0:0:0:0:
186,270,60185,1,0,0:0:0:0:
244,353,60404,5,8,0:0:0:0:
314,92,60623,2,0,L|304:51,2,40,0|8|0,0:0|0:0|0:0,0:0:0:0:
396,87,60951,2,8,L|401:66,2,20
469,126,61170,2,0,L|499:96,1,40
394,202,61389,2,0,L|405:161,1,40,0|8,0:0|0:0,0:0:0:0:
344,285,61608,2,8,L|334:243,1,40
349,384,61827,2,0,L|319:353,1,40,8|4,0:0|0:3,0:0:0:0:
174,213,62155,5,0,0:0:0:0:
19,276,62374,2,8,L|107:283,1,80
174,213,62812,1,0,0:0:0:0:
167,353,63031,2,0,L|255:346,1,80,8|4,0:0|0:3,0:0:0:0:
268,361,63907,6,0,L|273:264,1,88.000002685547,4|2,0:0|0:0,0:0:0:0:
204,209,64345,1,8,0:0:0:0:
40,267,64564,2,0,P|83:270|127:264,1,88.000002685547,2|0,0:0|0:0,0:0:0:0:
380,191,65002,2,0,P|336:194|292:188,1,88.000002685547,2|8,0:0|0:0,0:0:0:0:
230,104,65440,1,2,0:0:0:0:
330,100,65659,5,0,0:0:0:0:
193,196,65878,2,0,L|100:191,1,88.000002685547,2|8,0:0|0:0,0:0:0:0:
234,272,66316,1,2,0:0:0:0:
156,110,66534,1,0,0:0:0:0:
156,110,66644,1,8,0:0:0:0:
156,110,66753,1,2,0:0:0:0:
32,258,66973,2,0,P|26:305|28:355,1,88.000002685547,8|2,0:0|0:0,0:0:0:0:
234,272,67411,6,0,P|231:224|221:175,1,88.000002685547,4|2,0:0|0:0,0:0:0:0:
147,120,67849,1,8,0:0:0:0:
316,169,68068,2,0,L|414:166,1,88.000002685547,2|0,0:0|0:0,0:0:0:0:
134,208,68506,2,0,L|36:211,1,88.000002685547,2|8,0:0|0:0,0:0:0:0:
244,359,68944,1,2,0:0:0:0:
231,232,69163,5,0,0:0:0:0:
222,104,69382,2,0,L|228:16,1,88.000002685547,2|8,0:0|0:0,0:0:0:0:
406,179,69820,2,0,P|349:146|285:160,1,132.00000402832,2|8,0:0|0:0,0:0:0:0:
211,189,70258,2,8,L|119:183,1,88.000002685547,2|12,0:0|0:0,0:0:0:0:
72,257,70696,1,8,0:0:0:0:
173,96,70914,5,4,0:3:0:0:
173,96,71352,2,0,P|200:83|220:78,1,44.0000013427735,8|0,0:0|0:0,0:0:0:0:
294,63,71571,2,0,P|323:65|343:70,1,44.0000013427735,2|0,0:0|0:0,0:0:0:0:
418,101,71790,2,0,P|458:123|489:159,1,88.000002685547,0|2,0:0|0:0,0:0:0:0:
403,296,72228,2,0,L|400:207,1,88.000002685547,8|2,0:0|0:0,0:0:0:0:
323,360,72666,5,4,0:3:0:0:
323,360,73104,2,0,L|272:356,1,44.0000013427735,8|0,0:0|0:0,0:0:0:0:
223,288,73323,2,0,L|176:310,1,44.0000013427735,2|0,0:0|0:0,0:0:0:0:
103,275,73542,2,0,L|74:317,2,44.0000013427735,0|8|2,0:0|0:0|0:0,0:0:0:0:
183,130,73980,1,8,0:0:0:0:
363,202,74199,6,0,P|293:205|203:196,1,132.00000402832,2|0,0:0|0:0,0:0:0:0:
183,130,74637,1,0,0:0:0:0:
305,69,74856,1,8,0:0:0:0:
380,288,75075,2,0,P|296:291|189:280,1,176.000005371094,2|2,0:0|0:0,0:0:0:0:
115,321,75732,1,8,0:0:0:0:
115,321,75842,1,8,0:0:0:0:
115,321,75951,1,4,0:3:0:0:
126,223,76170,5,4,0:0:0:0:
191,377,76389,1,8,0:0:0:0:
213,188,76608,1,8,0:0:0:0:
43,262,76827,2,0,L|-4:271,2,44.0000013427735,4|4|0,3:0|3:0|0:0,0:0:0:0:
28,167,77155,2,8,L|5:157,2,22.0000006713867
98,100,77374,2,8,L|68:59,1,44.0000013427735
189,72,77593,2,8,L|183:22,1,44.0000013427735,8|4,0:0|0:3,0:0:0:0:
279,173,77922,6,8,L|269:260,1,88.000002685547,4|2,0:0|0:0,0:0:0:0:
337,327,78360,1,8,0:0:0:0:
509,284,78579,2,0,P|468:270|411:279,1,88.000002685547,2|0,0:0|0:0,0:0:0:0:
425,366,79017,1,2,0:0:0:0:
335,230,79236,2,8,L|343:140,1,88.000002685547,8|2,0:0|0:0,0:0:0:0:
294,59,79674,6,0,P|255:43|197:44,1,88.000002685547,0|2,0:0|0:0,0:0:0:0:
126,82,80112,1,8,0:0:0:0:
237,226,80331,2,0,P|240:186|238:135,1,88.000002685547,2|0,0:0|0:0,0:0:0:0:
238,138,80659,1,8,0:0:0:0:
238,138,80769,1,2,0:0:0:0:
355,16,80987,2,0,P|358:59|356:103,1,88.000002685547,8|2,0:0|0:0,0:0:0:0:
438,262,81425,6,0,L|252:254,1,176.000005371094,4|8,0:0|0:0,0:0:0:0:
184,184,82082,2,0,P|182:143|188:97,1,88.000002685547,2|0,0:0|0:0,0:0:0:0:
163,279,82520,2,0,P|165:320|159:366,1,88.000002685547,2|8,0:0|0:0,0:0:0:0:
56,145,82958,6,0,L|91:60,1,88.000002685547,2|0,0:0|0:0,0:0:0:0:
181,161,83396,2,0,L|253:104,1,88.000002685547,2|8,0:0|0:0,0:0:0:0:
296,232,83834,1,0,0:0:0:0:
296,232,83944,2,0,L|387:219,1,88.000002685547,2|8,0:0|0:0,0:0:0:0:
451,271,84272,2,0,P|457:319|450:363,1,88.000002685547,2|12,0:0|0:0,0:0:0:0:
279,351,84710,1,8,0:0:0:0:
108,339,84929,5,4,0:3:0:0:
108,339,85367,2,0,P|95:318|87:295,1,44.0000013427735,8|0,0:0|0:0,0:0:0:0:
199,253,85586,2,0,P|187:274|171:293,1,44.0000013427735,2|0,0:0|0:0,0:0:0:0:
117,214,85805,2,0,P|147:180|187:163,1,88.000002685547,0|2,0:0|0:0,0:0:0:0:
307,153,86243,2,0,P|351:163|384:190,1,88.000002685547,8|2,0:0|0:0,0:0:0:0:
451,290,86681,5,4,0:3:0:0:
451,290,87064,1,2,0:0:0:0:
440,296,87119,2,0,L|384:289,1,44.0000013427735,8|0,0:0|0:0,0:0:0:0:
312,185,87338,2,0,L|333:236,1,44.0000013427735,2|0,0:0|0:0,0:0:0:0:
283,348,87557,2,0,L|317:303,2,44.0000013427735,0|8|0,0:0|0:0|0:0,0:0:0:0:
120,323,87995,1,8,0:0:0:0:
202,106,88214,6,0,L|206:285,1,176.000005371094,2|2,0:0|0:0,0:0:0:0:
316,184,88871,1,8,0:0:0:0:
231,26,89090,2,0,P|183:17|109:115,1,176.000005371094,2|2,0:0|0:0,0:0:0:0:
159,184,89747,1,8,0:0:0:0:
341,320,89966,1,0,0:0:0:0:
341,320,90075,1,0,0:0:0:0:
341,320,90185,5,8,0:0:0:0:
359,170,90404,1,8,0:0:0:0:
377,20,90623,1,8,0:0:0:0:
53,48,105951,6,0,L|46:173,1,120.000004577637,4|8,0:0|0:0,0:0:0:0:
119,234,106608,1,0,0:0:0:0:
119,234,106717,1,8,0:0:0:0:
119,234,106827,1,0,0:0:0:0:
258,196,107046,2,0,L|192:192,1,60.0000022888184,0|8,0:0|0:0,0:0:0:0:
283,174,107703,6,0,L|217:170,2,60.0000022888184,0|0|8,0:0|0:0|0:0,0:0:0:0:
358,241,108360,1,0,0:0:0:0:
358,241,108469,1,8,0:0:0:0:
358,241,108579,1,0,0:0:0:0:
439,196,108798,2,0,P|443:168|441:126,1,60.0000022888184,0|8,0:0|0:0,0:0:0:0:
387,64,109236,1,0,0:0:0:0:
363,244,109455,6,0,P|408:279|470:275,1,120.000004577637,0|8,0:0|0:0,0:0:0:0:
288,197,110112,1,0,0:0:0:0:
288,197,110221,1,8,0:0:0:0:
288,197,110331,2,0,P|252:190|220:191,1,60.0000022888184
440,301,110769,1,8,0:0:0:0:
363,158,110987,6,0,P|354:114|369:67,1,90.0000034332277
381,51,111425,1,0,0:0:0:0:
434,221,111644,1,8,0:0:0:0:
276,114,111863,1,0,0:0:0:0:
276,114,111973,1,8,0:0:0:0:
276,114,112082,2,0,P|242:107|208:106,1,60.0000022888184
266,247,112520,1,8,0:0:0:0:
330,189,112739,1,0,0:0:0:0:
129,138,112958,6,0,P|67:151|18:127,1,120.000004577637,0|8,0:0|0:0,0:0:0:0:
87,60,113615,1,0,0:0:0:0:
87,60,113725,1,8,0:0:0:0:
87,60,113834,1,0,0:0:0:0:
220,170,114053,2,0,P|225:133|220:104,1,60.0000022888184,0|8,0:0|0:0,0:0:0:0:
30,241,114491,6,0,L|155:235,1,120.000004577637,2|0,0:0|0:0,0:0:0:0:
312,302,115148,2,0,L|374:299,1,60.0000022888184,8|0,0:0|0:0,0:0:0:0:
396,317,115477,1,8,0:0:0:0:
396,317,115586,2,0,L|400:254,1,60.0000022888184
466,130,116024,2,0,L|470:193,1,60.0000022888184,8|0,0:0|0:0,0:0:0:0:
390,82,116462,6,0,P|439:44|498:51,1,120.000004577637,4|8,0:0|0:0,0:0:0:0:
377,166,117119,1,0,0:0:0:0:
366,171,117228,1,8,0:0:0:0:
355,176,117338,2,0,L|289:172,1,60.0000022888184
227,258,117776,2,0,L|150:253,1,68.0000012969971,8|0,0:0|0:0,0:0:0:0:
76,326,118214,6,0,L|-1:321,1,75.9999979705811,8|0,0:0|0:0,0:0:0:0:
301,314,118652,2,0,P|323:262|299:199,1,120,12|8,0:0|0:0,0:0:0:0:
230,108,119090,2,0,L|226:161,2,40
73,301,119528,2,0,L|69:248,2,40,8|8|8,0:0|0:0|0:0,0:0:0:0:
254,267,119966,6,0,L|357:270,1,80,4|0,0:0|0:0,0:0:0:0:
512,225,120404,2,0,L|409:222,1,80,8|0,0:0|0:0,0:0:0:0:
423,317,120841,1,0,0:0:0:0:
349,189,121060,2,0,P|344:147|350:102,1,80,0|8,0:0|0:0,0:0:0:0:
364,81,121389,1,0,0:0:0:0:
364,81,121498,2,0,L|272:86,1,80
118,150,121936,6,0,L|26:145,1,80,0|8,0:0|0:0,0:0:0:0:
139,241,122374,1,0,0:0:0:0:
235,140,122593,1,0,0:0:0:0:
235,140,122703,1,8,0:0:0:0:
235,140,122812,2,0,P|239:99|234:55,1,80,0|8,0:0|0:0,0:0:0:0:
148,96,123250,1,0,0:0:0:0:
325,113,123469,6,0,L|417:107,1,80,4|0,0:0|0:0,0:0:0:0:
186,195,123907,2,0,L|94:189,1,80,8|0,0:0|0:0,0:0:0:0:
249,268,124345,1,0,0:0:0:0:
276,181,124564,1,0,0:0:0:0:
186,195,124783,1,8,0:0:0:0:
349,255,125002,6,0,L|473:252,1,120,2|0,0:0|0:0,0:0:0:0:
484,266,125440,1,0,0:0:0:0:
438,109,125659,2,0,P|432:69|449:27,1,80,8|0,0:0|0:0,0:0:0:0:
331,179,126097,1,0,0:0:0:0:
310,177,126206,1,8,0:0:0:0:
289,174,126316,1,0,0:0:0:0:
177,41,126535,1,12,0:0:0:0:
208,306,126754,1,8,0:0:0:0:
292,271,126973,6,0,P|298:233|292:188,1,80,4|0,0:0|0:0,0:0:0:0:
238,113,127411,1,8,0:0:0:0:
194,198,127630,1,0,0:0:0:0:
342,102,127849,1,0,0:0:0:0:
141,119,128068,2,0,L|57:116,1,80,0|8,0:0|0:0,0:0:0:0:
23,119,128396,1,0,0:0:0:0:
23,119,128506,1,0,0:0:0:0:
127,312,128725,6,0,P|187:282|196:197,1,160,0|8,0:0|0:0,0:0:0:0:
117,226,129382,1,0,0:0:0:0:
275,322,129601,1,0,0:0:0:0:
275,322,129710,1,8,0:0:0:0:
275,322,129820,2,0,L|354:319,1,80,0|8,0:0|0:0,0:0:0:0:
434,269,130258,1,0,0:0:0:0:
365,74,130477,6,0,B|341:106|341:106|352:228,1,160,2|8,0:0|0:0,0:0:0:0:
440,177,131133,1,0,0:0:0:0:
260,187,131352,2,0,L|173:191,1,80
9,270,131790,1,8,0:0:0:0:
48,271,131899,1,8,0:0:0:0:
88,273,132008,1,0,0:0:0:0:
349,334,132228,1,4,0:0:0:0:
244,130,132447,6,8,L|237:214,1,80
476,201,132885,1,4,0:3:0:0:
476,201,132995,1,4,0:3:0:0:
476,201,133104,2,0,L|472:161,1,40,4|4,0:3|0:3,0:0:0:0:
393,177,133323,2,0,L|370:144,1,40,8|0,0:0|0:0,0:0:0:0:
316,206,133542,2,8,L|279:188,1,40
253,265,133761,2,8,L|213:268,1,40
234,347,133980,5,4,1:3:0:0:
83,118,134199,1,4,1:3:0:0:
347,37,134418,2,0,L|340:200,1,160,4|0,0:0|0:0,0:0:0:0:
274,269,135075,1,0,0:0:0:0:
188,226,135294,2,0,P|150:214|94:218,1,80,8|0,0:0|0:0,0:0:0:0:
274,269,135732,5,0,0:0:0:0:
173,134,135951,2,0,P|167:95|180:51,1,80,0|8,0:0|0:0,0:0:0:0:
274,269,136389,2,0,P|232:308|160:313,1,120,0|8,0:0|0:0,0:0:0:0:
146,336,136827,2,0,P|113:316|63:314,1,80,0|8,0:0|0:0,0:0:0:0:
5,373,137265,1,0,0:0:0:0:
90,221,137484,6,0,L|86:134,1,80,4|0,0:0|0:0,0:0:0:0:
135,62,137922,1,8,0:0:0:0:
276,143,138141,2,0,B|231:176|175:149|175:149|182:185|224:195,1,160
224,72,138798,1,8,0:0:0:0:
337,212,139017,6,0,P|363:174|350:99,1,120,2|0,0:0|0:0,0:0:0:0:
340,80,139455,1,0,0:0:0:0:
267,226,139674,1,8,0:0:0:0:
201,372,139893,2,0,L|64:362,1,120,0|8,0:0|0:0,0:0:0:0:
46,371,140331,2,0,L|55:269,1,80,0|12,0:0|0:0,0:0:0:0:
138,146,140769,1,8,0:0:0:0:
239,277,140987,5,8,0:0:0:0:
268,275,141096,1,4,0:3:0:0:
298,274,141205,1,4,0:3:0:0:
328,273,141315,1,4,0:3:0:0:
358,272,141424,1,12,0:0:0:0:
417,112,141644,2,0,P|376:95|335:102,1,80
259,145,142082,1,0,0:0:0:0:
351,190,142301,1,8,0:0:0:0:
255,53,142520,1,0,0:0:0:0:
262,244,142739,6,0,P|331:286|406:277,1,160,0|8,0:0|0:0,0:0:0:0:
470,204,143396,2,0,L|467:120,1,80
467,124,143725,1,8,0:0:0:0:
467,124,143834,1,0,0:0:0:0:
505,295,144053,1,8,0:0:0:0:
370,189,144272,2,0,P|332:176|285:180,1,80
269,200,144929,5,8,0:0:0:0:
105,143,145148,2,0,L|185:141,1,80
269,200,145586,1,0,0:0:0:0:
214,350,145805,1,8,0:0:0:0:
210,310,145914,1,8,0:0:0:0:
206,270,146023,1,4,0:3:0:0:
424,55,146243,5,4,0:0:0:0:
196,153,146462,1,8,0:0:0:0:
393,301,146681,1,8,0:0:0:0:
338,169,146900,1,4,0:3:0:0:
338,169,147009,1,4,0:3:0:0:
338,169,147119,1,4,0:3:0:0:
361,374,147338,1,8,0:0:0:0:
399,384,147447,1,8,0:0:0:0:
436,373,147556,1,4,0:3:0:0:
463,344,147666,1,8,0:0:0:0:
470,305,147775,1,4,0:3:0:0:
307,85,147995,5,4,0:0:0:0:
59,51,162009,6,0,B|34:81|34:81|44:205,1,160,12|8,0:0|0:0,0:0:0:0:
121,250,162666,1,0,0:0:0:0:
277,204,162885,2,0,L|193:200,1,80,8|4,0:0|0:3,0:0:0:0:
423,252,163323,2,0,L|507:248,1,80,8|4,0:0|0:3,0:0:0:0:
347,300,163761,6,0,L|355:139,1,160,8|8,0:0|0:0,0:0:0:0:
363,40,164418,1,4,0:3:0:0:
363,40,164528,1,4,0:3:0:0:
363,40,164637,1,2,1:3:0:0:
135,240,164856,1,2,1:3:0:0:
135,240,165513,6,0,B|167:205|246:208|285:248,1,160,12|8,0:0|0:0,0:0:0:0:
349,318,166170,1,0,0:0:0:0:
433,263,166389,2,0,L|522:269,1,80,8|4,0:0|0:3,0:0:0:0:
359,131,166827,2,0,L|448:125,1,80,8|4,0:0|0:3,0:0:0:0:
228,169,167265,6,0,P|220:127|230:84,1,80,8|4,0:0|0:3,0:0:0:0:
165,269,167703,1,8,0:0:0:0:
130,249,167812,1,8,0:0:0:0:
91,242,167921,1,4,0:3:0:0:
51,242,168031,1,4,0:3:0:0:
12,251,168140,1,2,1:3:0:0:
240,363,168360,1,2,1:3:0:0:
240,363,168798,1,2,0:0:0:0:
370,310,169017,6,0,B|325:325|325:325|284:265|220:275,1,160,4|8,0:0|0:0,0:0:0:0:
150,324,169674,1,0,0:0:0:0:
256,167,169893,2,0,B|271:109|228:46|172:40,1,160,4|8,0:3|0:0,0:0:0:0:
160,137,170550,1,0,0:0:0:0:
364,61,170769,6,0,B|451:53|504:74|504:74|470:85,1,160,4|8,0:3|0:0,0:0:0:0:
328,133,171425,1,0,0:0:0:0:
170,78,171644,1,4,0:3:0:0:
168,117,171753,1,8,0:0:0:0:
167,157,171862,1,0,0:0:0:0:
21,220,172082,1,8,0:0:0:0:
19,180,172191,1,8,0:0:0:0:
18,140,172300,1,4,0:3:0:0:
126,277,172520,6,0,B|103:323|32:347|-14:325,1,160,4|8,0:0|0:0,0:0:0:0:
84,363,173177,1,8,0:0:0:0:
180,325,173396,1,8,0:0:0:0:
228,232,173615,1,8,0:0:0:0:
235,128,173834,1,8,0:0:0:0:
215,25,174053,1,8,0:0:0:0:
320,139,174272,5,4,1:3:0:0:
147,95,174491,1,4,1:3:0:0:
385,33,174710,1,4,1:3:0:0:
139,223,174929,1,4,1:3:0:0:
420,357,175148,2,8,L|424:305,3,40
486,253,175586,2,8,L|482:201,3,40
502,131,176024,6,0,P|392:174|478:95,1,320,2|4,0:0|0:0,0:0:0:0:
312,91,177995,5,2,0:0:0:0:
391,48,178214,1,8,0:0:0:0:
226,69,178433,2,0,L|136:65,1,88.000002685547,2|0,0:0|0:0,0:0:0:0:
201,255,178871,2,0,L|111:259,1,88.000002685547,2|8,0:0|0:0,0:0:0:0:
270,324,179309,1,2,0:0:0:0:
292,230,179528,5,0,0:0:0:0:
201,255,179747,1,2,0:0:0:0:
362,301,179966,1,8,0:0:0:0:
224,164,180185,2,0,P|182:140|132:140,1,88.000002685547,2|0,0:0|0:0,0:0:0:0:
75,109,180513,1,8,0:0:0:0:
75,109,180623,2,0,P|28:121|-7:157,1,88.000002685547,2|8,0:0|0:0,0:0:0:0:
53,278,181060,1,2,0:0:0:0:
236,251,181279,6,0,L|130:240,1,88.000002685547,4|2,0:0|0:0,0:0:0:0:
53,278,181717,1,8,0:0:0:0:
328,295,181936,2,0,P|328:253|324:200,1,88.000002685547,2|0,0:0|0:0,0:0:0:0:
282,34,182374,2,0,P|282:76|278:129,1,88.000002685547,2|8,0:0|0:0,0:0:0:0:
191,172,182812,1,2,0:0:0:0:
184,80,183031,5,0,0:0:0:0:
364,116,183250,2,0,P|414:119|471:116,1,88.000002685547,2|8,0:0|0:0,0:0:0:0:
440,26,183688,1,2,0:0:0:0:
470,259,183907,2,0,L|478:310,1,44.0000013427735,0|8,0:0|0:0,0:0:0:0:
481,337,184126,2,0,P|419:327|378:329,1,88.000002685547,2|8,0:0|0:0,0:0:0:0:
251,367,184564,1,8,0:0:0:0:
355,241,184783,6,0,P|277:277|184:253,1,176.000005371094,2|8,0:0|0:0,0:0:0:0:
169,239,185331,1,0,0:0:0:0:
158,212,185440,1,2,0:0:0:0:
154,183,185550,1,0,0:0:0:0:
157,154,185659,2,0,P|163:111|155:66,1,88.000002685547,0|2,0:0|0:0,0:0:0:0:
75,111,186097,2,0,L|255:105,1,176.000005371094,8|0,0:0|0:0,0:0:0:0:
344,161,186754,5,2,0:0:0:0:
449,136,186973,1,8,0:0:0:0:
447,168,187082,1,0,0:0:0:0:
446,201,187191,1,2,0:0:0:0:
445,234,187301,1,0,0:0:0:0:
444,267,187411,2,0,L|448:316,1,44.0000013427735,0|8,0:0|0:0,0:0:0:0:
279,227,187739,2,0,L|283:178,1,44.0000013427735,0|8,0:0|0:0,0:0:0:0:
163,335,188068,6,0,P|76:361|14:334,1,132.00000402832,2|0,0:0|0:0,0:0:0:0:
10,330,188506,1,0,0:0:0:0:
11,229,188725,1,8,0:0:0:0:
74,104,188944,2,0,B|104:141|104:141|96:275,1,176.000005371094,2|2,0:0|0:0,0:0:0:0:
198,252,189601,1,8,0:0:0:0:
198,252,189710,1,8,0:0:0:0:
198,252,189820,1,4,0:3:0:0:
11,228,190039,5,4,0:0:0:0:
175,341,190258,2,0,L|267:338,1,88.000002685547,8|8,0:0|0:0,0:0:0:0:
419,326,190696,2,0,L|414:375,2,44.0000013427735,4|4|0,3:0|3:0|0:0,0:0:0:0:
481,263,191024,2,8,L|504:253,2,22.0000006713867
417,200,191243,2,0,L|412:151,1,44.0000013427735,4|8,3:0|0:0,0:0:0:0:
349,98,191462,2,0,L|354:49,1,44.0000013427735,8|4,0:0|0:3,0:0:0:0:
268,229,191790,6,0,P|225:236|172:223,1,88.000002685547,4|2,0:0|0:0,0:0:0:0:
105,168,192228,1,8,0:0:0:0:
186,50,192447,2,0,P|192:94|188:146,1,88.000002685547,2|0,0:0|0:0,0:0:0:0:
97,343,192885,2,0,P|103:299|99:247,1,88.000002685547,2|8,0:0|0:0,0:0:0:0:
26,182,193323,1,2,0:0:0:0:
13,273,193542,5,0,0:0:0:0:
124,163,193761,1,2,0:0:0:0:
13,273,193980,1,8,0:0:0:0:
205,211,194199,2,0,L|341:213,1,132.00000402832,2|8,0:0|0:0,0:0:0:0:
367,233,194637,2,0,L|376:135,1,88.000002685547,2|8,0:0|0:0,0:0:0:0:
375,145,195294,6,0,L|393:341,1,176.000005371094,4|8,0:0|0:0,0:0:0:0:
279,369,195951,2,0,P|236:373|187:359,1,88.000002685547,2|0,0:0|0:0,0:0:0:0:
190,251,196389,2,0,P|156:223|132:178,1,88.000002685547,2|8,0:0|0:0,0:0:0:0:
237,145,196827,6,0,P|233:102|247:53,1,88.000002685547,2|0,0:0|0:0,0:0:0:0:
355,56,197265,2,0,P|382:22|427:-1,1,88.000002685547,2|8,0:0|0:0,0:0:0:0:
482,204,197648,1,0,0:0:0:0:
482,204,197703,2,0,L|349:212,1,132.00000402832,2|8,0:0|0:0,0:0:0:0:
356,247,198141,2,0,P|315:235|268:237,1,88.000002685547,0|12,0:0|0:0,0:0:0:0:
164,305,198579,1,8,0:0:0:0:
193,110,198798,5,2,0:0:0:0:
193,110,199236,2,0,L|200:166,1,44.0000013427735,8|0,0:0|0:0,0:0:0:0:
304,121,199455,2,0,L|282:172,1,44.0000013427735,2|0,0:0|0:0,0:0:0:0:
399,187,199674,2,0,L|309:255,1,88.000002685547,0|2,0:0|0:0,0:0:0:0:
174,341,200112,2,0,P|132:347|86:338,1,88.000002685547,8|2,0:0|0:0,0:0:0:0:
0,292,200550,5,0,0:0:0:0:
0,292,200933,1,2,0:0:0:0:
12,277,200987,2,0,L|4:225,1,44.0000013427735,8|0,0:0|0:0,0:0:0:0:
94,167,201206,2,0,L|94:231,1,44.0000013427735,2|0,0:0|0:0,0:0:0:0:
168,272,201425,2,0,L|176:220,2,44.0000013427735,0|8|2,0:0|0:0|0:0,0:0:0:0:
242,333,201863,1,8,0:0:0:0:
486,307,202082,6,0,B|448:274|448:274|315:287,1,176.000005371094,2|2,0:0|0:0,0:0:0:0:
242,333,202739,1,8,0:0:0:0:
227,97,202958,2,0,P|276:174|244:246,1,176.000005371094,2|2,0:0|0:0,0:0:0:0:
152,307,203615,1,8,0:0:0:0:
119,308,203724,1,8,0:0:0:0:
86,310,203833,1,4,0:3:0:0:
53,312,203943,1,4,0:3:0:0:
20,314,204053,6,0,L|-36:319,2,44.0000013427735,4|8|4,0:3|0:0|1:0,0:0:0:0:
307,289,204491,1,8,0:0:0:0:
307,289,204929,1,4,0:3:0:0:
388,333,205148,1,8,0:0:0:0:
398,290,205257,1,8,0:0:0:0:
387,248,205366,1,8,0:0:0:0:
357,216,205476,1,8,0:0:0:0:
316,201,205585,1,8,0:0:0:0:
273,208,205695,1,8,0:0:0:0:
238,234,205804,5,4,0:0:0:0:
281,50,206024,1,2,0:0:0:0:
164,283,206243,2,0,L|175:344,1,47.9999985351563,8|2,0:0|0:0,0:0:0:0:
302,299,206462,2,0,L|346:341,1,47.9999985351563,0|2,0:0|0:0,0:0:0:0:
421,220,206681,2,0,P|467:209|506:165,1,95.9999970703126,2|2,0:0|0:0,0:0:0:0:
501,137,207009,1,0,0:0:0:0:
501,137,207119,2,0,L|493:39,1,95.9999970703126,8|2,0:0|0:0,0:0:0:0:
253,56,207557,6,0,L|249:105,1,47.9999985351563,2|0,0:0|0:0,0:0:0:0:
118,121,207776,2,0,L|122:170,1,47.9999985351563,2|0,0:0|0:0,0:0:0:0:
302,168,207995,2,0,L|298:217,1,47.9999985351563,8|0,0:0|0:0,0:0:0:0:
67,231,208214,2,0,L|75:339,1,95.9999970703126,2|0,0:0|0:0,0:0:0:0:
146,374,208542,2,0,P|212:384|270:335,1,143.999995605469,8|8,0:0|0:0,0:0:0:0:
283,302,209199,1,2,0:0:0:0:
361,263,209309,6,0,L|424:265,1,47.9999985351563,4|0,0:0|0:0,0:0:0:0:
214,247,209528,2,0,L|151:245,1,47.9999985351563,2|0,0:0|0:0,0:0:0:0:
297,203,209747,2,0,P|317:164|307:109,1,95.9999970703126,8|0,0:0|0:0,0:0:0:0:
150,89,210075,2,0,P|173:125|226:144,1,95.9999970703126,2|0,0:0|0:0,0:0:0:0:
320,19,210404,1,0,0:0:0:0:
320,19,210513,1,2,0:0:0:0:
320,19,210623,2,0,P|276:21|233:57,1,95.9999970703126,8|2,0:0|0:0,0:0:0:0:
217,87,211170,6,0,L|104:75,1,95.9999970703126,2|0,0:0|0:0,0:0:0:0:
280,195,211498,2,0,L|167:183,1,95.9999970703126,8|0,0:0|0:0,0:0:0:0:
179,193,211772,1,0,0:0:0:0:
173,201,211827,2,0,L|116:195,2,47.9999985351563,2|0|8,0:0|0:0|0:0,0:0:0:0:
236,268,212155,1,2,0:0:0:0:
327,257,212265,1,0,0:0:0:0:
361,173,212374,1,12,0:0:0:0:
340,350,212593,1,8,0:0:0:0:
361,173,212812,5,4,0:0:0:0:
256,152,213031,1,2,0:0:0:0:
158,193,213250,2,0,P|135:234|137:282,1,95.9999970703126,8|2,0:0|0:0,0:0:0:0:
381,165,213688,1,0,0:0:0:0:
293,82,213907,1,2,0:0:0:0:
176,62,214126,2,0,P|130:88|104:134,1,95.9999970703126,8|2,0:0|0:0,0:0:0:0:
401,157,214564,6,0,P|402:107|377:70,1,95.9999970703126,2|0,0:0|0:0,0:0:0:0:
320,132,214893,1,0,0:0:0:0:
335,216,215002,2,0,P|377:241|422:238,1,95.9999970703126,8|2,0:0|0:0,0:0:0:0:
488,181,215331,1,0,0:0:0:0:
507,262,215440,1,2,0:0:0:0:
435,328,215550,2,8,L|334:315,1,95.9999970703126,8|0,0:0|0:0,0:0:0:0:
254,344,215878,1,8,0:0:0:0:
230,164,216097,1,2,0:0:0:0:
169,369,216316,6,8,L|68:356,1,95.9999970703126,0|2,0:0|0:0,0:0:0:0:
254,344,216754,1,8,0:0:0:0:
230,164,216973,1,2,0:0:0:0:
339,315,217192,2,8,L|435:328,1,95.9999970703126,0|2,0:0|0:0,0:0:0:0:
474,196,217630,1,8,0:0:0:0:
474,196,217739,1,8,0:0:0:0:
474,196,217849,1,4,0:3:0:0:
512,275,218068,5,4,0:0:0:0:
406,131,218287,2,8,L|409:25,1,95.9999970703126
290,223,218725,2,0,L|330:249,2,47.9999985351563,4|4|0,3:0|3:0|0:0,0:0:0:0:
232,300,219053,2,8,L|241:322,2,23.9999992675781
136,298,219272,2,8,L|128:347,2,47.9999985351563
160,152,219600,1,4,0:3:0:0:
451,230,219820,1,8,0:0:0:0:
415,231,219929,1,4,0:3:0:0:
379,232,220038,1,4,0:3:0:0:
343,233,220148,1,4,0:3:0:0:
307,234,220257,5,4,0:0:0:0:
307,234,220696,2,0,B|333:274|403:271|403:271|372:305|326:293,1,176.000005371094,0|8,0:0|0:0,0:0:0:0:
385,176,221352,2,0,P|403:134|397:80,1,88.000002685547,2|0,0:0|0:0,0:0:0:0:
245,62,221790,2,0,P|272:98|322:120,1,88.000002685547,2|8,0:0|0:0,0:0:0:0:
416,2,222228,2,0,P|370:7|326:39,1,88.000002685547,2|0,0:0|0:0,0:0:0:0:
335,29,222557,1,8,0:0:0:0:
335,29,222666,1,2,0:0:0:0:
154,74,222885,2,0,L|56:70,1,88.000002685547,8|2,0:0|0:0,0:0:0:0:
346,137,223323,5,4,0:0:0:0:
273,238,223542,1,2,0:0:0:0:
154,199,223761,1,8,0:0:0:0:
154,74,223980,1,2,0:0:0:0:
273,36,224199,2,0,L|275:132,1,88.000002685547,0|2,0:0|0:0,0:0:0:0:
154,74,224637,1,8,0:0:0:0:
387,1,224856,6,0,L|383:193,1,176.000005371094,2|2,0:0|0:0,0:0:0:0:
294,237,225513,1,8,0:0:0:0:
283,140,225732,1,2,0:0:0:0:
400,276,225951,1,0,0:0:0:0:
400,276,226060,1,8,0:0:0:0:
400,276,226170,1,2,0:0:0:0:
204,198,226389,2,8,L|98:203,1,88.000002685547
299,158,226827,6,0,B|325:104|297:52|297:52|333:60|343:107,1,176.000005371094,0|8,0:0|0:0,0:0:0:0:
218,107,227484,2,0,P|175:112|129:97,1,88.000002685547,2|0,0:0|0:0,0:0:0:0:
216,202,227922,2,0,P|208:248|224:296,1,88.000002685547,2|8,0:0|0:0,0:0:0:0:
301,338,228360,6,0,L|388:332,1,88.000002685547,2|0,0:0|0:0,0:0:0:0:
131,314,228798,2,0,L|44:308,1,88.000002685547,2|8,0:0|0:0,0:0:0:0:
0,223,229236,1,2,0:0:0:0:
71,86,229455,1,0,0:0:0:0:
71,86,229564,1,8,0:0:0:0:
71,86,229674,2,0,L|78:182,1,88.000002685547,2|8,0:0|0:0,0:0:0:0:
156,228,230112,1,2,0:0:0:0:
377,185,230331,6,0,P|305:137|222:175,1,176.000005371094,4|8,0:0|0:0,0:0:0:0:
208,259,230987,1,2,0:0:0:0:
298,316,231206,2,0,L|300:224,1,88.000002685547,0|2,0:0|0:0,0:0:0:0:
455,214,231644,2,0,L|457:306,1,88.000002685547,8|2,0:0|0:0,0:0:0:0:
399,127,232082,6,0,P|444:113|490:122,1,88.000002685547,0|2,0:0|0:0,0:0:0:0:
313,154,232520,2,0,L|202:146,1,88.000002685547,8|2,0:0|0:0,0:0:0:0:
147,209,232958,1,0,0:0:0:0:
147,209,233068,1,8,0:0:0:0:
147,209,233177,1,2,0:0:0:0:
202,56,233396,1,8,0:0:0:0:
256,192,233834,12,8,237119,0:0:0:0:
256,192,237338,12,2,243688,0:0:0:0:
256,192,243907,6,0,L|353:184,1,95.9999970703126,4|8,0:3|0:0,0:0:0:0:
