osu file format v14

[General]
AudioFilename: audio.mp3
AudioLeadIn: 0
PreviewTime: 70369
Countdown: 0
SampleSet: Soft
StackLeniency: 0.7
Mode: 0
LetterboxInBreaks: 0
WidescreenStoryboard: 1

[Editor]
Bookmarks: 65114
DistanceSpacing: 1
BeatDivisor: 2
GridSize: 16
TimelineZoom: 1

[Metadata]
Title:Ai Kotoba
TitleUnicode:愛言葉
Artist:DECO*27
ArtistUnicode:DECO*27
Creator:-Miky-
Version:Normal
Source:
Tags:hatsune miku vocaloid pop japanese
BeatmapID:2082101
BeatmapSetID:995304

[Difficulty]
HPDrainRate:4
CircleSize:3.8
OverallDifficulty:4.5
ApproachRate:5
SliderMultiplier:1.1
SliderTickRate:1

[Events]
//Background and Video events
0,0,"backgroundNormal.png",0,0
//Break Periods
2,99472,112037
2,169540,175098
2,227346,229401
//Storyboard Layer 0 (Background)
//Storyboard Layer 1 (Fail)
//Storyboard Layer 2 (Pass)
//Storyboard Layer 3 (Foreground)
//Storyboard Layer 4 (Overlay)
//Storyboard Sound Samples

[TimingPoints]
1177.28792415335,437.924239106635,4,2,0,60,1,0
71245,-100,4,2,0,60,0,1
99272,-100,4,2,0,60,0,0
113285,-100,4,2,0,60,0,0
199119,-100,4,2,0,60,0,1
227146,-100,4,2,0,60,0,0

[Colours]
Combo1 : 255,0,0
Combo2 : 0,202,0
Combo3 : 18,124,255
Combo4 : 255,251,72

[HitObjects]
35,297,1177,6,0,P|78:335|153:343,1,110,4|0,0:0|0:0,0:0:0:0:
160,242,2053,2,0,P|212:255|252:292,1,110
347,347,2928,1,0,0:0:0:0:
440,288,3366,1,0,0:0:0:0:
441,177,3804,2,0,P|438:121|408:76,1,110
307,34,4680,5,0,0:0:0:0:
211,89,5118,1,0,0:0:0:0:
102,71,5556,2,0,P|74:118|74:172,1,110
73,282,6432,1,0,0:0:0:0:
160,348,6870,1,0,0:0:0:0:
258,299,7308,2,0,P|286:252|295:193,1,110
364,112,8184,6,0,P|398:153|409:206,1,110
410,317,9059,2,0,P|364:344|309:346,1,110
202,318,9935,1,0,0:0:0:0:
93,335,10373,1,0,0:0:0:0:
42,237,10811,2,0,P|39:182|64:134,1,110
123,43,11687,6,0,P|167:72|193:120,1,110
242,220,12563,1,0,0:0:0:0:
342,175,13001,1,0,0:0:0:0:
403,266,13439,2,0,B|353:385|168:210|86:365,1,330
27,260,15190,5,0,0:0:0:0:
16,150,15628,1,0,0:0:0:0:
67,52,16066,2,0,P|119:45|170:65,1,110
261,129,16942,1,0,0:0:0:0:
327,41,17380,1,0,0:0:0:0:
381,136,17818,2,0,P|379:190|352:237,1,110
340,347,18694,5,0,0:0:0:0:
231,327,19132,1,0,0:0:0:0:
121,341,19570,2,0,P|88:271|96:222,1,110
72,130,20445,1,0,0:0:0:0:
159,63,20883,1,0,0:0:0:0:
262,101,21321,2,0,P|235:189|174:213,1,110
128,250,22197,6,0,P|187:325|232:336,1,110
307,329,23073,2,0,P|351:298|376:249,1,110
379,139,23949,1,0,0:0:0:0:
320,45,24387,1,0,0:0:0:0:
210,51,24825,2,0,P|148:116|142:179,1,110,0|0,2:0|2:0,2:0:0:0:
68,211,25701,6,0,P|115:275|183:291,1,110
243,327,26576,1,0,0:0:0:0:
332,263,27014,1,0,0:0:0:0:
316,154,27452,2,0,P|293:104|250:71,1,110
140,72,28328,2,0,P|100:109|84:161,1,110
80,216,28985,1,0,0:0:0:0:
83,271,29204,6,0,P|184:337|288:338,1,220
378,290,30518,2,0,P|410:173|378:73,1,220
278,45,31831,2,0,L|220:89,1,55
219,131,32269,2,0,L|148:97,1,55
116,90,32707,6,0,L|134:316,1,220
233,355,34021,2,0,L|213:128,1,220
268,40,35335,1,0,0:0:0:0:
377,53,35773,1,0,0:0:0:0:
433,147,36211,6,0,P|414:263|330:311,1,220
222,323,37524,2,0,P|122:286|85:187,1,220,0|0,0:0|0:0,0:3:0:0:
82,75,38838,2,0,L|139:104,1,55
182,119,39276,2,0,L|211:62,1,55
261,61,39714,2,0,L|340:297,1,220
120,336,41466,2,0,L|55:109,1,220
210,56,42999,5,0,0:0:0:0:
264,64,43218,2,0,P|319:91|371:168,1,110
415,216,44093,2,0,L|362:275,1,55
289,322,44750,5,0,0:0:0:0:
234,329,44969,2,0,L|85:344,1,110
57,252,45845,2,0,L|34:104,1,110
115,63,46721,6,0,P|172:49|232:50,1,110
322,95,47597,2,0,P|352:140|370:192,1,110
382,302,48473,2,0,L|256:333,1,110
167,349,49348,2,0,L|131:216,1,110
121,190,50005,1,0,0:0:0:0:
109,136,50224,6,0,P|167:135|233:165,1,110
280,241,51100,2,0,P|331:220|397:161,1,110
367,77,51976,2,0,P|307:50|223:64,1,110
157,91,52852,1,0,0:0:0:0:
125,196,53290,1,0,0:0:0:0:
109,304,53728,6,0,B|214:338|214:338|341:309,1,220
397,234,55041,1,0,0:0:0:0:
348,135,55479,2,0,B|241:110|241:110|122:156,1,220
86,246,56793,2,0,L|191:306,1,110
432,73,58545,5,0,0:0:0:0:
323,54,58983,1,0,0:0:0:0:
62,257,60297,6,0,P|117:306|168:325,1,110
430,147,62048,5,0,3:3:0:0:
355,65,62486,1,0,3:3:0:0:
50,274,63800,5,0,0:0:0:0:
147,325,64238,2,0,P|236:297|270:233,1,165
289,186,65114,1,0,0:0:0:0:
207,112,65552,1,0,0:0:0:0:
145,203,65990,2,0,P|225:268|311:281,1,165
338,289,66865,1,0,0:0:0:0:
376,185,67303,1,0,0:0:0:0:
256,192,67741,12,0,69493,0:0:0:0:
212,64,70369,6,0,L|121:142,1,110
39,218,71245,2,0,P|105:295|123:306,1,110
161,332,71902,1,0,0:0:0:0:
256,278,72339,2,0,L|354:267,1,55
364,261,72777,2,0,L|447:90,1,165
358,34,73872,1,0,0:0:0:0:
275,107,74310,1,0,0:0:0:0:
185,42,74748,6,0,L|104:138,1,110
84,171,75405,1,0,0:0:0:0:
99,279,75843,2,0,L|168:307,1,55
203,286,76281,2,0,P|264:244|353:278,1,165
446,313,77376,2,0,P|463:227|438:172,1,110
441,98,78251,6,0,P|381:81|310:80,1,110
278,76,78908,1,0,0:0:0:0:
171,47,79346,2,0,L|121:133,1,55
122,145,79784,2,0,P|122:238|180:302,1,165
256,351,80879,1,0,0:0:0:0:
313,256,81317,1,0,0:0:0:0:
256,192,81755,12,0,84382,0:0:0:0:
157,53,85258,6,0,P|111:124|120:171,1,110
118,201,85915,1,0,0:0:0:0:
151,305,86353,2,0,L|245:317,1,55
260,318,86791,2,0,L|303:153,1,165
336,53,87886,1,0,0:0:0:0:
430,109,88324,1,0,0:0:0:0:
432,218,88762,6,0,P|350:286|305:289,1,110
301,311,89419,1,0,0:0:0:0:
197,347,89856,1,0,0:0:0:0:
167,240,90294,1,0,0:0:0:0:
62,168,91170,2,0,L|96:110,1,55
167,42,91827,1,0,0:0:0:0:
274,64,92265,6,0,P|341:98|369:172,1,110
388,172,92922,1,0,0:0:0:0:
446,265,93360,1,0,0:0:0:0:
338,288,93798,1,0,0:0:0:0:
125,344,94674,2,0,L|75:261,1,55
43,200,95330,1,0,0:0:0:0:
110,113,95768,2,0,P|251:117|259:312,1,330
256,192,97520,12,0,99272,0:0:0:0:
79,192,113285,6,0,P|142:104|249:88,1,220
348,44,114599,2,0,L|420:264,1,220
343,335,115913,1,0,0:0:0:0:
244,286,116351,1,0,0:0:0:0:
137,314,116789,6,0,P|47:258|62:151,1,220
146,89,118103,2,0,B|208:99|208:99|284:238|301:252,1,220
359,317,119416,1,0,0:0:0:0:
451,257,119854,1,0,0:0:0:0:
426,149,120292,6,0,P|273:85|203:103,1,220
155,187,121606,2,0,P|308:251|378:233,1,220
433,164,122920,1,0,0:0:0:0:
346,95,123358,1,0,0:0:0:0:
250,40,123796,2,0,P|128:104|116:222,1,220
144,279,125109,1,0,0:0:0:0:
242,328,125547,2,0,B|352:321|352:321|451:235,1,220
352,105,127080,5,0,0:0:0:0:
325,153,127299,2,0,P|284:198|228:205,1,110
127,194,128175,2,0,L|135:274,1,55
198,336,128832,1,0,0:0:0:0:
250,319,129051,2,0,L|356:288,1,110
431,208,129927,2,0,P|418:142|380:98,1,110
349,75,130583,1,0,0:0:0:0:
300,48,130802,2,0,L|203:117,1,110
100,120,131678,2,0,L|197:189,1,110
236,213,132335,1,0,0:0:0:0:
284,239,132554,2,0,P|365:206|387:141,1,110
319,96,133430,2,0,L|201:85,1,110
154,82,134087,1,0,0:0:0:0:
103,104,134306,6,0,P|89:161|101:181,1,55
140,169,134744,2,0,P|154:226|142:246,1,55
102,234,135182,2,0,P|88:291|100:311,1,55
127,320,135620,1,0,0:0:0:0:
267,234,136276,5,0,0:0:0:0:
319,251,136495,2,0,P|379:219|386:190,1,55
392,182,136933,2,0,P|392:126|385:108,1,55
367,78,137371,1,0,0:0:0:0:
321,47,137590,1,0,0:0:0:0:
266,39,137809,2,0,L|214:146,1,110
165,235,138685,1,0,0:0:0:0:
254,298,139123,1,0,0:0:0:0:
256,192,139561,12,0,141313,0:0:0:0:
353,315,142626,5,0,0:0:0:0:
401,216,143064,1,0,0:0:0:0:
128,42,144378,2,0,P|94:101|109:161,1,110
368,341,146130,5,0,0:0:0:0:
391,233,146568,2,0,P|391:156|317:100,1,165
274,89,147443,1,0,0:0:0:0:
180,51,147881,1,0,0:0:0:0:
71,66,148319,6,0,P|54:130|94:227,1,165
125,259,149195,1,0,0:0:0:0:
231,232,149633,1,0,0:0:0:0:
316,300,150071,2,0,P|370:313|429:212,1,165
437,184,150947,1,0,0:0:0:0:
361,103,151385,1,0,0:0:0:0:
258,62,151823,2,0,P|162:74|156:162,1,165
153,183,152699,1,0,0:0:0:0:
171,291,153136,1,0,0:0:0:0:
273,250,153574,1,0,0:0:0:0:
361,48,154450,6,0,P|407:82|419:171,1,110
412,239,155326,2,0,L|278:288,1,110
256,295,155983,1,0,0:0:0:0:
92,271,156640,1,0,0:0:0:0:
68,221,156859,1,0,0:0:0:0:
49,169,157078,2,0,P|92:92|212:49,1,220
321,49,158392,2,0,L|304:126,1,55
299,157,158830,1,0,0:0:0:0:
189,144,159267,1,0,0:0:0:0:
175,253,159705,1,0,0:0:0:0:
283,273,160143,2,0,P|350:263|383:225,1,110
391,125,161019,6,0,L|348:92,1,55
299,63,161457,2,0,P|239:46|152:75,1,110
107,123,162333,1,0,0:0:0:0:
80,229,162771,2,0,L|143:274,1,55
168,295,163209,1,0,0:0:0:0:
271,166,163866,6,0,L|339:128,1,55
428,128,164523,1,0,0:0:0:0:
457,233,164960,1,0,0:0:0:0:
388,319,165398,2,0,L|311:325,1,55
278,329,165836,1,0,0:0:0:0:
168,323,166274,1,0,0:0:0:0:
94,241,166712,2,0,P|69:164|77:127,1,110
256,192,167588,12,0,169340,0:0:0:0:
68,62,176346,6,0,P|136:49|200:68,1,110
176,167,177222,2,0,P|245:168|305:138,1,110
383,109,178098,2,0,P|415:166|418:249,1,110
419,319,178974,2,0,B|353:333|353:333|268:329,1,110
217,317,179850,6,0,P|162:252|157:203,1,110
144,120,180726,1,0,0:0:0:0:
247,83,181164,1,0,0:0:0:0:
351,118,181602,2,0,P|361:206|329:259,1,110
307,323,182477,2,0,P|215:310|167:275,1,110
113,235,183353,5,0,0:0:0:0:
37,88,184010,1,0,0:0:0:0:
87,65,184229,1,0,0:0:0:0:
195,47,184667,1,0,0:0:0:0:
305,48,185105,2,0,P|394:180|241:187,1,330
180,167,186857,5,0,0:0:0:0:
36,249,187514,1,0,0:0:0:0:
73,289,187733,1,0,0:0:0:0:
170,339,188170,1,0,0:0:0:0:
279,347,188608,2,0,P|414:234|343:127,1,330
299,105,190141,5,0,0:0:0:0:
273,153,190360,1,0,0:0:0:0:
173,106,190798,2,0,L|146:162,1,55
124,205,191236,1,0,0:0:0:0:
164,307,191674,2,0,L|241:304,1,55
280,298,192112,2,0,P|344:264|382:123,1,220
314,43,193426,1,0,0:0:0:0:
206,51,193863,2,0,P|107:135|294:310,1,440
432,168,196491,2,0,L|408:73,1,55
91,66,199119,6,0,P|105:144|131:218,1,110
134,224,199775,1,0,0:0:0:0:
233,177,200213,2,0,L|267:233,2,55
206,128,200870,2,0,B|240:80|240:80|295:78,1,110
346,78,201527,1,0,0:0:0:0:
379,121,201746,1,0,0:0:0:0:
358,229,202184,1,0,0:0:0:0:
313,329,202622,6,0,P|251:331|176:292,1,110
157,290,203279,1,0,0:0:0:0:
68,224,203717,1,0,0:0:0:0:
142,142,204155,1,0,0:0:0:0:
342,50,205031,2,0,L|371:140,1,55
396,205,205687,1,0,0:0:0:0:
326,297,206125,6,0,P|216:311|140:264,1,165
86,217,207220,2,0,L|38:264,2,55
124,177,207877,2,0,P|185:115|225:100,1,110
311,77,208753,1,0,0:0:0:0:
360,175,209191,1,0,0:0:0:0:
256,192,209629,12,0,212256,0:0:0:0:
122,141,212694,5,0,0:0:0:0:
116,195,212913,1,0,0:0:0:0:
115,250,213132,2,0,P|211:295|291:278,1,165
368,247,214227,2,0,L|396:299,2,55
338,199,214884,2,0,L|275:89,1,110
175,82,215760,1,0,0:0:0:0:
124,180,216198,1,0,0:0:0:0:
171,279,216636,6,0,B|254:308|254:308|364:275,1,165
427,238,217730,1,0,0:0:0:0:
414,128,218168,1,0,0:0:0:0:
202,65,219044,2,0,L|171:141,1,55
141,218,219701,1,0,0:0:0:0:
183,319,220139,2,0,P|284:317|326:281,1,110
331,279,220796,2,0,P|373:226|381:160,1,110
343,82,221672,2,0,L|219:61,1,110
90,143,222766,1,0,0:0:0:0:
131,244,223204,1,0,0:0:0:0:
205,324,223642,2,0,B|350:321|283:143|491:167,1,330
256,192,225394,12,0,227146,0:0:0:0:
31,96,230649,6,0,P|72:56|146:44,1,110
159,145,231525,2,0,P|210:130|248:90,1,110
340,31,232400,1,0,0:0:0:0:
436,85,232838,1,0,0:0:0:0:
443,195,233276,2,0,P|443:251|415:298,1,110
316,345,234152,5,0,0:0:0:0:
218,295,234590,1,0,0:0:0:0:
110,319,235028,2,0,P|79:274|76:220,1,110
70,110,235904,1,0,0:0:0:0:
153,39,236342,1,0,0:0:0:0:
254,83,236780,2,0,P|284:129|296:187,1,110
367,266,237656,2,0,P|288:332|240:333,1,110
174,332,238532,2,0,P|107:297|86:247,1,110
93,159,239408,2,0,P|175:89|317:132,1,220
385,133,240721,1,0,0:0:0:0:
395,186,240940,1,0,0:0:0:0:
404,240,241159,6,0,P|348:296|287:299,1,110
281,199,242035,2,0,P|208:232|187:272,1,110
106,315,242911,1,0,0:0:0:0:
57,216,243349,1,0,0:0:0:0:
62,106,243787,2,0,P|141:56|205:50,1,110
264,48,244663,2,0,L|338:155,1,110
380,236,245539,1,0,0:0:0:0:
306,317,245976,1,0,0:0:0:0:
197,299,246414,2,0,P|151:236|164:170,1,110
163,106,247290,1,0,0:0:0:0:
262,58,247728,1,0,0:0:0:0:
368,85,248166,6,0,P|380:187|349:220,1,110
269,186,249042,2,0,P|259:265|285:318,1,110
372,328,249918,1,0,0:0:0:0:
413,226,250356,1,0,0:0:0:0:
378,114,250794,2,0,P|323:66|255:60,1,110
181,35,251669,2,0,P|110:88|95:138,1,110
35,192,252545,2,0,P|101:235|166:247,1,110
256,192,253421,12,0,255173,0:0:0:0:
