osu file format v14

[General]
AudioFilename: audio.mp3
AudioLeadIn: 0
PreviewTime: 70369
Countdown: 0
SampleSet: Soft
StackLeniency: 0.7
Mode: 0
LetterboxInBreaks: 0
WidescreenStoryboard: 1

[Editor]
Bookmarks: 29191,42986,81745,82621,83059,83497,84154,84373,99483,113278,141307,172840,183351
DistanceSpacing: 0.5
BeatDivisor: 4
GridSize: 16
TimelineZoom: 1.1

[Metadata]
Title:Ai Kotoba
TitleUnicode:愛言葉
Artist:DECO*27
ArtistUnicode:DECO*27
Creator:-Miky-
Version:DECAffeinato's Hard
Source:
Tags:hatsune miku vocaloid pop japanese
BeatmapID:2086173
BeatmapSetID:995304

[Difficulty]
HPDrainRate:5
CircleSize:3.8
OverallDifficulty:6
ApproachRate:8
SliderMultiplier:1.1
SliderTickRate:1

[Events]
//Background and Video events
0,0,"backgroundHard.jpg",0,0
//Break Periods
2,15375,24937
2,99682,112528
2,173040,182601
//Storyboard Layer 0 (Background)
//Storyboard Layer 1 (Fail)
//Storyboard Layer 2 (Pass)
//Storyboard Layer 3 (Foreground)
//Storyboard Layer 4 (Overlay)
//Storyboard Sound Samples

[TimingPoints]
1162,437.956204379562,4,2,0,60,1,0
63789,-200,4,2,0,60,0,0
64118,-100,4,2,0,60,0,0
65541,-200,4,2,0,60,0,0
65870,-100,4,2,0,60,0,0
66855,-149.253731343284,4,2,0,60,0,0
67183,-100,4,2,0,60,0,0
67293,-200,4,2,0,60,0,0
67621,-100,4,2,0,60,0,0
69483,-200,4,2,0,60,0,0
70140,-100,4,2,0,60,0,0
71234,-100,4,2,0,60,0,1
74300,-147.058823529412,4,2,0,60,0,1
74738,-100,4,2,0,60,0,1
77804,-147.058823529412,4,2,0,60,0,1
78242,-100,4,2,0,60,0,1
88314,-147.058823529412,4,2,0,60,0,1
88753,-100,4,2,0,60,0,1
97402,-138.888888888889,4,2,0,60,0,1
98387,-250,4,2,0,60,0,1
98935,-200,4,2,0,60,0,1
99483,-100,4,2,0,60,0,0
125103,-303.030303030303,4,2,0,60,0,0
125432,-100,4,2,0,60,0,0
137804,-400,4,2,0,60,0,0
138680,-100,4,2,0,60,0,0
146125,-303.030303030303,4,2,0,60,0,0
146453,-100,4,2,0,60,0,0
147877,-303.030303030303,4,2,0,60,0,0
148205,-100,4,2,0,60,0,0
149629,-303.030303030303,4,2,0,60,0,0
149957,-100,4,2,0,60,0,0
154446,-263.157894736842,4,2,0,60,0,0
155213,-100,4,2,0,60,0,0
155541,-66.6666666666667,4,2,0,60,0,0
158826,-111.111111111111,4,2,0,60,0,0
160578,-82.6446280991736,4,2,0,60,0,0
161016,-74.0740740740741,4,2,0,60,0,0
161234,-100,4,2,0,60,0,0
163862,-100,4,2,0,60,0,0
164957,-149.253731343284,4,2,0,60,0,0
165395,-200,4,2,0,60,0,0
165833,-100,4,2,0,60,0,0
167585,-232.558139534884,4,2,0,60,0,0
168351,-100,4,2,0,60,0,0
168461,-83.3333333333333,4,2,0,60,0,0
168789,-100,4,2,0,60,0,0
168899,-111.111111111111,4,2,0,60,0,0
169556,-100,4,2,0,60,0,0
183351,-66.6666666666667,4,2,0,60,0,0
192986,-100,4,2,0,60,0,0
193424,-66.6666666666667,4,2,0,60,0,0
197147,-33.3333333333333,4,2,0,60,0,0
199118,-100,4,2,0,60,0,1
202183,-147.058823529412,4,2,0,60,0,1
202621,-100,4,2,0,60,0,1
205687,-147.058823529412,4,2,0,60,0,1
206125,-100,4,2,0,60,0,1
216198,-147.058823529412,4,2,0,60,0,1
216636,-100,4,2,0,60,0,1
225395,-138.888888888889,4,2,0,60,0,1
226271,-200,4,2,0,60,0,1
227147,-100,4,2,0,60,0,1
230432,-100,4,2,0,60,0,0

[Colours]
Combo1 : 255,0,0
Combo2 : 0,202,0
Combo3 : 18,124,255
Combo4 : 255,251,72

[HitObjects]
256,192,1162,5,0,0:0:0:0:
389,178,1380,2,0,P|384:151|372:127,2,55,0|8|0,0:0|0:0|0:0,0:0:0:0:
256,192,2037,5,0,0:0:0:0:
122,205,2255,2,0,P|127:232|140:257,2,55,0|8|0,0:0|0:0|0:0,0:0:0:0:
256,192,2913,5,0,0:0:0:0:
235,60,3132,2,0,P|208:65|169:93,2,55,0|8|0,0:0|0:0|0:0,0:0:0:0:
256,192,3789,5,0,0:0:0:0:
276,323,4007,2,0,P|303:318|342:290,2,55,0|8|0,0:0|0:0|0:0,0:0:0:0:
188,203,4665,6,0,P|135:231|124:281,1,110,0|8,0:0|0:0,0:0:0:0:
137,307,5322,1,0,0:0:0:0:
275,268,5541,6,0,P|321:305|371:296,1,110,0|8,0:0|0:0,0:0:0:0:
390,274,6198,1,0,0:0:0:0:
317,173,6417,6,0,P|370:145|381:95,1,110,0|8,0:0|0:0,0:0:0:0:
368,69,7074,1,0,0:0:0:0:
221,122,7293,6,0,P|174:84|124:93,1,110,0|8,0:0|0:0,0:0:0:0:
105,115,7950,1,0,0:0:0:0:
82,246,8388,1,0,0:0:0:0:
209,317,8826,2,0,P|255:310|273:291,1,55
255,249,9264,2,0,P|301:255|319:274,1,55,0|8,0:0|0:0,0:0:0:0:
325,291,9702,2,0,P|371:284|389:265,1,55
371,223,10140,2,0,P|417:229|435:248,1,55,0|8,0:0|0:0,0:0:0:0:
462,261,10578,5,0,0:0:0:0:
363,325,11016,1,0,0:0:0:0:
403,173,11453,1,0,0:0:0:0:
277,196,11891,1,0,0:0:0:0:
437,236,12329,1,0,0:0:0:0:
397,83,12767,1,0,0:0:0:0:
272,166,13205,1,0,0:0:0:0:
207,36,13643,6,0,P|169:64|162:89,1,55,0|8,0:0|0:0,0:0:0:0:
121,75,14081,2,0,P|130:121|149:138,1,55
121,171,14519,2,0,P|161:194|187:191,1,55,0|8,0:0|0:0,0:0:0:0:
190,234,14957,2,0,P|229:207|237:182,1,55
256,192,25687,12,0,28753,0:0:0:0:
203,178,29191,5,0,0:0:0:0:
349,135,29629,2,0,L|347:74,1,55,0|2,0:0|0:0,0:0:0:0:
196,79,30505,5,0,0:0:0:0:
162,115,30724,1,10,0:0:0:0:
152,209,30943,2,0,P|134:236|104:247,1,55,0|2,0:0|0:0,0:0:0:0:
79,188,31599,5,2,0:0:0:0:
182,128,31818,1,0,0:0:0:0:
236,260,32037,1,2,0:0:0:0:
315,166,32256,2,0,B|369:184|333:213|410:231,1,110
424,238,32913,1,2,0:0:0:0:
440,252,33132,1,0,0:0:0:0:
448,274,33351,2,8,P|430:325|357:337,1,110,10|2,0:0|0:0,0:0:0:0:
296,332,34008,6,0,B|219:292|274:260|204:224,1,137.5
181,214,34665,1,2,0:0:0:0:
268,142,35103,5,2,0:0:0:0:
233,59,35322,1,0,0:0:0:0:
151,149,35541,1,2,0:0:0:0:
266,168,35760,1,0,0:0:0:0:
357,103,35979,5,10,0:0:0:0:
357,103,36089,1,8,0:0:0:0:
357,103,36198,2,8,P|411:133|441:198,1,110,8|0,0:0|0:0,0:0:0:0:
465,247,36855,1,2,0:0:0:0:
399,319,37074,1,0,0:0:0:0:
300,315,37293,1,2,0:0:0:0:
226,243,37512,2,0,P|180:209|133:260,1,137.5
136,279,38169,5,10,0:0:0:0:
223,331,38388,1,0,0:0:0:0:
318,296,38607,1,2,0:0:0:0:
330,195,38826,2,0,L|333:117,1,55,0|2,0:0|0:0,0:0:0:0:
346,102,39264,1,0,0:0:0:0:
368,77,39483,1,2,0:0:0:0:
458,133,39702,6,0,P|459:198|378:246,1,165
380,246,40578,1,0,0:0:0:0:
109,196,41453,6,0,P|108:261|189:309,1,165
186,309,42329,1,0,0:0:0:0:
221,179,42986,5,2,0:0:0:0:
314,231,43205,1,2,0:0:0:0:
394,168,43424,2,2,L|423:119,1,55,2|10,0:0|0:0,0:0:0:0:
322,33,43862,1,2,0:0:0:0:
285,53,44081,2,2,L|282:107,1,55,2|10,0:0|0:0,0:0:0:0:
227,259,44738,5,10,0:0:0:0:
227,259,44957,2,2,P|257:264|287:257,1,55,2|2,0:0|0:0,0:0:0:0:
327,242,45395,1,2,0:0:0:0:
373,165,45614,1,2,0:0:0:0:
406,122,45833,2,2,L|405:180,1,55,2|2,0:0|0:0,0:0:0:0:
335,228,46271,5,2,0:0:0:0:
262,173,46490,1,2,0:0:0:0:
271,84,46709,1,2,0:0:0:0:
192,52,46928,2,2,L|130:39,1,55,2|10,0:0|0:0,0:0:0:0:
106,135,47366,1,2,0:0:0:0:
42,218,47585,2,2,L|101:249,1,55,2|10,0:0|0:0,0:0:0:0:
47,252,48023,2,2,L|106:283,1,55,2|10,0:0|0:0,0:0:0:0:
202,262,48461,5,2,0:0:0:0:
339,299,48680,1,2,0:0:0:0:
295,324,48899,1,2,0:0:0:0:
312,205,49118,1,2,0:0:0:0:
383,144,49337,5,2,0:0:0:0:
494,173,49556,1,2,0:0:0:0:
455,212,49775,1,2,0:0:0:0:
475,92,49994,1,2,0:0:0:0:
356,42,50213,5,2,0:0:0:0:
254,41,50432,2,2,P|237:68|210:91,1,55,2|10,0:0|0:0,0:0:0:0:
263,160,50870,1,2,0:0:0:0:
221,251,51089,2,2,L|158:251,1,55,2|10,0:0|0:0,0:0:0:0:
236,281,51526,2,2,L|173:281,1,55,2|10,0:0|0:0,0:0:0:0:
149,284,51965,5,2,0:0:0:0:
160,293,52184,1,2,0:0:0:0:
173,292,52402,1,2,0:0:0:0:
182,258,52621,1,2,0:0:0:0:
167,211,52840,1,2,0:0:0:0:
128,159,53059,2,2,B|119:83|205:83|208:153|287:50|287:50|299:88|328:94,1,275,2|10,0:0|0:0,0:0:0:0:
402,141,54373,1,2,0:0:0:0:
441,224,54592,2,2,B|371:252|400:309|400:309|322:288|294:254|294:254|257:305|205:271,1,330,2|10,0:0|0:0,0:0:0:0:
199,265,56125,1,2,0:0:0:0:
159,161,56344,1,2,0:0:0:0:
173,204,56782,5,0,0:0:0:0:
244,80,57220,1,4,0:0:0:0:
397,192,57877,1,0,0:0:0:0:
397,192,58096,1,0,0:0:0:0:
371,230,58534,5,0,0:0:0:0:
245,238,58972,1,4,0:0:0:0:
163,88,59629,1,0,0:0:0:0:
142,55,59848,1,0,0:0:0:0:
142,55,60286,5,0,0:0:0:0:
228,137,60724,1,4,0:0:0:0:
105,274,61381,1,0,0:0:0:0:
121,317,61600,1,0,0:0:0:0:
121,317,62037,5,0,0:0:0:0:
173,151,62475,1,4,0:0:0:0:
410,180,63132,1,0,0:0:0:0:
410,180,63351,1,0,0:0:0:0:
410,180,63789,6,0,P|397:200|394:226,1,41.25,2|0,0:0|0:0,0:0:0:0:
393,216,64227,2,0,P|360:149|295:121,1,137.5
283,121,64884,1,2,0:0:0:0:
227,128,65103,1,0,0:0:0:0:
146,105,65541,6,0,P|168:96|185:77,1,41.25
180,85,65979,2,0,P|167:158|203:219,1,137.5
227,240,66636,1,2,0:0:0:0:
263,254,66855,2,0,P|306:236|322:210,1,55
321,260,67293,2,0,P|342:255|364:235,1,41.25,0|8,0:0|0:0,0:0:0:0:
380,242,67731,5,8,0:0:0:0:
427,158,67950,1,2,0:0:0:0:
309,200,68169,1,8,0:0:0:0:
280,98,68388,1,2,0:0:0:0:
358,212,68607,5,0,0:0:0:0:
405,119,68826,1,2,0:0:0:0:
269,164,69045,1,8,0:0:0:0:
237,54,69264,1,2,0:0:0:0:
237,54,69483,2,2,P|218:33|219:67,1,82.5,2|0,0:0|0:0,0:0:0:0:
218,66,70359,5,10,0:0:0:0:
138,213,70797,1,10,0:0:0:0:
130,242,71017,5,10,0:0:0:0:
130,242,71125,1,8,0:0:0:0:
130,242,71234,2,10,P|165:277|237:256,1,110,2|10,0:0|0:0,0:0:0:0:
298,200,71892,1,2,0:0:0:0:
366,119,72111,2,2,P|420:108|461:165,1,110,2|10,0:0|0:0,0:0:0:0:
482,247,72768,2,2,L|482:311,2,55
461,167,73425,1,10,0:0:0:0:
409,75,73644,1,2,0:0:0:0:
304,104,73862,6,0,B|243:91|225:40,1,82.5,2|0,0:0|0:0,0:0:0:0:
217,47,74300,2,0,L|170:81,1,55,10|0,0:0|0:0,0:0:0:0:
109,156,74739,5,2,0:0:0:0:
109,156,74958,1,2,0:0:0:0:
150,244,75177,1,10,0:0:0:0:
150,244,75396,2,2,P|190:279|251:267,1,110
328,221,76053,1,10,0:0:0:0:
426,205,76272,1,2,0:0:0:0:
467,288,76491,1,2,0:0:0:0:
419,328,76710,1,2,0:0:0:0:
379,294,76929,1,10,0:0:0:0:
420,264,77148,5,2,0:0:0:0:
420,264,77256,1,0,0:0:0:0:
420,264,77366,2,0,B|406:211|433:182,1,82.5,2|0,0:0|0:0,0:0:0:0:
446,167,77804,2,0,L|404:126,1,55,10|0,0:0|0:0,0:0:0:0:
328,59,78243,5,2,0:0:0:0:
241,127,78462,1,2,0:0:0:0:
168,41,78681,1,10,0:0:0:0:
73,111,78900,2,2,L|140:197,1,110
126,229,79557,1,10,0:0:0:0:
247,219,79776,1,2,0:0:0:0:
247,219,79884,1,0,0:0:0:0:
247,219,79995,2,2,B|269:235|193:223|250:199|244:135,1,110,2|10,0:0|0:0,0:0:0:0:
225,55,80652,5,2,0:0:0:0:
205,29,80871,1,2,0:0:0:0:
396,122,81308,1,10,0:0:0:0:
343,266,81745,6,0,B|291:200|228:333|283:206|177:201,1,192.5,2|0,0:0|0:0,0:0:0:0:
147,211,82621,2,0,P|189:182|197:130,1,82.5,2|0,0:0|0:0,0:0:0:0:
180,91,83059,2,0,P|229:91|258:135,1,82.5,2|0,0:0|0:0,0:0:0:0:
321,119,83497,2,0,B|321:184|250:161|247:247,1,137.5,2|0,0:0|0:0,0:0:0:0:
286,287,84154,2,2,P|311:265|319:233,3,55,2|2|2|10,0:0|0:0|0:0|0:0,0:0:0:0:
382,142,85031,5,2,0:0:0:0:
382,142,85139,1,0,0:0:0:0:
382,142,85249,2,2,P|347:107|275:128,1,110,2|10,0:0|0:0,0:0:0:0:
214,184,85906,1,2,0:0:0:0:
146,265,86125,2,2,P|92:276|51:219,1,110,2|10,0:0|0:0,0:0:0:0:
30,137,86782,2,2,L|30:73,2,55
51,217,87439,1,10,0:0:0:0:
103,309,87658,1,2,0:0:0:0:
208,280,87876,6,0,B|269:293|287:344,1,82.5
295,337,88315,2,0,L|342:303,1,55,8|0,0:0|0:0,0:0:0:0:
409,246,88752,5,2,0:0:0:0:
447,157,88971,1,2,0:0:0:0:
346,160,89190,1,10,0:0:0:0:
380,118,89410,2,2,P|340:83|279:95,1,110
204,145,90067,1,10,0:0:0:0:
180,260,90286,2,0,B|225:292|225:292|231:237|263:202|263:202|300:246,1,192.5,2|0,0:0|0:0,0:0:0:0:
300,246,91161,5,2,0:0:0:0:
311,261,91270,1,0,0:0:0:0:
319,277,91380,2,0,B|305:224|332:195,1,82.5,2|0,0:0|0:0,0:0:0:0:
359,181,91818,2,2,L|317:140,1,55,8|2,0:0|0:0,0:0:0:0:
328,59,92256,5,2,0:0:0:0:
241,127,92475,1,2,0:0:0:0:
168,41,92694,1,10,0:0:0:0:
66,94,92913,2,0,L|105:183,1,82.5,2|0,0:0|0:0,0:0:0:0:
156,158,93351,2,0,L|122:252,1,82.5,2|0,0:0|0:0,0:0:0:0:
124,274,93789,1,2,0:0:0:0:
143,310,93899,1,0,0:0:0:0:
183,327,94008,2,2,P|231:320|256:265,1,110,2|10,0:0|0:0,0:0:0:0:
243,186,94665,5,2,0:0:0:0:
231,147,94884,1,2,0:0:0:0:
64,275,95321,1,10,0:0:0:0:
169,118,95759,6,0,B|221:184|284:51|229:178|335:183,1,192.5,2|0,0:0|0:0,0:0:0:0:
365,173,96635,2,0,P|323:202|315:254,1,82.5,10|0,0:0|0:0,0:0:0:0:
332,293,97073,2,0,P|283:293|254:249,1,82.5,2|0,0:0|0:0,0:0:0:0:
191,265,97511,2,0,B|191:200|262:223|265:137,1,137.5,10|0,0:0|0:0,0:0:0:0:
226,97,98388,2,0,P|201:119|193:151,1,55,10|0,0:0|0:0,0:0:0:0:
194,174,99045,2,2,L|214:217,2,27.5,10|10|2,0:0|0:0|0:0,0:0:0:0:
351,211,113278,5,0,0:0:0:0:
273,294,113497,1,0,0:0:0:0:
282,257,113716,2,0,L|267:197,1,55,8|0,0:0|0:0,0:0:0:0:
303,164,114592,5,8,0:0:0:0:
303,164,114811,2,0,P|341:166|359:152,2,55
260,69,115686,5,0,0:0:0:0:
145,71,115905,1,0,0:0:0:0:
191,172,116124,1,0,0:0:0:0:
81,155,116344,1,8,0:0:0:0:
69,177,116453,1,0,0:0:0:0:
69,200,116563,2,0,B|78:233|122:225|143:275,1,82.5
152,274,117000,1,0,0:0:0:0:
154,352,117219,1,8,0:0:0:0:
186,358,117438,2,0,P|237:349|277:295,1,110
390,160,118095,6,0,B|328:159|328:209|263:202,1,137.5,8|0,0:0|0:0,0:0:0:0:
244,195,118752,1,0,0:0:0:0:
136,215,119190,5,0,0:0:0:0:
216,305,119409,1,0,0:0:0:0:
244,195,119628,1,0,0:0:0:0:
323,265,119847,1,8,0:0:0:0:
379,189,120066,1,0,0:0:0:0:
379,189,120176,1,0,0:0:0:0:
379,189,120285,2,0,P|315:211|257:189,1,110,0|8,0:0|0:0,0:0:0:0:
242,185,120942,1,0,0:0:0:0:
131,261,121380,5,0,0:0:0:0:
131,261,121599,2,0,P|107:219|53:213,1,82.5,8|0,0:0|0:0,0:0:0:0:
61,202,122037,2,0,P|49:178|61:149,1,55
104,91,122475,1,8,0:0:0:0:
210,46,122694,1,0,0:0:0:0:
210,46,122804,1,0,0:0:0:0:
210,46,122913,2,0,B|264:103,1,55
280,118,123351,1,8,0:0:0:0:
383,75,123570,1,0,0:0:0:0:
464,146,123789,6,0,P|465:211|384:259,1,165
386,259,124665,1,0,0:0:0:0:
231,226,125103,2,0,L|229:179,1,27.5,8|0,0:0|0:0,0:0:0:0:
221,241,125540,6,0,P|186:174|109:134,1,165
108,133,126416,1,0,0:0:0:0:
201,139,127074,5,2,0:0:0:0:
328,77,127293,1,2,0:0:0:0:
328,77,127512,1,2,0:0:0:0:
330,191,127731,2,2,P|363:193|396:220,1,55,10|2,2:0|2:0,2:0:0:0:
305,206,128169,2,2,P|342:207|373:181,1,55
230,171,128607,1,10,0:0:0:0:
211,190,128716,1,0,0:0:0:0:
195,205,128826,1,2,0:0:0:0:
150,281,129045,5,2,0:0:0:0:
256,321,129264,1,2,0:0:0:0:
361,281,129483,1,10,0:0:0:0:
256,321,129702,1,2,0:0:0:0:
150,281,129921,1,2,0:0:0:0:
256,321,130140,1,2,0:0:0:0:
361,281,130359,1,10,0:0:0:0:
361,281,130578,1,2,0:0:0:0:
358,260,130797,6,2,L|426:235,1,55
447,122,131234,1,10,0:0:0:0:
303,138,131453,1,2,0:0:0:0:
358,260,131672,6,2,L|426:235,1,55
375,119,132110,1,10,0:0:0:0:
248,184,132328,1,2,0:0:0:0:
358,260,132548,6,2,L|426:235,1,55
308,144,132985,1,10,0:0:0:0:
225,250,133205,1,2,0:0:0:0:
358,260,133424,6,2,L|426:235,1,55
253,188,133861,1,10,0:0:0:0:
239,318,134080,1,2,0:0:0:0:
358,260,134300,6,2,L|426:235,1,55
228,251,134737,1,10,0:0:0:0:
289,369,134956,1,2,0:0:0:0:
167,334,135176,1,2,0:0:0:0:
113,230,135395,1,2,0:0:0:0:
155,119,135614,2,2,B|196:90|226:142|275:105,1,110,10|2,0:0|0:0,0:0:0:0:
330,210,136271,6,2,L|398:185,2,55,2|10|2,0:0|0:0|0:0,0:0:0:0:
240,140,136928,1,2,0:0:0:0:
335,168,137147,1,2,0:0:0:0:
295,258,137366,2,0,P|312:310|357:314,1,82.5,10|0,0:0|0:0,0:0:0:0:
357,334,137804,2,2,L|357:386,1,27.5,0|8,0:0|0:0,0:0:0:0:
303,332,138680,5,2,0:0:0:0:
174,287,139118,5,10,0:0:0:0:
368,257,139556,5,2,0:0:0:0:
101,200,139994,5,10,0:0:0:0:
312,95,140432,5,2,0:0:0:0:
238,203,140870,5,10,0:0:0:0:
238,229,141307,6,0,P|307:234|354:172,1,137.5,10|0,0:0|0:0,0:0:0:0:
356,168,141964,1,10,0:0:0:0:
353,98,142183,1,2,0:0:0:0:
243,68,142621,5,10,0:0:0:0:
112,171,143059,6,0,P|128:238|202:263,1,137.5,2|0,0:0|0:0,0:0:0:0:
209,262,143716,1,10,0:0:0:0:
268,231,143935,1,2,0:0:0:0:
340,144,144373,5,10,0:0:0:0:
445,254,144811,6,0,P|429:321|356:348,1,137.5,2|0,0:0|0:0,0:0:0:0:
348,347,145468,1,10,0:0:0:0:
281,320,145687,1,2,0:0:0:0:
122,162,146125,6,0,L|115:195,1,27.2249999169159,10|0,0:0|0:0,0:0:0:0:
127,175,146563,2,0,P|167:231|245:227,1,137.5,2|0,0:0|0:0,0:0:0:0:
249,226,147220,1,10,0:0:0:0:
303,178,147439,1,2,0:0:0:0:
344,14,147877,6,0,L|369:-1,1,27.2249999169159,10|0,0:0|0:0,0:0:0:0:
336,22,148315,2,0,P|402:40|425:115,1,137.5,2|0,0:0|0:0,0:0:0:0:
427,125,148972,1,10,0:0:0:0:
414,196,149191,1,2,0:0:0:0:
272,229,149629,2,0,L|269:199,1,27.2249999169159,10|0,0:0|0:0,0:0:0:0:
274,240,150067,6,0,B|230:179|191:237|144:173,1,137.5,2|0,0:0|0:0,0:0:0:0:
143,165,150724,1,10,0:0:0:0:
126,92,150943,1,2,0:0:0:0:
248,79,151380,6,0,P|268:112|318:123,1,82.5,10|0,0:0|0:0,0:0:0:0:
323,130,151818,2,2,L|389:221,1,110,2|10,0:0|0:0,0:0:0:0:
406,248,152475,1,2,0:0:0:0:
418,357,152694,1,2,0:0:0:0:
237,322,153132,1,10,0:0:0:0:
166,163,153570,1,2,0:0:0:0:
151,117,154446,6,0,P|163:102|182:94,2,36.2999998892212
142,143,155322,5,2,0:0:0:0:
181,241,155541,1,2,0:0:0:0:
181,241,155651,1,0,0:0:0:0:
181,241,155760,2,2,P|207:268|256:275,1,82.5000031471254,10|2,0:0|0:0,0:0:0:0:
358,240,156198,1,2,0:0:0:0:
398,141,156417,1,2,0:0:0:0:
401,113,156527,1,0,0:0:0:0:
395,87,156636,6,2,P|349:107|307:97,1,82.5000031471254,10|2,0:0|0:0,0:0:0:0:
206,61,157074,1,2,0:0:0:0:
117,118,157293,1,2,0:0:0:0:
116,144,157403,1,0,0:0:0:0:
116,168,157512,2,2,L|116:262,1,82.5000031471254,10|2,0:0|0:0,0:0:0:0:
148,235,157950,1,2,0:0:0:0:
179,223,158388,5,10,0:0:0:0:
179,223,158498,1,0,0:0:0:0:
179,223,158607,1,2,0:0:0:0:
199,142,158826,2,0,B|252:180|265:120|332:145,1,123.74999622345,2|0,0:0|0:0,0:0:0:0:
338,154,159483,1,2,0:0:0:0:
423,205,159702,1,2,0:0:0:0:
506,307,160140,5,10,0:0:0:0:
410,336,160359,1,2,0:0:0:0:
331,279,160578,2,0,P|307:234|333:182,1,99.8249971820641,2|0,0:0|0:0,0:0:0:0:
317,160,161016,6,2,P|276:133|238:135,1,74.2500002832413,10|2,0:0|0:0,0:0:0:0:
226,131,161344,1,0,0:0:0:0:
206,117,161453,1,2,0:0:0:0:
163,232,161672,1,2,0:0:0:0:
186,144,161891,2,0,P|179:117|140:81,1,82.5,10|0,0:0|0:0,0:0:0:0:
97,61,162329,1,2,0:0:0:0:
22,150,162548,1,2,0:0:0:0:
21,169,162658,1,0,0:0:0:0:
27,184,162767,2,2,P|48:202|79:205,1,55,10|2,0:0|0:0,0:0:0:0:
223,180,163205,1,2,0:0:0:0:
339,23,163862,5,2,0:0:0:0:
339,23,164081,2,0,P|333:69|298:97,1,82.5,2|0,0:0|0:0,0:0:0:0:
296,101,164519,1,10,0:0:0:0:
361,164,164738,1,2,0:0:0:0:
311,246,164957,2,0,P|264:242|241:222,1,55,2|0,0:0|0:0,0:0:0:0:
257,269,165395,2,0,P|235:270|208:258,1,41.25,10|0,0:0|0:0,0:0:0:0:
190,264,165833,5,2,0:0:0:0:
133,168,166052,1,2,0:0:0:0:
242,212,166271,1,10,0:0:0:0:
278,95,166490,1,2,0:0:0:0:
202,191,166709,5,2,0:0:0:0:
156,85,166928,1,2,0:0:0:0:
249,163,167147,1,10,0:0:0:0:
297,46,167366,1,0,0:0:0:0:
297,46,167585,6,0,P|308:20|318:52,1,82.5,2|0,0:0|0:0,0:0:0:0:
319,100,168461,2,0,B|296:135|235:115|232:153,1,98.9999969787599,10|0,0:0|0:0,0:0:0:0:
226,171,168899,2,2,P|242:203|285:205,1,48.1250004589558,10|10,0:0|0:0,0:0:0:0:
270,228,169227,1,8,0:0:0:0:
279,251,169337,1,10,0:0:0:0:
256,192,169556,12,0,172840,0:0:0:0:
97,128,183351,6,0,B|141:202|219:150|267:229,1,206.250007867813,2|0,0:0|0:0,0:0:0:0:
277,260,184008,1,2,0:0:0:0:
248,309,184227,2,2,L|408:223,2,165.000006294251,2|10|2,0:0|0:0|0:0,0:0:0:0:
249,308,185979,1,2,0:0:0:0:
249,308,186198,1,2,0:0:0:0:
210,333,186855,6,0,B|214:247|307:256|312:164,1,206.250007867813,2|0,0:0|0:0,0:0:0:0:
313,138,187512,1,2,0:0:0:0:
234,170,187731,2,2,L|394:256,2,165.000006294251,2|10|2,0:0|0:0|0:0,0:0:0:0:
234,170,189483,1,2,0:0:0:0:
234,170,189702,1,2,0:0:0:0:
150,238,190140,5,2,0:0:0:0:
150,238,190359,2,0,B|194:164|272:216|320:137,1,206.250007867813,2|0,0:0|0:0,0:0:0:0:
330,110,191016,1,2,0:0:0:0:
343,162,191235,2,2,L|183:76,2,165.000006294251,2|10|2,0:0|0:0|0:0,0:0:0:0:
403,158,192767,5,2,0:0:0:0:
403,158,192986,2,0,P|404:211|372:254,1,82.5,2|0,0:0|0:0,0:0:0:0:
367,263,193424,2,2,B|337:288|417:293|413:257|343:222|374:157|374:157|266:227|227:119,1,330.000012588501,10|10,0:0|0:0,0:0:0:0:
180,53,194519,1,2,0:0:0:0:
95,12,194738,2,2,B|34:64|132:98|71:170,1,165.000006294251,2|10,0:0|0:0,0:0:0:0:
42,215,195395,1,10,0:0:0:0:
116,349,195833,2,10,P|155:372|198:355,1,82.5000031471254
263,300,196271,2,2,P|229:277|190:284,2,82.5000031471254,2|10|2,0:0|0:0|0:0,0:0:0:0:
263,300,196928,1,10,0:0:0:0:
322,360,197147,2,8,L|354:327,4,41.2500015735627,10|8|8|8|10,0:0|0:0|0:0|0:0|0:0,0:0:0:0:
409,148,199118,6,10,P|356:124|319:76,1,110
245,172,199776,1,2,0:0:0:0:
219,284,199995,2,10,P|156:281|105:242,1,110
63,165,200652,2,2,L|62:88,2,55,2|10|2,0:0|0:0|0:0,0:0:0:0:
40,269,201307,1,8,0:0:0:0:
139,327,201528,5,2,0:0:0:0:
139,327,201636,1,0,0:0:0:0:
139,327,201746,2,0,B|200:340|218:391,1,82.5,10|0,0:0|0:0,0:0:0:0:
226,384,202184,2,0,L|273:350,1,55,10|0,0:0|0:0,0:0:0:0:
387,337,202623,5,10,0:0:0:0:
387,337,202842,1,2,0:0:0:0:
418,233,203059,1,10,0:0:0:0:
418,233,203169,1,0,0:0:0:0:
418,233,203280,2,2,P|401:182|343:168,1,110,2|2,0:0|0:0,0:0:0:0:
258,193,203937,1,10,0:0:0:0:
168,253,204156,1,2,0:0:0:0:
67,217,204375,1,10,0:0:0:0:
50,121,204594,1,2,0:0:0:0:
113,74,204813,1,10,0:0:0:0:
132,82,205032,5,2,0:0:0:0:
139,93,205140,1,0,0:0:0:0:
140,108,205250,2,0,B|154:161|127:190,1,82.5,10|0,0:0|0:0,0:0:0:0:
115,204,205688,2,0,L|157:245,1,55,10|0,0:0|0:0,0:0:0:0:
172,282,206127,5,10,0:0:0:0:
271,253,206346,1,2,0:0:0:0:
345,325,206565,1,10,0:0:0:0:
461,277,206784,2,2,L|394:191,1,110
367,80,207441,1,10,0:0:0:0:
246,110,207660,1,2,0:0:0:0:
246,110,207768,1,0,0:0:0:0:
246,110,207879,2,0,B|214:130|214:130|181:90|144:152|118:98,1,137.5,10|0,0:0|0:0,0:0:0:0:
112,98,208536,5,2,0:0:0:0:
45,23,208755,1,10,0:0:0:0:
274,75,209192,1,10,0:0:0:0:
169,118,209629,6,0,B|221:184|284:51|229:178|335:183,1,192.5,2|0,0:0|0:0,0:0:0:0:
365,173,210505,2,0,P|323:202|315:254,1,82.5,2|0,0:0|0:0,0:0:0:0:
332,293,210943,2,0,P|283:293|254:249,1,82.5,2|0,0:0|0:0,0:0:0:0:
191,265,211380,2,0,B|191:200|262:223|265:137,1,137.5,2|0,0:0|0:0,0:0:0:0:
226,97,212038,2,2,P|201:119|193:151,3,55
103,236,212915,5,2,0:0:0:0:
103,236,213023,1,0,0:0:0:0:
103,236,213132,2,10,P|131:282|193:307,1,110,8|8,0:0|0:0,0:0:0:0:
266,220,213790,1,2,0:0:0:0:
293,100,214009,2,10,P|326:128|407:142,1,110
470,234,214666,2,2,L|471:311,2,55,2|10|2,0:0|0:0|0:0,0:0:0:0:
495,112,215323,1,10,0:0:0:0:
373,57,215542,5,2,0:0:0:0:
373,57,215650,1,0,0:0:0:0:
373,57,215760,2,0,B|312:44|294:-7,1,82.5,10|0,0:0|0:0,0:0:0:0:
286,0,216198,2,0,L|239:34,1,55,10|0,0:0|0:0,0:0:0:0:
219,49,216636,5,10,0:0:0:0:
277,133,216855,1,2,0:0:0:0:
146,126,217074,1,10,0:0:0:0:
217,222,217294,2,2,P|177:257|116:245,1,110
31,194,217951,1,10,0:0:0:0:
85,97,218170,2,0,B|130:65|130:65|136:120|168:155|168:155|205:111,1,192.5,2|0,0:0|0:0,0:0:0:0:
205,111,219045,5,2,0:0:0:0:
216,96,219154,1,0,0:0:0:0:
224,80,219264,2,0,B|210:133|237:162,1,82.5,10|0,0:0|0:0,0:0:0:0:
264,176,219702,2,2,L|222:217,1,55,10|2,0:0|0:0,0:0:0:0:
146,282,220140,5,10,0:0:0:0:
260,256,220359,1,2,0:0:0:0:
333,335,220578,1,10,0:0:0:0:
433,278,220797,2,0,L|394:189,1,82.5,2|0,0:0|0:0,0:0:0:0:
343,214,221234,2,0,L|377:120,1,82.5,2|0,0:0|0:0,0:0:0:0:
375,98,221673,1,2,0:0:0:0:
356,62,221783,1,0,0:0:0:0:
316,45,221892,2,2,P|268:52|243:107,1,110,10|10,0:0|0:0,0:0:0:0:
243,103,222768,1,10,0:0:0:0:
275,230,223205,1,10,0:0:0:0:
343,266,223643,6,0,B|291:200|228:333|283:206|177:201,1,192.5,2|0,0:0|0:0,0:0:0:0:
147,211,224519,2,0,P|189:182|197:130,1,82.5,2|0,0:0|0:0,0:0:0:0:
180,91,224957,2,0,P|229:91|258:135,1,82.5,2|0,0:0|0:0,0:0:0:0:
321,119,225395,2,0,B|321:184|250:161|247:247,1,137.5,2|0,0:0|0:0,0:0:0:0:
286,287,226272,2,2,P|311:265|319:233,2,55
256,192,227585,12,0,230213,0:0:0:0:
152,91,230651,6,10,L|86:180,1,110
142,247,231527,2,10,L|114:263,2,27.5
142,247,231965,1,10,0:0:0:0:
232,293,232403,6,10,L|318:222,1,110
382,309,233279,2,10,L|414:300,4,27.5
438,218,234155,6,10,L|357:143,1,110
248,161,235030,2,10,L|261:190,2,27.5
248,161,235469,1,10,0:0:0:0:
243,279,235907,6,10,L|162:204,1,110
73,129,236783,2,10,L|61:158,4,27.5
186,157,237658,6,10,L|120:246,1,110
139,336,238534,2,10,L|111:352,2,27.5
139,336,238972,1,10,0:0:0:0:
230,302,239191,6,2,P|255:292|274:272,1,55
243,233,239629,2,2,P|246:204|236:180,1,55
193,181,240067,2,2,P|175:160|149:151,1,55
123,189,240506,2,2,P|97:196|78:216,1,55
145,254,241161,6,10,L|94:140,1,110
88,54,242037,2,10,L|44:41,4,27.5
186,107,242913,6,10,L|284:51,1,110
384,44,243789,2,10,L|407:58,2,27.5
384,44,244227,1,10,0:0:0:0:
315,116,244665,6,10,L|318:226,1,110
396,285,245541,2,10,L|408:255,4,27.5
283,336,246417,6,10,L|190:261,1,110
86,263,247292,2,10,L|62:283,2,27.5
86,263,247731,1,10,0:0:0:0:
101,154,248168,6,10,L|180:78,1,110
279,32,249044,2,10,L|301:10,4,27.5
333,130,249921,6,10,L|306:248,1,110
198,255,250796,2,10,L|165:256,2,27.5
198,255,251234,1,10,0:0:0:0:
84,70,252986,5,6,0:0:0:0:
196,121,253424,1,6,0:0:0:0:
306,241,253862,2,6,L|307:268,1,27.5,6|2,0:0|0:0,0:0:0:0:
381,270,254300,2,6,L|389:299,1,27.5,6|2,0:0|0:0,0:0:0:0:
459,283,254738,2,6,L|472:309,1,27.5,6|2,0:0|0:0,0:0:0:0:
