osu file format v14

[General]
AudioFilename: audio.mp3
AudioLeadIn: 0
PreviewTime: 127120
Countdown: 1
SampleSet: Normal
StackLeniency: 0.7
Mode: 0
LetterboxInBreaks: 0
WidescreenStoryboard: 1

[Editor]
Bookmarks: 153986
DistanceSpacing: 1.4
BeatDivisor: 3
GridSize: 8
TimelineZoom: 1

[Metadata]
Title:History Maker
TitleUnicode:History Maker
Artist:DEAN FUJIOKA
ArtistUnicode:DEAN FUJIOKA
Creator:kingdom5500
Version:Hard
Source:ユーリ!!! on ICE
Tags:yuri op opening full version
BeatmapID:1271056
BeatmapSetID:601709

[Difficulty]
HPDrainRate:5
CircleSize:4
OverallDifficulty:5.5
ApproachRate:7
SliderMultiplier:1.4
SliderTickRate:1

[Events]
//Background and Video events
0,0,"yoi__victuuri_wallpaper_by_xdarkhikarix-daui218.jpg",0,0
//Break Periods
2,79409,85324
//Storyboard Layer 0 (Background)
//Storyboard Layer 1 (Fail)
//Storyboard Layer 2 (Pass)
//Storyboard Layer 3 (Foreground)
//Storyboard Sound Samples

[TimingPoints]
404,447.761194029851,4,1,1,100,1,0
404,-133.333333333333,4,2,1,40,0,0
36224,-117.647058823529,4,1,1,50,0,0
50553,-100,4,1,1,70,0,0
56821,-200,4,1,1,70,0,0
57717,-100,4,1,1,70,0,0
64881,-90.9090909090909,4,1,1,70,0,0
79209,-133.333333333333,4,1,1,70,0,0
86374,-133.333333333333,4,2,1,40,0,0
93538,-105.263157894737,4,2,1,55,0,0
104284,-125,4,2,1,40,0,0
106075,-105.263157894737,4,2,1,55,0,0
107866,-117.647058823529,4,2,1,40,0,0
113239,-95.2380952380952,4,1,1,55,0,0
129359,-86.9565217391304,4,1,1,70,0,1
135627,-200,4,1,1,70,0,0
136523,-86.9565217391304,4,1,1,70,0,1
172344,-95.2380952380952,4,1,1,70,0,0
185105,-100,4,2,1,5,0,0

[Colours]
Combo1 : 191,0,96
Combo2 : 0,234,234
Combo3 : 128,128,255
Combo4 : 0,64,128
Combo5 : 0,128,255
Combo6 : 128,0,128

[HitObjects]
256,192,404,12,8,3986,0:0:0:0:
138,262,4881,6,0,L|147:332,2,70.0000026702882,8|0|0,0:0|0:0|0:0,0:0:0:0:
74,188,5777,2,0,P|152:176|201:122,1,140.000005340576,8|0,0:0|0:0,0:0:0:0:
211,38,6672,2,0,P|256:60|279:91,2,70.0000026702882,8|0|0,0:0|0:0|0:0,0:0:0:0:
194,135,7568,1,8,0:0:0:0:
158,226,7866,6,0,L|169:318,1,70.0000026702882,0|0,0:0|0:0,0:0:0:0:
254,251,8463,2,0,P|335:266|379:336,1,140.000005340576,8|0,0:0|0:0,0:0:0:0:
280,347,9359,1,8,0:0:0:0:
191,306,9657,6,0,L|180:214,1,70.0000026702882
277,210,10254,2,0,B|290:104|290:104|251:130,1,140.000005340576,8|0,0:0|0:0,0:0:0:0:
168,104,11150,2,0,P|97:114|36:71,1,140.000005340576,8|0,0:0|0:0,0:0:0:0:
118,18,12045,2,0,L|136:164,1,140.000005340576,8|0,0:0|0:0,0:0:0:0:
145,254,12941,1,8,0:0:0:0:
225,197,13239,5,0,0:0:0:0:
323,192,13538,1,0,0:0:0:0:
405,245,13836,2,0,P|419:211|381:113,1,140.000005340576,8|0,0:0|0:0,0:0:0:0:
293,90,14732,1,8,0:0:0:0:
196,108,15030,2,0,L|112:125,1,70.0000026702882,0|0,0:0|0:0,0:0:0:0:
31,144,15627,6,0,P|84:212|146:219,1,140.000005340576,8|0,0:0|0:0,0:0:0:0:
207,156,16523,1,8,0:0:0:0:
279,90,16821,2,0,P|344:108|365:129,1,70.0000026702882,0|0,0:0|0:0,0:0:0:0:
442,100,17418,2,0,L|431:240,1,140.000005340576,8|0,0:0|0:0,0:0:0:0:
419,337,18314,6,0,L|303:257,1,140.000005340576,8|0,0:0|0:0,0:0:0:0:
226,197,19209,2,0,L|352:136,1,140.000005340576,8|0,0:0|0:0,0:0:0:0:
272,78,20105,2,0,L|156:-2,1,140.000005340576,8|0,0:0|0:0,0:0:0:0:
104,81,21001,1,8,0:0:0:0:
167,155,21299,1,0,0:0:0:0:
100,227,21598,1,0,0:0:0:0:
187,269,21896,6,0,B|249:294|249:294|329:278,1,140.000005340576,8|0,0:0|0:0,0:0:0:0:
416,258,22792,1,8,0:0:0:0:
351,184,23090,1,0,0:0:0:0:
416,110,23389,1,0,0:0:0:0:
329,64,23687,6,0,P|265:56|217:77,1,105.000004005432,8|0,0:0|0:0,0:0:0:0:
100,144,24583,2,0,P|50:159|0:149,1,105.000004005432,12|0,0:0|0:0,0:0:0:0:
112,56,25478,6,0,B|168:97|168:97|189:177,1,140.000005340576,8|0,0:0|0:0,0:0:0:0:
207,261,26374,1,8,0:0:0:0:
279,326,26672,1,0,0:0:0:0:
374,350,26971,1,0,0:0:0:0:
471,338,27269,6,0,L|441:214,1,105.000004005432,8|0,0:0|0:0,0:0:0:0:
405,94,28165,1,10,0:0:0:0:
187,291,29060,6,0,P|292:316|342:295,1,140.000005340576,8|0,0:0|0:0,0:0:0:0:
396,246,29956,1,8,0:0:0:0:
356,156,30254,2,0,L|371:76,1,70.0000026702882,0|0,0:0|0:0,0:0:0:0:
272,102,30851,6,0,B|201:92|201:92|129:129,1,140.000005340576,8|0,0:0|0:0,0:0:0:0:
106,215,31747,1,8,0:0:0:0:
167,290,32045,2,0,L|153:367,1,70.0000026702882,0|0,0:0|0:0,0:0:0:0:
78,296,32642,6,0,P|22:220|45:155,1,140.000005340576,8|0,0:0|0:0,0:0:0:0:
116,136,33538,1,8,0:0:0:0:
206,98,33836,2,0,L|191:28,1,70.0000026702882,0|0,0:0|0:0,0:0:0:0:
286,52,34433,6,0,L|407:84,1,105.000004005432,8|0,0:0|0:0,0:0:0:0:
379,226,35329,2,0,L|480:199,1,105.000004005432,8|0,0:0|0:0,0:0:0:0:
456,363,36224,1,8,0:0:0:0:
239,312,36821,6,0,P|222:253|186:231,1,79.3333348464966,0|0,0:0|0:0,0:0:0:0:
103,211,37418,2,0,P|78:180|74:141,1,79.3333348464966,0|0,0:0|0:0,0:0:0:0:
399,70,38612,5,0,0:0:0:0:
435,175,38911,2,0,L|425:254,1,79.3333348464966,0|0,0:0|0:0,0:0:0:0:
315,233,39508,2,0,L|325:154,1,79.3333348464966,0|8,0:0|0:0,0:0:0:0:
15,30,40702,5,0,0:0:0:0:
27,140,41001,1,0,0:0:0:0:
180,300,41598,5,0,0:0:0:0:
242,208,41896,1,0,0:0:0:0:
351,189,42195,1,0,0:0:0:0:
458,217,42493,2,0,L|443:303,2,79.3333348464966,0|0|0,0:0|0:0|0:0,0:0:0:0:
482,108,43389,5,8,0:0:0:0:
263,68,43986,1,0,0:0:0:0:
166,122,44284,2,0,P|183:190|173:228,1,79.3333348464966,0|0,0:0|0:0,0:0:0:0:
242,291,44881,2,0,P|225:359|235:397,1,79.3333348464966,0|0,0:0|0:0,0:0:0:0:
317,164,45777,5,0,0:0:0:0:
220,218,46075,2,0,L|130:194,2,79.3333348464966,0|0|0,0:0|0:0|0:0,0:0:0:0:
278,314,46971,5,8,0:0:0:0:
395,185,47269,1,8,0:0:0:0:
232,121,47568,1,8,0:0:0:0:
342,256,47866,1,8,0:0:0:0:
313,83,48165,1,8,0:0:0:0:
183,200,48463,6,0,L|131:241,2,39.6666674232483,8|8|8,0:0|0:0|0:0,0:0:0:0:
90,65,50553,6,0,B|136:103|134:170|93:206|93:206|119:257|119:257|110:326,2,280,4|8|4,0:0|0:0|0:0,0:0:0:0:
379,328,53239,1,8,0:0:0:0:
223,208,53687,1,0,0:0:0:0:
394,112,54135,6,0,B|355:61|272:50|212:104|212:104|177:61|122:77,1,280,4|8,0:0|0:0,0:0:0:0:
0,203,55478,1,0,0:0:0:0:
155,322,55926,2,0,B|236:291|236:291|283:349|367:361|439:298,1,280,4|12,0:0|0:0,0:0:0:0:
91,90,57717,6,0,P|29:280|56:367,1,280,4|8,0:0|0:0,0:0:0:0:
369,50,59508,2,0,P|363:139|179:128,1,280,4|8,0:0|0:0,0:0:0:0:
40,49,60851,1,0,0:0:0:0:
41,245,61299,6,0,B|135:348|135:348|301:373,1,280,4|8,0:0|0:0,0:0:0:0:
201,260,62493,2,0,P|201:206|221:171,2,93.3333333333333,0|0|4,0:0|0:0|0:0,0:0:0:0:
320,329,63389,5,4,0:0:0:0:
346,125,63687,1,4,0:0:0:0:
509,249,63986,1,12,0:0:0:0:
305,222,64284,1,4,0:0:0:0:
447,73,64583,1,4,0:0:0:0:
502,291,64881,6,0,B|444:245|444:245|435:197|435:197|358:126,1,205.33333959961,4|0,0:0|0:0,0:0:0:0:
376,285,65777,2,0,P|323:299|263:284,2,102.666669799805,8|0|0,0:0|0:0|0:0,0:0:0:0:
499,211,66672,1,4,0:0:0:0:
270,36,67269,5,0,0:0:0:0:
162,131,67568,2,0,L|175:243,1,102.666669799805,8|0,0:0|0:0,0:0:0:0:
317,235,68165,2,0,L|304:347,1,102.666669799805,0|4,0:0|0:0,0:0:0:0:
57,62,69359,5,8,0:0:0:0:
246,29,69657,1,0,0:0:0:0:
157,258,70254,5,12,0:0:0:0:
269,307,70553,2,0,P|337:300|381:268,1,102.666669799805,0|0,0:0|0:0,0:0:0:0:
443,187,71150,1,8,0:0:0:0:
331,138,71449,2,0,P|263:145|219:177,1,102.666669799805,0|0,0:0|0:0,0:0:0:0:
308,260,72045,6,0,L|259:59,1,205.33333959961,4|0,0:0|0:0,0:0:0:0:
207,172,72941,2,0,P|140:184|76:148,1,102.666669799805,8|0,0:0|0:0,0:0:0:0:
34,297,73538,2,0,P|101:285|165:321,1,102.666669799805,0|4,0:0|0:0,0:0:0:0:
263,58,74433,5,0,0:0:0:0:
383,86,74732,2,0,L|494:110,2,102.666669799805,8|0|0,0:0|0:0|0:0,0:0:0:0:
263,58,75627,1,4,0:0:0:0:
34,348,76523,5,8,0:0:0:0:
140,286,76821,2,0,P|209:277|267:308,1,102.666669799805,0|0,0:0|0:0,0:0:0:0:
342,354,77418,1,4,0:0:0:0:
303,238,77717,2,0,P|304:187|328:142,1,102.666669799805,4|4,0:0|0:0,0:0:0:0:
393,37,78314,5,12,0:0:0:0:
397,221,78612,1,4,0:0:0:0:
235,132,78911,1,4,0:0:0:0:
73,221,79209,1,4,0:0:0:0:
79,323,86374,5,8,0:0:0:0:
143,250,86672,2,0,P|132:193|143:159,1,70.0000026702882,0|0,0:0|0:0,0:0:0:0:
229,204,87269,2,0,P|293:214|363:162,1,140.000005340576,8|0,0:0|0:0,0:0:0:0:
276,117,88165,1,8,0:0:0:0:
193,64,88463,6,0,L|167:162,1,70.0000026702882
153,227,89060,2,0,L|295:189,1,140.000005340576,8|0,0:0|0:0,0:0:0:0:
384,169,89956,1,8,0:0:0:0:
461,228,90254,1,0,0:0:0:0:
472,131,90553,1,0,0:0:0:0:
378,104,90852,6,0,L|242:67,1,140.000005340576,8|0,0:0|0:0,0:0:0:0:
149,40,91747,1,8,0:0:0:0:
175,135,92045,2,0,P|149:187|113:199,1,70.0000026702882,0|0,0:0|0:0,0:0:0:0:
43,206,92642,6,0,L|195:235,1,140.000005340576,10|0,0:0|0:0,0:0:0:0:
303,253,93538,1,8,0:0:0:0:
194,312,93836,6,0,P|172:263|202:209,1,88.6666642990113,0|0,0:0|0:0,0:0:0:0:
259,135,94433,2,0,P|266:92|155:63,1,177.333328598023,8|0,0:0|0:0,0:0:0:0:
143,178,95329,1,8,0:0:0:0:
259,135,95627,2,0,L|346:151,1,88.6666642990113,0|0,0:0|0:0,0:0:0:0:
435,238,96224,2,0,L|234:277,1,177.333328598023,8|8,0:0|0:0,0:0:0:0:
138,291,97120,6,0,P|123:232|8:169,1,177.333328598023,8|0,0:0|0:0,0:0:0:0:
16,292,98015,2,0,B|111:217|111:217|127:138,1,177.333328598023,8|0,0:0|0:0,0:0:0:0:
177,273,98911,2,0,B|188:217|188:217|283:142,1,177.333328598023,8|0,0:0|0:0,0:0:0:0:
260,264,99806,1,2,0:0:0:0:
174,353,100105,2,0,P|112:319|100:270,1,88.6666642990113,0|0,0:0|0:0,0:0:0:0:
189,217,100702,6,0,P|284:184|343:249,1,177.333328598023,8|0,0:0|0:0,0:0:0:0:
393,333,101598,2,0,L|418:228,1,88.6666642990113,4|0,0:0|0:0,0:0:0:0:
444,126,102195,1,0,0:0:0:0:
324,156,102493,2,0,P|232:132|202:86,1,132.999996448517,8|0,0:0|0:0,0:0:0:0:
24,92,103389,2,0,P|89:98|137:142,1,132.999996448517,4|0,0:0|0:0,0:0:0:0:
138,299,104284,6,0,P|186:342|296:326,1,149.333333333333,8|0,0:0|0:0,0:0:0:0:
362,301,105180,2,0,P|435:299|461:314,2,74.6666666666667,4|0|0,0:0|0:0|0:0,0:0:0:0:
248,350,106075,2,0,L|265:184,1,132.999996448517,8|0,0:0|0:0,0:0:0:0:
284,32,106971,1,4,0:0:0:0:
5,213,107866,6,0,P|66:239|168:198,1,158.666669692993,8|0,0:0|0:0,0:0:0:0:
221,127,108762,2,0,L|233:205,1,79.3333348464966,4|0,0:0|0:0,0:0:0:0:
249,315,109359,1,0,0:0:0:0:
336,246,109657,2,0,P|397:220|490:256,1,158.666669692993,8|0,0:0|0:0,0:0:0:0:
407,329,110553,1,4,0:0:0:0:
336,246,110851,2,0,L|362:153,1,79.3333348464966,0|0,0:0|0:0,0:0:0:0:
391,63,111448,6,0,L|217:111,1,158.666669692993,8|0,0:0|0:0,0:0:0:0:
333,161,112344,2,0,P|367:218|357:262,2,79.3333348464966,4|0|0,0:0|0:0|0:0,0:0:0:0:
116,136,113239,5,8,0:0:0:0:
378,103,113687,1,8,0:0:0:0:
185,283,114135,1,8,0:0:0:0:
233,23,114583,1,8,0:0:0:0:
345,262,115031,1,8,0:0:0:0:
71,264,115627,6,0,L|83:373,2,97.9999970092774,0|8|0,0:0|0:0|0:0,0:0:0:0:
180,180,116523,2,0,L|168:71,1,97.9999970092774,0|8,0:0|0:0,0:0:0:0:
512,167,117418,5,0,0:0:0:0:
404,252,117717,2,0,P|338:234|283:251,2,97.9999970092774,10|0|0,0:0|0:0|0:0,0:0:0:0:
486,362,118612,1,8,0:0:0:0:
76,318,119508,5,8,0:0:0:0:
123,189,119806,1,0,0:0:0:0:
343,24,120404,5,8,0:0:0:0:
380,155,120702,2,0,L|364:266,1,97.9999970092774,0|0,0:0|0:0,0:0:0:0:
405,383,121299,1,8,0:0:0:0:
270,353,121598,2,0,L|159:369,1,97.9999970092774,0|0,0:0|0:0,0:0:0:0:
238,246,122195,6,0,P|243:176|225:135,2,97.9999970092774,8|8|8,0:0|0:0|0:0,0:0:0:0:
374,239,123090,2,0,P|369:309|387:350,2,97.9999970092774,8|8|8,0:0|0:0|0:0,0:0:0:0:
439,118,123986,2,0,L|309:138,2,97.9999970092774,8|8|8,0:0|0:0|0:0,0:0:0:0:
374,239,124881,2,0,L|504:259,2,97.9999970092774,8|8|8,0:0|0:0|0:0,0:0:0:0:
361,62,125777,6,0,P|279:106|233:96,1,97.9999970092774,8|8,0:0|0:0,0:0:0:0:
102,83,126374,1,8,0:0:0:0:
277,105,126672,2,0,P|321:187|311:233,1,97.9999970092774,8|8,0:0|0:0,0:0:0:0:
309,364,127269,1,8,0:0:0:0:
469,290,127568,5,8,0:0:0:0:
460,336,129359,6,0,B|414:286|332:305|318:371|318:371|260:332|260:332|223:340|223:340|187:328,2,322.000006141663,4|8|4,0:0|0:0|0:0,0:0:0:0:
28,226,132045,1,8,0:0:0:0:
429,38,132941,6,0,B|376:76|380:143|402:182|402:182|327:197|296:268|330:345,1,322.000006141663,4|8,0:0|0:0,0:0:0:0:
306,74,134284,1,0,0:0:0:0:
407,275,134732,2,0,B|365:242|310:239|310:239|234:153|234:153|179:147|138:101,1,322.000006141663,4|8,0:0|0:0,0:0:0:0:
366,89,136523,6,0,B|355:209|355:209|321:263|321:263|313:355|313:355|352:306,1,322.000006141663,0|8,0:0|0:0,0:0:0:0:
114,72,138314,2,0,B|189:133|174:212|174:212|189:133|282:99,1,322.000006141663,4|8,0:0|0:0,0:0:0:0:
29,197,139657,1,0,0:0:0:0:
198,346,140105,6,0,B|344:280|344:280|408:112,1,322.000006141663,4|8,0:0|0:0,0:0:0:0:
268,58,141299,2,0,P|216:46|165:62,1,107.333335380554
108,201,141896,2,0,P|56:212|5:196,2,107.333335380554,4|4|4,0:0|0:0|0:0,0:0:0:0:
233,87,142792,2,0,P|182:71|121:88,2,107.333335380554,12|4|4,0:0|0:0|0:0,0:0:0:0:
179,200,143687,6,0,B|215:356|215:356|228:303,1,214.666670761108,4|0,0:0|0:0,0:0:0:0:
265,187,144583,2,0,P|316:203|377:186,2,107.333335380554,8|0|0,0:0|0:0|0:0,0:0:0:0:
324,73,145478,1,4,0:0:0:0:
75,142,146075,5,0,0:0:0:0:
159,239,146374,2,0,L|144:362,2,107.333335380554,8|0|0,0:0|0:0|0:0,0:0:0:0:
264,166,147269,1,4,0:0:0:0:
455,55,148165,5,8,0:0:0:0:
435,182,148463,1,0,0:0:0:0:
183,237,149060,6,0,B|140:206|140:206|83:196,2,107.333335380554,4|0|0,0:0|0:0|0:0,0:0:0:0:
284,316,149956,1,8,0:0:0:0:
321,193,150254,2,0,L|345:71,1,107.333335380554,0|0,0:0|0:0,0:0:0:0:
416,192,150851,6,0,P|352:212|215:121,1,214.666670761108,4|0,0:0|0:0,0:0:0:0:
170,33,151747,2,0,P|160:100|114:152,2,107.333335380554,8|0|0,0:0|0:0|0:0,0:0:0:0:
42,46,152642,1,4,0:0:0:0:
112,293,153239,5,0,0:0:0:0:
224,228,153538,2,0,L|337:250,1,107.333335380554,8|0,0:0|0:0,0:0:0:0:
407,351,154135,2,0,L|520:329,1,107.333335380554,0|4,0:0|0:0,0:0:0:0:
177,136,155329,6,0,B|131:165|131:165|35:148,2,107.333335380554,8|0|0,0:0|0:0|0:0,0:0:0:0:
298,94,156224,2,0,B|295:39|295:39|358:-34,2,107.333335380554,4|4|4,0:0|0:0|0:0,0:0:0:0:
274,220,157120,2,0,B|322:245|322:245|355:336,2,107.333335380554,12|4|4,0:0|0:0|0:0,0:0:0:0:
160,159,158015,6,0,B|196:315|196:315|132:279,1,214.666670761108,4|0,0:0|0:0,0:0:0:0:
253,212,158911,2,0,P|302:211|366:252,2,107.333335380554,8|0|0,0:0|0:0|0:0,0:0:0:0:
279,327,159806,1,4,0:0:0:0:
114,137,160404,5,0,0:0:0:0:
216,59,160702,2,0,L|339:80,1,107.333335380554,8|0,0:0|0:0,0:0:0:0:
390,186,161299,2,0,P|436:160|513:165,1,107.333335380554,0|4,0:0|0:0,0:0:0:0:
189,276,162493,5,4,0:0:0:0:
114,98,162791,1,4,0:0:0:0:
412,158,163389,5,4,0:0:0:0:
337,336,163687,1,4,0:0:0:0:
220,181,163986,1,4,0:0:0:0:
396,258,164284,1,4,0:0:0:0:
204,281,164583,1,4,0:0:0:0:
279,103,164881,1,4,0:0:0:0:
370,222,165180,6,0,P|428:127|393:10,1,214.666670761108,4|0,0:0|0:0,0:0:0:0:
279,103,166075,2,0,L|158:120,1,107.333335380554,8|0,0:0|0:0,0:0:0:0:
78,235,166672,2,0,L|199:252,1,107.333335380554,0|4,0:0|0:0,0:0:0:0:
483,283,167568,1,0,0:0:0:0:
415,148,167866,6,0,P|336:128|274:147,2,107.333335380554,8|0|0,0:0|0:0|0:0,0:0:0:0:
342,281,168762,1,4,0:0:0:0:
252,0,169657,5,8,0:0:0:0:
312,137,169956,2,0,L|278:255,1,107.333335380554,0|0,0:0|0:0,0:0:0:0:
343,377,170553,1,4,0:0:0:0:
282,240,170851,2,0,L|164:274,1,107.333335380554,4|4,0:0|0:0,0:0:0:0:
49,192,171448,5,12,0:0:0:0:
191,143,171747,1,4,0:0:0:0:
78,45,172045,1,4,0:0:0:0:
273,125,172344,6,0,P|295:248|167:186,1,293.999991027832,4|4,0:0|0:0,0:0:0:0:
402,167,174135,2,0,B|414:241|365:303|365:303|415:241|506:265,1,293.999991027832,4|12,0:0|0:0,0:0:0:0:
70,285,175926,6,0,B|87:188|87:188|120:153|120:153|145:58|145:58|131:4,1,293.999991027832,4|4,0:0|0:0,0:0:0:0:
133,368,177717,2,0,B|157:223|157:223|268:118,1,293.999991027832,4|12,0:0|0:0,0:0:0:0:
512,249,179508,6,0,P|453:254|397:222,2,97.9999970092774,4|4|4,0:0|0:0|0:0,0:0:0:0:
409,156,180404,2,0,P|363:140|315:146,2,97.9999970092774,4|4|4,0:0|0:0|0:0,0:0:0:0:
351,280,181299,2,0,L|363:407,2,97.9999970092774,4|4|4,0:0|0:0|0:0,0:0:0:0:
198,375,182195,2,0,L|207:277,2,97.9999970092774,12|4|4,0:0|0:0|0:0,0:0:0:0:
56,270,183090,5,0,0:0:0:0:
216,198,183388,1,0,0:0:0:0:
72,98,183687,1,0,0:0:0:0:
147,257,183986,2,0,P|201:289|273:268,2,97.9999970092774,0|0|0,0:0|0:0|0:0,0:0:0:0:
322,250,184881,1,4,0:0:0:0:
256,192,185105,12,0,186896,0:0:0:0:
