osu file format v14

[General]
AudioFilename: audio.mp3
AudioLeadIn: 0
PreviewTime: 47993
Countdown: 0
SampleSet: Soft
StackLeniency: 0.7
Mode: 2
LetterboxInBreaks: 0
WidescreenStoryboard: 0

[Editor]
Bookmarks: 88441
DistanceSpacing: 0.9
BeatDivisor: 6
GridSize: 4
TimelineZoom: 2

[Metadata]
Title:History Maker
TitleUnicode:History Maker
Artist:DEAN FUJIOKA
ArtistUnicode:DEAN FUJIOKA
Creator:RoseusJaeger
Version:Rain
Source:ユーリ!!! on ICE
Tags:yuri!!! OP opening MAPPA Avex Pictures Taro Umebayashi 梅林太郎 Taku Matsushiba 松司馬拓 Sinnoh Paranoid Grapes Ascendance
BeatmapID:1235444
BeatmapSetID:522277

[Difficulty]
HPDrainRate:6
CircleSize:4
OverallDifficulty:8.5
ApproachRate:8.5
SliderMultiplier:3.59999990463257
SliderTickRate:2

[Events]
//Background and Video events
Video,0,"yuri on ice op.avi"
0,0,"This anime is pretty gay.jpg",0,0
//Break Periods
//Storyboard Layer 0 (Background)
//Storyboard Layer 1 (Fail)
//Storyboard Layer 2 (Pass)
//Storyboard Layer 3 (Foreground)
//Storyboard Sound Samples

[TimingPoints]
680,895.522388059701,4,2,3,40,1,0
5157,-100,4,2,1,20,0,0
22172,-100,4,2,1,30,0,0
28739,-100,4,2,2,20,0,0
29336,-100,4,2,2,30,0,0
36500,-100,4,2,1,30,0,0
37097,-100,4,2,2,30,0,0
47247,-100,4,2,2,5,0,0
50829,-100,4,2,1,75,0,1
65157,-100,4,2,1,55,0,0
79485,-100,4,2,3,40,0,0
83068,-100,4,2,1,55,0,1
86650,-100,4,2,1,75,0,0

[Colours]
Combo1 : 255,255,255
Combo2 : 164,255,255
Combo3 : 70,163,255
Combo4 : 255,183,111
Combo5 : 255,255,187

[HitObjects]
296,224,680,6,0,L|364:224,1,59.9999984105428
196,196,978,1,0,0:0:0:0:
140,160,1127,1,0,0:0:0:0:
140,160,1277,1,0,0:0:0:0:
196,192,1426,1,0,0:0:0:0:
352,200,1575,5,0,0:0:0:0:
420,196,1724,1,0,0:0:0:0:
264,192,1874,1,0,0:0:0:0:
196,192,2023,1,0,0:0:0:0:
128,188,2172,1,0,0:0:0:0:
196,192,2321,1,0,0:0:0:0:
352,216,2471,6,0,L|280:176,1,59.9999984105428
144,208,2769,1,0,0:0:0:0:
76,208,2918,1,0,0:0:0:0:
144,208,3068,1,0,0:0:0:0:
212,208,3217,1,0,0:0:0:0:
368,200,3366,6,0,L|284:200,1,59.9999984105428
152,208,3665,1,0,0:0:0:0:
84,208,3814,1,0,0:0:0:0:
16,204,3963,1,0,0:0:0:0:
88,208,4112,1,0,0:0:0:0:
320,228,4262,5,0,0:0:0:0:
376,204,4336,1,0,0:0:0:0:
420,164,4411,1,0,0:0:0:0:
444,116,4485,1,0,0:0:0:0:
456,68,4560,1,0,0:0:0:0:
460,28,4635,1,0,0:0:0:0:
456,68,4709,1,0,0:0:0:0:
444,116,4784,1,0,0:0:0:0:
420,164,4859,1,0,0:0:0:0:
312,208,5008,1,0,0:0:0:0:
96,208,5157,6,0,L|236:208,2,119.999996821086,4|0|0,0:0|0:0|0:0,0:0:0:0:
312,208,6053,2,0,L|444:208,1,119.999996821086,4|0,0:0|0:0,0:0:0:0:
208,208,6650,2,0,L|116:208,1,59.9999984105428,0|0,0:0|0:0,0:0:0:0:
372,200,6948,6,0,L|512:200,2,119.999996821086,4|0|0,0:0|0:0|0:0,0:0:0:0:
156,240,7844,2,0,L|280:240,1,119.999996821086,4|0,0:0|0:0,0:0:0:0:
420,248,8441,1,0,0:0:0:0:
60,212,8739,5,4,0:0:0:0:
204,212,9038,1,0,0:0:0:0:
60,212,9336,1,0,0:0:0:0:
276,216,9635,1,4,0:0:0:0:
140,216,9933,2,0,P|124:164|188:120,1,119.999996821086,0|0,0:0|0:0,0:0:0:0:
404,232,10530,2,0,P|476:176|424:48,1,239.999993642171,4|0,0:0|0:0,0:0:0:0:
64,208,11426,6,0,L|204:208,1,119.999996821086,4|0,0:0|0:0,0:0:0:0:
324,208,12023,2,0,L|368:136,1,59.9999984105428,0|0,0:0|0:0,0:0:0:0:
132,208,12321,2,0,L|0:208,2,119.999996821086,4|0|0,0:0|0:0|0:0,0:0:0:0:
360,212,13217,1,4,0:0:0:0:
132,208,13515,1,0,0:0:0:0:
72,144,13665,1,0,0:0:0:0:
72,144,13814,1,0,0:0:0:0:
132,208,13963,1,0,0:0:0:0:
368,232,14112,6,0,P|436:200|324:120,1,239.999993642171,10|0,0:1|0:0,0:0:0:0:
136,212,15008,1,4,0:0:0:0:
280,212,15306,2,0,L|424:212,1,119.999996821086,0|0,0:0|0:0,0:0:0:0:
340,212,15754,1,0,0:0:0:0:
112,240,15903,2,0,P|68:184|128:128,1,119.999996821086,4|0,0:0|0:0,0:0:0:0:
216,88,16500,1,0,0:0:0:0:
448,220,16799,5,4,0:0:0:0:
304,220,17097,2,0,L|464:220,1,119.999996821086,0|0,0:0|0:0,0:0:0:0:
360,220,17545,1,0,0:0:0:0:
132,224,17694,2,0,L|-4:224,1,119.999996821086,4|0,0:0|0:0,0:0:0:0:
252,220,18291,1,0,0:0:0:0:
412,228,18590,2,0,L|252:228,1,119.999996821086,4|0,0:0|0:0,0:0:0:0:
412,228,19187,1,0,0:0:0:0:
304,125,19336,1,0,0:0:0:0:
140,208,19485,6,0,L|4:208,2,119.999996821086,4|0|0,0:0|0:0|0:0,0:0:0:0:
440,224,20381,2,0,L|296:224,2,119.999996821086,4|0|0,0:0|0:0|0:0,0:0:0:0:
376,220,21127,1,0,0:0:0:0:
152,212,21277,1,10,0:1:0:0:
312,216,21575,2,0,L|476:216,1,119.999996821086,0|0,0:0|0:0,0:0:0:0:
60,228,22172,5,4,0:0:0:0:
0,168,22321,1,0,0:0:0:0:
60,228,22471,1,0,0:0:0:0:
132,296,22620,1,0,0:0:0:0:
288,320,22769,2,0,L|368:320,1,59.9999984105428
132,320,23068,6,0,L|64:320,1,59.9999984105428,4|0,0:0|0:0,0:0:0:0:
232,320,23366,1,0,0:0:0:0:
304,276,23515,1,0,0:0:0:0:
144,256,23665,1,0,0:0:0:0:
112,176,23814,1,0,0:0:0:0:
352,296,23963,6,0,P|388:256|324:244,1,119.999996821086,4|0,0:0|0:0,0:0:0:0:
196,304,24411,1,0,0:0:0:0:
124,264,24560,1,0,0:0:0:0:
52,220,24709,1,0,0:0:0:0:
324,244,24859,6,0,P|360:200|296:180,1,119.999996821086,8|0,0:0|0:0,0:0:0:0:
168,224,25306,1,0,0:0:0:0:
96,224,25456,1,0,0:0:0:0:
168,224,25605,1,0,0:0:0:0:
396,168,25754,5,4,0:0:0:0:
468,120,25903,1,0,0:0:0:0:
468,120,26053,1,0,0:0:0:0:
396,168,26202,1,0,0:0:0:0:
240,224,26351,2,0,L|208:160,1,59.9999984105428
368,208,26650,5,4,0:0:0:0:
440,212,26799,1,0,0:0:0:0:
280,232,26948,1,0,0:0:0:0:
208,224,27097,1,0,0:0:0:0:
48,232,27247,2,0,L|68:172,1,59.9999984105428
316,200,27545,5,4,0:0:0:0:
388,204,27694,1,0,0:0:0:0:
464,200,27844,1,0,0:0:0:0:
304,200,27993,1,0,0:0:0:0:
368,200,28142,1,0,0:0:0:0:
432,196,28291,1,0,0:0:0:0:
192,272,28441,6,0,P|152:232|192:200,1,119.999996821086,8|0,0:0|0:0,0:0:0:0:
264,200,28888,1,0,0:0:0:0:
188,200,29038,1,0,0:0:0:0:
120,200,29187,1,0,0:0:0:0:
348,216,29336,6,0,L|420:216,1,59.9999984105428,4|0,0:0|0:0,0:0:0:0:
336,216,29635,2,0,L|252:216,1,59.9999984105428,0|0,0:0|0:0,0:0:0:0:
120,216,29933,2,0,L|160:144,1,59.9999984105428
368,208,30232,6,0,L|328:140,1,59.9999984105428,4|0,0:0|0:0,0:0:0:0:
108,216,30530,1,0,0:0:0:0:
40,216,30679,1,0,0:0:0:0:
40,216,30829,1,0,0:0:0:0:
108,216,30978,1,0,0:0:0:0:
264,248,31127,5,4,0:0:0:0:
336,244,31277,1,0,0:0:0:0:
264,244,31426,1,0,0:0:0:0:
192,188,31575,1,0,0:0:0:0:
192,188,31724,1,0,0:0:0:0:
264,244,31874,1,0,0:0:0:0:
504,272,32023,6,0,L|448:224,1,59.9999984105428,8|0,0:0|0:0,0:0:0:0:
304,224,32321,1,0,0:0:0:0:
228,216,32471,1,0,0:0:0:0:
84,212,32620,1,0,0:0:0:0:
156,216,32769,1,0,0:0:0:0:
444,240,32918,5,4,0:0:0:0:
444,240,33068,1,0,0:0:0:0:
384,184,33217,1,0,0:0:0:0:
304,164,33366,1,0,0:0:0:0:
144,208,33515,2,0,L|128:144,1,59.9999984105428
372,204,33814,5,4,0:0:0:0:
444,172,33963,1,0,0:0:0:0:
288,184,34112,1,0,0:0:0:0:
216,216,34262,1,0,0:0:0:0:
56,208,34411,2,0,L|144:208,1,59.9999984105428
404,204,34709,6,0,L|488:204,2,59.9999984105428,4|0|0,0:0|0:0|0:0,0:0:0:0:
224,216,35157,2,0,L|148:216,2,59.9999984105428,0|0|0,0:0|0:0|0:0,0:0:0:0:
452,220,35605,6,0,L|524:220,2,59.9999984105428,8|0|0,0:0|0:0|0:0,0:0:0:0:
164,216,36053,2,0,L|80:216,2,59.9999984105428
452,220,36500,5,4,0:1:0:0:
216,232,37097,2,0,L|148:232,1,59.9999984105428
316,232,37396,2,0,L|452:232,2,119.999996821086
76,236,38291,5,8,0:0:0:0:
436,232,38888,1,0,0:0:0:0:
72,224,39187,2,0,L|208:224,2,119.999996821086,2|0|0,0:0|0:0|0:0,0:0:0:0:
436,232,40082,1,8,0:0:0:0:
144,248,40978,6,0,P|128:196|152:128,1,119.999996821086,0|0,0:0|0:0,0:0:0:0:
360,228,41874,2,0,L|492:228,2,119.999996821086,0|0|0,0:0|0:0|0:0,0:0:0:0:
112,232,42769,2,0,L|260:232,2,119.999996821086,0|0|0,0:0|0:0|0:0,0:0:0:0:
476,236,43665,5,4,0:0:0:0:
240,228,44262,1,0,0:0:0:0:
476,236,44560,2,0,L|352:124,1,119.999996821086,0|0,0:0|0:0,0:0:0:0:
144,208,45157,1,0,0:0:0:0:
384,156,45456,1,0,0:0:0:0:
168,192,46053,1,0,0:0:0:0:
416,200,46351,2,0,L|268:200,2,119.999996821086,2|0|0,0:0|0:0|0:0,0:0:0:0:
52,204,47247,5,8,0:0:0:0:
292,216,47545,1,8,0:0:0:0:
148,232,47844,1,8,0:0:0:0:
392,248,48142,2,0,P|428:200|384:140,1,119.999996821086,8|8,0:0|0:0,0:0:0:0:
148,232,48739,2,0,L|84:152,1,59.9999984105428,8|8,0:0|0:0,0:0:0:0:
364,240,49038,6,0,P|436:212|324:152,1,239.999993642171,8|0,0:0|0:0,0:0:0:0:
120,204,49933,1,0,0:0:0:0:
264,200,50232,1,0,0:0:0:0:
408,204,50530,1,0,0:0:0:0:
44,200,50829,6,0,P|120:164|288:216,1,239.999993642171,12|0,0:1|0:0,0:0:0:0:
504,240,51724,2,0,P|484:152|320:100,1,239.999993642171,12|0,0:0|0:0,0:0:0:0:
116,280,52620,2,0,P|44:216|136:132,1,239.999993642171,4|0,0:0|0:0,0:0:0:0:
352,176,53515,2,0,L|144:176,1,179.999995231629,8|0,0:0|0:0,0:0:0:0:
92,176,54112,1,0,0:0:0:0:
476,252,54411,6,0,P|492:188|364:56,1,239.999993642171,4|0,0:0|0:0,0:0:0:0:
160,200,55306,2,0,L|380:200,1,179.999995231629,8|0,0:0|0:0,0:0:0:0:
420,200,55903,1,0,0:0:0:0:
160,200,56202,1,4,0:0:0:0:
52,136,56500,1,0,0:0:0:0:
128,40,56799,1,0,0:0:0:0:
492,248,57097,6,0,P|504:132|428:24,1,239.999993642171,8|0,0:0|0:0,0:0:0:0:
64,232,57993,2,0,P|44:156|184:64,1,239.999993642171,12|0,0:1|0:0,0:0:0:0:
396,188,58888,2,0,L|144:188,1,239.999993642171,8|0,0:0|0:0,0:0:0:0:
404,224,59784,6,0,P|468:192|360:80,1,239.999993642171,4|0,0:0|0:0,0:0:0:0:
172,204,60679,2,0,P|104:160|148:52,1,179.999995231629,8|0,0:0|0:0,0:0:0:0:
180,32,61277,1,0,0:0:0:0:
404,172,61575,2,0,L|112:172,1,239.999993642171,4|0,0:0|0:0,0:0:0:0:
404,192,62471,5,8,0:0:0:0:
168,208,62769,2,0,L|152:144,1,59.9999984105428,0|0,0:0|0:0,0:0:0:0:
304,192,63068,2,0,L|404:192,1,59.9999984105428,0|4,0:0|0:0,0:0:0:0:
144,208,63366,6,0,L|0:208,2,119.999996821086,4|4|4,0:0|0:0|0:0,0:0:0:0:
408,232,64262,2,0,L|264:232,2,119.999996821086,4|4|4,0:0|0:0|0:0,0:0:0:0:
48,224,65157,6,0,P|20:148|124:40,1,239.999993642171,4|0,0:0|0:0,0:0:0:0:
200,52,65903,1,0,0:0:0:0:
432,196,66053,2,0,L|280:196,2,119.999996821086,8|0|0,0:0|0:0|0:0,0:0:0:0:
352,196,66799,1,0,0:0:0:0:
132,200,66948,5,4,0:0:0:0:
60,160,67097,1,0,0:0:0:0:
60,160,67247,1,0,0:0:0:0:
132,200,67396,1,0,0:0:0:0:
296,216,67545,2,0,L|368:216,1,59.9999984105428
140,212,67844,5,8,0:0:0:0:
68,208,67993,1,0,0:0:0:0:
224,216,68142,1,0,0:0:0:0:
296,216,68291,1,0,0:0:0:0:
144,216,68441,1,0,0:0:0:0:
72,212,68590,1,4,0:0:0:0:
320,300,68739,5,4,0:0:0:0:
392,236,68888,1,0,0:0:0:0:
464,172,69038,1,0,0:0:0:0:
392,236,69187,1,0,0:0:0:0:
232,200,69336,2,0,L|152:200,1,59.9999984105428
392,200,69635,6,0,L|416:144,1,59.9999984105428,8|0,0:0|0:0,0:0:0:0:
260,200,69933,1,0,0:0:0:0:
188,200,70082,1,0,0:0:0:0:
260,200,70232,1,0,0:0:0:0:
332,204,70381,1,0,0:0:0:0:
108,200,70530,6,0,L|32:200,1,59.9999984105428,4|0,0:0|0:0,0:0:0:0:
200,192,70829,2,0,L|280:192,1,59.9999984105428
108,196,71127,2,0,L|32:196,1,59.9999984105428
280,208,71426,5,8,0:0:0:0:
344,208,71575,1,0,0:0:0:0:
192,208,71724,1,0,0:0:0:0:
128,208,71874,1,0,0:0:0:0:
344,208,72023,1,0,0:0:0:0:
408,208,72172,1,0,0:0:0:0:
152,304,72321,5,4,0:0:0:0:
80,296,72470,1,0,0:0:0:0:
24,256,72619,1,0,0:0:0:0:
8,184,72768,1,0,0:0:0:0:
44,116,72918,1,0,0:0:0:0:
116,96,73068,1,0,0:0:0:0:
396,196,73217,6,0,L|488:196,1,59.9999984105428,8|0,0:0|0:0,0:0:0:0:
300,200,73515,1,0,0:0:0:0:
228,200,73665,1,0,0:0:0:0:
72,192,73814,1,0,0:0:0:0:
144,188,73963,1,0,0:0:0:0:
384,220,74112,5,4,0:0:0:0:
456,216,74262,1,0,0:0:0:0:
384,216,74411,1,0,0:0:0:0:
312,220,74560,1,0,0:0:0:0:
156,224,74709,2,0,L|64:224,1,59.9999984105428
316,224,75008,5,8,0:0:0:0:
388,160,75157,1,0,0:0:0:0:
232,160,75306,1,0,0:0:0:0:
160,224,75456,1,0,0:0:0:0:
0,216,75605,2,0,L|64:216,1,59.9999984105428
336,232,75903,6,0,P|408:184|368:104,1,179.999995231629,4|0,0:0|0:0,0:0:0:0:
220,192,76500,2,0,L|108:192,1,59.9999984105428
380,200,76799,2,0,L|500:200,1,119.999996821086,8|0,0:0|0:0,0:0:0:0:
340,208,77247,2,0,L|172:212,1,119.999996821086,0|4,0:0|0:0,0:0:0:0:
436,200,77694,6,0,L|468:108,1,59.9999984105428,4|0,0:0|0:0,0:0:0:0:
296,192,77993,2,0,L|208:192,1,59.9999984105428,4|0,0:0|0:0,0:0:0:0:
392,184,78291,2,0,L|408:104,1,59.9999984105428,4|0,0:0|0:0,0:0:0:0:
116,204,78590,6,0,L|24:204,1,59.9999984105428,12|0,0:0|0:0,0:0:0:0:
284,200,78888,1,4,0:0:0:0:
356,144,79038,1,0,0:0:0:0:
200,200,79187,1,0,0:0:0:0:
128,144,79336,1,4,0:0:0:0:
416,216,79485,5,4,0:0:0:0:
484,216,79635,1,0,0:0:0:0:
328,208,79784,1,0,0:0:0:0:
256,156,79933,1,0,0:0:0:0:
256,156,80082,1,0,0:0:0:0:
328,208,80232,1,0,0:0:0:0:
92,224,80381,5,0,0:0:0:0:
32,152,80530,1,0,0:0:0:0:
192,184,80679,1,0,0:0:0:0:
264,128,80829,1,0,0:0:0:0:
108,168,80978,1,0,0:0:0:0:
164,88,81127,1,0,0:0:0:0:
412,204,81277,6,0,L|500:204,1,59.9999984105428,8|0,0:0|0:0,0:0:0:0:
316,200,81575,2,0,L|204:200,1,59.9999984105428
100,192,81874,2,0,L|180:192,1,59.9999984105428
404,200,82172,6,0,L|468:200,1,59.9999984105428,2|0,0:0|0:0,0:0:0:0:
252,196,82471,1,0,0:0:0:0:
180,196,82620,1,0,0:0:0:0:
336,208,82769,1,0,0:0:0:0:
408,160,82918,1,0,0:0:0:0:
164,228,83068,5,4,0:0:0:0:
128,208,83142,1,0,0:0:0:0:
104,160,83217,1,0,0:0:0:0:
100,104,83291,1,0,0:0:0:0:
104,160,83366,1,4,0:0:0:0:
128,208,83441,1,0,0:0:0:0:
168,228,83515,1,0,0:0:0:0:
336,224,83665,2,0,L|408:224,1,59.9999984105428,4|0,0:0|0:0,0:0:0:0:
168,228,83963,6,0,L|92:228,1,59.9999984105428,4|0,0:0|0:0,0:0:0:0:
276,232,84262,2,0,L|360:232,1,59.9999984105428,4|0,0:0|0:0,0:0:0:0:
264,232,84560,2,0,L|344:236,1,59.9999984105428,4|0,0:0|0:0,0:0:0:0:
96,228,84859,6,0,L|68:152,1,59.9999984105428,4|0,0:0|0:0,0:0:0:0:
244,208,85157,1,4,0:0:0:0:
316,156,85306,1,0,0:0:0:0:
160,208,85456,1,4,0:0:0:0:
88,260,85605,1,0,0:0:0:0:
312,264,85754,5,12,0:0:0:0:
348,212,85903,1,0,0:0:0:0:
192,192,86053,1,0,0:0:0:0:
156,140,86202,1,0,0:0:0:0:
312,144,86351,1,0,0:0:0:0:
348,92,86500,1,0,0:0:0:0:
104,128,86650,6,0,L|36:128,1,59.9999984105428,4|4,0:0|0:0,0:0:0:0:
212,124,86948,2,0,L|124:124,1,59.9999984105428,4|4,0:0|0:0,0:0:0:0:
320,124,87247,2,0,L|392:124,1,59.9999984105428,4|4,0:0|0:0,0:0:0:0:
212,124,87545,2,0,L|284:124,1,59.9999984105428,4|4,0:0|0:0,0:0:0:0:
104,120,87844,2,0,L|24:120,1,59.9999984105428,4|4,0:0|0:0,0:0:0:0:
272,116,88142,2,0,L|360:116,1,59.9999984105428,4|4,0:0|0:0,0:0:0:0:
104,120,88441,5,4,0:0:0:0:
