osu file format v14

[General]
AudioFilename: audio.mp3
AudioLeadIn: 0
PreviewTime: 47993
Countdown: 0
SampleSet: Soft
StackLeniency: 0.7
Mode: 2
LetterboxInBreaks: 0
WidescreenStoryboard: 1

[Editor]
Bookmarks: 82
DistanceSpacing: 0.9
BeatDivisor: 6
GridSize: 8
TimelineZoom: 1.4

[Metadata]
Title:History Maker
TitleUnicode:History Maker
Artist:DEAN FUJIOKA
ArtistUnicode:DEAN FUJIOKA
Creator:RoseusJaeger
Version:Grapes' Salad
Source:ユーリ!!! on ICE
Tags:yuri!!! OP opening MAPPA Avex Pictures Taro Umebayashi 梅林太郎 Taku Matsushiba 松司馬拓 Sinnoh Paranoid Grapes Ascendance
BeatmapID:1239381
BeatmapSetID:522277

[Difficulty]
HPDrainRate:4
CircleSize:3
OverallDifficulty:6.5
ApproachRate:6.5
SliderMultiplier:2.6
SliderTickRate:1

[Events]
//Background and Video events
0,0,"This anime is pretty gay.jpg",0,0
Video,0,"yuri on ice op.avi"
//Break Periods
//Storyboard Layer 0 (Background)
//Storyboard Layer 1 (Fail)
//Storyboard Layer 2 (Pass)
//Storyboard Layer 3 (Foreground)
//Storyboard Sound Samples

[TimingPoints]
680,895.522388059701,4,2,3,40,1,0
5157,-100,4,2,1,20,0,0
22172,-100,4,2,1,30,0,0
28739,-100,4,2,2,20,0,0
29336,-100,4,2,2,30,0,0
36500,-100,4,2,1,30,0,0
37097,-100,4,2,2,30,0,0
47247,-100,4,2,2,5,0,0
50829,-100,4,2,1,75,0,1
65157,-100,4,2,1,55,0,0
79485,-100,4,2,3,40,0,0
83068,-100,4,2,1,70,0,1
86650,-100,4,2,1,5,0,0

[Colours]
Combo1 : 255,255,255
Combo2 : 164,255,255
Combo3 : 70,163,255
Combo4 : 255,183,111
Combo5 : 255,255,187

[HitObjects]
256,192,680,12,0,4262,0:0:0:0:
321,260,5157,6,0,L|109:261,1,173.333333333333,4|0,0:0|0:0,0:0:0:0:
40,264,6053,2,0,L|224:264,1,173.333333333333,4|0,0:0|0:0,0:0:0:0:
328,264,6948,2,0,L|224:264,2,86.6666666666667,4|0|0,0:0|0:0|0:0,0:0:0:0:
448,184,7844,6,0,L|256:240,1,173.333333333333,4|0,0:0|0:0,0:0:0:0:
128,216,8739,2,0,P|56:128|80:72,1,173.333333333333,4|0,0:0|0:0,0:0:0:0:
232,72,9635,2,0,L|344:72,2,86.6666666666667,4|0|0,0:0|0:0|0:0,0:0:0:0:
392,72,10530,2,0,B|464:72|464:72|328:128,1,173.333333333333,4|0,0:0|0:0,0:0:0:0:
123,128,11426,6,0,B|72:200|72:200|224:232,1,173.333333333333,4|0,0:0|0:0,0:0:0:0:
367,264,12321,2,0,P|424:240|434:129,1,173.333333333333,4|0,0:0|0:0,0:0:0:0:
336,176,13217,1,4,0:0:0:0:
192,176,13515,2,0,L|105:176,1,86.6666666666667,0|0,0:0|0:0,0:0:0:0:
200,136,14112,1,10,0:1:0:0:
408,176,14709,1,0,0:0:0:0:
288,184,15008,6,0,L|392:232,2,86.6666666666667,4|0|0,0:0|0:0|0:0,0:0:0:0:
43,177,15903,2,0,P|80:272|176:272,1,173.333333333333,4|0,0:0|0:0,0:0:0:0:
248,280,16799,1,4,0:0:0:0:
400,288,17097,2,0,L|280:288,1,86.6666666666667,0|0,0:0|0:0,0:0:0:0:
62,296,17694,2,0,B|24:224|96:152|192:232,1,173.333333333333,4|0,0:0|0:0,0:0:0:0:
400,288,18590,6,0,P|432:240|328:184,1,173.333333333333,4|0,0:0|0:0,0:0:0:0:
208,200,19485,2,0,L|392:152,1,173.333333333333,4|0,0:0|0:0,0:0:0:0:
487,191,20381,2,8,L|366:183,1,86.6666666666667,12|8,0:0|0:0,0:0:0:0:
256,192,20978,1,8,0:0:0:0:
193,194,21127,1,0,0:0:0:0:
256,192,21277,1,0,0:0:0:0:
400,248,22172,6,0,P|464:160|368:136,1,173.333333333333,4|0,0:0|0:0,0:0:0:0:
288,128,23068,2,0,L|374:128,2,86.6666666666667,4|0|0,0:0|0:0|0:0,0:0:0:0:
40,136,23963,2,0,P|56:208|124:250,1,130,4|0,0:0|0:0,0:0:0:0:
403,229,24859,2,0,L|430:97,1,130,8|0,0:0|0:0,0:0:0:0:
208,216,25754,6,0,L|32:216,1,173.333333333333,4|0,0:0|0:0,0:0:0:0:
176,216,26650,2,0,L|264:216,1,86.6666666666667,4|0,0:0|0:0,0:0:0:0:
402,203,27247,1,0,0:0:0:0:
155,266,27545,2,0,P|105:210|137:137,1,130,4|0,0:0|0:0,0:0:0:0:
402,203,28441,1,8,0:0:0:0:
320,208,29336,6,0,L|149:292,1,173.333333333333,4|0,0:0|0:0,0:0:0:0:
48,216,30232,2,0,L|134:216,2,86.6666666666667,4|0|0,0:0|0:0|0:0,0:0:0:0:
302,172,31127,2,0,P|337:264|254:283,1,173.333333333333,4|0,0:0|0:0,0:0:0:0:
32,328,32023,1,8,0:0:0:0:
160,328,32321,6,0,P|208:304|224:264,1,86.6666666666667,0|0,0:0|0:0,0:0:0:0:
480,320,32918,2,0,P|448:224|376:240,1,173.333333333333,4|0,0:0|0:0,0:0:0:0:
264,224,33814,2,0,L|351:224,2,86.6666666666667,4|0|0,0:0|0:0|0:0,0:0:0:0:
24,192,34709,2,0,P|24:112|72:80,1,130,4|0,0:0|0:0,0:0:0:0:
208,96,35605,1,8,0:0:0:0:
391,150,36053,1,0,0:0:0:0:
64,144,36500,1,4,0:1:0:0:
240,104,37097,5,0,0:0:0:0:
376,104,37396,2,0,L|290:104,2,86.6666666666667,0|0|0,0:0|0:0|0:0,0:0:0:0:
216,104,38291,1,8,0:0:0:0:
88,104,38888,5,0,0:0:0:0:
224,104,39187,2,0,L|137:104,2,86.6666666666667,2|0|0,0:0|0:0|0:0,0:0:0:0:
475,125,40082,2,0,P|480:176|360:232,1,173.333333333333,8|0,0:0|0:0,0:0:0:0:
224,240,40978,2,0,L|112:240,1,86.6666666666667,0|0,0:0|0:0,0:0:0:0:
304,240,41874,6,0,L|432:240,1,86.6666666666667,0|0,0:0|0:0,0:0:0:0:
304,240,42471,1,0,0:0:0:0:
55,243,42769,2,0,P|29:208|18:134,2,86.6666666666667
296,238,43665,1,4,0:0:0:0:
133,240,44262,5,0,0:0:0:0:
280,248,44560,2,0,P|328:240|376:248,2,86.6666666666667
24,243,45456,1,0,0:0:0:0:
296,240,46053,5,0,0:0:0:0:
448,240,46351,2,0,P|496:192|488:160,2,86.6666666666667,2|0|0,0:0|0:0|0:0,0:0:0:0:
176,248,47247,1,8,0:0:0:0:
64,248,47545,1,8,0:0:0:0:
160,248,47844,1,8,0:0:0:0:
320,240,48142,6,0,L|464:248,1,86.6666666666667,8|8,0:0|0:0,0:0:0:0:
304,248,48739,1,8,0:0:0:0:
43,259,49038,2,0,P|42:217|76:195,1,86.6666666666667,8|0,0:0|0:0,0:0:0:0:
200,248,49635,1,0,0:0:0:0:
455,185,49933,2,0,L|485:93,2,86.6666666666667
168,166,50829,6,0,P|141:293|205:304,1,173.333333333333,12|0,0:1|0:0,0:0:0:0:
302,301,51724,2,0,P|398:309|478:213,1,173.333333333333,12|0,0:0|0:0,0:0:0:0:
304,219,52620,2,0,L|72:179,1,173.333333333333,4|0,0:0|0:0,0:0:0:0:
28,184,53515,2,0,P|3:123|64:64,1,130,8|0,0:0|0:0,0:0:0:0:
338,184,54411,6,0,P|432:220|408:309,1,173.333333333333,4|0,0:0|0:0,0:0:0:0:
312,256,55306,2,0,P|216:248|160:256,1,130,8|0,0:0|0:0,0:0:0:0:
320,256,56202,2,0,L|456:264,1,86.6666666666667,4|0,0:0|0:0,0:0:0:0:
496,256,56799,1,0,0:0:0:0:
256,288,57097,2,0,L|169:281,2,86.6666666666667,8|0|0,0:0|0:0|0:0,0:0:0:0:
465,230,57993,6,0,P|477:206|391:103,1,173.333333333333,12|0,0:1|0:0,0:0:0:0:
273,120,58888,2,0,P|137:152|97:208,1,173.333333333333,8|0,0:0|0:0,0:0:0:0:
264,183,59784,2,0,P|344:223|392:295,1,173.333333333333,4|0,0:0|0:0,0:0:0:0:
280,292,60679,2,0,P|218:288|128:240,1,130,8|0,0:0|0:0,0:0:0:0:
464,288,61575,6,0,P|480:224|400:160,1,173.333333333333,4|0,0:0|0:0,0:0:0:0:
281,156,62471,2,0,L|105:220,1,173.333333333333,8|0,0:0|0:0,0:0:0:0:
232,232,63366,2,0,L|336:240,1,86.6666666666667,4|4,0:0|0:0,0:0:0:0:
431,256,63963,1,4,0:0:0:0:
172,251,64262,2,0,L|149:162,2,86.6666666666667,4|4|4,0:0|0:0|0:0,0:0:0:0:
456,240,65157,6,0,P|488:200|392:144,1,173.333333333333,4|0,0:0|0:0,0:0:0:0:
296,128,66053,2,0,L|176:168,2,86.6666666666667,8|0|0,0:0|0:0|0:0,0:0:0:0:
144,120,66948,2,0,P|56:168|64:272,1,173.333333333333,4|0,0:0|0:0,0:0:0:0:
216,232,67844,6,0,P|360:256|424:280,1,173.333333333333,8|0,0:0|0:0,0:0:0:0:
143,302,68739,2,0,P|92:227|181:170,1,173.333333333333,4|0,0:0|0:0,0:0:0:0:
256,168,69635,2,0,L|128:160,1,86.6666666666667,8|0,0:0|0:0,0:0:0:0:
376,176,70530,2,0,L|462:183,2,86.6666666666667,4|0|0,0:0|0:0|0:0,0:0:0:0:
142,176,71426,2,0,L|55:176,1,86.6666666666667,8|0,0:0|0:0,0:0:0:0:
67,196,72023,1,0,0:0:0:0:
355,180,72321,6,0,P|444:224|471:338,1,173.333333333333,4|0,0:0|0:0,0:0:0:0:
328,280,73217,2,0,L|416:288,2,86.6666666666667,8|0|0,0:0|0:0|0:0,0:0:0:0:
64,272,74112,2,0,P|24:168|56:128,1,173.333333333333,4|0,0:0|0:0,0:0:0:0:
184,128,75008,6,0,P|320:168|360:240,1,173.333333333333,8|0,0:0|0:0,0:0:0:0:
82,200,75903,2,0,P|139:273|244:279,1,173.333333333333,4|0,0:0|0:0,0:0:0:0:
340,293,76799,2,0,P|401:236|388:163,1,130,8|0,0:0|0:0,0:0:0:0:
90,271,77694,6,0,L|26:207,2,86.6666666666667,4|4|4,0:0|0:0|0:0,0:0:0:0:
337,290,78590,2,0,L|425:298,1,86.6666666666667,12|4,0:0|0:0,0:0:0:0:
415,234,79187,1,4,0:0:0:0:
120,290,79485,6,0,P|48:204|67:138,1,173.333333333333,4|0,0:0|0:0,0:0:0:0:
200,200,80381,1,0,0:0:0:0:
312,200,80679,2,0,L|400:152,1,86.6666666666667,0|0,0:0|0:0,0:0:0:0:
232,120,81277,2,0,L|120:120,1,86.6666666666667,8|0,0:0|0:0,0:0:0:0:
47,184,81874,1,0,0:0:0:0:
201,203,82172,2,0,L|337:251,2,86.6666666666667,2|0|0,0:0|0:0|0:0,0:0:0:0:
463,200,83068,6,0,L|471:293,1,86.6666666666667,4|4,0:0|0:0,0:0:0:0:
360,256,83665,1,4,0:0:0:0:
104,248,83963,2,0,L|8:200,1,86.6666666666667,4|4,0:0|0:0,0:0:0:0:
144,184,84560,1,4,0:0:0:0:
272,184,84859,2,0,L|376:184,1,86.6666666666667,4|4,0:0|0:0,0:0:0:0:
448,128,85456,1,4,0:0:0:0:
176,120,85754,6,0,L|48:120,1,86.6666666666667,12|4,0:0|0:0,0:0:0:0:
216,120,86351,1,4,0:0:0:0:
256,192,86650,12,4,88441,0:0:0:0:
