osu file format v14

[General]
AudioFilename: audio.mp3
AudioLeadIn: 0
PreviewTime: 47993
Countdown: 0
SampleSet: Soft
StackLeniency: 0.7
Mode: 2
LetterboxInBreaks: 0
WidescreenStoryboard: 0

[Editor]
Bookmarks: 50829
DistanceSpacing: 0.9
BeatDivisor: 12
GridSize: 8
TimelineZoom: 2.699999

[Metadata]
Title:History Maker
TitleUnicode:History Maker
Artist:DEAN FUJIOKA
ArtistUnicode:DEAN FUJIOKA
Creator:RoseusJaeger
Version:Ascennoh's Moment
Source:ユーリ!!! on ICE
Tags:yuri!!! OP opening MAPPA Avex Pictures Taro Umebayashi 梅林太郎 Taku Matsushiba 松司馬拓 Sinnoh Paranoid Grapes Ascendance
BeatmapID:1246804
BeatmapSetID:522277

[Difficulty]
HPDrainRate:6
CircleSize:4.5
OverallDifficulty:8.6
ApproachRate:8.6
SliderMultiplier:3.2
SliderTickRate:3

[Events]
//Background and Video events
0,0,"This anime is pretty gay.jpg",0,0
Video,0,"yuri on ice op.avi"
//Break Periods
//Storyboard Layer 0 (Background)
//Storyboard Layer 1 (Fail)
//Storyboard Layer 2 (Pass)
//Storyboard Layer 3 (Foreground)
//Storyboard Sound Samples

[TimingPoints]
680,895.522388059701,4,2,3,40,1,0
680,-76.9230769230769,4,2,3,40,0,0
4262,-76.9230769230769,4,2,3,40,0,0
5157,-76.9230769230769,4,2,1,20,0,0
22172,-76.9230769230769,4,2,1,30,0,0
28739,-76.9230769230769,4,2,1,20,0,0
29336,-76.9230769230769,4,2,1,30,0,0
36500,-76.9230769230769,4,2,1,30,0,0
37097,-76.9230769230769,4,2,2,30,0,0
47247,-76.9230769230769,4,2,2,30,0,0
50829,-76.9230769230769,4,2,1,75,0,1
54299,-76.9230769230769,4,2,1,55,0,1
54411,-76.9230769230769,4,2,1,75,0,1
55903,-76.9230769230769,4,2,1,55,0,1
56202,-76.9230769230769,4,2,1,75,0,1
65157,-76.9230769230769,4,2,1,70,0,0
79485,-76.9230769230769,4,2,3,70,0,0
83068,-76.9230769230769,4,2,1,70,0,1
86650,-76.9230769230769,4,2,1,40,0,0

[Colours]
Combo1 : 255,255,255
Combo2 : 164,255,255
Combo3 : 70,163,255
Combo4 : 255,183,111
Combo5 : 255,255,187

[HitObjects]
316,326,680,5,0,0:0:0:0:
397,279,829,1,0,0:0:0:0:
381,211,978,1,0,0:0:0:0:
287,204,1127,1,0,0:0:0:0:
187,171,1277,2,0,L|125:104,1,69.3333301595054
396,300,1575,5,0,0:0:0:0:
474,276,1724,1,0,0:0:0:0:
490,227,1873,1,0,0:0:0:0:
440,195,2022,1,0,0:0:0:0:
347,177,2172,2,0,L|419:156,1,69.3333301595054
184,287,2471,5,0,0:0:0:0:
96,270,2620,1,0,0:0:0:0:
37,214,2769,1,0,0:0:0:0:
40,134,2918,1,0,0:0:0:0:
151,105,3068,2,0,L|37:102,1,69.3333301595054
335,140,3366,6,0,L|381:72,1,69.3333301595054
140,79,3665,2,0,L|105:15,1,69.3333301595054
374,34,3963,2,0,L|422:112,1,69.3333301595054
109,346,4262,5,0,0:0:0:0:
69,311,4337,1,0,0:0:0:0:
41,267,4411,1,0,0:0:0:0:
27,217,4486,1,0,0:0:0:0:
26,166,4561,1,0,0:0:0:0:
41,116,4635,1,0,0:0:0:0:
68,73,4710,1,0,0:0:0:0:
108,39,4785,1,0,0:0:0:0:
155,17,4859,1,0,0:0:0:0:
399,190,5157,6,0,P|483:159|503:95,2,138.666660319011,4|0|0,0:0|0:0|0:0,0:0:0:0:
182,182,6053,2,0,P|134:113|138:44,1,138.666660319011,4|0,0:0|0:0,0:0:0:0:
308,46,6650,2,0,B|343:64|343:64|351:109,1,69.3333301595054
36,213,6948,6,0,L|168:132,2,138.666660319011,4|0|0,0:0|0:0|0:0,0:0:0:0:
281,233,7844,1,4,0:0:0:0:
112,210,8142,2,0,P|84:149|144:102,1,138.666660319011
216,74,8590,1,0,0:0:0:0:
466,268,8739,6,0,P|487:197|421:148,1,138.666660319011,4|0,0:0|0:0,0:0:0:0:
325,150,9336,1,0,0:0:0:0:
67,151,9635,1,4,0:0:0:0:
237,200,9933,2,0,P|300:259|307:333,1,138.666660319011
243,323,10381,1,0,0:0:0:0:
20,329,10530,6,0,B|12:252|12:252|108:268,1,138.666660319011,4|0,0:0|0:0,0:0:0:0:
211,195,11127,1,0,0:0:0:0:
436,208,11426,2,0,P|441:138|354:110,1,138.666660319011,4|0,0:0|0:0,0:0:0:0:
204,117,12023,2,0,B|174:97|174:97|195:46,1,69.3333301595054
342,75,12321,6,0,P|405:100|462:169,2,138.666660319011,4|0|0,0:0|0:0|0:0,0:0:0:0:
93,81,13217,1,4,0:0:0:0:
243,87,13515,2,0,L|274:167,1,69.3333301595054
172,188,13814,1,0,0:0:0:0:
450,298,14112,6,0,P|503:254|496:187,1,138.666660319011,10|0,0:1|0:0,0:0:0:0:
358,181,14709,1,0,0:0:0:0:
167,197,15008,2,0,P|126:122|178:67,1,138.666660319011,4|0,0:0|0:0,0:0:0:0:
322,79,15605,2,0,L|353:-4,1,69.3333301595054
82,169,15903,6,0,P|30:213|66:269,1,138.666660319011,4|0,0:0|0:0,0:0:0:0:
200,277,16500,1,0,0:0:0:0:
421,277,16799,1,4,0:0:0:0:
271,279,17097,2,0,L|403:190,1,138.666660319011
103,240,17694,6,0,P|53:178|172:48,1,277.333320638021,4|0,0:0|0:0,0:0:0:0:
346,320,18590,2,0,P|382:254|238:161,1,277.333320638021,4|0,0:0|0:0,0:0:0:0:
96,302,19485,2,0,P|45:227|185:113,1,277.333320638021,4|0,0:0|0:0,0:0:0:0:
446,270,20381,6,0,P|487:199|475:104,1,138.666660319011,4|0,0:0|0:0,0:0:0:0:
318,123,20978,2,0,L|397:69,1,69.3333301595054
58,217,21277,1,10,0:1:0:0:
191,203,21575,2,0,L|64:120,1,138.666660319011
436,238,22172,6,0,P|491:208|486:106,1,138.666660319011,4|0,0:0|0:0,0:0:0:0:
367,123,22769,1,0,0:0:0:0:
110,172,23068,2,0,B|33:138|33:138|5:80,2,138.666660319011,4|0|0,0:0|0:0|0:0,0:0:0:0:
279,277,23963,6,0,B|343:243|343:243|305:183,1,138.666660319011,4|0,0:0|0:0,0:0:0:0:
193,177,24411,2,0,B|129:148|129:148|166:83,1,138.666660319011
464,253,24859,2,0,P|504:193|436:155,1,138.666660319011,8|0,0:0|0:0,0:0:0:0:
326,134,25456,1,0,0:0:0:0:
24,133,25754,6,0,L|161:164,2,138.666660319011,4|0|0,0:0|0:0|0:0,0:0:0:0:
265,266,26650,2,0,B|355:263|355:263|371:199,1,138.666660319011,4|0,0:0|0:0,0:0:0:0:
250,137,27247,1,0,0:0:0:0:
49,186,27545,6,0,P|64:111|134:80,1,138.666660319011,4|0,0:0|0:0,0:0:0:0:
203,85,27993,2,0,L|109:204,1,138.666660319011
392,256,28441,2,0,P|443:195|443:170,1,69.3333301595054,8|0,0:0|0:0,0:0:0:0:
327,181,28740,6,0,L|336:128,6,34.6666650797527
110,282,29336,5,4,0:0:0:0:
31,252,29485,1,0,0:0:0:0:
9,188,29634,1,0,0:0:0:0:
62,125,29783,1,0,0:0:0:0:
163,131,29933,2,0,L|71:101,1,69.3333301595054
355,243,30232,5,4,0:0:0:0:
381,176,30381,1,0,0:0:0:0:
345,118,30530,1,0,0:0:0:0:
257,97,30679,1,0,0:0:0:0:
155,89,30829,2,0,L|77:30,1,69.3333301595054
361,308,31127,5,4,0:0:0:0:
450,291,31276,1,0,0:0:0:0:
500,229,31425,1,0,0:0:0:0:
469,146,31574,1,0,0:0:0:0:
372,107,31724,2,0,L|466:106,1,69.3333301595054
157,297,32023,5,8,0:0:0:0:
98,266,32172,1,0,0:0:0:0:
216,227,32321,1,0,0:0:0:0:
271,190,32470,1,0,0:0:0:0:
159,164,32620,2,0,L|100:107,1,69.3333301595054
400,217,32918,5,4,0:0:0:0:
466,160,33067,1,0,0:0:0:0:
438,85,33216,1,0,0:0:0:0:
354,68,33365,1,0,0:0:0:0:
254,78,33515,2,0,L|326:134,1,69.3333301595054
95,226,33814,5,4,0:0:0:0:
66,165,33963,1,0,0:0:0:0:
199,161,34112,1,0,0:0:0:0:
243,97,34262,1,0,0:0:0:0:
110,89,34411,2,0,L|68:-1,1,69.3333301595054
386,319,34709,5,4,0:0:0:0:
458,284,34858,1,0,0:0:0:0:
483,220,35007,1,0,0:0:0:0:
259,226,35157,1,0,0:0:0:0:
181,190,35306,1,0,0:0:0:0:
156,126,35455,1,0,0:0:0:0:
483,220,35605,5,8,0:0:0:0:
458,284,35754,1,0,0:0:0:0:
386,319,35903,1,0,0:0:0:0:
29,220,36053,1,0,0:0:0:0:
54,284,36202,1,0,0:0:0:0:
126,319,36351,1,0,0:0:0:0:
482,320,36500,5,4,0:1:0:0:
220,243,37097,1,0,0:0:0:0:
421,197,37396,2,0,L|258:134,2,138.666660319011
200,208,38291,5,8,0:0:0:0:
421,263,38888,1,0,0:0:0:0:
160,288,39187,2,0,P|92:240|72:172,1,138.666660319011,2|0,0:0|0:0,0:0:0:0:
200,160,39784,1,0,0:0:0:0:
455,162,40082,5,8,0:0:0:0:
158,121,40978,2,0,L|319:65,1,138.666660319011
35,271,41874,2,0,L|128:146,2,138.666660319011
303,245,42769,2,0,L|119:244,2,138.666660319011
44,248,43665,6,0,P|16:168|152:60,1,277.333320638021,4|0,0:0|0:0,0:0:0:0:
332,68,44560,2,0,P|396:100|444:188,1,138.666660319011
236,260,45157,1,0,0:0:0:0:
484,280,45456,6,0,P|504:208|376:76,1,277.333320638021
172,84,46351,2,0,L|336:188,1,138.666660319011,2|0,0:0|0:0,0:0:0:0:
108,172,46948,1,0,0:0:0:0:
488,116,47247,6,8,L|457:251,1,138.666660319011
268,264,47844,2,8,L|276:100,1,138.666660319011
100,124,48441,2,8,L|52:288,1,138.666660319011
160,280,48888,1,8,0:0:0:0:
389,268,49038,6,0,L|253:168,2,138.666660319011,8|0|0,0:0|0:0|0:0,0:0:0:0:
93,320,49933,2,0,P|1:236|5:196,2,138.666660319011
448,328,50829,6,0,P|504:264|384:120,1,277.333320638021,12|0,0:1|0:0,0:0:0:0:
344,128,51575,1,0,0:0:0:0:
80,168,51724,2,0,L|88:240,1,69.3333301595054,12|0,0:0|0:0,0:0:0:0:
184,248,52023,2,0,L|192:328,1,69.3333301595054
72,312,52321,2,0,L|80:392,1,69.3333301595054
336,96,52620,6,0,P|256:136|72:96,1,277.333320638021,4|0,0:0|0:0,0:0:0:0:
8,80,53366,1,0,0:0:0:0:
296,304,53515,6,0,P|352:232|312:144,1,138.666660319011,8|0,0:0|0:0,0:0:0:0:
128,224,53963,2,0,P|72:152|112:64,1,138.666660319011,4|0,0:0|0:0,0:0:0:0:
104,88,54299,1,0,0:0:0:0:
400,40,54411,6,0,P|464:96|376:256,1,277.333320638021,4|0,0:0|0:0,0:0:0:0:
320,264,55157,1,0,0:0:0:0:
96,352,55306,2,0,L|80:272,1,69.3333301595054,8|0,0:0|0:0,0:0:0:0:
184,232,55605,1,0,0:0:0:0:
80,192,55754,1,0,0:0:0:0:
240,144,55903,2,0,L|248:96,3,34.6666650797527
64,40,56202,6,0,L|72:160,1,69.3333301595054,4|0,0:0|0:0,0:0:0:0:
176,144,56500,2,0,L|184:232,1,69.3333301595054
288,240,56799,2,0,L|296:312,1,69.3333301595054
72,328,57097,2,0,L|440:336,1,346.666650797527,8|0,0:0|0:0,0:0:0:0:
176,56,57993,6,0,P|112:128|216:272,1,277.333320638021,12|0,0:1|0:0,0:0:0:0:
288,272,58739,1,0,0:0:0:0:
56,352,58888,2,0,L|168:352,1,69.3333301595054,8|0,0:0|0:0,0:0:0:0:
248,280,59187,2,0,L|160:280,1,69.3333301595054
48,208,59485,2,0,L|120:208,1,69.3333301595054
408,216,59784,6,0,P|480:144|352:32,1,277.333320638021,4|0,0:0|0:0,0:0:0:0:
312,24,60530,1,0,0:0:0:0:
80,96,60679,2,0,L|112:272,1,138.666660319011,8|0,0:0|0:0,0:0:0:0:
368,224,61127,2,0,L|352:368,1,138.666660319011,4|0,0:0|0:0,0:0:0:0:
88,304,61575,6,0,P|16:208|144:112,1,277.333320638021,4|0,0:0|0:0,0:0:0:0:
200,112,62321,1,0,0:0:0:0:
440,160,62471,2,0,L|432:240,1,69.3333301595054,8|0,0:0|0:0,0:0:0:0:
168,272,62769,2,0,L|80:280,1,69.3333301595054
336,184,63068,2,0,L|440:192,1,69.3333301595054
56,96,63366,6,4,L|224:96,2,138.666660319011
456,96,64262,2,4,L|288:96,2,138.666660319011
384,96,65008,1,0,0:0:0:0:
128,344,65157,5,4,0:0:0:0:
71,304,65306,1,0,0:0:0:0:
45,242,65455,1,0,0:0:0:0:
56,174,65604,1,0,0:0:0:0:
101,123,65754,1,0,0:0:0:0:
167,104,65903,1,0,0:0:0:0:
384,120,66053,2,0,L|456:128,2,69.3333301595054,8|0|0,0:0|0:0|0:0,0:0:0:0:
160,224,66500,2,0,L|80:232,2,69.3333301595054
400,352,66948,5,4,0:0:0:0:
336,326,67097,1,0,0:0:0:0:
299,269,67246,1,0,0:0:0:0:
303,200,67395,1,0,0:0:0:0:
345,147,67545,1,0,0:0:0:0:
410,127,67694,1,0,0:0:0:0:
160,96,67844,2,0,L|72:96,2,69.3333301595054,8|0|0,0:0|0:0|0:0,0:0:0:0:
408,224,68291,2,0,L|280:224,1,69.3333301595054
80,224,68590,1,4,0:0:0:0:
296,336,68739,6,0,L|384:336,2,69.3333301595054,4|0|0,0:0|0:0|0:0,0:0:0:0:
192,272,69187,2,0,L|120:272,2,69.3333301595054
416,240,69635,1,8,0:0:0:0:
478,212,69784,1,0,0:0:0:0:
510,152,69933,1,0,0:0:0:0:
497,86,70082,1,0,0:0:0:0:
446,41,70232,1,0,0:0:0:0:
378,39,70381,1,0,0:0:0:0:
96,112,70530,6,0,L|112:192,1,69.3333301595054,4|0,0:0|0:0,0:0:0:0:
328,200,70829,2,0,L|344:280,1,69.3333301595054
248,336,71127,2,0,L|168:352,1,69.3333301595054
440,216,71426,6,0,L|464:128,1,69.3333301595054,8|0,0:0|0:0,0:0:0:0:
136,152,71724,2,0,L|112:64,1,69.3333301595054
224,24,72023,2,0,L|296:24,1,69.3333301595054
48,344,72321,5,4,0:0:0:0:
105,306,72470,1,0,0:0:0:0:
136,245,72619,1,0,0:0:0:0:
132,177,72768,1,0,0:0:0:0:
94,120,72918,1,0,0:0:0:0:
32,90,73067,1,0,0:0:0:0:
336,88,73217,2,0,L|408:88,2,69.3333301595054,8|0|0,0:0|0:0|0:0,0:0:0:0:
104,184,73665,1,0,0:0:0:0:
173,184,73814,1,0,0:0:0:0:
242,184,73963,1,0,0:0:0:0:
32,320,74112,6,0,L|112:320,1,69.3333301595054,4|0,0:0|0:0,0:0:0:0:
216,256,74411,2,0,L|144:256,1,69.3333301595054
272,200,74709,2,0,L|344:200,1,69.3333301595054
136,128,75008,2,0,L|56:128,2,69.3333301595054,8|0|0,0:0|0:0|0:0,0:0:0:0:
376,88,75456,2,0,L|464:88,1,69.3333301595054
192,88,75754,1,0,0:0:0:0:
416,352,75903,5,4,0:0:0:0:
472,313,76052,1,0,0:0:0:0:
502,251,76201,1,0,0:0:0:0:
496,183,76350,1,0,0:0:0:0:
272,88,76500,6,0,L|352:80,1,69.3333301595054
136,288,76799,2,0,P|112:200|152:144,1,138.666660319011,8|0,0:0|0:0,0:0:0:0:
392,320,77247,2,0,L|240:312,1,138.666660319011,0|4,0:0|0:0,0:0:0:0:
216,312,77582,1,4,0:0:0:0:
432,200,77694,5,4,0:0:0:0:
272,200,77993,1,4,0:0:0:0:
112,200,78291,1,4,0:0:0:0:
472,136,78590,2,0,L|320:136,2,138.666660319011,12|4|4,0:0|0:0|0:0,0:0:0:0:
400,136,79336,1,0,0:0:0:0:
80,336,79485,6,0,L|72:256,1,69.3333301595054,4|0,0:0|0:0,0:0:0:0:
152,219,79784,2,0,L|143:135,1,69.3333301595054
242,114,80082,2,0,L|234:34,1,69.3333301595054
466,341,80381,6,0,L|474:261,1,69.3333301595054,4|0,0:0|0:0,0:0:0:0:
394,224,80680,2,0,L|403:140,1,69.3333301595054
304,119,80978,2,0,L|312:39,1,69.3333301595054
104,344,81277,5,8,0:0:0:0:
55,295,81426,1,0,0:0:0:0:
37,229,81575,1,0,0:0:0:0:
55,162,81724,1,0,0:0:0:0:
103,114,81874,1,0,0:0:0:0:
169,95,82023,1,0,0:0:0:0:
408,344,82172,5,2,0:0:0:0:
456,295,82321,1,0,0:0:0:0:
474,229,82470,1,0,0:0:0:0:
456,162,82619,1,0,0:0:0:0:
408,114,82769,1,0,0:0:0:0:
342,95,82918,1,0,0:0:0:0:
72,80,83068,6,0,L|80:168,1,69.3333301595054,4|0,0:0|0:0,0:0:0:0:
304,192,83366,2,0,L|312:264,1,69.3333301595054,4|0,0:0|0:0,0:0:0:0:
224,320,83665,2,0,L|144:328,1,69.3333301595054,4|0,0:0|0:0,0:0:0:0:
456,200,83963,6,0,L|480:112,1,69.3333301595054,4|0,0:0|0:0,0:0:0:0:
200,128,84262,2,0,L|192:48,1,69.3333301595054,4|0,0:0|0:0,0:0:0:0:
304,152,84560,2,0,L|376:144,1,69.3333301595054,4|0,0:0|0:0,0:0:0:0:
120,296,84859,6,0,L|48:296,1,69.3333301595054,4|0,0:0|0:0,0:0:0:0:
312,248,85158,2,0,L|416:248,1,69.3333301595054,4|0,0:0|0:0,0:0:0:0:
88,184,85456,2,0,L|72:88,1,69.3333301595054,4|0,0:0|0:0,0:0:0:0:
480,56,85754,6,0,L|456:144,1,69.3333301595054,12|0,0:0|0:0,0:0:0:0:
48,80,86053,2,0,L|64:168,1,69.3333301595054,4|0,0:0|0:0,0:0:0:0:
448,224,86351,2,0,L|440:304,1,69.3333301595054,4|0,0:0|0:0,0:0:0:0:
88,352,86650,6,4,L|80:280,1,69.3333301595054
200,240,86948,2,4,L|224:152,1,69.3333301595054
96,120,87247,2,4,L|80:40,1,69.3333301595054
368,152,87545,6,4,L|456:152,1,69.3333301595054
205,226,87844,2,4,L|117:226,1,69.3333301595054
464,352,88142,2,4,L|488:256,1,69.3333301595054
64,144,88441,1,4,0:0:0:0:
