osu file format v14

[General]
AudioFilename: audio.mp3
AudioLeadIn: 0
PreviewTime: 47993
Countdown: 0
SampleSet: Soft
StackLeniency: 0.7
Mode: 2
LetterboxInBreaks: 0
WidescreenStoryboard: 0

[Editor]
DistanceSpacing: 0.9
BeatDivisor: 6
GridSize: 8
TimelineZoom: 1.4

[Metadata]
Title:History Maker
TitleUnicode:History Maker
Artist:DEAN FUJIOKA
ArtistUnicode:DEAN FUJIOKA
Creator:RoseusJaeger
Version:Platter
Source:ユーリ!!! on ICE
Tags:yuri!!! OP opening MAPPA Avex Pictures Taro Umebayashi 梅林太郎 Taku Matsushiba 松司馬拓 Sinnoh Paranoid Grapes Ascendance
BeatmapID:1235443
BeatmapSetID:522277

[Difficulty]
HPDrainRate:5
CircleSize:3.5
OverallDifficulty:7.5
ApproachRate:7.5
SliderMultiplier:2.9
SliderTickRate:2

[Events]
//Background and Video events
Video,0,"yuri on ice op.avi"
0,0,"This anime is pretty gay.jpg",0,0
//Break Periods
//Storyboard Layer 0 (Background)
//Storyboard Layer 1 (Fail)
//Storyboard Layer 2 (Pass)
//Storyboard Layer 3 (Foreground)
//Storyboard Sound Samples

[TimingPoints]
680,895.522388059701,4,2,3,40,1,0
5157,-100,4,2,1,20,0,0
22172,-100,4,2,1,30,0,0
28739,-100,4,2,2,20,0,0
29336,-100,4,2,2,30,0,0
36500,-100,4,2,1,30,0,0
37097,-100,4,2,2,30,0,0
47247,-100,4,2,2,5,0,0
50829,-100,4,2,1,75,0,1
65157,-100,4,2,1,55,0,0
79485,-100,4,2,3,40,0,0
83068,-100,4,2,1,70,0,1
86650,-100,4,2,1,5,0,0

[Colours]
Combo1 : 255,255,255
Combo2 : 164,255,255
Combo3 : 70,163,255
Combo4 : 255,183,111
Combo5 : 255,255,187

[HitObjects]
316,308,680,5,0,0:0:0:0:
248,256,829,1,0,0:0:0:0:
228,184,978,1,0,0:0:0:0:
228,184,1127,1,0,0:0:0:0:
248,256,1277,1,0,0:0:0:0:
316,308,1426,1,0,0:0:0:0:
384,312,1575,5,0,0:0:0:0:
386,264,1724,1,0,0:0:0:0:
364,212,1873,1,0,0:0:0:0:
320,176,2022,1,0,0:0:0:0:
272,156,2172,1,0,0:0:0:0:
212,152,2321,1,0,0:0:0:0:
376,208,2471,5,0,0:0:0:0:
432,168,2620,1,0,0:0:0:0:
372,128,2769,1,0,0:0:0:0:
308,80,2918,1,0,0:0:0:0:
308,80,3068,1,0,0:0:0:0:
372,128,3217,1,0,0:0:0:0:
208,212,3366,5,0,0:0:0:0:
140,192,3515,1,0,0:0:0:0:
96,132,3665,1,0,0:0:0:0:
96,132,3814,1,0,0:0:0:0:
140,192,3963,1,0,0:0:0:0:
208,212,4112,1,0,0:0:0:0:
452,284,4262,6,0,P|471:203|352:181,1,193.333333333333,0|0,0:0|0:0,0:0:0:0:
152,192,5157,2,0,L|28:192,2,96.6666666666667,4|0|0,0:0|0:0|0:0,0:0:0:0:
300,196,6053,6,0,L|432:196,2,96.6666666666667,4|0|0,0:0|0:0|0:0,0:0:0:0:
240,200,6799,1,0,0:0:0:0:
68,196,6948,2,0,L|48:76,1,96.6666666666667,4|0,0:0|0:0,0:0:0:0:
168,64,7545,1,0,0:0:0:0:
412,196,7844,5,4,0:0:0:0:
276,200,8142,2,0,L|164:200,1,96.6666666666667,0|0,0:0|0:0,0:0:0:0:
416,256,8739,5,4,0:0:0:0:
504,188,9037,1,0,0:0:0:0:
416,120,9336,1,0,0:0:0:0:
168,184,9635,1,4,0:0:0:0:
100,124,9933,2,0,L|212:124,1,96.6666666666667
456,224,10530,2,0,P|496:188|432:84,1,193.333333333333,4|0,0:0|0:0,0:0:0:0:
200,196,11426,6,0,P|244:152|392:160,1,193.333333333333,4|0,0:0|0:0,0:0:0:0:
300,132,12172,1,0,0:0:0:0:
136,168,12321,2,0,L|28:168,2,96.6666666666667,4|0|0,0:0|0:0|0:0,0:0:0:0:
256,200,13217,1,4,0:0:0:0:
32,200,13515,1,0,0:0:0:0:
24,136,13665,1,0,0:0:0:0:
16,64,13814,1,0,0:0:0:0:
404,272,14112,6,0,P|456:224|388:140,1,193.333333333333,10|0,0:1|0:0,0:0:0:0:
164,204,15008,1,4,0:0:0:0:
300,204,15306,2,0,L|332:100,1,96.6666666666667,0|0,0:0|0:0,0:0:0:0:
260,88,15754,1,0,0:0:0:0:
84,216,15903,2,0,P|28:168|108:100,1,193.333333333333,4|0,0:0|0:0,0:0:0:0:
340,188,16799,5,4,0:0:0:0:
204,192,17097,2,0,L|92:192,1,96.6666666666667,0|0,0:0|0:0,0:0:0:0:
176,192,17545,1,0,0:0:0:0:
352,196,17694,2,0,L|488:196,2,96.6666666666667,4|0|0,0:0|0:0|0:0,0:0:0:0:
200,192,18590,5,4,0:0:0:0:
312,192,18888,1,0,0:0:0:0:
420,196,19187,1,0,0:0:0:0:
164,196,19485,6,0,L|40:196,2,96.6666666666667,4|0|0,0:0|0:0|0:0,0:0:0:0:
300,200,20381,2,0,L|440:200,1,96.6666666666667,4|0,0:0|0:0,0:0:0:0:
348,200,20978,1,0,0:0:0:0:
96,200,21277,2,0,L|-4:200,2,96.6666666666667,10|0|0,0:1|0:0|0:0,0:0:0:0:
456,108,22172,6,0,P|500:144|440:248,1,193.333333333333,4|0,0:0|0:0,0:0:0:0:
212,248,23068,2,0,L|112:248,2,96.6666666666667,4|0|0,0:0|0:0|0:0,0:0:0:0:
344,240,23963,2,0,L|184:240,1,145
120,240,24560,1,0,0:0:0:0:
488,264,24859,6,0,P|496:208|392:124,1,193.333333333333,8|0,0:0|0:0,0:0:0:0:
32,248,25754,2,0,P|32:184|144:120,1,193.333333333333
228,118,26650,2,0,L|112:118,2,96.6666666666667,4|0|0,0:0|0:0|0:0,0:0:0:0:
476,288,27545,2,0,P|504:216|448:144,1,145,4|0,0:0|0:0,0:0:0:0:
184,272,28441,2,0,P|64:188|20:112,1,193.333333333333,8|0,0:0|0:0,0:0:0:0:
432,240,29336,6,0,P|428:148|336:84,1,193.333333333333,4|0,0:0|0:0,0:0:0:0:
104,196,30232,2,0,L|0:196,2,96.6666666666667,4|0|0,0:0|0:0|0:0,0:0:0:0:
240,200,31127,1,4,0:0:0:0:
120,200,31426,1,0,0:0:0:0:
12,192,31724,1,0,0:0:0:0:
256,200,32023,1,8,0:0:0:0:
392,208,32321,6,0,P|432:168|400:112,1,96.6666666666667
60,256,32918,2,0,P|36:192|124:116,1,193.333333333333,4|0,0:0|0:0,0:0:0:0:
352,192,33814,1,4,0:0:0:0:
216,200,34112,2,0,L|104:200,1,96.6666666666667,0|0,0:0|0:0,0:0:0:0:
352,196,34709,5,4,0:0:0:0:
180,200,35157,1,0,0:0:0:0:
444,264,35605,2,0,P|504:200|496:120,1,145,8|0,0:0|0:0,0:0:0:0:
128,216,36500,1,4,0:1:0:0:
320,208,37097,5,0,0:0:0:0:
184,204,37396,2,0,L|56:204,2,96.6666666666667,0|0|0,0:0|0:0|0:0,0:0:0:0:
416,200,38291,1,8,0:0:0:0:
184,204,38888,1,0,0:0:0:0:
416,200,39187,2,0,L|280:200,2,96.6666666666667,2|0|0,0:0|0:0|0:0,0:0:0:0:
184,200,40082,1,8,0:0:0:0:
436,200,40978,6,0,P|448:136|432:88,1,96.6666666666667,0|0,0:0|0:0,0:0:0:0:
184,192,41874,2,0,L|64:192,2,96.6666666666667,0|0|0,0:0|0:0|0:0,0:0:0:0:
416,196,42769,2,0,L|540:196,2,96.6666666666667,0|0|0,0:0|0:0|0:0,0:0:0:0:
56,208,43665,6,0,P|20:152|104:72,1,193.333333333333,4|0,0:0|0:0,0:0:0:0:
336,192,44560,2,0,L|448:192,2,96.6666666666667,0|0|0,0:0|0:0|0:0,0:0:0:0:
104,200,45456,1,0,0:0:0:0:
336,192,46053,1,8,0:0:0:0:
104,200,46351,6,8,L|-32:200,2,96.6666666666667,10|8|8,0:0|0:0|0:0,0:0:0:0:
336,212,47247,1,8,0:0:0:0:
200,200,47545,1,8,0:0:0:0:
336,212,47844,1,8,0:0:0:0:
92,212,48142,2,0,L|0:276,2,96.6666666666667,8|8|8,0:0|0:0|0:0,0:0:0:0:
164,212,48888,1,8,0:0:0:0:
384,224,49038,5,12,0:0:0:0:
488,224,49336,1,0,0:0:0:0:
384,224,49635,1,0,0:0:0:0:
244,200,49933,1,0,0:0:0:0:
132,176,50231,1,0,0:0:0:0:
20,148,50530,1,0,0:0:0:0:
404,200,50829,6,0,P|460:168|376:100,1,193.333333333333,12|0,0:1|0:0,0:0:0:0:
240,192,51724,2,0,L|444:192,1,193.333333333333,12|0,0:0|0:0,0:0:0:0:
200,200,52620,2,0,P|120:168|184:80,1,193.333333333333,4|0,0:0|0:0,0:0:0:0:
384,244,53515,2,0,P|448:216|440:128,1,145,8|0,0:0|0:0,0:0:0:0:
408,80,54112,1,0,0:0:0:0:
172,200,54411,6,4,P|88:160|116:52,1,193.333333333333,4|0,0:0|0:0,0:0:0:0:
328,220,55306,2,0,L|160:216,1,145,8|0,0:0|0:0,0:0:0:0:
88,216,55903,1,0,0:0:0:0:
312,216,56202,2,0,L|448:216,2,96.6666666666667,4|0|0,0:0|0:0|0:0,0:0:0:0:
80,232,57097,6,0,P|32:152|112:56,1,193.333333333333,8|0,0:0|0:0,0:0:0:0:
444,208,57993,2,0,P|492:176|416:92,1,193.333333333333,12|0,0:1|0:0,0:0:0:0:
292,188,58888,2,0,L|88:188,1,193.333333333333,8|0,0:0|0:0,0:0:0:0:
332,192,59784,6,0,P|360:128|256:80,1,193.333333333333,4|0,0:0|0:0,0:0:0:0:
32,204,60679,2,0,P|0:128|48:64,1,145,8|0,0:0|0:0,0:0:0:0:
96,56,61277,1,0,0:0:0:0:
332,192,61575,2,0,L|104:192,1,193.333333333333,4|0,0:0|0:0,0:0:0:0:
372,196,62471,5,8,0:0:0:0:
236,192,62769,1,0,0:0:0:0:
468,200,63068,1,0,0:0:0:0:
236,196,63366,2,0,L|120:196,1,96.6666666666667,4|4,0:0|0:0,0:0:0:0:
372,200,63963,1,4,0:0:0:0:
140,200,64262,1,4,0:0:0:0:
280,204,64560,2,0,L|420:204,1,96.6666666666667,4|4,0:0|0:0,0:0:0:0:
16,208,65157,6,0,P|8:136|124:72,1,193.333333333333,4|0,0:0|0:0,0:0:0:0:
172,72,65903,1,0,0:0:0:0:
352,200,66053,2,0,L|468:200,2,96.6666666666667,8|0|0,0:0|0:0|0:0,0:0:0:0:
108,212,66948,1,4,0:0:0:0:
244,208,67247,1,0,0:0:0:0:
380,204,67545,1,0,0:0:0:0:
20,228,67844,6,0,L|20:112,1,96.6666666666667,8|0,0:0|0:0,0:0:0:0:
156,108,68441,1,0,0:0:0:0:
224,120,68590,1,0,0:0:0:0:
408,240,68739,2,0,P|456:196|368:96,1,193.333333333333,4|0,0:0|0:0,0:0:0:0:
156,220,69635,2,0,L|56:264,2,96.6666666666667,8|0|0,0:0|0:0|0:0,0:0:0:0:
452,208,70530,6,0,L|504:120,1,96.6666666666667,4|0,0:0|0:0,0:0:0:0:
377,112,71127,1,0,0:0:0:0:
145,123,71426,1,8,0:0:0:0:
285,119,71724,1,0,0:0:0:0:
425,107,72023,1,0,0:0:0:0:
56,248,72321,2,0,P|12:180|84:80,1,193.333333333333,4|0,0:0|0:0,0:0:0:0:
420,200,73217,5,8,0:0:0:0:
504,200,73515,2,0,L|392:200,1,96.6666666666667,0|0,0:0|0:0,0:0:0:0:
172,240,74112,2,0,L|384:240,1,193.333333333333,4|0,0:0|0:0,0:0:0:0:
4,236,75008,2,0,L|35:144,1,96.6666666666667,8|0,0:0|0:0,0:0:0:0:
172,148,75605,1,0,0:0:0:0:
404,248,75903,6,0,P|452:212|372:128,1,193.333333333333,4|0,0:0|0:0,0:0:0:0:
28,248,76799,2,0,P|8:168|72:96,1,145,8|0,0:0|0:0,0:0:0:0:
324,204,77694,1,4,0:0:0:0:
444,200,77993,1,4,0:0:0:0:
324,204,78291,1,4,0:0:0:0:
96,220,78590,5,12,0:0:0:0:
232,216,78888,1,4,0:0:0:0:
368,224,79187,1,4,0:0:0:0:
8,268,79485,2,0,P|19:197|127:152,1,193.333333333333,4|0,0:0|0:0,0:0:0:0:
364,208,80381,1,0,0:0:0:0:
132,140,80679,2,0,L|100:32,1,96.6666666666667,0|0,0:0|0:0,0:0:0:0:
340,208,81277,6,0,L|472:208,2,96.6666666666667,8|0|0,0:0|0:0|0:0,0:0:0:0:
204,208,82172,1,2,0:0:0:0:
340,208,82471,1,0,0:0:0:0:
476,212,82769,1,0,0:0:0:0:
116,216,83068,2,0,L|12:216,2,96.6666666666667,4|4|4,0:0|0:0|0:0,0:0:0:0:
348,224,83963,5,4,0:0:0:0:
212,216,84262,1,4,0:0:0:0:
444,224,84560,1,4,0:0:0:0:
208,220,84859,2,0,L|88:220,1,96.6666666666667,4|4,0:0|0:0,0:0:0:0:
344,224,85456,1,4,0:0:0:0:
112,240,85754,2,0,L|64:124,1,96.6666666666667,12|4,0:0|0:0,0:0:0:0:
436,212,86351,1,4,0:0:0:0:
256,192,86650,12,4,88441,0:0:0:0:
