osu file format v14

[General]
AudioFilename: audio.mp3
AudioLeadIn: 0
PreviewTime: 47993
Countdown: 0
SampleSet: Soft
StackLeniency: 0.7
Mode: 2
LetterboxInBreaks: 0
WidescreenStoryboard: 0

[Editor]
DistanceSpacing: 0.9
BeatDivisor: 6
GridSize: 8
TimelineZoom: 1.4

[Metadata]
Title:History Maker
TitleUnicode:History Maker
Artist:DEAN FUJIOKA
ArtistUnicode:DEAN FUJIOKA
Creator:RoseusJaeger
Version:Cup
Source:ユーリ!!! on ICE
Tags:yuri!!! OP opening MAPPA Avex Pictures Taro Umebayashi 梅林太郎 Taku Matsushiba 松司馬拓 Sinnoh Paranoid Grapes Ascendance
BeatmapID:1109207
BeatmapSetID:522277

[Difficulty]
HPDrainRate:3
CircleSize:2.5
OverallDifficulty:5.5
ApproachRate:5.5
SliderMultiplier:2.4
SliderTickRate:2

[Events]
//Background and Video events
Video,0,"yuri on ice op.avi"
0,0,"This anime is pretty gay.jpg",0,0
//Break Periods
//Storyboard Layer 0 (Background)
//Storyboard Layer 1 (Fail)
//Storyboard Layer 2 (Pass)
//Storyboard Layer 3 (Foreground)
//Storyboard Sound Samples

[TimingPoints]
680,895.522388059701,4,2,3,40,1,0
5157,-100,4,2,1,20,0,0
22172,-100,4,2,1,30,0,0
28739,-100,4,2,2,20,0,0
29336,-100,4,2,2,30,0,0
36500,-100,4,2,1,30,0,0
37097,-100,4,2,2,30,0,0
47247,-100,4,2,2,5,0,0
50829,-100,4,2,1,75,0,1
65157,-100,4,2,1,55,0,0
79485,-100,4,2,3,40,0,0
83068,-100,4,2,1,70,0,1
86650,-100,4,2,1,5,0,0

[Colours]
Combo1 : 255,255,255
Combo2 : 164,255,255
Combo3 : 70,163,255
Combo4 : 255,183,111
Combo5 : 255,255,187

[HitObjects]
256,192,680,12,0,3665,0:0:0:0:
272,216,4262,6,0,L|455:215,1,160,0|0,0:0|0:0,0:0:0:0:
328,176,5157,1,4,0:0:0:0:
104,240,6053,2,0,P|48:192|48:96,1,160,4|0,0:0|0:0,0:0:0:0:
176,80,6948,1,4,0:0:0:0:
368,192,7844,5,4,0:0:0:0:
240,192,8142,2,0,L|128:192,1,80,0|0,0:0|0:0,0:0:0:0:
288,176,8739,2,0,P|376:160|416:80,1,160,4|0,0:0|0:0,0:0:0:0:
304,56,9635,5,4,0:0:0:0:
184,184,9933,2,0,L|64:184,1,80,0|0,0:0|0:0,0:0:0:0:
212,192,10530,2,0,P|284:168|260:96,1,160,4|0,0:0|0:0,0:0:0:0:
152,288,11426,6,0,P|110:247|168:168,1,160,4|0,0:0|0:0,0:0:0:0:
264,120,12321,2,0,P|195:96|88:132,1,160,4|0,0:0|0:0,0:0:0:0:
216,208,13217,1,4,0:0:0:0:
336,224,13515,6,0,L|298:153,1,80,0|0,0:0|0:0,0:0:0:0:
168,152,14112,2,0,P|120:220|168:272,1,160,10|0,0:1|0:0,0:0:0:0:
296,272,15008,5,4,0:0:0:0:
416,152,15306,2,0,L|320:152,1,80,0|0,0:0|0:0,0:0:0:0:
208,160,15903,2,0,P|152:208|180:312,1,160,4|0,0:0|0:0,0:0:0:0:
288,232,16799,5,4,0:0:0:0:
408,152,17097,2,0,L|448:64,1,80,0|0,0:0|0:0,0:0:0:0:
312,64,17694,2,0,L|136:64,1,160,4|0,0:0|0:0,0:0:0:0:
268,116,18590,6,0,L|448:116,1,160,4|0,0:0|0:0,0:0:0:0:
304,196,19485,2,0,L|120:196,1,160,4|0,0:0|0:0,0:0:0:0:
264,304,20381,2,0,P|340:264|248:176,1,240,4|10,0:0|0:1,0:0:0:0:
136,120,21575,2,0,L|236:120,1,80,0|0,0:0|0:0,0:0:0:0:
360,216,22172,6,0,P|412:168|360:112,1,160,4|0,0:0|0:0,0:0:0:0:
252,80,23068,1,4,0:0:0:0:
144,80,23366,1,0,0:0:0:0:
40,80,23665,1,0,0:0:0:0:
184,80,23963,6,4,L|336:80,2,120,4|0|8,0:0|0:0|0:0,0:0:0:0:
24,84,25306,1,0,0:0:0:0:
200,184,25754,6,0,L|52:120,1,160,4|0,0:0|0:0,0:0:0:0:
168,72,26650,1,4,0:0:0:0:
280,80,26948,1,0,0:0:0:0:
392,96,27247,1,0,0:0:0:0:
273,72,27545,6,0,L|120:96,1,120,4|0,0:0|0:0,0:0:0:0:
304,112,28441,2,2,P|280:192|200:208,1,160,8|0,0:0|0:0,0:0:0:0:
104,288,29336,6,0,P|52:248|112:192,1,160,4|0,0:0|0:0,0:0:0:0:
216,192,30232,1,4,0:0:0:0:
324,192,30530,1,0,0:0:0:0:
432,192,30829,1,0,0:0:0:0:
300,136,31127,6,0,P|208:196|288:280,1,240,4|8,0:0|0:0,0:0:0:0:
392,216,32321,2,0,L|496:216,1,80,0|0,0:0|0:0,0:0:0:0:
352,176,32918,6,0,L|164:172,1,160,4|0,0:0|0:0,0:0:0:0:
304,144,33814,1,4,0:0:0:0:
416,136,34112,1,0,0:0:0:0:
304,144,34411,1,0,0:0:0:0:
176,184,34709,6,0,L|24:184,2,120,4|0|8,0:0|0:0|0:0,0:0:0:0:
368,192,36053,1,0,0:0:0:0:
176,184,36500,5,4,0:1:0:0:
452,192,38291,1,8,0:0:0:0:
256,192,40082,1,8,0:0:0:0:
444,200,40978,2,0,L|464:96,1,80,0|0,0:0|0:0,0:0:0:0:
224,216,41874,6,0,L|36:216,1,160,0|0,0:0|0:0,0:0:0:0:
192,88,42769,2,0,L|384:88,1,160
224,88,43665,1,4,0:0:0:0:
40,200,44262,1,0,0:0:0:0:
136,200,44560,6,0,L|249:202,1,80
104,204,45157,1,0,0:0:0:0:
232,212,45456,1,0,0:0:0:0:
464,200,46053,6,4,L|464:100,1,80,0|2,0:0|0:0,0:0:0:0:
344,104,46650,1,0,0:0:0:0:
232,76,46948,1,0,0:0:0:0:
256,192,47396,12,0,49933,0:0:0:0:
216,192,50829,6,0,L|36:192,1,160,12|0,0:1|0:0,0:0:0:0:
184,128,51724,2,0,L|360:128,1,160,12|0,0:0|0:0,0:0:0:0:
208,208,52620,2,0,P|128:136|212:80,1,240,4|8,0:0|0:0,0:0:0:0:
380,276,54411,6,0,P|448:220|344:132,1,240,4|8,0:0|0:0,0:0:0:0:
132,232,56202,6,0,L|52:232,2,80,4|0|0,0:0|0:0|0:0,0:0:0:0:
224,232,57097,2,0,P|296:192|296:88,1,160,8|0,0:0|0:0,0:0:0:0:
168,136,57993,6,0,L|20:264,1,160,12|0,0:1|0:0,0:0:0:0:
176,280,58888,2,0,L|360:280,1,160,8|0,0:0|0:0,0:0:0:0:
192,200,59784,2,0,P|96:260|184:320,1,240,4|8,0:0|0:0,0:0:0:0:
424,200,61575,6,0,L|252:200,1,160,4|0,0:0|0:0,0:0:0:0:
140,200,62471,1,8,0:0:0:0:
264,196,62769,2,0,L|320:124,1,80,0|0,0:0|0:0,0:0:0:0:
168,192,63366,6,0,L|64:192,2,80,4|4|4,0:0|0:0|0:0,0:0:0:0:
288,192,64262,1,4,0:0:0:0:
408,192,64560,1,4,0:0:0:0:
288,192,64859,1,4,0:0:0:0:
144,208,65157,6,4,P|104:176|168:112,1,160,4|0,0:0|0:0,0:0:0:0:
312,192,66053,2,0,L|420:192,2,80,8|0|0,0:0|0:0|0:0,0:0:0:0:
176,208,66948,6,0,P|136:160|208:112,1,160,4|0,0:0|0:0,0:0:0:0:
320,176,67844,1,8,0:0:0:0:
200,192,68142,1,0,0:0:0:0:
80,200,68441,1,0,0:0:0:0:
224,192,68739,5,4,0:0:0:0:
416,192,69635,2,0,L|436:84,1,80,8|0,0:0|0:0,0:0:0:0:
200,192,70530,6,0,L|96:192,2,80,4|0|0,0:0|0:0|0:0,0:0:0:0:
336,192,71426,1,8,0:0:0:0:
232,128,71724,1,0,0:0:0:0:
128,60,72023,1,0,0:0:0:0:
280,176,72321,6,0,L|464:176,1,160,4|0,0:0|0:0,0:0:0:0:
352,104,73217,1,8,0:0:0:0:
232,96,73515,1,0,0:0:0:0:
112,104,73814,1,0,0:0:0:0:
256,120,74112,1,4,0:0:0:0:
80,280,74709,5,0,0:0:0:0:
196,272,75008,2,0,L|304:272,2,80,8|0|0,0:0|0:0|0:0,0:0:0:0:
316,272,75903,1,4,0:0:0:0:
108,200,76500,5,0,0:0:0:0:
216,200,76799,2,0,P|264:160|224:104,1,120,8|0,0:0|0:0,0:0:0:0:
80,108,77694,5,4,0:0:0:0:
192,72,77993,1,4,0:0:0:0:
304,56,78291,1,4,0:0:0:0:
192,72,78590,2,0,L|76:72,2,80,12|4|4,0:0|0:0|0:0,0:0:0:0:
304,188,79485,5,4,0:0:0:0:
304,188,80381,1,0,0:0:0:0:
172,188,80679,2,0,L|228:104,1,80,0|0,0:0|0:0,0:0:0:0:
352,192,81277,6,0,L|460:192,2,80,8|0|0,0:0|0:0|0:0,0:0:0:0:
240,192,82172,1,2,0:0:0:0:
352,128,82471,1,0,0:0:0:0:
464,80,82769,1,0,0:0:0:0:
320,192,83068,6,0,L|224:192,1,80,4|4,0:0|0:0,0:0:0:0:
128,192,83665,1,4,0:0:0:0:
240,192,83963,2,0,L|352:192,2,80,4|4|4,0:0|0:0|0:0,0:0:0:0:
128,204,84859,5,4,0:0:0:0:
224,208,85158,1,4,0:0:0:0:
128,204,85456,1,4,0:0:0:0:
264,204,85755,1,12,0:0:0:0:
360,200,86053,1,4,0:0:0:0:
264,204,86352,1,4,0:0:0:0:
256,192,86799,12,4,88441,0:0:0:0:
