osu file format v14

[General]
AudioFilename: audio.mp3
AudioLeadIn: 0
PreviewTime: 47993
Countdown: 0
SampleSet: Normal
StackLeniency: 0.8
Mode: 1
LetterboxInBreaks: 0
WidescreenStoryboard: 0

[Editor]
Bookmarks: 5157,8739,12321,15903,19485,19784,20680,22172,22471,36500,43665,65456,72620
DistanceSpacing: 0.9
BeatDivisor: 3
GridSize: 8
TimelineZoom: 1.4

[Metadata]
Title:History Maker
TitleUnicode:History Maker
Artist:DEAN FUJIOKA
ArtistUnicode:DEAN FUJIOKA
Creator:Jonawaga
Version:Muzukashii
Source:ユーリ!!! on ICE
Tags:Weber yuri!!! OP opening MAPPA Avex Pictures Taro Umebayashi 梅林太郎 Taku Matsushiba 松司馬拓
BeatmapID:1478906
BeatmapSetID:698248

[Difficulty]
HPDrainRate:6
CircleSize:2.5
OverallDifficulty:5
ApproachRate:5.5
SliderMultiplier:1.4
SliderTickRate:2

[Events]
//Background and Video events
0,0,"1 Jona BG.jpg",0,100
//Break Periods
//Storyboard Layer 0 (Background)
//Storyboard Layer 1 (Fail)
//Storyboard Layer 2 (Pass)
//Storyboard Layer 3 (Foreground)
//Storyboard Sound Samples

[TimingPoints]
680,447.761194029851,4,1,0,70,1,0
50829,-100,4,1,0,70,0,1
65157,-100,4,1,0,70,0,0
83068,-100,4,1,0,70,0,1
86650,-100,4,1,0,70,0,0

[Colours]
Combo1 : 255,255,255
Combo2 : 164,255,255
Combo3 : 70,163,255
Combo4 : 225,0,113
Combo5 : 255,255,187

[HitObjects]
256,192,680,12,0,4262,0:0:0:0:
248,192,4859,5,0,0:0:0:0:
248,192,5157,1,8,0:0:0:0:
248,192,5754,1,8,0:0:0:0:
248,192,6053,1,0,0:0:0:0:
248,192,6351,1,0,0:0:0:0:
248,192,6650,1,0,0:0:0:0:
248,192,6948,1,8,0:0:0:0:
248,192,7545,1,8,0:0:0:0:
248,192,7844,1,0,0:0:0:0:
248,192,8142,1,0,0:0:0:0:
248,192,8441,1,0,0:0:0:0:
248,192,8739,1,8,0:0:0:0:
248,192,9336,1,8,0:0:0:0:
248,192,9635,1,8,0:0:0:0:
247,199,9933,1,0,0:0:0:0:
248,192,10232,1,8,0:0:0:0:
248,192,10530,1,8,0:0:0:0:
248,192,11127,1,0,0:0:0:0:
248,192,11426,1,8,0:0:0:0:
248,192,11724,1,0,0:0:0:0:
248,192,12023,1,8,0:0:0:0:
248,192,12321,1,8,0:0:0:0:
248,192,12918,1,0,0:0:0:0:
248,192,13217,1,8,0:0:0:0:
248,192,13515,1,0,0:0:0:0:
248,192,13665,1,0,0:0:0:0:
248,192,13814,1,0,0:0:0:0:
248,192,14112,1,8,0:0:0:0:
248,192,14709,1,0,0:0:0:0:
248,192,15008,1,0,0:0:0:0:
248,192,15306,1,8,0:0:0:0:
248,192,15605,1,8,0:0:0:0:
248,192,15754,1,8,0:0:0:0:
248,192,15903,1,8,0:0:0:0:
248,192,16500,1,8,0:0:0:0:
248,192,16799,1,0,0:0:0:0:
248,192,17097,1,0,0:0:0:0:
248,192,17396,1,8,0:0:0:0:
248,192,17694,1,8,0:0:0:0:
248,192,18291,1,8,0:0:0:0:
248,192,18590,1,0,0:0:0:0:
248,192,18888,1,0,0:0:0:0:
248,192,19187,1,8,0:0:0:0:
248,192,19485,1,8,0:0:0:0:
248,192,20082,1,8,0:0:0:0:
248,192,20381,1,0,0:0:0:0:
248,192,20978,1,0,0:0:0:0:
248,192,21127,1,0,0:0:0:0:
248,192,21277,1,0,0:0:0:0:
248,192,21575,1,8,0:0:0:0:
248,192,21874,1,0,0:0:0:0:
248,192,22172,1,12,0:0:0:0:
248,192,22769,1,0,0:0:0:0:
248,192,23068,1,8,0:0:0:0:
248,192,23366,1,0,0:0:0:0:
248,192,23515,1,0,0:0:0:0:
248,192,23665,1,0,0:0:0:0:
248,192,23963,1,8,0:0:0:0:
248,192,24411,1,0,0:0:0:0:
248,192,24859,1,8,0:0:0:0:
248,192,25306,1,0,0:0:0:0:
248,192,25754,1,8,0:0:0:0:
248,192,25903,1,8,0:0:0:0:
248,192,26053,1,8,0:0:0:0:
248,192,26351,1,0,0:0:0:0:
248,192,26650,1,8,0:0:0:0:
248,192,26948,1,0,0:0:0:0:
248,192,27247,1,0,0:0:0:0:
248,192,27545,1,8,0:0:0:0:
248,192,27993,1,8,0:0:0:0:
248,192,28441,1,8,0:0:0:0:
248,192,28739,1,0,0:0:0:0:
248,192,29038,1,0,0:0:0:0:
248,192,29336,1,8,0:0:0:0:
248,192,29933,1,0,0:0:0:0:
248,192,30232,1,8,0:0:0:0:
248,192,30530,1,0,0:0:0:0:
248,192,30680,1,0,0:0:0:0:
248,192,30829,1,0,0:0:0:0:
248,192,31127,1,8,0:0:0:0:
248,192,31724,1,0,0:0:0:0:
248,192,32023,1,8,0:0:0:0:
248,192,32321,1,0,0:0:0:0:
248,192,32620,1,0,0:0:0:0:
248,192,32918,1,8,0:0:0:0:
248,192,33515,1,0,0:0:0:0:
248,192,33814,1,8,0:0:0:0:
248,192,33963,1,8,0:0:0:0:
248,192,34112,1,8,0:0:0:0:
248,192,34411,1,8,0:0:0:0:
248,192,34709,1,8,0:0:0:0:
248,192,35157,1,0,0:0:0:0:
248,192,35605,1,8,0:0:0:0:
248,192,36053,1,8,0:0:0:0:
248,192,36500,1,4,0:0:0:0:
248,192,37097,1,0,0:0:0:0:
248,192,37396,1,8,0:0:0:0:
248,192,37694,1,8,0:0:0:0:
248,192,37993,1,0,0:0:0:0:
248,192,38888,1,0,0:0:0:0:
248,192,39187,1,8,0:0:0:0:
248,192,39485,1,0,0:0:0:0:
248,192,39784,1,8,0:0:0:0:
248,192,40082,1,8,0:0:0:0:
248,192,40978,1,8,0:0:0:0:
248,192,41277,1,0,0:0:0:0:
248,192,41874,1,8,0:0:0:0:
248,192,42172,1,0,0:0:0:0:
248,192,42321,1,0,0:0:0:0:
248,192,42471,1,0,0:0:0:0:
248,192,42769,1,8,0:0:0:0:
248,192,43366,1,0,0:0:0:0:
248,192,43665,1,12,0:0:0:0:
248,192,44262,1,0,0:0:0:0:
248,192,44560,1,8,0:0:0:0:
248,192,44859,1,8,0:0:0:0:
248,192,45157,1,0,0:0:0:0:
248,192,45456,1,0,0:0:0:0:
248,192,46053,1,0,0:0:0:0:
248,192,46351,1,8,0:0:0:0:
248,192,46650,1,0,0:0:0:0:
248,192,46948,1,8,0:0:0:0:
248,192,47247,1,8,0:0:0:0:
248,192,48142,1,0,0:0:0:0:
248,192,48441,1,0,0:0:0:0:
248,192,48739,1,0,0:0:0:0:
248,192,48888,1,0,0:0:0:0:
248,192,49038,1,0,0:0:0:0:
248,192,49336,1,0,0:0:0:0:
248,192,49635,1,8,0:0:0:0:
248,192,49933,1,0,0:0:0:0:
248,192,50829,1,12,0:0:0:0:
248,192,51127,1,0,0:0:0:0:
248,192,51277,1,0,0:0:0:0:
248,192,51426,1,0,0:0:0:0:
248,192,51724,1,8,0:0:0:0:
248,192,52321,1,8,0:0:0:0:
248,192,52620,1,0,0:0:0:0:
248,192,53217,1,0,0:0:0:0:
248,192,53515,1,8,0:0:0:0:
248,192,54112,1,0,0:0:0:0:
248,192,54411,1,8,0:0:0:0:
248,192,54709,1,0,0:0:0:0:
248,192,54859,1,0,0:0:0:0:
248,192,55008,1,0,0:0:0:0:
248,192,55306,1,8,0:0:0:0:
248,192,55903,1,8,0:0:0:0:
248,192,56202,1,8,0:0:0:0:
248,192,56500,1,0,0:0:0:0:
248,192,56650,1,0,0:0:0:0:
248,192,56799,1,0,0:0:0:0:
248,192,57097,1,4,0:0:0:0:
248,192,57993,1,12,0:0:0:0:
248,192,58291,1,0,0:0:0:0:
248,192,58441,1,0,0:0:0:0:
248,192,58590,1,0,0:0:0:0:
248,192,58888,1,8,0:0:0:0:
248,192,59485,1,8,0:0:0:0:
248,192,59784,1,0,0:0:0:0:
248,192,60381,1,0,0:0:0:0:
248,192,60680,1,8,0:0:0:0:
248,192,61277,1,0,0:0:0:0:
248,192,61575,1,8,0:0:0:0:
248,192,61874,1,0,0:0:0:0:
248,192,62023,1,0,0:0:0:0:
248,192,62172,1,0,0:0:0:0:
248,192,62471,1,8,0:0:0:0:
248,192,63068,1,8,0:0:0:0:
248,192,63366,1,8,0:0:0:0:
248,192,63665,1,0,0:0:0:0:
248,192,63814,1,0,0:0:0:0:
248,192,63963,1,0,0:0:0:0:
248,192,64262,1,8,0:0:0:0:
248,192,64560,1,0,0:0:0:0:
248,192,64859,1,0,0:0:0:0:
248,192,65157,1,12,0:0:0:0:
248,192,65754,1,0,0:0:0:0:
248,192,66053,1,8,0:0:0:0:
248,192,66351,1,8,0:0:0:0:
248,192,66650,1,0,0:0:0:0:
248,192,66948,1,8,0:0:0:0:
248,192,67247,1,0,0:0:0:0:
248,192,67396,1,0,0:0:0:0:
248,192,67545,1,0,0:0:0:0:
248,192,67844,1,8,0:0:0:0:
248,192,68142,1,0,0:0:0:0:
248,192,68441,1,8,0:0:0:0:
248,192,68739,1,8,0:0:0:0:
248,192,69038,1,0,0:0:0:0:
248,192,69187,1,0,0:0:0:0:
248,192,69336,1,0,0:0:0:0:
248,192,69635,1,8,0:0:0:0:
248,192,69933,1,0,0:0:0:0:
248,192,70232,1,0,0:0:0:0:
248,192,70530,1,8,0:0:0:0:
248,192,70829,1,0,0:0:0:0:
248,192,70978,1,0,0:0:0:0:
248,192,71127,1,0,0:0:0:0:
248,192,71426,1,8,0:0:0:0:
248,192,71724,1,0,0:0:0:0:
248,192,72023,1,0,0:0:0:0:
248,192,72321,1,8,0:0:0:0:
248,192,72918,1,0,0:0:0:0:
248,192,73217,1,8,0:0:0:0:
248,192,73515,1,8,0:0:0:0:
248,192,73814,1,0,0:0:0:0:
248,192,74112,1,8,0:0:0:0:
248,192,74411,1,0,0:0:0:0:
248,192,74560,1,0,0:0:0:0:
248,192,74709,1,0,0:0:0:0:
248,192,75008,1,8,0:0:0:0:
248,192,75306,1,0,0:0:0:0:
248,192,75605,1,8,0:0:0:0:
248,192,75903,1,8,0:0:0:0:
248,192,76500,1,8,0:0:0:0:
248,192,76799,1,8,0:0:0:0:
248,192,77247,1,0,0:0:0:0:
248,192,77694,1,8,0:0:0:0:
248,192,77993,1,0,0:0:0:0:
248,192,78142,1,0,0:0:0:0:
248,192,78291,1,0,0:0:0:0:
248,192,78590,1,8,0:0:0:0:
248,192,78888,1,0,0:0:0:0:
248,192,79187,1,0,0:0:0:0:
248,192,79485,1,8,0:0:0:0:
248,192,80082,1,0,0:0:0:0:
248,192,80381,1,8,0:0:0:0:
248,192,80680,1,0,0:0:0:0:
248,192,80978,1,0,0:0:0:0:
248,192,81277,1,8,0:0:0:0:
248,192,81874,1,8,0:0:0:0:
248,192,82172,1,8,0:0:0:0:
248,192,82471,1,0,0:0:0:0:
248,192,82620,1,0,0:0:0:0:
248,192,82769,1,0,0:0:0:0:
248,192,83068,1,12,0:0:0:0:
248,192,83963,1,12,0:0:0:0:
248,192,84262,1,0,0:0:0:0:
248,192,84859,1,12,0:0:0:0:
248,192,85456,1,0,0:0:0:0:
248,192,85754,1,12,0:0:0:0:
248,192,86351,1,0,0:0:0:0:
256,192,86650,12,0,88441,0:0:0:0:
