osu file format v14

[General]
AudioFilename: DEANlove.mp3
AudioLeadIn: 0
PreviewTime: 175355
Countdown: 0
SampleSet: Soft
StackLeniency: 0.7
Mode: 0
LetterboxInBreaks: 0
WidescreenStoryboard: 1

[Editor]
Bookmarks: 18003,210003
DistanceSpacing: 1.4
BeatDivisor: 4
GridSize: 4
TimelineZoom: 1.600002

[Metadata]
Title:love (Feat. Syd)
TitleUnicode:love (Feat. Syd)
Artist:DEAN
ArtistUnicode:DEAN
Creator:Ora
Version:Normal
Source:
Tags:Syd Tha Kyd 권혁 r&b kpop k-pop the internet Deanfluenza Nick Green highhopes Zak Abel Universal Music Ltd
BeatmapID:1329521
BeatmapSetID:617753

[Difficulty]
HPDrainRate:3
CircleSize:3.7
OverallDifficulty:4
ApproachRate:4.5
SliderMultiplier:1.3
SliderTickRate:1

[Events]
//Background and Video events
0,0,"deansyd.jpg",0,0
Video,0,"deanlove_1.avi"
//Break Periods
2,53100,66913
2,122918,136731
2,157828,165095
2,170646,171640
//Storyboard Layer 0 (Background)
//Storyboard Layer 1 (Fail)
//Storyboard Layer 2 (Pass)
//Storyboard Layer 3 (Foreground)
//Storyboard Sound Samples

[TimingPoints]
537,545.454545454546,4,2,1,45,1,0
35446,-95.2380952380952,4,2,1,50,0,0
87809,-90.9090909090909,4,2,1,55,0,1
103082,-95.2380952380952,4,2,1,50,0,0
166355,-100,4,2,1,53,0,0
170037,-100,4,2,1,48,0,0
170446,-100,4,2,1,33,0,0
172900,-100,4,2,1,53,0,0
175082,-90.9090909090909,4,2,1,60,0,1
192537,-95.2380952380952,4,2,1,50,0,0
208900,-95.2380952380952,4,2,1,65,0,0

[Colours]
Combo1 : 164,188,141
Combo2 : 194,163,150
Combo3 : 137,158,190

[HitObjects]
256,192,15809,12,0,17446,0:0:0:0:
325,71,17991,6,0,P|316:132|315:206,1,130,2|2,0:0|0:0,0:0:0:0:
326,277,18809,1,8,0:0:0:0:
366,343,19082,2,0,P|412:350|477:354,2,97.5,2|10|10,0:0|0:0|0:0,0:0:0:0:
287,346,20173,6,0,P|222:356|155:359,1,130,2|2,0:0|0:0,0:0:0:0:
126,287,20991,1,8,0:0:0:0:
108,210,21264,2,0,P|172:202|210:201,2,97.5,2|10|10,0:0|0:0|0:0,0:0:0:0:
53,266,22355,6,0,P|30:209|71:140,1,130,2|2,0:0|0:0,0:0:0:0:
184,60,23446,2,0,P|234:62|292:68,1,97.5,2|10,0:0|0:0,0:0:0:0:
391,104,24264,1,10,0:0:0:0:
452,151,24537,6,0,P|451:214|445:283,1,130,2|2,0:0|0:0,0:0:0:0:
394,339,25355,1,8,0:0:0:0:
350,275,25627,2,0,P|289:270|244:282,1,97.5,2|10,0:0|0:0,0:0:0:0:
147,326,26446,1,10,0:0:0:0:
93,269,26718,6,0,P|78:223|107:136,1,130,2|2,0:0|0:0,0:0:0:0:
223,50,27809,2,0,L|336:55,2,97.5,2|10|10,0:0|0:0|0:0,0:0:0:0:
150,76,28900,6,0,L|37:81,2,97.5,2|8|8,0:0|0:0|0:0,0:0:0:0:
209,126,29991,2,0,P|219:182|207:224,1,97.5,2|10,0:0|0:0,0:0:0:0:
119,295,30809,1,10,0:0:0:0:
43,275,31082,6,0,P|22:218|42:150,1,130,2|2,0:0|0:0,0:0:0:0:
176,78,32173,2,0,B|208:89|239:78|239:78|272:66|306:80,1,130,2|2,0:0|0:0,0:0:0:0:
256,192,33264,12,0,34900,0:0:0:0:
210,54,35446,6,0,P|226:122|211:193,1,136.499995834351,6|2,0:0|0:0,0:0:0:0:
80,282,36537,2,0,P|145:267|212:279,1,136.499995834351,2|0,0:0|0:0,0:0:0:0:
281,324,37355,1,10,0:0:0:0:
348,370,37627,6,0,L|487:360,1,136.499995834351,2|2,0:0|0:0,0:0:0:0:
510,198,38718,2,0,L|371:208,1,136.499995834351,2|0,0:0|0:0,0:0:0:0:
294,185,39537,1,10,0:0:0:0:
278,104,39809,6,0,P|221:147|225:228,1,136.499995834351,2|2,0:0|0:0,0:0:0:0:
58,252,40900,2,0,P|113:211|111:128,1,136.499995834351,2|0,0:0|0:0,0:0:0:0:
82,74,41718,1,8,0:0:0:0:
6,41,41991,6,0,L|148:33,1,136.499995834351,2|0,0:0|0:0,0:0:0:0:
278,125,43082,2,0,L|420:117,1,136.499995834351,2|0,0:0|0:0,0:0:0:0:
265,49,44173,6,0,P|214:83|212:163,1,136.499995834351,6|2,0:0|0:0,0:0:0:0:
274,305,45264,2,0,B|306:294|341:305|341:305|375:317|411:302,1,136.499995834351,2|0,0:0|0:0,0:0:0:0:
455,236,46082,1,10,0:0:0:0:
407,169,46355,6,0,B|374:155|340:167|340:167|305:178|273:167,1,136.499995834351,2|2,0:0|0:0,0:0:0:0:
137,74,47446,2,0,P|143:126|129:218,1,136.499995834351,2|0,0:0|0:0,0:0:0:0:
103,285,48264,1,10,0:0:0:0:
183,270,48537,6,0,P|235:264|327:278,1,136.499995834351,2|2,0:0|0:0,0:0:0:0:
455,363,49627,2,0,B|460:332|460:332|473:296|473:296|480:239,1,102.374996875763,2|10,0:0|0:0,0:0:0:0:
433,148,50446,1,10,0:0:0:0:
256,192,50718,12,0,52900,0:0:0:0:
256,192,68173,12,0,69809,0:0:0:0:
293,256,70355,6,0,P|240:229|153:235,1,136.499995834351,6|2,0:0|0:0,0:0:0:0:
88,261,71173,1,8,0:0:0:0:
29,204,71446,2,0,P|7:262|31:321,2,102.374996875763,2|10|10,0:0|0:0|0:0,0:0:0:0:
107,180,72537,6,0,P|120:113|111:42,1,136.499995834351,2|2,0:0|0:0,0:0:0:0:
191,25,73355,1,8,0:0:0:0:
271,40,73627,2,0,P|327:47|381:33,2,102.374996875763,2|10|10,0:0|0:0|0:0,0:0:0:0:
218,102,74718,6,0,P|219:168|227:242,1,136.499995834351,2|2,0:0|0:0,0:0:0:0:
249,317,75537,1,8,0:0:0:0:
315,365,75809,2,0,P|373:362|422:355,1,102.374996875763,2|10,0:0|0:0,0:0:0:0:
499,264,76627,1,10,0:0:0:0:
484,183,76900,5,2,0:0:0:0:
323,151,77446,2,0,B|290:165|256:153|256:153|221:142|189:153,2,136.499995834351,2|2|2,0:0|0:0|0:0,0:0:0:0:
484,183,79082,6,0,B|499:252|499:252|481:322,1,136.499995834351,6|2,0:0|0:0,0:0:0:0:
413,359,79900,1,8,0:0:0:0:
335,331,80173,2,0,B|284:318|284:318|222:332,2,102.374996875763,2|10|10,0:0|0:0|0:0,0:0:0:0:
379,262,81264,6,0,P|379:212|335:136,1,136.499995834351,2|2,0:0|0:0,0:0:0:0:
266,97,82082,1,8,0:0:0:0:
184,106,82355,2,0,P|132:113|71:106,1,102.374996875763,2|10,0:0|0:0,0:0:0:0:
3,201,83173,1,10,0:0:0:0:
82,218,83446,6,0,P|112:254|124:347,1,136.499995834351,2|2,0:0|0:0,0:0:0:0:
202,370,84264,1,8,0:0:0:0:
279,341,84537,2,0,P|333:346|387:346,2,102.374996875763,2|10|10,0:0|0:0|0:0,0:0:0:0:
216,288,85627,5,2,0:0:0:0:
139,142,86173,2,0,B|146:100|146:100|175:54|175:54|181:9,2,136.499995834351,2|2|2,0:0|0:0|0:0,0:0:0:0:
111,311,87809,6,0,B|156:296|156:296|256:310,1,143.000004364014,6|2,0:0|0:0,0:0:0:0:
329,343,88627,1,8,0:0:0:0:
399,294,88900,2,0,P|412:239|388:181,1,107.25000327301,2|10,0:0|0:0,0:0:0:0:
291,117,89718,1,10,0:0:0:0:
254,194,89991,6,0,B|201:199|201:199|156:185|156:185|106:189,1,143.000004364014,2|2,0:0|0:0,0:0:0:0:
2,57,91082,2,0,L|115:48,1,107.25000327301,2|10,0:0|0:0,0:0:0:0:
237,39,91900,1,10,0:0:0:0:
316,71,92173,6,0,P|385:62|416:126,1,143.000004364014,6|2,0:0|0:0,0:0:0:0:
390,200,92991,1,8,0:0:0:0:
346,273,93264,2,0,P|332:327|359:395,2,107.25000327301,2|10|10,0:0|0:0|0:0,0:0:0:0:
281,216,94355,6,0,P|218:243|146:228,1,143.000004364014,2|2,0:0|0:0,0:0:0:0:
27,105,95446,2,0,P|78:122|136:112,1,107.25000327301,2|10,0:0|0:0,0:0:0:0:
237,44,96264,1,10,0:0:0:0:
315,78,96537,5,6,0:0:0:0:
391,40,96809,2,0,P|427:72|437:134,1,107.25000327301,0|0,0:0|0:0,0:0:0:0:
401,251,97627,2,0,P|394:307|413:378,2,107.25000327301,2|10|10,0:0|0:0|0:0,0:0:0:0:
230,267,98991,6,0,B|192:277|192:277|112:268,1,107.25000327301
50,163,99809,2,0,L|163:177,2,107.25000327301,2|10|10,0:0|0:0|0:0,0:0:0:0:
181,52,101173,6,0,P|217:47|256:45,1,71.5000021820069,0|2,0:0|0:0,0:0:0:0:
309,110,101718,2,0,P|294:144|276:178,1,71.5000021820069,8|2,0:0|0:0,0:0:0:0:
194,191,102264,2,0,P|171:161|151:129,2,71.5000021820069,0|2|10,0:0|0:0|0:0,0:0:0:0:
256,192,103082,12,0,104718,0:0:0:0:
194,53,105264,6,0,B|227:67|261:55|261:55|296:44|328:55,1,136.499995834351,6|2,0:0|0:0,0:0:0:0:
395,100,106082,1,8,0:0:0:0:
367,177,106355,2,0,P|358:235|355:288,2,102.374996875763,2|10|10,0:0|0:0|0:0,0:0:0:0:
448,167,107446,6,0,P|476:125|441:30,1,136.499995834351,2|2,0:0|0:0,0:0:0:0:
294,32,108537,2,0,P|266:74|301:169,1,136.499995834351,2|0,0:0|0:0,0:0:0:0:
347,205,109355,1,10,0:0:0:0:
309,277,109627,6,0,L|170:265,1,136.499995834351,2|2,0:0|0:0,0:0:0:0:
79,130,110718,2,0,L|205:119,2,102.374996875763,2|10|10,0:0|0:0|0:0,0:0:0:0:
21,72,111809,6,0,P|-1:150|33:199,1,136.499995834351,2|2,0:0|0:0,0:0:0:0:
179,250,112900,2,0,P|201:328|167:377,1,136.499995834351,2|0,0:0|0:0,0:0:0:0:
122,308,113718,1,10,0:0:0:0:
179,250,113991,6,0,B|247:238|247:238|321:252,1,136.499995834351,6|2,0:0|0:0,0:0:0:0:
455,332,115082,2,0,B|387:344|387:344|313:330,1,136.499995834351,2|0,0:0|0:0,0:0:0:0:
313,250,115900,1,10,0:0:0:0:
382,206,116173,6,0,P|394:159|354:77,1,136.499995834351,2|2,0:0|0:0,0:0:0:0:
199,44,117264,2,0,L|79:53,2,102.374996875763,2|10|10,0:0|0:0|0:0,0:0:0:0:
275,14,118355,6,0,P|252:49|257:151,1,136.499995834351,2|2,0:0|0:0,0:0:0:0:
324,287,119446,2,0,B|355:283|355:283|393:287|393:287|450:279,1,102.374996875763,2|10,0:0|0:0,0:0:0:0:
490,177,120265,1,10,0:0:0:0:
256,192,120537,12,0,122718,0:0:0:0:
256,192,137991,12,0,139627,0:0:0:0:
346,303,140173,6,0,P|337:242|349:159,1,136.499995834351,6|2,0:0|0:0,0:0:0:0:
385,96,140991,1,8,0:0:0:0:
303,97,141264,2,0,P|251:92|193:68,2,102.374996875763,2|10|10,0:0|0:0|0:0,0:0:0:0:
385,96,142355,6,0,P|448:101|492:172,1,136.499995834351,2|2,0:0|0:0,0:0:0:0:
410,174,143173,1,8,0:0:0:0:
355,235,143446,2,0,P|366:283|366:345,2,102.374996875763,2|10|10,0:0|0:0|0:0,0:0:0:0:
327,157,144537,6,0,B|283:146|283:146|187:156,1,136.499995834351,2|2,0:0|0:0,0:0:0:0:
117,122,145355,1,8,0:0:0:0:
49,167,145627,2,0,L|55:273,1,102.374996875763,2|10,0:0|0:0,0:0:0:0:
175,294,146446,1,10,0:0:0:0:
246,255,146718,5,2,0:0:0:0:
378,351,147264,2,0,B|411:365|445:353|445:353|480:342|512:353,2,136.499995834351,2|2|2,0:0|0:0|0:0,0:0:0:0:
458,208,148900,6,0,B|473:139|473:139|455:69,1,136.499995834351,6|2,0:0|0:0,0:0:0:0:
387,32,149718,1,8,0:0:0:0:
310,60,149991,2,0,B|259:73|259:73|197:59,2,102.374996875763,2|10|10,0:0|0:0|0:0,0:0:0:0:
333,138,151082,6,0,P|337:195|296:270,1,136.499995834351,2|2,0:0|0:0,0:0:0:0:
232,308,151900,1,8,0:0:0:0:
158,272,152173,2,0,P|108:260|43:278,1,102.374996875763,2|10,0:0|0:0,0:0:0:0:
9,157,152991,1,10,0:0:0:0:
45,83,153264,6,0,B|78:69|112:81|112:81|147:92|179:81,1,136.499995834351,2|2,0:0|0:0,0:0:0:0:
249,39,154082,1,8,0:0:0:0:
312,90,154355,2,0,B|329:140|329:140|313:205,1,102.374996875763,2|10,0:0|0:0,0:0:0:0:
272,302,155173,1,10,0:0:0:0:
195,271,155446,5,2,0:0:0:0:
307,151,155991,2,0,B|349:149|349:149|400:167|400:167|445:164,2,136.499995834351,2|2|2,0:0|0:0|0:0,0:0:0:0:
239,103,157355,1,10,0:0:0:0:
255,26,157628,5,0,0:0:0:0:
148,116,166355,6,0,P|211:127|270:102,1,130,2|0,0:0|0:0,0:0:0:0:
366,225,167446,2,0,P|306:200|229:221,1,130,10|0,0:0|0:0,0:0:0:0:
151,337,168537,2,0,B|114:346|114:346|24:332,2,130,2|2|10,0:0|0:0|0:0,0:0:0:0:
259,292,170037,2,0,P|313:291|362:316,1,97.5,8|8,0:0|0:0,0:0:0:0:
256,192,172900,12,0,174537,0:0:0:0:
320,306,175082,6,0,P|288:238|314:177,1,143.000004364014,6|2,0:0|0:0,0:0:0:0:
389,142,175900,1,8,0:0:0:0:
470,170,176173,2,0,P|469:114|426:64,1,107.25000327301,2|2,0:0|0:0,0:0:0:0:
315,102,176991,1,10,0:0:0:0:
269,174,177264,6,0,P|201:192|127:177,1,143.000004364014,2|2,0:0|0:0,0:0:0:0:
48,153,178082,1,8,0:0:0:0:
60,238,178355,2,0,L|75:349,2,107.25000327301,2|2|10,0:0|0:0|0:0,0:0:0:0:
48,153,179446,6,0,P|87:111|174:115,1,143.000004364014,2|2,0:0|0:0,0:0:0:0:
239,159,180264,1,8,0:0:0:0:
306,211,180537,2,0,P|361:222|413:207,1,107.25000327301,2|2,0:0|0:0,0:0:0:0:
486,105,181355,1,10,0:0:0:0:
477,19,181627,5,2,0:0:0:0:
495,191,182173,2,0,L|512:337,1,143.000004364014,2|10,0:0|0:0,0:0:0:0:
386,301,183127,2,0,P|333:293|272:292,1,107.25000327301,10|10,0:0|0:0,0:0:0:0:
228,361,183809,6,0,P|236:300|174:234,1,143.000004364014,6|2,0:0|0:0,0:0:0:0:
103,220,184627,1,8,0:0:0:0:
18,235,184900,2,0,B|-10:188|1:121,2,107.25000327301,2|2|10,0:0|0:0|0:0,0:0:0:0:
77,296,185991,6,0,B|110:282|148:295|148:295|188:305|217:292,1,143.000004364014,2|2,0:0|0:0,0:0:0:0:
372,219,187082,2,0,P|345:264|336:332,1,107.25000327301,2|10,0:0|0:0,0:0:0:0:
460,286,187900,1,10,0:0:0:0:
458,200,188173,6,0,P|420:145|339:137,1,143.000004364014,2|2,0:0|0:0,0:0:0:0:
271,172,188991,1,8,0:0:0:0:
217,239,189264,2,0,P|161:228|88:229,2,107.25000327301,2|2|10,0:0|0:0|0:0,0:0:0:0:
255,315,190355,5,2,0:0:0:0:
422,352,190900,2,0,P|420:311|413:253,1,71.5000021820069,2|8,0:0|0:0,0:0:0:0:
357,217,191446,2,0,P|409:227|460:206,2,107.25000327301,2|10|10,0:0|0:0|0:0,0:0:0:0:
285,178,192537,6,0,P|224:169|140:183,1,136.499995834351,6|2,0:0|0:0,0:0:0:0:
78,217,193355,1,8,0:0:0:0:
81,135,193628,2,0,P|54:89|8:47,2,102.374996875763,2|10|10,0:0|0:0|0:0,0:0:0:0:
78,217,194718,6,0,B|62:285|62:285|76:354,1,136.499995834351,2|2,0:0|0:0,0:0:0:0:
154,372,195537,1,8,0:0:0:0:
230,343,195809,2,0,L|343:351,2,102.374996875763,2|10|10,0:0|0:0|0:0,0:0:0:0:
170,287,196900,6,0,P|181:231|261:192,1,136.499995834351,2|2,0:0|0:0,0:0:0:0:
326,200,197718,1,8,0:0:0:0:
392,248,197991,2,0,P|406:199|385:144,1,102.374996875763,2|10,0:0|0:0,0:0:0:0:
305,63,198809,1,10,0:0:0:0:
223,75,199082,5,2,0:0:0:0:
152,223,199627,2,0,B|119:237|85:225|85:225|50:214|18:225,2,136.499995834351,2|2|2,0:0|0:0|0:0,0:0:0:0:
287,129,201264,6,0,P|266:198|289:268,1,136.499995834351,6|2,0:0|0:0,0:0:0:0:
338,317,202082,1,8,0:0:0:0:
403,267,202355,2,0,L|508:277,2,102.374996875763,2|10|10,0:0|0:0|0:0,0:0:0:0:
338,317,203446,6,0,B|272:334|272:334|200:321,1,136.499995834351,2|2,0:0|0:0,0:0:0:0:
125,300,204264,1,8,0:0:0:0:
54,257,204537,2,0,P|63:206|49:141,1,102.374996875763,2|10,0:0|0:0,0:0:0:0:
2,45,205355,1,10,0:0:0:0:
81,25,205627,6,0,P|150:27|226:39,1,136.499995834351,2|2,0:0|0:0,0:0:0:0:
275,94,206446,1,8,0:0:0:0:
333,151,206718,2,0,P|387:151|447:146,2,102.374996875763,2|10|10,0:0|0:0|0:0,0:0:0:0:
254,174,207809,6,0,P|225:236|253:296,1,136.499995834351,2|2,0:0|0:0,0:0:0:0:
411,330,208900,1,8,0:0:0:0:
