osu file format v14

[General]
AudioFilename: DEANlove.mp3
AudioLeadIn: 0
PreviewTime: 175355
Countdown: 0
SampleSet: Soft
StackLeniency: 0.7
Mode: 0
LetterboxInBreaks: 0
WidescreenStoryboard: 0

[Editor]
Bookmarks: 18003,210003
DistanceSpacing: 1.4
BeatDivisor: 4
GridSize: 4
TimelineZoom: 2.500005

[Metadata]
Title:love (Feat. Syd)
TitleUnicode:love (Feat. Syd)
Artist:DEAN
ArtistUnicode:DEAN
Creator:Ora
Version:I Know
Source:
Tags:Syd Tha Kyd 권혁 r&b kpop k-pop the internet Deanfluenza Nick Green highhopes Zak Abel Universal Music Ltd
BeatmapID:1302437
BeatmapSetID:617753

[Difficulty]
HPDrainRate:5
CircleSize:4.2
OverallDifficulty:6
ApproachRate:7
SliderMultiplier:1.6
SliderTickRate:1

[Events]
//Background and Video events
0,0,"deansyd.jpg",0,0
Video,0,"deanlove_1.avi"
//Break Periods
2,53100,67273
2,122918,137091
2,157827,165455
2,170645,172000
//Storyboard Layer 0 (Background)
//Storyboard Layer 1 (Fail)
//Storyboard Layer 2 (Pass)
//Storyboard Layer 3 (Foreground)
//Storyboard Sound Samples

[TimingPoints]
537,545.454545454546,4,2,1,45,1,0
35446,-95.2380952380952,4,2,1,50,0,0
87809,-90.9090909090909,4,2,1,55,0,1
103082,-95.2380952380952,4,2,1,50,0,0
166355,-100,4,2,1,53,0,0
170037,-100,4,2,1,48,0,0
170446,-100,4,2,1,33,0,0
172900,-100,4,2,1,53,0,0
175082,-90.9090909090909,4,2,1,60,0,1
192537,-95.2380952380952,4,2,1,50,0,0
208900,-95.2380952380952,4,2,1,65,0,0

[Colours]
Combo1 : 164,188,141
Combo2 : 194,163,150
Combo3 : 137,158,190

[HitObjects]
256,192,15809,12,0,17446,0:0:0:0:
304,144,17991,5,2,0:0:0:0:
216,85,18264,1,0,0:0:0:0:
216,85,18400,1,8,0:0:0:0:
216,85,18537,2,0,P|178:90|135:91,1,80,2|8,0:0|0:0,0:0:0:0:
68,180,19082,2,0,P|123:182|159:189,1,80,2|0,0:0|0:0,0:0:0:0:
184,202,19491,2,0,P|208:235|225:274,1,80,10|0,0:0|0:0,0:0:0:0:
235,309,19900,1,10,0:0:0:0:
340,271,20173,5,2,0:0:0:0:
404,363,20446,2,0,P|426:363|458:367,2,40,0|8|2,0:0|0:0|0:0,0:0:0:0:
276,375,20991,1,8,0:0:0:0:
170,338,21264,2,0,P|113:332|41:337,2,120,2|10|10,0:0|0:0|0:0,0:0:0:0:
264,277,22355,5,2,0:0:0:0:
256,165,22627,1,0,0:0:0:0:
256,165,22764,1,8,0:0:0:0:
256,165,22900,2,0,P|240:114|229:89,1,80,2|8,0:0|0:0,0:0:0:0:
330,39,23446,2,0,P|381:46|454:51,2,120,2|10|10,0:0|0:0|0:0,0:0:0:0:
229,89,24537,5,2,0:0:0:0:
118,71,24809,1,0,0:0:0:0:
118,71,24946,1,10,0:0:0:0:
118,71,25082,2,0,P|127:111|131:155,1,80,0|10,0:0|0:0,0:0:0:0:
116,261,25627,2,0,P|157:251|210:254,1,80,2|0,0:0|0:0,0:0:0:0:
236,259,26036,2,0,P|255:227|284:194,1,80,10|0,0:0|0:0,0:0:0:0:
317,174,26445,1,10,0:0:0:0:
428,192,26718,5,2,0:0:0:0:
372,289,26991,2,0,P|380:309|386:332,2,40,0|8|2,0:0|0:0|0:0,0:0:0:0:
317,174,27537,1,8,0:0:0:0:
378,80,27809,2,0,P|439:62|492:76,2,120,2|10|10,0:0|0:0|0:0,0:0:0:0:
317,174,28900,5,2,0:0:0:0:
385,262,29173,1,0,0:0:0:0:
385,262,29309,1,8,0:0:0:0:
385,262,29446,2,0,P|384:305|378:347,1,80,2|8,0:0|0:0,0:0:0:0:
267,334,29991,2,0,P|226:331|186:336,1,80,2|0,0:0|0:0,0:0:0:0:
148,347,30400,2,0,P|116:317|80:296,1,80,10|0,0:0|0:0,0:0:0:0:
46,286,30809,1,10,0:0:0:0:
80,179,31082,5,2,0:0:0:0:
190,195,31355,1,0,0:0:0:0:
190,195,31491,1,8,0:0:0:0:
190,195,31627,2,0,P|233:191|274:184,1,80,2|8,0:0|0:0,0:0:0:0:
349,106,32173,2,0,P|350:163|383:225,1,120,2|10,0:0|0:0,0:0:0:0:
400,251,32718,2,0,P|356:254|315:261,1,80,2|8,0:0|0:0,0:0:0:0:
256,192,33264,12,0,34900,0:0:0:0:
238,237,35446,6,0,P|256:197|288:172,1,83.9999974365235,6|0,0:0|0:0,0:0:0:0:
380,243,35991,2,0,P|361:282|329:307,1,83.9999974365235,2|8,0:0|0:0,0:0:0:0:
220,355,36537,1,2,0:0:0:0:
127,289,36809,1,0,0:0:0:0:
127,289,36946,2,0,L|36:295,1,83.9999974365235,10|0,0:0|0:0,0:0:0:0:
1,298,37355,1,10,0:0:0:0:
60,196,37627,6,0,P|70:150|67:105,1,83.9999974365235,2|0,0:0|0:0,0:0:0:0:
163,42,38173,2,0,P|172:82|171:124,1,83.9999974365235,2|8,0:0|0:0,0:0:0:0:
256,206,38718,1,2,0:0:0:0:
356,144,38991,1,0,0:0:0:0:
356,144,39128,2,0,L|447:150,1,83.9999974365235,10|0,0:0|0:0,0:0:0:0:
482,153,39537,1,10,0:0:0:0:
442,263,39809,6,0,P|440:304|450:345,1,83.9999974365235,2|0,0:0|0:0,0:0:0:0:
332,355,40355,2,0,P|334:314|324:273,1,83.9999974365235,2|8,0:0|0:0,0:0:0:0:
374,166,40900,1,2,0:0:0:0:
316,63,41173,1,0,0:0:0:0:
316,63,41309,1,10,0:0:0:0:
316,63,41446,2,0,P|279:97|259:139,1,83.9999974365235,0|10,0:0|0:0,0:0:0:0:
229,240,41991,6,0,P|185:233|144:220,1,83.9999974365235,2|0,0:0|0:0,0:0:0:0:
109,203,42400,2,0,P|67:209|27:221,1,83.9999974365235,8|0,0:0|0:0,0:0:0:0:
0,253,42809,1,8,0:0:0:0:
84,334,43082,2,0,B|118:324|150:332|150:332|183:341|216:330,1,125.999996154785,2|10,0:0|0:0,0:0:0:0:
258,163,43900,1,10,0:0:0:0:
365,212,44173,6,0,P|372:253|373:300,1,83.9999974365235,6|0,0:0|0:0,0:0:0:0:
462,372,44718,2,0,P|463:330|470:288,1,83.9999974365235,2|8,0:0|0:0,0:0:0:0:
501,172,45264,1,2,0:0:0:0:
439,71,45537,1,0,0:0:0:0:
439,71,45673,2,0,P|397:84|354:74,1,83.9999974365235,10|0,0:0|0:0,0:0:0:0:
321,56,46082,1,10,0:0:0:0:
204,75,46355,6,0,P|236:104|249:147,1,83.9999974365235,2|0,0:0|0:0,0:0:0:0:
301,249,46900,2,0,P|310:206|340:173,1,83.9999974365235,2|8,0:0|0:0,0:0:0:0:
415,263,47446,1,2,0:0:0:0:
359,369,47718,1,0,0:0:0:0:
359,369,47855,2,0,L|266:360,1,83.9999974365235,10|0,0:0|0:0,0:0:0:0:
233,355,48264,1,10,0:0:0:0:
152,268,48537,6,0,L|245:259,1,83.9999974365235,2|0,0:0|0:0,0:0:0:0:
317,175,49082,2,0,L|224:166,1,83.9999974365235,2|8,0:0|0:0,0:0:0:0:
134,103,49627,1,2,0:0:0:0:
39,173,49900,1,0,0:0:0:0:
39,173,50037,1,10,0:0:0:0:
39,173,50173,1,0,0:0:0:0:
52,298,50446,1,10,0:0:0:0:
256,192,50718,12,2,52900,0:0:0:0:
256,192,68173,12,0,69809,0:0:0:0:
311,282,70355,6,0,P|313:224|378:189,1,125.999996154785,6|8,0:0|0:0,0:0:0:0:
407,191,70900,2,0,P|395:149|406:107,1,83.9999974365235,2|8,0:0|0:0,0:0:0:0:
315,33,71446,2,0,P|256:56|195:31,2,125.999996154785,2|10|10,0:0|0:0|0:0,0:0:0:0:
431,56,72537,6,0,P|419:119|416:191,1,125.999996154785,2|8,0:0|0:0,0:0:0:0:
417,222,73082,2,0,P|370:221|325:226,1,83.9999974365235,2|8,0:0|0:0,0:0:0:0:
252,248,73627,2,0,P|264:311|267:383,2,125.999996154785,2|10|10,0:0|0:0|0:0,0:0:0:0:
221,134,74718,6,0,P|231:87|309:92,1,125.999996154785,2|8,0:0|0:0,0:0:0:0:
333,107,75264,2,0,P|379:114|418:105,1,83.9999974365235,2|8,0:0|0:0,0:0:0:0:
438,221,75809,2,0,P|375:204|314:223,1,125.999996154785,2|10,0:0|0:0,0:0:0:0:
190,342,76627,1,10,0:0:0:0:
77,311,76900,6,0,P|60:248|79:187,1,125.999996154785,2|8,0:0|0:0,0:0:0:0:
105,160,77446,2,0,B|146:171|186:144|186:144|225:170|269:157,2,167.999994873047,2|2|2,0:0|0:0|0:0,0:0:0:0:
105,160,79082,6,0,B|93:95|93:95|106:36,1,125.999996154785,6|8,0:0|0:0,0:0:0:0:
146,27,79627,2,0,B|190:18|190:18|231:27,1,83.9999974365235,2|8,0:0|0:0,0:0:0:0:
341,59,80173,2,0,B|406:71|406:71|465:58,2,125.999996154785,2|10|10,0:0|0:0|0:0,0:0:0:0:
257,141,81264,6,0,B|241:180|241:180|259:267,1,125.999996154785,2|8,0:0|0:0,0:0:0:0:
269,302,81809,2,0,B|225:293|225:293|184:302,1,83.9999974365235,2|8,0:0|0:0,0:0:0:0:
100,220,82355,2,0,B|138:236|138:236|225:218,2,125.999996154785,2|10|10,0:0|0:0|0:0,0:0:0:0:
11,142,83446,6,0,L|136:124,1,125.999996154785,2|8,0:0|0:0,0:0:0:0:
150,84,83991,2,0,L|236:93,1,83.9999974365235,2|8,0:0|0:0,0:0:0:0:
350,106,84537,2,0,L|368:231,1,125.999996154785,2|10,0:0|0:0,0:0:0:0:
256,367,85355,1,10,0:0:0:0:
150,315,85627,6,0,L|168:190,1,125.999996154785,2|8,0:0|0:0,0:0:0:0:
175,148,86173,2,0,B|121:156|121:156|55:145|55:145|7:152,2,167.999994873047,2|2|2,0:0|0:0|0:0,0:0:0:0:
291,127,87537,1,10,0:0:0:0:
410,153,87809,6,0,P|446:186|446:274,1,132.00000402832,6|8,0:0|0:0,0:0:0:0:
423,299,88355,1,2,0:0:0:0:
302,324,88627,1,8,0:0:0:0:
302,324,88764,1,0,0:0:0:0:
302,324,88900,2,0,P|305:345|305:370,1,44.0000013427735,2|0,0:0|0:0,0:0:0:0:
228,259,89309,2,0,P|230:211|238:161,1,88.000002685547,10|0,0:0|0:0,0:0:0:0:
265,138,89718,2,0,P|263:109|258:80,1,44.0000013427735,10|0,0:0|0:0,0:0:0:0:
245,52,89991,6,0,P|201:51|157:46,1,88.000002685547,2|0,0:0|0:0,0:0:0:0:
122,73,90400,2,0,P|78:74|34:79,1,88.000002685547,10|0,0:0|0:0,0:0:0:0:
1,108,90809,2,0,P|3:130|8:155,1,44.0000013427735,10|0,0:0|0:0,0:0:0:0:
19,194,91082,2,0,P|-1:260|36:313,2,132.00000402832,2|10|10,0:0|0:0|0:0,0:0:0:0:
133,147,92173,5,6,0:0:0:0:
250,186,92446,2,0,L|259:122,2,44.0000013427735,0|8|2,0:0|0:0|0:0,0:0:0:0:
240,308,92991,1,8,0:0:0:0:
240,308,93127,1,0,0:0:0:0:
240,308,93264,2,0,P|211:312|179:312,1,44.0000013427735,2|0,0:0|0:0,0:0:0:0:
306,239,93673,2,0,P|352:240|400:246,1,88.000002685547,10|0,0:0|0:0,0:0:0:0:
434,262,94082,2,0,P|432:233|428:206,1,44.0000013427735,10|0,0:0|0:0,0:0:0:0:
453,181,94355,6,0,P|453:137|458:92,1,88.000002685547,2|0,0:0|0:0,0:0:0:0:
482,56,94764,2,0,P|437:64|392:47,1,88.000002685547,10|0,0:0|0:0,0:0:0:0:
361,25,95173,2,0,P|336:26|315:30,1,44.0000013427735,10|0,0:0|0:0,0:0:0:0:
275,44,95446,2,0,P|295:110|258:163,2,132.00000402832,2|10|10,0:0|0:0|0:0,0:0:0:0:
151,50,96537,5,6,0:0:0:0:
90,158,96809,2,0,P|93:131|101:104,1,44.0000013427735,0|8,0:0|0:0,0:0:0:0:
221,97,97218,2,0,P|233:118|239:139,1,44.0000013427735,0|8,0:0|0:0,0:0:0:0:
175,243,97627,2,0,P|169:287|166:336,1,88.000002685547,2|0,0:0|0:0,0:0:0:0:
132,359,98037,2,0,P|189:341|267:339,1,132.00000402832,10|10,0:0|0:0,0:0:0:0:
380,366,98718,5,2,0:0:0:0:
441,258,98991,2,0,P|438:285|430:312,1,44.0000013427735,0|8,0:0|0:0,0:0:0:0:
310,319,99400,2,0,P|298:298|292:277,1,44.0000013427735,0|8,0:0|0:0,0:0:0:0:
287,155,99809,2,0,P|332:149|380:146,1,88.000002685547,2|0,0:0|0:0,0:0:0:0:
415,164,100218,2,0,P|439:111|407:36,1,132.00000402832,10|10,0:0|0:0,0:0:0:0:
294,23,100900,5,6,0:0:0:0:
189,89,101173,2,0,P|147:87|98:78,2,88.000002685547,0|2|8,0:0|0:0|0:0,0:0:0:0:
298,145,101991,2,0,P|343:137|389:134,2,88.000002685547,2|0|2,0:0|0:0|0:0,0:0:0:0:
195,213,102809,1,10,0:0:0:0:
256,192,103082,12,0,104718,0:0:0:0:
322,225,105264,6,0,B|364:219|364:219|415:231,1,83.9999974365235,6|0,0:0|0:0,0:0:0:0:
401,346,105809,2,0,B|359:352|359:352|308:340,1,83.9999974365235,2|8,0:0|0:0,0:0:0:0:
220,278,106355,1,2,0:0:0:0:
108,240,106627,1,0,0:0:0:0:
108,240,106764,2,0,P|63:241|20:263,1,83.9999974365235,10|0,0:0|0:0,0:0:0:0:
0,288,107173,1,10,0:0:0:0:
113,318,107446,6,0,P|159:298|180:268,1,83.9999974365235,2|0,0:0|0:0,0:0:0:0:
179,153,107991,2,0,P|209:182|254:194,1,83.9999974365235,2|8,0:0|0:0,0:0:0:0:
366,208,108537,1,2,0:0:0:0:
450,126,108809,1,0,0:0:0:0:
450,126,108946,2,0,P|449:75|428:33,1,83.9999974365235,10|0,0:0|0:0,0:0:0:0:
408,13,109355,1,10,0:0:0:0:
298,54,109627,6,0,L|197:43,1,83.9999974365235,2|0,0:0|0:0,0:0:0:0:
134,131,110173,2,0,L|217:140,1,83.9999974365235,2|8,0:0|0:0,0:0:0:0:
275,242,110718,1,2,0:0:0:0:
170,287,110991,1,0,0:0:0:0:
170,287,111127,1,10,0:0:0:0:
170,287,111264,2,0,P|124:288|71:268,1,83.9999974365235,0|10,0:0|0:0,0:0:0:0:
4,191,111809,6,0,P|22:157|27:110,1,83.9999974365235,2|0,0:0|0:0,0:0:0:0:
19,70,112218,2,0,P|57:68|100:49,1,83.9999974365235,8|0,0:0|0:0,0:0:0:0:
131,23,112627,1,8,0:0:0:0:
247,45,112900,2,0,B|240:86|240:86|247:131|247:131|239:182,1,125.999996154785,2|10,0:0|0:0,0:0:0:0:
104,280,113718,1,10,0:0:0:0:
195,353,113991,6,0,L|210:266,1,83.9999974365235,6|0,0:0|0:0,0:0:0:0:
316,221,114537,2,0,L|301:308,1,83.9999974365235,2|8,0:0|0:0,0:0:0:0:
406,358,115082,1,2,0:0:0:0:
511,306,115355,1,0,0:0:0:0:
511,306,115491,2,0,L|496:219,1,83.9999974365235,10|0,0:0|0:0,0:0:0:0:
487,182,115900,1,10,0:0:0:0:
385,121,116173,6,0,L|400:208,1,83.9999974365235,2|0,0:0|0:0,0:0:0:0:
325,295,116718,2,0,L|310:208,1,83.9999974365235,2|8,0:0|0:0,0:0:0:0:
242,116,117264,1,2,0:0:0:0:
125,98,117537,1,0,0:0:0:0:
125,98,117673,2,0,P|80:110|48:146,1,83.9999974365235,10|0,0:0|0:0,0:0:0:0:
37,174,118082,1,10,0:0:0:0:
69,286,118355,6,0,P|101:318|149:328,1,83.9999974365235,2|0,0:0|0:0,0:0:0:0:
237,267,118900,2,0,P|249:222|233:176,1,83.9999974365235,2|8,0:0|0:0,0:0:0:0:
339,123,119446,1,2,0:0:0:0:
445,172,119718,1,0,0:0:0:0:
445,172,119855,1,10,0:0:0:0:
445,172,119991,1,0,0:0:0:0:
427,296,120264,1,10,0:0:0:0:
256,192,120537,12,0,122718,0:0:0:0:
256,192,137991,12,0,139627,0:0:0:0:
333,142,140173,6,0,P|307:192|337:265,1,125.999996154785,6|8,0:0|0:0,0:0:0:0:
357,284,140718,2,0,P|314:286|272:292,1,83.9999974365235,2|8,0:0|0:0,0:0:0:0:
171,351,141264,2,0,P|112:364|52:340,2,125.999996154785,2|10|10,0:0|0:0|0:0,0:0:0:0:
121,244,142355,6,0,P|97:192|108:117,1,125.999996154785,2|8,0:0|0:0,0:0:0:0:
138,101,142900,2,0,P|137:57|122:20,1,83.9999974365235,2|8,0:0|0:0,0:0:0:0:
239,10,143446,2,0,P|230:71|255:128,2,125.999996154785,2|10|10,0:0|0:0|0:0,0:0:0:0:
347,55,144537,6,0,B|410:68|410:68|482:52,1,125.999996154785,2|8,0:0|0:0,0:0:0:0:
510,43,145082,2,0,P|495:81|490:135,1,83.9999974365235,2|8,0:0|0:0,0:0:0:0:
472,240,145627,2,0,B|409:227|409:227|337:243,1,125.999996154785,2|10,0:0|0:0,0:0:0:0:
176,281,146446,1,10,0:0:0:0:
70,228,146718,6,0,P|76:162|88:103,1,125.999996154785,2|8,0:0|0:0,0:0:0:0:
104,64,147264,2,0,B|145:75|185:48|185:48|224:73|268:61,2,167.999994873047,2|2|2,0:0|0:0|0:0,0:0:0:0:
104,64,148900,6,0,P|65:88|106:158,1,125.999996154785,6|8,0:0|0:0,0:0:0:0:
127,169,149446,2,0,P|171:159|213:168,1,83.9999974365235,2|8,0:0|0:0,0:0:0:0:
299,240,149991,2,0,P|285:179|300:118,2,125.999996154785,2|10|10,0:0|0:0|0:0,0:0:0:0:
349,346,151082,6,0,B|392:360|392:360|482:343,1,125.999996154785,2|8,0:0|0:0,0:0:0:0:
502,316,151627,2,0,B|512:272|512:272|502:227,1,83.9999974365235,2|8,0:0|0:0,0:0:0:0:
424,145,152173,2,0,B|410:188|410:188|427:278,2,125.999996154785,2|10|10,0:0|0:0|0:0,0:0:0:0:
503,58,153264,6,0,P|441:30|372:40,1,125.999996154785,2|8,0:0|0:0,0:0:0:0:
353,62,153809,2,0,P|312:72|271:68,1,83.9999974365235,2|8,0:0|0:0,0:0:0:0:
152,67,154355,2,0,P|124:123|129:185,1,125.999996154785,2|10,0:0|0:0,0:0:0:0:
226,331,155173,1,10,0:0:0:0:
332,278,155446,6,0,P|394:273|450:300,1,125.999996154785,2|8,0:0|0:0,0:0:0:0:
481,328,155991,2,0,B|472:274|472:274|483:208|483:208|476:160,2,167.999994873047,2|2|2,0:0|0:0|0:0,0:0:0:0:
373,278,157355,1,10,0:0:0:0:
307,375,157627,5,0,0:0:0:0:
304,236,166355,6,0,P|369:223|438:222,2,120,2|0|0,0:0|0:0|0:0,0:0:0:0:
189,292,167446,2,0,P|180:244|160:208,1,80,10|0,0:0|0:0,0:0:0:0:
140,185,167855,2,0,P|148:144|164:109,1,80
317,39,168537,6,0,P|361:49|399:61,1,80,2|0,0:0|0:0,0:0:0:0:
434,164,169082,2,0,P|395:152|356:143,1,80,2|0,0:0|0:0,0:0:0:0:
259,226,169627,2,0,P|281:280|289:344,2,120,10|8|8,0:0|0:0|0:0,0:0:0:0:
256,192,172900,12,0,174537,0:0:0:0:
196,142,175082,5,6,0:0:0:0:
316,168,175355,1,0,0:0:0:0:
316,168,175491,1,8,0:0:0:0:
316,168,175627,2,0,P|311:216|293:261,1,88.000002685547,2|8,0:0|0:0,0:0:0:0:
224,352,176173,2,0,P|268:331|316:324,1,88.000002685547,2|0,0:0|0:0,0:0:0:0:
430,340,176718,2,0,P|389:311|360:273,1,88.000002685547,2|10,0:0|0:0,0:0:0:0:
316,168,177264,5,2,0:0:0:0:
369,57,177537,1,0,0:0:0:0:
369,57,177673,1,8,0:0:0:0:
369,57,177809,2,0,P|413:57|472:63,1,88.000002685547,2|8,0:0|0:0,0:0:0:0:
511,172,178355,2,0,P|468:172|423:177,1,88.000002685547,2|0,0:0|0:0,0:0:0:0:
374,290,178900,2,0,P|421:290|477:296,1,88.000002685547,2|10,0:0|0:0,0:0:0:0:
423,176,179446,5,2,0:0:0:0:
316,116,179718,1,0,0:0:0:0:
316,116,179855,1,8,0:0:0:0:
316,116,179991,1,2,0:0:0:0:
196,173,180264,1,8,0:0:0:0:
313,211,180537,2,0,P|323:257|315:303,1,88.000002685547,2|0,0:0|0:0,0:0:0:0:
202,258,181082,2,0,P|191:215|196:171,1,88.000002685547,2|0,0:0|0:0,0:0:0:0:
158,54,181627,5,2,0:0:0:0:
68,139,181900,1,0,0:0:0:0:
195,172,182173,2,0,P|241:173|290:156,1,88.000002685547,2|8,0:0|0:0,0:0:0:0:
386,114,182718,2,0,P|444:125|481:194,2,132.00000402832,2|10|10,0:0|0:0|0:0,0:0:0:0:
283,46,183809,5,6,0:0:0:0:
250,165,184082,1,0,0:0:0:0:
250,165,184218,1,8,0:0:0:0:
250,165,184355,2,0,P|238:213|251:261,1,88.000002685547,2|8,0:0|0:0,0:0:0:0:
386,259,184900,2,0,P|350:224|302:211,1,88.000002685547,2|0,0:0|0:0,0:0:0:0:
237,330,185446,2,0,P|284:316|319:281,1,88.000002685547,2|10,0:0|0:0,0:0:0:0:
250,165,185991,5,2,0:0:0:0:
135,210,186264,1,0,0:0:0:0:
135,210,186400,1,8,0:0:0:0:
135,210,186537,1,2,0:0:0:0:
173,84,186809,1,8,0:0:0:0:
74,157,187082,2,0,P|54:214|102:284,2,132.00000402832,2|10|10,0:0|0:0|0:0,0:0:0:0:
173,84,188173,5,2,0:0:0:0:
283,139,188446,1,0,0:0:0:0:
283,139,188582,1,8,0:0:0:0:
283,139,188718,2,0,P|327:144|375:136,1,88.000002685547,2|8,0:0|0:0,0:0:0:0:
448,41,189264,2,0,P|404:36|356:44,1,88.000002685547,2|0,0:0|0:0,0:0:0:0:
283,139,189809,2,0,P|282:189|292:237,1,88.000002685547,2|10,0:0|0:0,0:0:0:0:
350,333,190355,5,2,0:0:0:0:
228,318,190627,1,0,0:0:0:0:
228,318,190764,1,8,0:0:0:0:
228,318,190900,2,0,P|184:326|140:318,1,88.000002685547,2|8,0:0|0:0,0:0:0:0:
50,234,191446,2,0,P|66:173|52:104,1,132.00000402832,2|10,0:0|0:0,0:0:0:0:
224,37,192264,1,10,0:0:0:0:
324,98,192537,6,0,P|307:161|324:230,1,125.999996154785,6|10,0:0|0:0,0:0:0:0:
332,258,193082,2,0,P|291:245|246:240,1,83.9999974365235,2|8,0:0|0:0,0:0:0:0:
135,265,193627,2,0,P|74:280|16:258,2,125.999996154785,2|10|10,0:0|0:0|0:0,0:0:0:0:
242,313,194718,6,0,B|257:253|257:253|238:189,1,125.999996154785,2|8,0:0|0:0,0:0:0:0:
221,153,195264,2,0,B|266:167|266:167|310:160,1,83.9999974365235,2|8,0:0|0:0,0:0:0:0:
400,95,195809,2,0,B|341:73|341:73|276:86,2,125.999996154785,2|10|10,0:0|0:0|0:0,0:0:0:0:
502,153,196900,6,0,P|497:216|488:289,1,125.999996154785,2|8,0:0|0:0,0:0:0:0:
450,293,197446,2,0,P|456:339|463:379,1,83.9999974365235,2|8,0:0|0:0,0:0:0:0:
355,326,197991,2,0,P|295:328|219:340,1,125.999996154785,2|10,0:0|0:0,0:0:0:0:
54,323,198809,1,10,0:0:0:0:
38,206,199082,6,0,P|67:161|139:184,1,125.999996154785,2|8,0:0|0:0,0:0:0:0:
155,206,199627,2,0,B|196:195|236:222|236:222|275:196|319:209,2,167.999994873047,2|2|2,0:0|0:0|0:0,0:0:0:0:
155,206,201264,6,0,P|104:204|61:129,1,125.999996154785,6|8,0:0|0:0,0:0:0:0:
81,111,201809,2,0,P|42:119|-1:111,1,83.9999974365235,2|8,0:0|0:0,0:0:0:0:
89,35,202355,2,0,P|142:63|150:145,2,125.999996154785,2|10|10,0:0|0:0|0:0,0:0:0:0:
0,111,203446,6,0,L|13:238,1,125.999996154785,2|8,0:0|0:0,0:0:0:0:
42,266,203991,2,0,P|91:268|134:256,1,83.9999974365235,2|8,0:0|0:0,0:0:0:0:
234,217,204537,2,0,P|299:216|361:241,2,125.999996154785,2|10|10,0:0|0:0|0:0,0:0:0:0:
134,154,205627,6,0,P|133:89|158:27,1,125.999996154785,2|8,0:0|0:0,0:0:0:0:
195,40,206173,2,0,P|242:39|295:33,1,83.9999974365235,2|8,0:0|0:0,0:0:0:0:
395,18,206718,2,0,P|385:78|381:146,1,125.999996154785,2|10,0:0|0:0,0:0:0:0:
446,307,207537,1,10,0:0:0:0:
344,247,207809,6,0,P|289:245|226:352,1,167.999994873047
224,328,208900,1,8,0:0:0:0:
