osu file format v14

[General]
AudioFilename: audio.mp3
AudioLeadIn: 0
PreviewTime: -1
Countdown: 1
SampleSet: None
StackLeniency: 0.7
Mode: 0
LetterboxInBreaks: 0
WidescreenStoryboard: 0

[Editor]
DistanceSpacing: 1.1
BeatDivisor: 4
GridSize: 4
TimelineZoom: 1

[Metadata]
Title:Invicible
TitleUnicode:Invicible
Artist:DEAF KEV
ArtistUnicode:DEAF KEV
Creator:BramboraSK
Version:Normal
Source:
Tags:
BeatmapID:1068605
BeatmapSetID:502100

[Difficulty]
HPDrainRate:5
CircleSize:5
OverallDifficulty:5
ApproachRate:5
SliderMultiplier:3.2
SliderTickRate:4

[Events]
//Background and Video events
0,0,"maxresdefault.jpg",0,0
//Break Periods
2,41559,45636
//Storyboard Layer 0 (Background)
//Storyboard Layer 1 (Fail)
//Storyboard Layer 2 (Pass)
//Storyboard Layer 3 (Foreground)
//Storyboard Sound Samples

[TimingPoints]
169.809523809524,476.190476190476,4,1,0,100,1,0

[HitObjects]
224,212,288,5,0,0:0:0:0:
456,160,765,1,0,0:0:0:0:
384,236,1241,1,0,0:0:0:0:
280,192,1836,1,0,0:0:0:0:
396,128,2431,1,0,0:0:0:0:
24,124,2907,1,0,0:0:0:0:
116,168,4098,2,0,B|176:200|-56:168|380:164,8,240
48,88,7193,2,0,B|336:156|248:208|168:216|148:164,3,320
304,96,8860,2,0,L|432:148,3,80
224,164,9455,2,0,B|152:120|152:112|344:68|396:76,3,240
384,156,10526,2,0,B|292:208|288:208|196:196|128:88|160:88,3,240
172,132,11598,2,0,B|-52:148|312:152|448:200|444:208|408:148|368:140,3,400
308,116,13503,2,0,B|156:140|184:208|400:248|492:216|432:144|432:144|296:88|292:88|264:88|264:88|-44:152|492:176,2,1040
200,160,18026,1,0,0:0:0:0:
284,152,18146,1,0,0:0:0:0:
412,196,18384,1,0,0:0:0:0:
336,260,18503,1,0,0:0:0:0:
200,148,21003,1,0,0:0:0:0:
320,136,21479,1,0,0:0:0:0:
440,112,22193,1,0,0:0:0:0:
32,8,22788,1,0,0:0:0:0:
328,376,23384,1,0,0:0:0:0:
424,188,24098,1,0,0:0:0:0:
236,204,24693,1,0,0:0:0:0:
424,176,25288,1,0,0:0:0:0:
328,112,25884,1,0,0:0:0:0:
288,172,26479,1,0,0:0:0:0:
376,176,27074,1,0,0:0:0:0:
360,112,27550,1,0,0:0:0:0:
272,120,28265,1,0,0:0:0:0:
376,156,28741,1,0,0:0:0:0:
320,112,29455,1,0,0:0:0:0:
220,112,29574,1,0,0:0:0:0:
164,220,29693,1,0,0:0:0:0:
316,200,29931,1,0,0:0:0:0:
428,164,30050,1,0,0:0:0:0:
300,112,31360,2,0,B|216:184|208:184|104:156|184:88|428:92|488:112|468:156|468:160|136:280|140:280|176:172,2,640
500,116,33503,2,0,L|296:56,1,160
300,68,33860,2,0,B|180:64|144:140|192:200|284:208|340:176|356:144,2,320
280,136,34931,2,0,B|152:224|144:216|160:108|204:80,3,240
272,100,36122,2,0,B|404:236|196:260|196:260|52:160|164:108|164:104|224:52|224:52|424:120,2,720
460,148,37907,6,0,P|384:204|240:256,2,240
212,208,38384,2,0,P|144:284|140:252,2,240
268,164,38860,2,0,L|176:152,2,80
200,108,39217,2,0,P|296:136|304:144,3,80
352,148,39693,2,0,L|448:140,2,80
448,140,39931,2,0,B|364:236|276:228|276:224|268:196|252:152|252:152|264:128,4,240
320,64,46836,6,0,B|208:76|256:84|268:108|400:112|396:116|584:128|488:120|372:132,5,320
228,88,49574,2,4,B|384:116|360:120|352:140|340:164|340:164|320:176|320:176|336:156|552:32|304:64|240:80|224:96|220:128|144:208|504:44,3,720
60,228,53384,2,4,B|304:168|384:132|376:96,2,320
220,44,54336,2,4,P|224:156|300:164,5,160
380,100,56003,2,4,B|-8:104|88:216,2,320
356,176,57669,2,4,L|292:112,1,80
172,88,58026,2,4,P|-68:152|208:184,1,720
304,168,60050,1,4,0:0:0:0:
304,168,60169,1,4,0:0:0:0:
336,72,60407,1,4,0:0:0:0:
188,104,60646,1,4,0:0:0:0:
92,216,61122,1,0,0:0:0:0:
300,224,61717,1,0,0:0:0:0:
248,140,62312,1,0,0:0:0:0:
120,136,62907,1,0,0:0:0:0:
240,192,63741,2,0,L|320:164,2,80
244,116,64098,2,0,B|116:168|116:168|184:184|188:184|344:264|392:252|416:240|404:208|400:200|360:184|360:184|344:184|524:168|496:88|564:80|588:76|588:76|556:68|568:36|568:36|400:112,3,960
240,104,70646,2,2,B|264:192|136:216|44:216|48:216|76:192|80:192|152:128|192:80|208:80|340:80|304:144|288:192,4,480
360,140,75050,6,2,P|236:140|236:136,2,160
352,140,75526,2,2,L|240:124,3,80
240,76,76003,2,2,B|480:120|496:128|476:136|456:152|224:176|216:160,2,400
316,68,77312,2,2,B|256:136|248:152|220:168|240:160|240:160|248:156|268:148|268:148|248:208,11,160
24,200,80288,2,2,L|276:112,1,240
400,224,80884,2,2,L|208:228,2,160
252,176,82550,1,2,0:0:0:0:
376,164,82669,1,2,0:0:0:0:
68,132,83146,1,0,0:0:0:0:
252,280,83503,1,0,0:0:0:0:
276,164,83622,1,0,0:0:0:0:
392,48,83860,1,0,0:0:0:0:
308,132,83979,1,0,0:0:0:0:
132,16,84217,1,0,0:0:0:0:
200,188,84455,1,0,0:0:0:0:
100,300,84693,1,0,0:0:0:0:
248,244,84931,1,0,0:0:0:0:
404,160,85169,1,0,0:0:0:0:
184,148,87431,1,0,0:0:0:0:
184,148,87669,1,0,0:0:0:0:
208,228,88146,1,0,0:0:0:0:
328,172,88384,1,0,0:0:0:0:
328,172,88503,1,0,0:0:0:0:
296,68,88622,1,0,0:0:0:0:
192,152,88860,1,0,0:0:0:0:
264,92,89217,1,0,0:0:0:0:
264,92,89455,1,0,0:0:0:0:
300,232,89693,1,0,0:0:0:0:
208,196,89812,1,0,0:0:0:0:
72,228,90050,1,0,0:0:0:0:
148,184,90169,1,0,0:0:0:0:
308,68,90407,1,0,0:0:0:0:
164,248,90765,1,0,0:0:0:0:
240,180,90884,1,0,0:0:0:0:
280,288,91003,1,0,0:0:0:0:
200,120,91836,2,0,B|292:112|344:152|328:212|220:216,3,240
200,120,93026,2,0,L|336:112,1,80
400,144,93265,2,0,B|316:160|316:160|224:204|224:200|176:104|176:104|208:88|224:84|328:76|344:88|344:88|356:112|368:144|336:164|336:164|300:184|248:184,3,560
264,128,98741,2,0,L|176:164,8,80
128,216,99931,2,0,B|216:160|316:192|432:236|336:236|332:232|248:208|240:176,2,320
144,208,100884,2,0,B|260:132|228:144|232:136|248:120|296:108|324:104|324:104|304:112|-52:144|232:176,3,480
232,152,103622,1,0,0:0:0:0:
432,232,103979,1,0,0:0:0:0:
352,268,104098,1,0,0:0:0:0:
216,280,104336,1,0,0:0:0:0:
180,228,104455,1,0,0:0:0:0:
220,104,104693,1,0,0:0:0:0:
268,160,104812,1,0,0:0:0:0:
384,236,105050,1,0,0:0:0:0:
296,208,105169,1,0,0:0:0:0:
172,260,105407,1,0,0:0:0:0:
200,72,105646,1,0,0:0:0:0:
164,280,105884,1,0,0:0:0:0:
252,128,106122,1,0,0:0:0:0:
252,128,106360,1,0,0:0:0:0:
348,120,106479,1,0,0:0:0:0:
308,264,106717,1,0,0:0:0:0:
224,248,106836,1,0,0:0:0:0:
140,124,107074,1,0,0:0:0:0:
272,108,107312,1,0,0:0:0:0:
344,148,107431,1,0,0:0:0:0:
232,360,107788,1,0,0:0:0:0:
292,176,108026,1,0,0:0:0:0:
68,96,108384,1,0,0:0:0:0:
256,152,109455,2,0,B|184:184|184:164|200:92|208:88|288:80|312:80|360:96|360:112|356:168|352:172|296:232|296:232|272:200,3,400
200,88,111479,2,0,L|344:168,3,160
372,184,111955,2,0,L|148:204,2,160
432,172,113622,2,0,L|332:152,2,80
512,132,115169,2,0,B|344:200|344:200|204:196|176:132,3,320
210,169,117788,2,0,B|336:104|336:104|288:128|288:128|124:220|216:280,3,400
296,232,119693,2,0,L|92:16,1,240
196,272,120407,2,0,L|176:176,1,80
324,64,121241,6,0,L|200:96,3,80
368,164,122431,2,0,L|324:96,1,80
244,92,123265,2,0,B|192:176|192:176|284:184,3,160
300,180,124098,2,0,P|480:160|384:100,1,400
288,92,124574,2,0,L|228:148,4,80
240,256,125288,2,0,L|316:200,2,80
328,200,125526,2,0,P|340:104|244:88,3,160
316,192,126836,2,0,B|-56:160|184:164,3,320
120,124,128860,1,0,0:0:0:0:
288,128,129098,1,0,0:0:0:0:
328,160,129574,1,0,0:0:0:0:
232,208,130288,1,0,0:0:0:0:
256,192,131241,12,0,136360,0:0:0:0:
304,148,137074,5,0,0:0:0:0:
204,120,137193,1,0,0:0:0:0:
192,264,137431,1,0,0:0:0:0:
196,60,137669,1,0,0:0:0:0:
280,188,138146,1,0,0:0:0:0:
336,144,138741,1,0,0:0:0:0:
272,116,140288,2,0,B|360:112|364:112|376:144|356:184|344:204|288:240|284:244|208:272|172:252|168:248,3,320
148,148,142788,1,0,0:0:0:0:
464,104,143265,1,0,0:0:0:0:
160,228,143741,1,0,0:0:0:0:
192,100,144217,1,0,0:0:0:0:
324,144,144931,1,0,0:0:0:0:
232,216,145526,1,0,0:0:0:0:
232,216,146122,1,0,0:0:0:0:
236,180,146836,2,0,B|364:152|372:168|344:240,4,160
264,248,147788,2,0,B|160:104|160:104|192:92|192:92|224:84,4,240
219,85,148979,2,0,B|320:100|328:104|332:104|336:104,5,80
312,100,149574,2,0,B|348:172|348:176|348:176|344:184|296:204|296:204|0:228|80:176|176:64|240:32,3,560
284,80,151955,2,0,B|332:172|376:168|396:148|396:120|396:96|396:96,6,160
296,80,153384,2,0,L|396:96,1,80
396,88,154098,6,0,L|220:120,2,160
280,132,154693,2,0,B|264:184|304:156|336:52,6,80
320,76,155526,2,0,B|224:132|212:152|212:168|208:192|208:192|212:212|272:208|276:204|276:204,5,240
276,144,160765,1,0,0:0:0:0:
416,124,161003,1,0,0:0:0:0:
360,184,161122,1,0,0:0:0:0:
148,272,161479,1,0,0:0:0:0:
148,80,161717,1,0,0:0:0:0:
284,160,161955,1,0,0:0:0:0:
308,276,162074,1,0,0:0:0:0:
284,132,162312,1,0,0:0:0:0:
232,260,162550,1,0,0:0:0:0:
280,164,162669,1,0,0:0:0:0:
280,164,162788,1,0,0:0:0:0:
148,252,163026,1,0,0:0:0:0:
168,148,163146,1,0,0:0:0:0:
320,168,163384,1,0,0:0:0:0:
260,140,163979,1,0,0:0:0:0:
172,144,164574,1,0,0:0:0:0:
248,224,165050,1,0,0:0:0:0:
248,144,165646,1,0,0:0:0:0:
160,172,166360,2,0,B|316:128|376:128|356:240|356:252|168:212|168:224|180:56|328:76,3,480
340,216,168979,2,0,P|268:260|112:132,3,240
220,172,170884,6,0,L|256:60,6,80
312,160,172193,2,0,L|208:232,5,80
176,112,173384,2,0,L|372:120,3,160
52,304,174574,2,0,L|296:100,2,240
356,160,175765,2,0,L|196:176,4,160
176,40,177074,2,0,L|384:104,4,160
356,68,179574,2,0,P|256:140|160:168,5,160
148,120,181479,1,0,0:0:0:0:
240,104,181598,1,0,0:0:0:0:
264,240,181836,1,0,0:0:0:0:
180,268,181955,1,0,0:0:0:0:
48,224,182193,1,0,0:0:0:0:
104,200,182312,1,0,0:0:0:0:
204,188,182431,1,0,0:0:0:0:
312,304,182669,1,0,0:0:0:0:
160,312,182907,1,0,0:0:0:0:
264,172,183622,1,0,0:0:0:0:
208,208,184217,1,0,0:0:0:0:
320,128,184812,1,0,0:0:0:0:
320,128,185526,1,0,0:0:0:0:
240,184,185646,1,0,0:0:0:0:
216,296,185765,1,0,0:0:0:0:
196,140,186003,1,0,0:0:0:0:
204,224,186122,1,0,0:0:0:0:
204,224,186479,1,0,0:0:0:0:
376,188,186717,1,0,0:0:0:0:
252,212,186955,1,0,0:0:0:0:
320,200,187074,1,0,0:0:0:0:
396,108,187193,1,0,0:0:0:0:
308,224,187431,1,0,0:0:0:0:
384,124,187550,1,0,0:0:0:0:
408,92,187907,1,0,0:0:0:0:
484,68,188026,1,0,0:0:0:0:
192,156,190169,2,0,P|296:144|340:188,2,160
264,344,190884,2,0,L|176:228,2,80
172,232,191360,2,0,P|280:124|292:124,2,160
196,216,191836,2,0,B|388:120|388:120|384:124,3,160
376,136,192550,2,0,B|304:192|268:204|256:192|256:192|208:152|208:152|104:-24|208:-40|256:120,6,480
252,136,196241,2,0,B|168:192|236:184|244:184|300:196|320:212,4,160
240,292,197431,2,0,L|184:236,1,80
216,20,197907,2,0,B|196:128|188:156|264:256,1,240
312,168,198860,2,0,B|384:268|384:272|352:272,6,80
236,176,200884,2,0,P|344:148|360:148,7,80
364,120,205288,2,0,B|260:128|260:128|252:140,10,80
252,144,206479,2,0,P|256:228|272:232,5,80
292,232,207074,2,0,P|372:192|336:152,2,160
304,204,207550,2,0,B|184:160|204:224|236:256|240:260|360:236|392:196,4,240
392,188,208979,2,0,B|280:120|272:136|268:136|232:176|232:196|232:216|232:216|232:232|240:272|240:272|272:284|320:288|320:288|328:256|332:236,4,400
140,28,211717,6,0,L|240:148,2,80
240,152,213622,1,0,0:0:0:0:
388,172,213860,1,0,0:0:0:0:
272,200,213979,1,0,0:0:0:0:
100,220,214217,1,0,0:0:0:0:
308,116,214574,1,0,0:0:0:0:
380,216,214693,1,0,0:0:0:0:
200,252,214931,1,0,0:0:0:0:
220,112,215169,1,0,0:0:0:0:
236,12,215288,1,0,0:0:0:0:
340,140,215526,1,0,0:0:0:0:
312,248,215646,1,0,0:0:0:0:
168,252,215884,1,0,0:0:0:0:
204,172,216003,1,0,0:0:0:0:
348,128,216241,1,0,0:0:0:0:
372,236,216360,1,0,0:0:0:0:
200,200,216598,1,0,0:0:0:0:
56,124,216836,1,0,0:0:0:0:
208,156,218741,1,0,0:0:0:0:
356,132,218979,1,0,0:0:0:0:
276,228,219217,1,0,0:0:0:0:
228,116,221598,1,0,0:0:0:0:
348,116,221717,1,0,0:0:0:0:
184,316,222074,1,0,0:0:0:0:
224,168,222669,1,0,0:0:0:0:
152,128,222788,1,0,0:0:0:0:
236,224,223026,1,0,0:0:0:0:
224,144,223146,1,0,0:0:0:0:
304,200,223265,1,0,0:0:0:0:
304,200,223622,1,0,0:0:0:0:
192,208,224455,2,0,B|332:184|384:112|368:152|356:164|56:236,2,400
130,217,225646,2,0,L|272:216,4,80
188,212,226241,2,0,L|280:180,1,80
200,40,226598,2,0,L|240:128,1,80
233,112,226717,2,0,B|192:184|192:184|200:184|288:200|360:204,4,240
347,203,228146,2,0,B|432:192|432:192|424:184|408:176|328:128,4,160
233,112,228979,2,0,B|-52:168|88:160,4,240
160,152,231241,1,0,0:0:0:0:
248,160,231360,1,0,0:0:0:0:
376,168,231598,1,0,0:0:0:0:
296,212,231717,1,0,0:0:0:0:
196,256,231836,1,0,0:0:0:0:
236,128,232312,1,0,0:0:0:0:
332,112,232431,1,0,0:0:0:0:
312,256,232669,1,0,0:0:0:0:
340,164,232788,1,0,0:0:0:0:
280,296,233026,1,0,0:0:0:0:
200,212,233146,1,0,0:0:0:0:
256,8,233384,1,0,0:0:0:0:
200,192,233622,1,0,0:0:0:0:
372,156,233860,1,0,0:0:0:0:
252,196,234098,1,0,0:0:0:0:
356,240,234217,1,0,0:0:0:0:
84,168,234574,1,0,0:0:0:0:
244,216,234812,1,0,0:0:0:0:
344,164,234931,1,0,0:0:0:0:
188,124,235169,1,0,0:0:0:0:
300,180,235407,1,0,0:0:0:0:
300,180,235526,1,0,0:0:0:0:
228,260,235646,1,0,0:0:0:0:
328,148,235884,1,0,0:0:0:0:
236,180,236003,1,0,0:0:0:0:
84,148,236241,1,0,0:0:0:0:
204,132,236360,1,0,0:0:0:0:
384,148,236598,1,0,0:0:0:0:
256,232,236836,1,0,0:0:0:0:
256,232,236955,1,0,0:0:0:0:
92,212,237193,1,0,0:0:0:0:
224,212,237431,1,0,0:0:0:0:
136,212,237550,1,0,0:0:0:0:
268,216,237788,1,0,0:0:0:0:
176,268,237907,1,0,0:0:0:0:
112,128,238146,1,0,0:0:0:0:
220,192,238384,1,0,0:0:0:0:
336,176,238503,1,0,0:0:0:0:
184,208,238741,1,0,0:0:0:0:
248,120,238860,1,0,0:0:0:0:
264,172,240050,2,0,B|340:124|340:124|332:132|280:160|100:192|100:192|108:184|108:180|128:152,3,320
340,164,243384,6,0,B|160:216|160:220|160:184|160:180,3,160
264,148,244217,2,0,B|136:116|156:172|160:172|200:144|0:148,7,240
232,120,248026,1,0,0:0:0:0:
324,124,248146,1,0,0:0:0:0:
320,260,248384,1,0,0:0:0:0:
232,256,248503,1,0,0:0:0:0:
116,148,248741,1,0,0:0:0:0:
192,100,248860,1,0,0:0:0:0:
360,108,249098,1,0,0:0:0:0:
360,108,249336,1,0,0:0:0:0:
364,228,249455,1,0,0:0:0:0:
304,96,249693,1,0,0:0:0:0:
320,200,249812,1,0,0:0:0:0:
188,272,250050,1,0,0:0:0:0:
256,188,250169,1,0,0:0:0:0:
148,296,250407,1,0,0:0:0:0:
200,192,250526,1,0,0:0:0:0:
288,48,250765,1,0,0:0:0:0:
248,192,251003,1,0,0:0:0:0:
272,216,251479,1,0,0:0:0:0:
160,260,251598,1,0,0:0:0:0:
76,100,251836,1,0,0:0:0:0:
196,196,252074,1,0,0:0:0:0:
316,144,252312,1,0,0:0:0:0:
168,268,252550,1,0,0:0:0:0:
120,224,253146,1,0,0:0:0:0:
224,184,253265,1,0,0:0:0:0:
224,184,253503,1,0,0:0:0:0:
256,148,254098,5,0,0:0:0:0:
108,144,254336,1,0,0:0:0:0:
348,168,254693,1,0,0:0:0:0:
76,140,255050,1,0,0:0:0:0:
300,164,255407,1,0,0:0:0:0:
60,136,255765,1,0,0:0:0:0:
256,160,256003,1,0,0:0:0:0:
8,128,256360,1,0,0:0:0:0:
176,192,256598,1,0,0:0:0:0:
268,300,256836,1,0,0:0:0:0:
312,224,256955,1,0,0:0:0:0:
184,184,257907,2,0,B|264:152|296:144|340:124|344:132|332:140|300:164,3,160
224,192,259098,2,0,P|296:112|300:108,9,80
340,80,260169,2,0,B|280:148|268:164|264:176|296:200|296:192|376:240|408:172,9,240
