osu file format v14

[General]
AudioFilename: 15+TRIP+MACHINE+EVOLUTION.mp3
AudioLeadIn: 0
PreviewTime: 42216
Countdown: 0
SampleSet: Normal
StackLeniency: 0.7
Mode: 1
LetterboxInBreaks: 0
WidescreenStoryboard: 0

[Editor]
Bookmarks: 12601,22706,32811,63127,74496,84601,89653
DistanceSpacing: 2.4
BeatDivisor: 4
GridSize: 32
TimelineZoom: 2

[Metadata]
Title:TRIP MACHINE EVOLUTION
TitleUnicode:TRIP MACHINE EVOLUTION
Artist:DE-JAVU
ArtistUnicode:DE-JAVU
Creator:Raiden
Version:Muzukashii
Source:Dance Dance Revolution X3 vs 2ndMIX
Tags:techno freestyle taiko lolcubes cubes
BeatmapID:900107
BeatmapSetID:412261

[Difficulty]
HPDrainRate:6
CircleSize:2
OverallDifficulty:5
ApproachRate:10
SliderMultiplier:1.4
SliderTickRate:1

[Events]
//Background and Video events
0,0,"rsz_energy-of-dance-wallpapers1600x1200.jpg",0,-110
//Break Periods
//Storyboard Layer 0 (Background)
//Storyboard Layer 1 (Fail)
//Storyboard Layer 2 (Pass)
//Storyboard Layer 3 (Foreground)
//Storyboard Sound Samples

[TimingPoints]
601,315.789473684211,4,1,0,60,1,0
601,-25,4,1,0,60,0,0
758,-100,4,1,0,60,0,0
2506,315.789473684211,4,1,0,100,1,0
42927,-100,4,1,0,100,0,1
73242,-100,4,1,0,100,0,0
95979,-100,4,1,0,10,0,0

[HitObjects]
256,192,601,12,0,2179,0:0:0:0:
140,79,2506,5,0,0:0:0:0:
122,109,2584,1,0,0:0:0:0:
122,109,2663,1,0,0:0:0:0:
352,241,2821,1,8,0:0:0:0:
171,112,3137,1,0,0:0:0:0:
304,230,3374,1,8,0:0:0:0:
322,235,3611,1,8,0:0:0:0:
158,111,3769,1,0,0:0:0:0:
159,127,4084,1,0,0:0:0:0:
135,105,4400,1,0,0:0:0:0:
289,240,4558,1,8,0:0:0:0:
349,268,4637,1,8,0:0:0:0:
289,240,4716,1,8,0:0:0:0:
319,257,4874,1,8,0:0:0:0:
322,249,5032,1,8,0:0:0:0:
395,270,5348,1,8,0:0:0:0:
111,96,5506,1,0,0:0:0:0:
136,121,5663,1,0,0:0:0:0:
358,258,5900,1,8,0:0:0:0:
384,256,6137,1,8,0:0:0:0:
119,92,6295,1,0,0:0:0:0:
146,122,6611,1,0,0:0:0:0:
331,275,6769,1,8,0:0:0:0:
142,114,6927,1,0,0:0:0:0:
129,103,7163,1,0,0:0:0:0:
306,244,7400,1,8,0:0:0:0:
130,103,7558,1,0,0:0:0:0:
336,250,7874,1,8,0:0:0:0:
112,107,8032,1,0,0:0:0:0:
112,107,8190,1,0,0:0:0:0:
167,134,8427,1,0,0:0:0:0:
331,269,8663,1,8,0:0:0:0:
127,118,8821,1,0,0:0:0:0:
357,298,9137,1,8,0:0:0:0:
319,293,9295,1,8,0:0:0:0:
153,122,9453,1,0,0:0:0:0:
153,122,9611,1,0,0:0:0:0:
153,122,9690,1,0,0:0:0:0:
117,122,9769,1,0,0:0:0:0:
355,287,9927,1,8,0:0:0:0:
178,134,10084,1,0,0:0:0:0:
149,109,10400,1,0,0:0:0:0:
329,283,10558,1,8,0:0:0:0:
184,105,10716,1,0,0:0:0:0:
189,102,10953,1,0,0:0:0:0:
299,274,11190,1,8,0:0:0:0:
149,112,11348,1,0,0:0:0:0:
148,261,12611,5,4,0:0:0:0:
380,294,12927,1,8,0:0:0:0:
115,107,13084,1,0,0:0:0:0:
115,107,13163,1,0,0:0:0:0:
115,107,13242,1,0,0:0:0:0:
115,107,13400,1,0,0:0:0:0:
379,279,13558,1,8,0:0:0:0:
115,94,13874,1,0,0:0:0:0:
369,285,14032,1,0,0:0:0:0:
357,281,14190,1,8,0:0:0:0:
97,112,14348,1,0,0:0:0:0:
97,112,14663,1,0,0:0:0:0:
369,268,14821,1,8,0:0:0:0:
122,110,15137,1,0,0:0:0:0:
336,265,15453,1,8,0:0:0:0:
133,119,15611,1,0,0:0:0:0:
130,119,15690,1,0,0:0:0:0:
130,119,15769,1,0,0:0:0:0:
130,119,15927,1,0,0:0:0:0:
402,286,16084,1,8,0:0:0:0:
144,111,16400,1,0,0:0:0:0:
143,111,16558,1,0,0:0:0:0:
415,310,16716,1,8,0:0:0:0:
141,94,16874,1,0,0:0:0:0:
141,94,17190,1,0,0:0:0:0:
374,295,17348,1,8,0:0:0:0:
132,326,17663,5,4,0:0:0:0:
349,331,17979,1,8,0:0:0:0:
136,119,18137,1,0,0:0:0:0:
136,119,18216,1,0,0:0:0:0:
136,119,18295,1,0,0:0:0:0:
136,119,18453,1,0,0:0:0:0:
359,305,18611,1,8,0:0:0:0:
159,119,18927,1,0,0:0:0:0:
136,119,19084,1,0,0:0:0:0:
361,291,19242,1,8,0:0:0:0:
140,101,19400,1,0,0:0:0:0:
160,64,19716,1,0,0:0:0:0:
360,281,19874,1,8,0:0:0:0:
158,103,20190,1,0,0:0:0:0:
356,265,20506,1,8,0:0:0:0:
158,104,20663,1,0,0:0:0:0:
158,104,20742,1,0,0:0:0:0:
158,104,20821,1,0,0:0:0:0:
158,104,20979,1,0,0:0:0:0:
367,268,21137,1,8,0:0:0:0:
150,113,21453,1,0,0:0:0:0:
144,95,21611,1,0,0:0:0:0:
348,253,21769,1,8,0:0:0:0:
124,35,21927,1,0,0:0:0:0:
171,98,22242,1,0,0:0:0:0:
367,268,22400,1,8,0:0:0:0:
428,284,22479,1,8,0:0:0:0:
414,285,22558,1,8,0:0:0:0:
148,261,22716,5,0,0:0:0:0:
380,294,23032,1,8,0:0:0:0:
115,107,23189,1,0,0:0:0:0:
106,90,23268,1,0,0:0:0:0:
115,107,23347,1,0,0:0:0:0:
115,107,23505,1,0,0:0:0:0:
379,279,23663,1,8,0:0:0:0:
115,94,23979,1,0,0:0:0:0:
369,285,24137,1,0,0:0:0:0:
357,281,24295,1,8,0:0:0:0:
97,112,24453,1,0,0:0:0:0:
97,112,24768,1,0,0:0:0:0:
369,268,24926,1,8,0:0:0:0:
122,110,25242,1,0,0:0:0:0:
336,265,25558,1,8,0:0:0:0:
133,119,25716,1,0,0:0:0:0:
130,119,25795,1,0,0:0:0:0:
130,119,25874,1,0,0:0:0:0:
130,119,26032,1,0,0:0:0:0:
402,286,26189,1,8,0:0:0:0:
144,111,26505,1,0,0:0:0:0:
143,111,26663,1,0,0:0:0:0:
415,310,26821,1,8,0:0:0:0:
141,94,26979,1,0,0:0:0:0:
369,258,27295,1,0,0:0:0:0:
374,295,27453,1,8,0:0:0:0:
132,326,27768,5,4,0:0:0:0:
349,331,28084,1,8,0:0:0:0:
136,119,28242,1,0,0:0:0:0:
136,119,28321,1,0,0:0:0:0:
136,119,28400,1,0,0:0:0:0:
136,119,28558,1,0,0:0:0:0:
359,305,28716,1,8,0:0:0:0:
159,119,29032,1,0,0:0:0:0:
136,119,29189,1,0,0:0:0:0:
361,291,29347,1,8,0:0:0:0:
140,101,29505,1,0,0:0:0:0:
102,95,29821,1,0,0:0:0:0:
367,283,29979,1,8,0:0:0:0:
158,103,30295,1,0,0:0:0:0:
356,265,30611,1,8,0:0:0:0:
158,104,30768,1,0,0:0:0:0:
158,104,30847,1,0,0:0:0:0:
158,104,30926,1,0,0:0:0:0:
158,104,31084,1,0,0:0:0:0:
367,268,31242,1,8,0:0:0:0:
150,113,31558,1,0,0:0:0:0:
144,95,31716,1,0,0:0:0:0:
348,253,31874,1,8,0:0:0:0:
145,87,32032,1,0,0:0:0:0:
363,245,32190,1,8,0:0:0:0:
96,96,32348,1,0,0:0:0:0:
338,253,32506,1,8,0:0:0:0:
414,285,32663,1,8,0:0:0:0:
138,283,32821,5,4,0:0:0:0:
144,271,33295,1,4,0:0:0:0:
163,255,33769,1,4,0:0:0:0:
367,142,34716,1,12,0:0:0:0:
137,89,34874,1,0,0:0:0:0:
367,142,35032,1,12,0:0:0:0:
138,283,35348,5,4,0:0:0:0:
144,271,35822,1,4,0:0:0:0:
144,106,36296,1,4,0:0:0:0:
194,202,36611,2,0,P|218:168|232:171,14,35
138,283,37874,5,4,0:0:0:0:
144,271,38348,1,4,0:0:0:0:
163,255,38822,1,4,0:0:0:0:
367,142,39769,1,12,0:0:0:0:
137,89,39927,1,0,0:0:0:0:
367,142,40085,1,12,0:0:0:0:
138,283,40400,5,4,0:0:0:0:
144,271,40874,1,4,0:0:0:0:
163,255,41348,1,4,0:0:0:0:
155,249,41663,2,0,L|344:137,1,210
340,264,42295,1,8,0:0:0:0:
333,265,42611,1,8,0:0:0:0:
135,104,42927,5,0,0:0:0:0:
143,119,43084,1,0,0:0:0:0:
369,279,43242,1,8,0:0:0:0:
106,97,43400,1,0,0:0:0:0:
191,90,43479,1,0,0:0:0:0:
104,12,43558,1,0,0:0:0:0:
122,88,43716,1,0,0:0:0:0:
360,269,43874,1,8,0:0:0:0:
141,67,44190,1,0,0:0:0:0:
122,71,44348,1,0,0:0:0:0:
419,272,44506,1,8,0:0:0:0:
113,81,44663,1,0,0:0:0:0:
138,104,44979,1,0,0:0:0:0:
411,274,45137,1,8,0:0:0:0:
141,67,45453,1,0,0:0:0:0:
384,320,45611,1,8,0:0:0:0:
408,317,45690,1,8,0:0:0:0:
419,272,45769,1,8,0:0:0:0:
369,245,45927,1,8,0:0:0:0:
113,81,46084,1,0,0:0:0:0:
95,112,46242,1,0,0:0:0:0:
428,262,46400,1,8,0:0:0:0:
141,67,46716,1,0,0:0:0:0:
135,119,46795,1,0,0:0:0:0:
187,46,46874,1,0,0:0:0:0:
399,259,47032,1,8,0:0:0:0:
371,273,47190,1,8,0:0:0:0:
349,252,47506,1,8,0:0:0:0:
411,274,47663,1,8,0:0:0:0:
169,102,47979,1,0,0:0:0:0:
82,58,48137,1,0,0:0:0:0:
356,239,48295,5,8,0:0:0:0:
133,90,48453,1,0,0:0:0:0:
153,98,48532,1,0,0:0:0:0:
141,67,48611,1,0,0:0:0:0:
74,51,48769,1,0,0:0:0:0:
411,274,48926,1,8,0:0:0:0:
113,81,49242,1,0,0:0:0:0:
182,52,49321,1,0,0:0:0:0:
100,88,49400,1,0,0:0:0:0:
419,272,49558,1,8,0:0:0:0:
141,67,49716,1,0,0:0:0:0:
372,279,50032,1,8,0:0:0:0:
411,274,50189,1,8,0:0:0:0:
113,81,50505,1,0,0:0:0:0:
141,67,50663,1,0,0:0:0:0:
419,272,50821,1,8,0:0:0:0:
160,96,50979,1,0,0:0:0:0:
117,113,51058,1,0,0:0:0:0:
141,67,51137,1,0,0:0:0:0:
150,96,51295,1,0,0:0:0:0:
411,274,51452,1,8,0:0:0:0:
113,81,51768,1,0,0:0:0:0:
411,276,51927,1,8,0:0:0:0:
411,252,52006,1,8,0:0:0:0:
419,272,52084,1,8,0:0:0:0:
364,255,52242,1,8,0:0:0:0:
320,256,52558,1,8,0:0:0:0:
411,274,52715,1,8,0:0:0:0:
113,81,53032,1,0,0:0:0:0:
140,110,53190,5,0,0:0:0:0:
419,272,53348,1,8,0:0:0:0:
170,107,53506,1,0,0:0:0:0:
170,107,53584,1,0,0:0:0:0:
141,67,53663,1,0,0:0:0:0:
402,280,53821,1,8,0:0:0:0:
411,274,53979,1,8,0:0:0:0:
113,81,54294,1,0,0:0:0:0:
400,254,54453,1,8,0:0:0:0:
382,238,54532,1,8,0:0:0:0:
419,272,54611,1,8,0:0:0:0:
141,67,54769,1,0,0:0:0:0:
157,62,55084,1,0,0:0:0:0:
411,274,55242,1,8,0:0:0:0:
113,81,55558,1,0,0:0:0:0:
368,248,55716,1,8,0:0:0:0:
419,272,55874,1,8,0:0:0:0:
157,62,56032,1,0,0:0:0:0:
141,67,56190,1,0,0:0:0:0:
361,238,56348,1,8,0:0:0:0:
411,274,56505,1,8,0:0:0:0:
113,81,56821,1,0,0:0:0:0:
162,105,56900,1,0,0:0:0:0:
162,105,56979,1,0,0:0:0:0:
419,272,57138,1,8,0:0:0:0:
96,64,57295,1,0,0:0:0:0:
352,288,57611,1,8,0:0:0:0:
411,274,57769,1,8,0:0:0:0:
113,81,58084,5,0,0:0:0:0:
153,101,58242,1,0,0:0:0:0:
419,272,58400,1,8,0:0:0:0:
369,245,58479,1,8,0:0:0:0:
467,265,58558,1,8,0:0:0:0:
141,67,58716,1,0,0:0:0:0:
381,257,58874,1,8,0:0:0:0:
411,274,59031,1,8,0:0:0:0:
169,93,59348,1,0,0:0:0:0:
373,263,59506,1,8,0:0:0:0:
377,234,59584,1,8,0:0:0:0:
419,272,59663,1,8,0:0:0:0:
169,89,59821,1,0,0:0:0:0:
141,67,60137,1,0,0:0:0:0:
411,274,60294,5,8,0:0:0:0:
113,81,60610,1,0,0:0:0:0:
402,254,60769,1,8,0:0:0:0:
402,283,60848,1,8,0:0:0:0:
419,272,60926,1,8,0:0:0:0:
371,275,61084,1,8,0:0:0:0:
141,67,61242,1,0,0:0:0:0:
123,91,61400,1,0,0:0:0:0:
411,274,61557,1,8,0:0:0:0:
113,81,61873,1,0,0:0:0:0:
384,288,62032,1,8,0:0:0:0:
419,272,62190,1,8,0:0:0:0:
132,77,62348,1,0,0:0:0:0:
125,74,62427,1,0,0:0:0:0:
143,62,62506,1,0,0:0:0:0:
365,232,62663,1,8,0:0:0:0:
411,274,62821,1,8,0:0:0:0:
158,265,63137,5,4,0:0:0:0:
158,265,63453,5,4,0:0:0:0:
158,265,63769,5,4,0:0:0:0:
362,122,64084,5,12,0:0:0:0:
362,122,64400,5,12,0:0:0:0:
362,122,64716,5,12,0:0:0:0:
150,273,65032,5,4,0:0:0:0:
416,96,65348,5,12,0:0:0:0:
150,273,65664,5,4,0:0:0:0:
133,288,65979,5,4,0:0:0:0:
128,282,66295,5,4,0:0:0:0:
362,122,66611,5,12,0:0:0:0:
362,122,66927,5,12,0:0:0:0:
362,122,67243,5,12,0:0:0:0:
153,276,67558,2,0,L|331:130,1,210
150,273,68190,5,4,0:0:0:0:
133,288,68505,5,4,0:0:0:0:
128,282,68821,5,4,0:0:0:0:
362,122,69137,5,12,0:0:0:0:
362,122,69453,5,12,0:0:0:0:
362,122,69769,5,12,0:0:0:0:
150,273,70084,5,4,0:0:0:0:
352,96,70400,5,12,0:0:0:0:
150,273,70716,5,4,0:0:0:0:
133,288,71031,5,4,0:0:0:0:
128,282,71347,5,4,0:0:0:0:
362,122,71663,5,12,0:0:0:0:
362,122,71979,5,12,0:0:0:0:
362,122,72295,5,12,0:0:0:0:
197,268,72611,2,0,L|358:79,1,245
338,110,74190,5,12,0:0:0:0:
135,304,74506,1,4,0:0:0:0:
384,287,74821,1,8,0:0:0:0:
143,117,74979,1,0,0:0:0:0:
143,117,75058,1,0,0:0:0:0:
143,117,75137,1,0,0:0:0:0:
143,117,75295,1,0,0:0:0:0:
360,299,75453,1,8,0:0:0:0:
136,113,75769,1,0,0:0:0:0:
136,113,75927,1,0,0:0:0:0:
367,318,76084,1,8,0:0:0:0:
138,124,76242,1,0,0:0:0:0:
138,124,76558,1,0,0:0:0:0:
340,289,76716,1,8,0:0:0:0:
342,268,76874,1,8,0:0:0:0:
140,101,77032,1,0,0:0:0:0:
412,323,77348,1,8,0:0:0:0:
146,94,77506,5,0,0:0:0:0:
146,94,77584,1,0,0:0:0:0:
130,100,77663,1,0,0:0:0:0:
130,100,77821,1,0,0:0:0:0:
355,290,77979,1,8,0:0:0:0:
105,100,78295,1,0,0:0:0:0:
102,100,78453,1,0,0:0:0:0:
318,241,78611,1,8,0:0:0:0:
128,76,78769,1,0,0:0:0:0:
126,76,79084,1,0,0:0:0:0:
375,279,79242,1,8,0:0:0:0:
360,276,79400,1,8,0:0:0:0:
135,304,79558,1,4,0:0:0:0:
384,287,79873,1,8,0:0:0:0:
143,117,80031,1,0,0:0:0:0:
143,117,80110,1,0,0:0:0:0:
143,117,80189,1,0,0:0:0:0:
143,117,80347,1,0,0:0:0:0:
360,299,80505,1,8,0:0:0:0:
136,113,80821,1,0,0:0:0:0:
136,113,80979,1,0,0:0:0:0:
367,318,81136,1,8,0:0:0:0:
138,124,81294,1,0,0:0:0:0:
138,124,81610,1,0,0:0:0:0:
340,289,81768,1,8,0:0:0:0:
342,268,81926,1,8,0:0:0:0:
140,101,82084,1,0,0:0:0:0:
412,323,82400,1,8,0:0:0:0:
341,287,82558,5,8,0:0:0:0:
130,100,82715,1,0,0:0:0:0:
130,100,82873,1,0,0:0:0:0:
355,290,83031,1,8,0:0:0:0:
105,100,83347,1,0,0:0:0:0:
102,100,83505,1,0,0:0:0:0:
318,241,83663,1,8,0:0:0:0:
128,76,83821,1,0,0:0:0:0:
126,76,84136,1,0,0:0:0:0:
375,279,84294,1,8,0:0:0:0:
313,256,84453,1,8,0:0:0:0:
135,304,84611,5,4,0:0:0:0:
384,287,84926,1,8,0:0:0:0:
143,117,85084,1,0,0:0:0:0:
143,117,85163,1,0,0:0:0:0:
143,117,85242,1,0,0:0:0:0:
143,117,85400,1,0,0:0:0:0:
360,299,85558,1,8,0:0:0:0:
136,113,85874,1,0,0:0:0:0:
136,113,86032,1,0,0:0:0:0:
367,318,86189,1,8,0:0:0:0:
138,124,86348,1,0,0:0:0:0:
89,108,86663,1,0,0:0:0:0:
340,289,86821,1,8,0:0:0:0:
342,268,86979,1,8,0:0:0:0:
140,101,87137,1,0,0:0:0:0:
412,323,87453,1,8,0:0:0:0:
341,287,87611,5,8,0:0:0:0:
441,376,87768,1,8,0:0:0:0:
130,100,87926,1,0,0:0:0:0:
355,290,88084,1,8,0:0:0:0:
105,100,88400,1,0,0:0:0:0:
102,100,88558,1,0,0:0:0:0:
318,241,88716,1,8,0:0:0:0:
128,76,88874,1,0,0:0:0:0:
126,76,89189,1,0,0:0:0:0:
375,279,89347,1,8,0:0:0:0:
135,304,89663,5,4,0:0:0:0:
123,100,89821,1,0,0:0:0:0:
123,101,89900,1,0,0:0:0:0:
94,106,89979,1,0,0:0:0:0:
115,89,90137,1,0,0:0:0:0:
355,127,90295,1,12,0:0:0:0:
355,127,90453,1,12,0:0:0:0:
96,288,90927,1,4,0:0:0:0:
133,97,91084,1,0,0:0:0:0:
109,109,91163,1,0,0:0:0:0:
101,106,91242,1,0,0:0:0:0:
108,86,91400,1,0,0:0:0:0:
349,92,91558,1,12,0:0:0:0:
348,93,91716,1,12,0:0:0:0:
353,96,92190,1,12,0:0:0:0:
366,136,92348,1,12,0:0:0:0:
346,118,92821,1,12,0:0:0:0:
338,118,92979,1,12,0:0:0:0:
349,114,93453,1,12,0:0:0:0:
349,114,93769,1,12,0:0:0:0:
346,118,94084,1,12,0:0:0:0:
346,118,94400,1,12,0:0:0:0:
347,272,94716,1,12,0:0:0:0:
320,256,94874,1,12,0:0:0:0:
149,197,95032,1,4,0:0:0:0:
320,225,95348,1,12,0:0:0:0:
320,225,95506,1,12,0:0:0:0:
149,197,95663,1,4,0:0:0:0:
115,81,95821,1,0,0:0:0:0:
256,192,95979,12,0,98506,0:0:0:0:
