osu file format v14

[General]
AudioFilename: audio.mp3
AudioLeadIn: 0
PreviewTime: 991
Countdown: 0
SampleSet: Soft
StackLeniency: 0.2
Mode: 0
LetterboxInBreaks: 0
WidescreenStoryboard: 0

[Editor]
Bookmarks: 118698
DistanceSpacing: 0.5
BeatDivisor: 8
GridSize: 32
TimelineZoom: 4.499998

[Metadata]
Title:Silly Love
TitleUnicode:Silly Love
Artist:DE DE MOUSE
ArtistUnicode:DÉ DÉ MOUSE
Creator:Cubby
Version:Another
Source:beatmania IIDX 27 HEROIC VERSE
Tags:instrumental -Zeraora -Harpuia- paradogi cubbby pocket- pocket 0ppInOsu oppinosu DanceDanceRevolution A20 DAISUKE ENDO ELECTRO NU DISCO ddr konami bemani electronic
BeatmapID:3063240
BeatmapSetID:1494548

[Difficulty]
HPDrainRate:5
CircleSize:4.2
OverallDifficulty:8.6
ApproachRate:9.4
SliderMultiplier:2.1
SliderTickRate:1

[Events]
//Background and Video events
0,0,"90251169_p0 (1).jpg",0,0
Video,949,"video.avi"
//Break Periods
//Storyboard Layer 0 (Background)
//Storyboard Layer 1 (Fail)
//Storyboard Layer 2 (Pass)
//Storyboard Layer 3 (Foreground)
//Storyboard Layer 4 (Overlay)
//Storyboard Sound Samples

[TimingPoints]
991,392.156862745098,4,2,1,40,1,0
13540,-76.9230769230769,4,2,1,50,0,0
19422,-50,4,2,1,50,0,0
19814,-66.6666666666667,4,2,1,50,0,0
20598,-133.333333333333,4,2,1,50,0,0
21187,-66.6666666666667,4,2,1,50,0,0
22167,-50,4,2,1,50,0,0
22559,-66.6666666666667,4,2,1,50,0,0
23147,-62.5,4,2,1,50,0,0
23343,-58.8235294117647,4,2,1,50,0,0
23540,-55.5555555555556,4,2,1,50,0,0
25304,-133.333333333333,4,2,1,40,0,0
25892,-50,4,2,1,55,0,0
26089,-133.333333333333,4,2,4,55,0,0
26873,-500,4,2,4,55,0,0
27265,-133.333333333333,4,2,4,55,0,0
30010,-500,4,2,4,55,0,0
30402,-133.333333333333,4,2,4,55,0,0
35500,-100,4,2,4,55,0,0
38638,-76.9230769230769,4,2,1,60,0,0
39814,-133.333333333333,4,2,1,60,0,0
41775,-76.9230769230769,4,2,1,60,0,0
42559,-133.333333333333,4,2,1,60,0,0
42951,-76.9230769230769,4,2,1,60,0,0
50794,-45.4545454545455,4,2,1,60,0,0
51187,-58.8235294117647,4,2,1,60,0,0
56481,-133.333333333333,4,2,1,60,0,0
57853,-58.8235294117647,4,2,1,60,0,0
58049,-133.333333333333,4,2,1,60,0,0
58245,-58.8235294117647,4,2,1,60,0,0
60598,-133.333333333333,4,2,1,60,0,0
60990,-58.8235294117647,4,2,1,60,0,0
63540,-35.7142857142857,4,2,1,60,0,0
63736,-58.8235294117647,4,2,1,70,0,0
66873,-133.333333333333,4,2,1,70,0,0
67265,-58.8235294117647,4,2,1,70,0,0
77069,-50,4,2,1,55,0,0
77461,-54.054054054054,4,2,1,55,0,0
78441,-250,4,2,1,55,0,0
78638,-50,4,2,1,55,0,0
78932,-133.333333333333,4,2,1,55,0,0
79226,-250,4,2,1,55,0,0
79422,-54.054054054054,4,2,1,55,0,0
80010,-50,4,2,1,55,0,0
80598,-54.054054054054,4,2,1,55,0,0
81579,-250,4,2,1,55,0,0
81775,-133.333333333333,4,2,1,55,0,0
82167,-66.6666666666667,4,2,1,55,0,0
82559,-66.6666666666667,4,2,1,55,0,0
83343,-50,4,2,1,55,0,0
83736,-54.054054054054,4,2,1,55,0,0
84912,-50,4,2,1,55,0,0
85108,-133.333333333333,4,2,1,55,0,0
85696,-54.054054054054,4,2,1,55,0,0
86481,-50,4,2,1,55,0,0
86873,-54.054054054054,4,2,1,55,0,0
87265,-133.333333333333,4,2,1,55,0,0
88441,-50,4,2,1,55,0,0
88638,-66.6666666666667,4,2,1,55,0,0
88834,483.870967741935,4,2,2,65,1,0
88834,-55.5555555555556,4,2,2,65,0,0
97543,-100,4,2,2,65,0,0
98027,-55.5555555555556,4,2,2,65,0,0
99479,-100,4,2,2,65,0,0
99963,-55.5555555555556,4,2,2,65,0,0
102866,-66.6666666666667,4,2,2,65,0,0
103954,-58.8235294117647,4,2,2,65,0,0
104075,-52.6315789473684,4,2,2,65,0,0
104196,-47.6190476190476,4,2,2,65,0,0
104317,392.156862745098,4,2,1,70,1,0
104317,-50,4,2,1,70,0,0
104905,-38.4615384615385,4,2,1,70,0,0
105493,-50,4,2,1,70,0,0
105689,-38.4615384615385,4,2,1,70,0,0
105885,-50,4,2,1,70,0,0
106473,-100,4,2,3,70,0,0
106866,-50,4,2,1,70,0,0
107062,-50,4,2,1,70,0,0
107258,-100,4,2,3,70,0,0
107454,-50,4,2,1,70,0,0
108042,-38.4615384615385,4,2,1,70,0,0
109022,-100,4,2,1,70,0,0
109415,-50,4,2,1,70,0,0
109611,-38.4615384615385,4,2,1,70,0,0
110003,-100,4,2,1,70,0,0
110199,-50,4,2,1,70,0,0
111179,-38.4615384615385,4,2,1,80,0,0
111571,-100,4,2,1,80,0,0
111767,-50,4,2,1,80,0,0
111964,-38.4615384615385,4,2,1,80,0,0
112160,-50,4,2,1,80,0,0
112748,-100,4,2,3,80,0,0
113336,-50,4,2,1,80,0,0
116277,-133.333333333333,4,2,1,80,0,0
116866,-133.333333333333,4,2,1,40,0,0

[Colours]
Combo1 : 255,255,81
Combo2 : 128,255,0
Combo3 : 0,255,0
Combo4 : 128,128,255
Combo5 : 255,128,192
Combo6 : 0,255,255
Combo7 : 0,128,255
Combo8 : 255,83,83

[HitObjects]
6,312,991,6,0,B|9:333|9:333|18:380|88:368|80:321|80:321|75:298,1,157.5,2|0,0:0|0:0,0:0:0:0:
35,144,1383,2,0,B|21:209|88:237|92:207|159:232|156:300,2,210,2|2|0,0:0|0:0|0:0,0:0:0:0:
17,69,2363,6,0,B|-2:60|-2:60|3:1|3:1|33:52|33:52|17:70,1,157.5,2|0,0:0|0:0,0:0:0:0:
35,144,2755,1,0,0:0:0:0:
155,290,2951,102,0,P|103:279|61:249,1,105,2|0,0:0|0:0,0:0:0:0:
256,368,3343,6,0,B|240:256|272:320|256:192,1,157.5,2|0,0:0|0:0,0:0:0:0:
267,119,3736,102,0,P|233:106|264:124,1,105,2|2,0:0|0:0,0:0:0:0:
357,290,4128,2,2,P|408:279|450:249,2,105,0|0|0,0:0|0:0|0:0,0:0:0:0:
393,160,4716,6,0,P|376:198|388:221,1,52.5,2|0,0:0|0:0,0:0:0:0:
432,352,4912,1,2,0:0:0:0:
433,352,5108,1,2,0:0:0:0:
434,352,5304,1,2,0:0:0:0:
393,160,5500,102,0,B|362:201|419:258|482:216|470:157,1,157.5,2|0,0:0|0:0,0:0:0:0:
441,99,5892,2,0,P|409:19|286:13,1,210,2|0,0:0|0:0,0:0:0:0:
236,117,6481,6,0,P|313:134|347:71,1,157.5,2|0,0:0|0:0,0:0:0:0:
439,18,6873,2,0,B|432:-1|452:-8|452:-8|449:9|449:27,1,52.5,2|0,0:0|0:0,0:0:0:0:
407,278,7265,102,0,B|401:225|455:219|455:219|416:241|413:277,1,157.5,2|0,0:0|0:0,0:0:0:0:
470,382,7657,2,0,P|394:309|300:263,2,210,2|2|0,0:0|0:0|0:0,0:0:0:0:
340,384,8638,2,0,B|326:319|393:291|397:321|464:296|461:228,1,210,2|0,0:0|0:0,0:0:0:0:
415,141,9226,6,0,P|377:173|392:238,1,105,2|0,0:0|0:0,0:0:0:0:
491,22,9618,102,0,B|517:62|477:93|477:93|447:57|399:68,1,157.5,2|0,0:0|0:0,0:0:0:0:
320,93,10010,2,0,P|324:41|291:2,1,105,2|0,0:0|0:0,0:0:0:0:
208,32,10402,5,2,0:0:0:0:
255,169,10598,1,2,0:0:0:0:
255,169,10696,2,0,L|255:25,1,105,2|0,0:0|0:0,0:0:0:0:
125,89,10991,102,0,P|141:105|188:97,1,52.5,2|0,0:0|0:0,0:0:0:0:
208,32,11187,1,2,0:0:0:0:
208,31,11383,1,2,0:0:0:0:
208,30,11579,1,2,0:0:0:0:
27,6,11775,6,0,B|51:14|46:45|46:45|35:108|35:108|29:140|51:149,1,157.5,2|0,0:0|0:0,0:0:0:0:
112,197,12167,2,0,B|139:176|187:184|187:184|139:176|129:134,1,157.5,2|0,0:0|0:0,0:0:0:0:
48,147,12559,1,2,0:0:0:0:
67,276,12755,102,0,B|54:360|167:379|214:278|134:242,1,210,2|2,0:0|0:0,0:0:0:0:
335,0,13540,22,0,B|287:16|287:80|287:80|354:69|383:128,1,204.749990627289,0|0,1:0|0:0,0:0:0:0:
183,139,13932,2,0,B|172:188|228:220|228:220|252:157|317:161,1,204.749990627289,0|0,1:0|0:0,0:0:0:0:
472,72,14324,6,0,B|501:87|507:113|507:113|444:62|348:78|348:78|375:96|379:129,1,272.999987503052,8|0,0:0|0:0,0:0:0:0:
412,256,14912,102,0,B|436:275|440:299|440:299|380:236|307:237,1,204.749990627289,0|0,1:0|0:0,0:0:0:0:
250,292,15304,1,0,0:0:0:0:
68,342,15500,6,0,B|89:401|165:403|193:346|193:346|174:325|178:297,1,204.749990627289,0|0,1:0|0:0,0:0:0:0:
252,151,15892,2,0,P|171:184|175:245,1,136.499993751526,8|0,0:0|0:0,0:0:0:0:
250,292,16187,1,8,0:0:0:0:
250,292,16285,2,0,L|449:274,1,136.499993751526,8|8,1:2|0:0,0:0:0:0:
388,149,16677,101,2,1:2:0:0:
315,125,16873,1,2,0:2:0:0:
330,200,17069,1,2,1:2:0:0:
464,24,17265,6,0,P|432:24|416:58,1,68.2499968757631,2|0,0:0|0:0,0:0:0:0:
388,149,17461,2,0,P|444:154|491:85,1,136.499993751526,8|0,0:0|0:0,0:0:0:0:
296,38,17853,102,0,P|363:45|419:82,2,136.499993751526,0|0|0,0:0|1:0|0:0,0:0:0:0:
195,164,18441,5,0,0:0:0:0:
252,106,18638,2,0,B|209:77|216:14|216:14|201:76|156:88,1,204.749990627289,0|0,1:0|0:0,0:0:0:0:
31,165,19030,102,0,B|2:144|-5:50|85:66|85:66|78:90|85:114,1,204.749990627289,8|0,0:0|0:0,0:0:0:0:
186,243,19422,6,0,L|179:300,2,52.5,8|8|8,0:0|0:0|0:0,0:0:0:0:
195,164,19618,1,8,0:0:0:0:
27,341,19814,102,0,B|54:338|77:348|77:348|281:312,1,236.250009012223,0|0,1:0|0:0,0:0:0:0:
488,243,20206,2,0,P|472:347|368:327,1,236.250009012223,0|0,1:0|0:0,0:0:0:0:
300,253,20598,6,0,P|335:305|315:367,1,118.125004506111,8|0,0:0|0:0,0:0:0:0:
260,316,20991,1,0,0:0:0:0:
441,0,21187,102,0,B|482:76|391:132|391:132|397:86|365:57,1,236.250009012223,0|0,1:0|0:0,0:0:0:0:
480,80,21579,1,0,0:0:0:0:
447,267,21775,6,0,P|366:151|273:148,1,236.250009012223,0|0,1:0|0:0,0:0:0:0:
260,316,22167,102,0,L|264:368,4,52.5,8|8|8|8|8,3:2|0:2|3:2|0:2|3:2,0:2:0:0:
257,244,22461,1,8,0:2:0:0:
179,277,22559,6,0,B|266:284|266:284|267:281|267:281|334:287,1,157.500006008148,0|8,1:0|0:0,0:0:0:0:
496,35,22951,101,0,1:0:0:0:
384,64,23147,5,0,1:0:0:0:
288,160,23343,101,0,1:0:0:0:
256,288,23540,5,0,1:0:0:0:
128,352,23736,101,0,1:0:0:0:
0,256,23932,5,0,1:0:0:0:
131,113,24128,102,0,L|84:105,1,47.2499985580445,0|0,1:0|0:0,0:0:0:0:
384,64,24324,2,0,L|430:71,1,47.2499985580445,0|0,1:0|0:0,0:0:0:0:
192,352,24520,5,0,1:0:0:0:
169,311,24618,1,0,1:0:0:0:
172,264,24716,1,0,1:0:0:0:
199,226,24814,1,0,1:0:0:0:
313,226,24912,101,0,1:0:0:0:
340,263,25010,1,0,1:0:0:0:
343,311,25108,1,0,1:0:0:0:
320,352,25206,1,0,1:0:0:0:
255,307,25304,6,8,L|255:275,6,19.6875007510186,8|8|8|8|8|8|8,3:2|3:2|3:2|3:2|3:2|3:2|3:2,3:2:0:0:
256,160,25696,1,0,3:0:0:0:
33,75,25892,102,0,B|28:38|66:29|66:29|48:50|47:81,1,105,14|0,1:2|0:0,0:0:0:0:
33,75,26089,22,0,B|41:136|110:169|186:113|166:52|166:52|155:24|171:-5,1,275.62501051426,6|0,1:2|1:2,0:0:0:0:
241,26,26873,6,0,L|273:26,1,31.5,8|0,0:2|0:0,0:0:0:0:
403,177,27265,102,0,B|407:112|371:81|371:81|355:129|430:219|371:273|371:273|432:231|497:276,1,433.125016522408,0|0,1:0|0:0,0:0:0:0:
427,381,28441,5,10,0:0:0:0:
431,333,28540,1,2,0:0:0:0:
437,357,28638,1,2,0:0:0:0:
421,356,28736,1,2,0:0:0:0:
278,342,28932,101,2,0:0:0:0:
204,364,29030,1,2,0:0:0:0:
152,304,29128,1,2,0:0:0:0:
90,378,29226,6,0,B|26:314|26:314|90:250|90:250|60:306|84:351,1,275.62501051426,0|0,1:0|0:0,0:0:0:0:
13,152,30010,102,0,L|18:120,1,31.5,8|0,0:2|0:0,0:0:0:0:
32,41,30402,6,0,P|106:53|120:126,1,157.500006008148,0|0,1:1|0:0,0:0:0:0:
7,241,30892,102,0,P|26:237|56:230,2,39.3750015020371,2|2|0,0:0|0:0|0:0,0:0:0:0:
154,366,31285,2,0,P|173:370|203:377,2,39.3750015020371,2|2|0,0:0|0:0|0:0,0:0:0:0:
145,280,31579,5,10,0:0:0:0:
139,263,31677,1,2,0:0:0:0:
153,253,31775,1,2,0:0:0:0:
166,264,31873,1,2,0:0:0:0:
357,316,32069,101,2,0:0:0:0:
350,335,32167,1,2,0:0:0:0:
382,334,32265,1,2,0:0:0:0:
367,347,32363,2,0,P|364:289|401:244,1,118.125004506111,2|0,1:2|0:0,0:0:0:0:
448,165,32755,6,0,B|439:131|481:116|481:116|458:143|456:171,1,118.125004506111
418,49,33147,2,0,B|395:42|400:13|400:13|408:35|424:46,1,78.7500030040742,8|0,0:2|0:0,0:0:0:0:
483,244,33441,101,0,0:0:0:0:
479,251,33540,2,0,L|383:242,2,78.7500030040742,0|0|0,1:0|0:0|0:0,0:0:0:0:
403,378,34030,6,0,L|399:338,2,39.3750015020371
310,211,34422,2,0,L|306:250,2,39.3750015020371
297,66,34716,101,8,0:0:0:0:
352,96,34814,1,2,0:0:0:0:
287,127,34912,1,2,0:0:0:0:
304,83,35010,1,2,0:0:0:0:
453,39,35206,5,2,0:0:0:0:
438,7,35304,1,2,0:0:0:0:
460,15,35402,1,2,0:0:0:0:
498,99,35500,102,0,B|499:112|514:131|514:131|494:140|480:159|480:159|479:136|466:119|466:119|489:110|494:100,1,157.5,0|0,1:1|0:0,0:0:0:0:
496,264,35892,2,0,P|465:192|398:155,1,157.5
323,258,36285,6,0,P|367:278|404:245,1,105,8|0,0:2|0:0,0:0:0:0:
365,30,36579,1,0,0:0:0:0:
364,20,36677,2,0,P|326:53|329:104,2,105,0|0|0,1:1|0:0|0:0,0:0:0:0:
429,125,37167,102,0,P|444:104|447:78,2,52.5,2|2|0,0:0|0:0|0:0,0:0:0:0:
211,121,37559,2,0,P|220:145|242:159,2,52.5,2|2|0,0:0|0:0|0:0,0:0:0:0:
486,251,37853,5,10,0:0:0:0:
455,248,37951,1,2,0:0:0:0:
428,264,38049,1,2,0:0:0:0:
415,292,38147,1,2,0:0:0:0:
416,297,38343,101,2,0:0:0:0:
397,338,38441,1,2,0:0:0:0:
358,361,38539,1,2,0:0:0:0:
314,356,38638,2,0,P|282:292|327:241,1,136.499993751526,2|0,1:2|0:0,0:0:0:0:
512,134,38932,53,0,0:0:0:0:
512,134,39030,2,0,B|458:164|406:116|433:101|386:46|324:73,1,204.749990627289,0|0,1:0|0:0,0:0:0:0:
226,144,39422,2,0,P|301:87|257:3,1,204.749990627289,0|0,1:0|0:0,0:0:0:0:
185,77,39814,54,0,L|174:194,1,118.125004506111,0|0,1:0|0:0,0:0:0:0:
10,324,40206,6,0,L|15:382,1,39.3750015020371,0|0,1:0|0:0,0:0:0:0:
2,246,40402,1,0,0:0:0:0:
166,275,40598,38,0,L|160:333,1,39.3750015020371,0|0,1:0|0:0,0:0:0:0:
174,194,40794,1,0,0:0:0:0:
305,274,40991,5,2,1:2:0:0:
303,297,41089,1,2,2:2:0:0:
300,321,41187,1,2,2:2:0:0:
298,345,41285,2,0,L|292:403,1,39.3750015020371,2|0,0:0|1:0,0:0:0:0:
438,255,41481,37,2,2:2:0:0:
441,232,41579,1,2,2:2:0:0:
434,302,41677,1,2,2:2:0:0:
435,282,41775,6,0,B|386:251|406:158|493:175|493:175|507:213,1,204.749990627289,0|0,1:0|0:0,0:0:0:0:
481,372,42167,2,0,P|404:308|304:296,1,204.749990627289,0|0,1:0|0:0,0:0:0:0:
194,343,42559,38,0,B|221:327|230:296|230:296|228:328|245:352,1,118.125004506111,0|0,1:0|0:0,0:0:0:0:
194,343,42951,2,0,B|167:331|163:299|163:299|130:256|59:269|54:335,1,204.749990627289,0|0,1:0|0:0,0:0:0:0:
42,264,43343,5,0,1:0:0:0:
62,74,43540,37,0,0:0:0:0:
60,60,43638,1,0,0:0:0:0:
58,46,43736,1,0,1:0:0:0:
266,56,43932,6,0,L|333:50,1,68.2499968757631
421,27,44127,37,2,1:2:0:0:
452,39,44225,1,2,0:0:0:0:
434,41,44324,1,2,0:0:0:0:
419,59,44422,1,2,0:0:0:0:
451,150,44520,5,2,1:2:0:0:
479,113,44618,1,2,0:0:0:0:
467,142,44717,1,2,0:0:0:0:
480,179,44815,1,2,0:0:0:0:
430,243,44912,38,0,B|463:276|467:331|426:371|426:371|363:360,1,204.749990627289,0|0,1:0|0:0,0:0:0:0:
265,379,45304,6,0,P|295:321|265:254,1,136.499993751526,0|0,1:0|0:0,0:0:0:0:
162,274,45598,37,0,0:0:0:0:
85,291,45696,2,0,L|230:316,1,136.499993751526,0|0,1:0|0:0,0:0:0:0:
430,243,45991,5,0,0:0:0:0:
473,303,46089,2,0,B|447:327|451:366|451:366|441:328|409:314,1,136.499993751526,0|0,1:0|0:0,0:0:0:0:
316,240,46481,37,0,1:0:0:0:
316,36,46677,5,0,0:0:0:0:
321,55,46775,1,0,0:0:0:0:
334,71,46873,1,0,1:0:0:0:
241,132,47069,38,0,L|173:137,1,68.2499968757631
96,70,47265,5,2,1:2:0:0:
82,2,47363,1,2,0:0:0:0:
70,52,47461,1,2,0:0:0:0:
65,23,47559,1,2,0:0:0:0:
32,144,47657,37,2,1:2:0:0:
1,127,47755,1,2,0:0:0:0:
13,141,47853,1,2,0:0:0:0:
3,109,47951,1,2,0:0:0:0:
20,224,48049,54,0,L|32:268,1,34.1249984378815,0|0,1:0|0:0,0:0:0:0:
216,65,48245,70,0,L|225:33,1,34.1249984378815,0|0,1:0|0:0,0:0:0:0:
77,334,48441,54,0,L|110:326,1,34.1249984378815,0|0,1:0|0:0,0:0:0:0:
312,144,48638,102,0,L|279:135,1,34.1249984378815,0|0,1:0|0:0,0:0:0:0:
199,352,48834,70,0,L|207:385,1,34.1249984378815,0|0,1:0|0:0,0:0:0:0:
373,234,49030,54,0,L|382:202,1,34.1249984378815,0|0,1:0|0:0,0:0:0:0:
304,384,49226,102,0,L|336:375,1,34.1249984378815,0|0,1:0|0:0,0:0:0:0:
489,242,49422,70,0,L|456:250,1,34.1249984378815,0|0,1:0|0:0,0:0:0:0:
166,179,49618,53,0,1:0:0:0:
174,125,49716,1,0,1:0:0:0:
209,84,49814,1,0,1:0:0:0:
225,33,49912,1,0,1:0:0:0:
127,93,50010,101,0,1:0:0:0:
167,76,50108,1,0,1:0:0:0:
209,84,50206,1,0,1:0:0:0:
251,75,50304,1,0,1:0:0:0:
320,33,50402,54,0,L|330:-20,4,45.4999979171754,0|0|0|0|0,3:0|3:0|3:0|3:0|3:0,3:0:0:0:
308,144,50794,70,0,B|276:167|276:167|535:120|535:120|489:151,1,346.500010574341,12|0,3:1|0:0,0:0:0:0:
71,211,51187,22,0,B|41:275|93:323|105:299|133:357|133:357|110:308|125:263,1,267.750005106926,12|0,1:2|0:0,0:0:0:0:
66,134,51579,102,0,P|23:144|-3:183,1,89.2500017023087,0|0,1:0|0:0,0:0:0:0:
204,299,51775,2,0,B|250:305|250:305|209:291,1,89.2500017023087
71,211,51971,70,0,B|210:198|210:198|210:194|210:194|333:184,1,267.750005106926,0|0,1:0|0:0,0:0:0:0:
489,74,52363,2,0,P|454:46|410:48,1,89.2500017023087,8|0,1:2|0:0,0:0:0:0:
333,184,52559,70,0,B|331:214|355:226|355:226|345:208|347:179,1,89.2500017023087
350,110,52755,1,0,1:0:0:0:
153,252,52951,102,0,P|172:270|156:244,1,89.2500017023087
153,252,53147,2,0,B|153:302|125:329|74:332|81:346|81:346|32:266|75:214,1,267.750005106926,8|0,1:2|0:0,0:0:0:0:
63,107,53540,101,2,1:2:0:0:
65,123,53638,1,2,0:0:0:0:
40,120,53736,1,2,0:0:0:0:
88,111,53834,1,2,0:0:0:0:
173,218,53932,69,2,1:2:0:0:
148,213,54030,1,2,0:0:0:0:
167,180,54128,1,2,0:0:0:0:
153,252,54226,1,2,0:0:0:0:
218,357,54324,38,0,B|183:341|178:300|178:300|135:245|44:261|38:346,1,267.750005106926,0|0,1:0|0:0,0:0:0:0:
158,103,54716,22,0,P|171:61|211:46,1,89.2500017023087,8|0,1:2|0:0,0:0:0:0:
313,248,54912,2,0,P|297:287|255:289,1,89.2500017023087
68,137,55108,102,0,P|155:143|217:204,1,178.500003404617,0|0,1:0|0:0,0:0:0:0:
132,270,55402,101,0,0:0:0:0:
132,270,55500,2,0,B|97:250|107:229|107:229|121:250|138:258,1,89.2500017023087,8|0,1:2|0:0,0:0:0:0:
313,248,55696,70,0,B|314:212|336:205|336:205|324:228|326:247,1,89.2500017023087
301,326,55892,1,0,1:0:0:0:
512,276,56089,70,0,P|510:233|472:214,1,89.2500017023087
323,46,56285,2,0,B|342:35|350:12|350:12|350:36|365:53,1,89.2500017023087,8|0,1:2|0:0,0:0:0:0:
413,125,56481,102,0,L|409:164,1,39.3750015020371
275,336,56677,101,2,1:2:0:0:
234,307,56775,1,2,0:0:0:0:
258,288,56873,1,10,2:0:0:0:
244,336,56971,1,2,0:0:0:0:
100,297,57069,69,10,2:2:0:0:
113,365,57167,1,2,0:0:0:0:
80,338,57265,1,2,0:0:0:0:
151,343,57363,1,2,0:0:0:0:
109,220,57461,70,0,B|67:211|38:245|38:245|-9:241,1,118.125004506111,0|0,1:0|0:0,0:0:0:0:
17,61,57853,2,0,P|49:96|50:139,1,89.2500017023087,8|0,1:2|0:0,0:0:0:0:
4,326,58049,102,0,L|-1:385,1,39.3750015020371
285,277,58245,2,0,B|313:209|244:151|178:182|178:182|202:228|170:277,1,267.750005106926,0|0,1:0|0:0,0:0:0:0:
285,277,58638,2,0,B|297:290|300:319|300:319|309:292|332:280,1,89.2500017023087,8|0,1:2|0:0,0:0:0:0:
109,221,58834,102,0,B|66:236|66:236|110:228,1,89.2500017023087
188,203,59030,1,0,1:0:0:0:
9,124,59226,70,0,P|-7:84|17:49,1,89.2500017023087
149,0,59422,2,0,B|184:72|156:123|124:98|99:142|99:142|132:82|92:40,1,267.750005106926,8|0,1:2|0:0,0:0:0:0:
284,50,59814,69,2,1:2:0:0:
311,37,59912,1,2,2:0:0:0:
302,58,60010,1,2,2:0:0:0:
291,29,60108,1,2,2:0:0:0:
376,107,60206,101,10,1:2:0:0:
413,111,60304,1,2,2:0:0:0:
390,127,60402,1,2,2:0:0:0:
396,89,60500,1,2,2:0:0:0:
488,81,60598,102,0,B|511:136|511:136|462:170,1,118.125004506111,0|0,1:0|0:0,0:0:0:0:
303,272,60990,6,0,B|286:291|302:317|302:317|303:292|318:268,1,89.2500017023087,8|0,1:2|0:0,0:0:0:0:
381,229,61187,1,0,0:0:0:0:
506,309,61383,54,0,B|535:324|541:350|541:350|478:299|382:315|382:315|409:333|413:366,1,267.750005106926,0|0,1:0|0:0,0:0:0:0:
151,263,61775,2,0,P|193:311|226:296,1,89.2500017023087,8|0,1:2|0:0,0:0:0:0:
293,360,61971,2,0,L|305:252,1,89.2500017023087
81,118,62167,69,0,1:0:0:0:
108,85,62265,1,0,1:0:0:0:
152,81,62363,1,0,1:0:0:0:
184,52,62461,1,0,1:0:0:0:
39,112,62559,85,0,1:0:0:0:
81,118,62657,1,0,1:0:0:0:
106,154,62755,1,0,1:0:0:0:
147,168,62853,1,0,1:0:0:0:
151,263,62951,6,0,L|148:323,4,59.5000011348725,0|0|0|0|0,1:0|3:0|3:0|3:0|3:0,3:0:0:0:
348,318,63343,54,0,P|374:283|417:285,1,89.2500017023087,8|0,0:0|0:0,0:0:0:0:
512,263,63540,2,0,P|424:195|314:209,1,220.499993270874,4|0,0:0|0:0,0:0:0:0:
367,171,63736,70,0,B|350:123|381:69|402:106|439:66|431:11,1,178.500003404617,12|0,1:2|0:0,0:0:0:0:
246,5,64030,1,0,0:0:0:0:
252,13,64128,2,0,P|262:46|316:20,1,89.2500017023087,8|0,1:2|0:0,0:0:0:0:
487,115,64324,2,0,B|519:147|519:147|482:124,1,89.2500017023087
284,166,64520,102,0,B|256:180|248:203|248:203|302:158|384:172,1,178.500003404617,0|0,1:0|0:0,0:0:0:0:
438,219,64814,53,0,0:0:0:0:
441,224,64912,2,0,P|453:250|440:224,1,89.2500017023087,8|0,1:2|0:0,0:0:0:0:
298,276,65108,2,0,B|291:290|296:303|296:303|302:265|341:244,1,89.2500017023087
380,320,65304,1,0,1:0:0:0:
387,53,65500,86,0,B|377:39|364:38|364:38|393:62|393:106,1,89.2500017023087
480,354,65696,2,0,B|475:355|475:355|303:383,1,178.500003404617,8|0,1:2|0:0,0:0:0:0:
298,276,66089,101,2,1:2:0:0:
217,298,66187,1,2,0:0:0:0:
246,267,66285,1,2,0:0:0:0:
290,270,66383,1,2,0:0:0:0:
157,373,66481,21,10,1:2:0:0:
85,302,66579,1,2,0:0:0:0:
135,313,66677,1,2,0:0:0:0:
158,361,66775,1,2,0:0:0:0:
0,336,66873,6,0,L|8:240,1,78.7500030040742,0|0,1:0|0:0,0:0:0:0:
9,29,67167,53,0,0:0:0:0:
17,20,67265,2,0,P|57:49|51:98,1,89.2500017023087,8|0,1:2|0:0,0:0:0:0:
15,173,67461,2,0,L|103:165,1,89.2500017023087
207,270,67657,54,0,B|230:333|146:361|146:361|151:326|130:296,1,178.500003404617,0|0,1:0|0:0,0:0:0:0:
55,338,67951,1,0,0:0:0:0:
55,338,68049,2,0,B|35:354|26:367|26:367|52:351|81:349,1,89.2500017023087,8|0,1:2|0:0,0:0:0:0:
235,199,68245,2,0,P|239:242|280:254,1,89.2500017023087
501,30,68441,86,0,P|375:67|310:180,1,267.750005106926,0|0,1:0|0:0,0:0:0:0:
422,186,68834,2,0,P|418:212|426:185,1,89.2500017023087,8|0,1:2|0:0,0:0:0:0:
422,186,69030,2,0,P|461:165|473:124,1,89.2500017023087
282,22,69226,85,2,1:2:0:0:
257,66,69324,1,2,0:0:0:0:
286,35,69422,1,10,0:2:0:0:
330,38,69520,1,2,0:0:0:0:
407,113,69618,53,10,1:2:0:0:
330,113,69716,1,2,0:0:0:0:
392,126,69814,1,2,0:0:0:0:
422,186,69912,1,2,0:0:0:0:
473,348,70010,86,0,B|483:302|431:273|431:273|409:331|349:327,1,178.500003404617,0|0,1:0|0:0,0:0:0:0:
280,376,70304,1,0,0:0:0:0:
280,376,70402,2,0,P|256:340|270:299,1,89.2500017023087,8|0,1:2|0:0,0:0:0:0:
342,255,70598,2,0,B|340:225|364:213|364:213|354:231|356:260,1,89.2500017023087
115,312,70794,102,0,B|101:304|104:360|143:332|165:378|165:378|164:309|66:309|27:356,1,267.750005106926,0|0,1:0|0:0,0:0:0:0:
12,103,71187,22,0,P|52:116|65:157,1,89.2500017023087,8|0,1:2|0:0,0:0:0:0:
115,312,71383,2,0,B|137:322|147:345|147:345|146:320|162:298,1,89.2500017023087
66,244,71579,1,0,1:0:0:0:
197,57,71775,70,0,P|206:99|177:130,1,89.2500017023087
252,0,71971,2,0,P|358:76|369:205,1,267.750005106926,8|0,1:2|0:0,0:0:0:0:
382,335,72363,53,2,1:2:0:0:
380,355,72461,1,2,0:0:0:0:
352,339,72559,1,2,0:0:0:0:
410,350,72657,1,2,0:0:0:0:
240,317,72755,85,10,1:2:0:0:
269,311,72853,1,2,0:0:0:0:
263,357,72951,1,2,0:0:0:0:
247,271,73049,1,2,0:0:0:0:
359,260,73147,102,0,L|403:250,1,44.6250008511543,0|0,1:0|0:0,0:0:0:0:
151,354,73343,22,0,L|107:364,1,44.6250008511543,0|0,1:0|0:0,0:0:0:0:
325,138,73540,70,0,L|335:182,1,44.6250008511543,8|0,1:2|0:0,0:0:0:0:
140,267,73736,54,0,L|130:223,1,44.6250008511543,0|0,1:0|0:0,0:0:0:0:
349,56,73932,86,0,L|392:46,1,44.6250008511543,0|0,1:0|0:0,0:0:0:0:
84,149,74128,102,0,L|41:158,1,44.6250008511543,0|0,1:0|0:0,0:0:0:0:
463,97,74324,22,0,L|472:140,1,44.6250008511543,8|0,1:2|0:0,0:0:0:0:
14,276,74520,70,0,L|5:233,1,44.6250008511543,0|0,1:0|0:0,0:0:0:0:
392,47,74716,53,0,1:0:0:0:
372,75,74814,1,0,1:0:0:0:
338,89,74912,1,0,1:0:0:0:
319,120,75010,1,0,1:0:0:0:
193,120,75108,85,8,1:2:0:0:
174,89,75206,1,0,1:0:0:0:
140,75,75304,1,8,1:2:0:0:
120,47,75402,1,0,1:0:0:0:
256,24,75500,102,0,L|256:96,4,59.5000011348725,0|0|0|0|0,3:3|3:3|3:3|3:3|3:3,3:3:0:0:
208,192,75892,21,8,1:2:0:0:
243,186,75990,1,0,1:0:0:0:
276,203,76088,1,8,1:2:0:0:
310,200,76186,1,0,1:0:0:0:
256,280,76285,69,0,1:0:0:0:
205,97,77069,22,0,P|195:78|208:98,1,105,8|0,0:0|0:0,0:0:0:0:
205,97,77461,70,0,B|99:104|140:43|25:41|25:41|59:29|59:29|180:-19|194:57|258:142|258:142|254:97|195:83|195:83|201:161|188:204|144:195|153:251|153:251|197:201|265:223,1,874.124996665478,6|0,1:2|0:0,0:0:0:0:
222,318,78441,38,0,L|224:297,1,21,2|0,0:1|0:0,0:0:0:0:
411,129,78638,70,0,B|408:83|440:83|440:83|423:104|420:135,1,105,8|0,0:0|0:0,0:0:0:0:
499,350,78834,37,8,3:0:0:0:
499,350,78932,2,0,L|493:384,1,19.6875007510186,8|0,3:0|3:0,3:0:0:0:
416,340,79030,69,8,3:0:0:0:
416,340,79128,2,0,L|410:374,1,19.6875007510186,8|0,3:0|3:0,3:0:0:0:
334,327,79226,38,0,L|330:354,1,21,2|0,0:1|0:0,0:0:0:0:
294,223,79422,70,0,B|371:201|400:264|400:264|333:221|272:256|272:256|202:280|160:216|176:136|176:136|192:224|123:224|117:310|170:362,1,679.874997406483,6|0,1:2|0:0,0:0:0:0:
324,329,80206,2,0,B|375:350|375:350|325:322,1,105,8|0,0:0|0:0,0:0:0:0:
359,76,80598,6,0,B|361:58|415:18|494:39|521:123|499:162|455:201|455:201|430:222|392:244|392:244|370:256|330:275|323:328|323:328|320:272|292:237|255:212|255:212|216:182|161:113|231:29|320:62|337:111,1,874.124996665478,6|0,1:2|0:0,0:0:0:0:
446,245,81579,22,0,L|469:242,1,21,2|0,0:1|0:0,0:0:0:0:
143,197,81775,70,0,P|89:172|55:219,1,118.125004506111,0|0,1:0|0:0,0:0:0:0:
7,367,82167,38,0,B|7:311|63:263|87:319|151:263|143:191,1,236.250009012223,0|0,1:0|0:0,0:0:0:0:
66,53,82559,70,0,B|45:171|74:95|54:209,2,157.500006008148,6|0|0,1:2|0:0|0:0,0:0:0:0:
145,17,83147,2,0,B|201:37|161:31|215:51,1,78.7500030040742,2|0,0:1|0:0,0:0:0:0:
183,166,83343,38,0,P|167:137|184:165,1,105,8|0,0:0|0:0,0:0:0:0:
183,165,83736,70,0,B|143:158|98:182|98:182|175:163|261:178|261:178|257:180|257:180|311:178|370:249|370:249|332:208|289:207,1,485.624998147488,6|0,1:2|0:0,0:0:0:0:
283,141,84324,38,0,B|276:125|265:111|265:111|274:103|293:106|293:106|283:122|283:141,1,97.1249996294975,2|0,0:1|0:0,0:0:0:0:
298,286,84520,2,0,B|333:313|301:377|301:377|305:329|273:313|297:285,1,194.249999258995,2|2,0:0|0:1,0:0:0:0:
440,364,84912,70,0,P|424:335|441:363,1,105,8|0,0:0|0:0,0:0:0:0:
185,340,85108,37,8,3:0:0:0:
185,340,85206,2,0,L|179:374,1,19.6875007510186,8|0,3:0|3:0,3:0:0:0:
102,330,85304,69,8,3:0:0:0:
102,330,85402,2,0,L|96:364,1,19.6875007510186,8|0,3:0|3:0,3:0:0:0:
17,315,85500,38,0,L|10:361,1,39.3750015020371,8|0,3:0|0:0,0:0:0:0:
40,91,85696,70,0,B|8:111|1:134|1:134|59:88|144:107,2,194.249999258995,6|0|0,1:2|0:0|0:0,0:0:0:0:
197,22,86285,2,0,B|178:12|165:15|165:15|203:30|218:76,1,97.1249996294975,2|0,0:1|0:0,0:0:0:0:
96,214,86481,38,0,P|67:207|97:213,1,105,8|0,0:0|0:0,0:0:0:0:
96,214,86873,70,0,B|69:232|61:260|61:260|139:215|233:240|233:240|201:245|180:270,1,291.374998888493,6|0,1:2|0:0,0:0:0:0:
478,117,87265,38,0,B|415:121|399:76|430:47|366:-7|293:25|292:106|345:151|417:94,1,315.000012016297,4|2,0:0|0:0,0:0:0:0:
432,64,88245,1,0,0:0:0:0:
88,52,88441,6,0,L|32:47,1,52.5,2|0,0:0|0:0,0:0:0:0:
101,48,88540,6,0,L|153:52,1,52.5,2|0,0:0|0:0,0:0:0:0:
87,133,88638,102,0,L|31:128,1,39.3750015020371,2|0,0:0|0:0,0:0:0:0:
100,129,88737,6,0,L|152:133,1,39.3750015020371,2|0,0:0|0:0,0:0:0:0:
96,208,88834,102,0,B|39:298|39:298|224:240,1,283.499991348267,8|0,1:2|0:0,0:0:0:0:
213,366,89317,2,0,P|193:285|6:205,1,283.499991348267,8|0,0:1|0:0,0:0:0:0:
313,98,89801,6,0,B|316:78|339:71|339:71|322:47|327:16|327:16|322:47|297:64|297:64|316:78|313:99,1,188.999994232178,8|0,1:2|0:0,0:0:0:0:
293,203,90164,1,0,0:0:0:0:
253,4,90285,102,0,B|197:48|227:133|227:133|311:86|378:150,1,283.499991348267,8|0,1:1|0:0,0:0:0:0:
419,191,90769,1,0,1:0:0:0:
95,341,91011,6,0,B|81:358|81:358|132:319|210:349,1,141.749995674133
250,264,91253,102,0,P|266:267|251:259,1,47.2499985580445,8|0,0:1|0:0,0:0:0:0:
250,264,91374,2,0,B|228:260|228:260|287:285|300:367,1,141.749995674133
473,302,91737,6,0,B|467:286|467:286|473:334|423:374,1,94.499997116089,0|0,1:0|0:0,0:0:0:0:
376,232,91979,2,0,B|363:221|363:221|392:260|369:319,1,94.499997116089
10,62,92221,102,0,P|6:32|9:13,1,47.2499985580445,8|0,1:2|0:0,0:0:0:0:
101,68,92342,6,0,P|112:57|148:50,1,47.2499985580445,2|0,0:0|0:0,0:0:0:0:
108,78,92463,2,0,P|123:74|157:78,1,47.2499985580445,2|0,0:0|0:0,0:0:0:0:
116,161,92584,102,0,P|131:165|154:188,1,47.2499985580445,2|2,0:0|0:0,0:0:0:0:
36,198,92704,22,0,B|5:300|116:342|116:342|121:271|195:253,1,283.499991348267,8|0,1:2|0:0,0:0:0:0:
474,308,93188,2,0,B|343:319|343:319|343:323|343:323|195:336,1,283.499991348267,8|0,1:1|0:0,0:0:0:0:
413,144,93672,54,0,P|305:197|321:239,1,188.999994232178,0|0,1:2|0:0,0:0:0:0:
400,366,94035,37,0,0:0:0:0:
512,384,94156,2,0,B|474:367|469:322|469:322|423:263|324:281|317:372,1,283.499991348267,8|0,1:1|0:0,0:0:0:0:
443,275,94640,6,0,B|509:263|509:263|558:193|513:100|434:89,1,283.499991348267,0|0,1:0|0:0,0:0:0:0:
402,184,95124,54,0,B|360:208|360:208|404:192,1,94.499997116089,8|0,1:0|0:0,0:0:0:0:
365,54,95366,2,0,P|369:12|363:54,1,125.999996154785
485,24,95608,37,0,1:0:0:0:
245,84,95769,5,0,1:0:0:0:
365,54,95930,53,0,1:0:0:0:
189,15,96092,38,0,P|158:100|218:168,1,188.999994232178,8|0,1:0|0:0,0:0:0:0:
285,183,96414,1,8,0:0:0:0:
208,208,96495,1,8,0:0:0:0:
270,258,96575,54,0,B|296:274|301:306|301:306|316:375|419:387|467:318|441:255,1,283.499991348267,8|0,1:2|0:0,0:0:0:0:
485,109,97059,102,0,P|460:199|488:110,1,283.499991348267,8|0,1:0|0:0,0:0:0:0:
219,327,97543,6,0,B|167:317|167:317|182:324|182:324|146:318,1,105,0|0,1:0|0:0,0:0:0:0:
199,95,98027,102,0,B|300:60|300:60|247:256,1,283.499991348267,8|0,1:0|0:0,0:0:0:0:
125,201,98511,2,0,L|427:106,1,283.499991348267,0|0,1:0|0:0,0:0:0:0:
512,196,98995,6,0,B|393:216|393:216|416:392,1,283.499991348267,8|0,1:0|0:0,0:0:0:0:
309,338,99418,1,8,1:2:0:0:
305,326,99479,2,0,L|287:201,1,105,0|0,1:0|0:0,0:0:0:0:
493,295,99963,102,0,B|534:317|534:317|485:308,1,94.499997116089,8|0,1:0|0:0,0:0:0:0:
364,47,100204,2,0,P|333:81|339:127,1,94.499997116089
366,364,100446,22,0,B|418:329|427:235|387:184|387:184|348:218|296:194,1,283.499991348267,0|0,1:0|0:0,0:0:0:0:
29,333,100930,102,0,L|309:290,1,283.499991348267,8|0,1:0|0:0,0:0:0:0:
218,135,101414,2,0,P|175:151|156:194,1,94.499997116089,0|0,1:0|0:0,0:0:0:0:
434,105,101656,5,2,0:0:0:0:
434,89,101777,1,2,0:0:0:0:
422,0,101898,2,0,B|442:56|414:104|354:88|350:156|350:156|342:84|402:66,1,283.499991348267,10|0,1:1|0:0,0:0:0:0:
474,315,102382,102,0,P|420:329|475:305,1,188.999994232178,2|0,1:2|0:0,0:0:0:0:
417,312,102866,6,2,P|462:323|416:303,1,157.500006008148,10|2,0:0|0:0,0:0:0:0:
432,307,103592,102,0,P|459:308|433:313,1,78.7500030040742
248,296,103833,6,0,P|249:316|246:336,1,39.3750015020371,2|0,0:0|0:0,0:0:0:0:
263,240,103954,102,0,P|265:262|271:283,1,44.6250008511543,2|0,0:0|0:0,0:0:0:0:
237,165,104075,6,0,P|233:189|224:212,1,49.8749986681939,2|0,0:0|0:0,0:0:0:0:
269,93,104196,102,0,P|273:122|283:149,1,55.1249983177186,2|0,0:0|0:0,0:0:0:0:
150,37,104317,38,0,B|265:42|218:1|360:21,1,210,6|0,1:2|0:0,0:0:0:0:
438,272,104709,6,0,B|415:295|415:295|432:305|432:305|455:282|455:282|438:272,1,105,8|0,1:2|0:0,0:0:0:0:
485,129,104905,38,0,B|517:156|517:205|517:205|454:154|366:178|343:240,2,272.999987503052,2|0|0,0:0|0:0|1:0,0:0:0:0:
174,120,105493,6,0,B|168:95|168:95|182:70|182:70|186:99|186:99|174:120,1,105,8|0,1:2|0:0,0:0:0:0:
196,241,105689,38,0,P|167:147|72:123,1,204.749990627289,2|0,0:0|0:0,0:0:0:0:
48,131,105885,6,0,P|2:65|109:9,1,210,0|0,1:0|1:0,0:0:0:0:
102,213,106179,1,0,0:0:0:0:
102,213,106277,2,0,B|81:239|90:265|90:265|90:237|110:216,1,105,8|0,1:2|0:0,0:0:0:0:
291,62,106473,38,0,L|302:-4,1,52.5,2|0,0:0|0:0,0:0:0:0:
383,57,106669,2,0,L|394:-9,1,52.5,2|0,0:0|0:0,0:0:0:0:
260,196,106866,5,0,1:0:0:0:
448,129,107062,38,0,B|465:145|469:175|469:175|480:143|457:123,1,105,8|0,1:2|0:0,0:0:0:0:
475,52,107258,2,0,L|486:-14,1,52.5,2|0,0:0|0:0,0:0:0:0:
249,306,107454,6,0,P|301:216|405:177,1,210,0|0,1:0|0:0,0:0:0:0:
452,298,107748,1,0,0:0:0:0:
449,310,107846,2,0,P|400:319|374:277,1,105,8|0,1:2|0:0,0:0:0:0:
204,133,108042,38,0,B|183:155|183:155|235:147|235:147|247:127|247:127|205:132,2,136.499993751526,2|2|2,0:0|0:0|0:0,0:0:0:0:
242,46,108434,1,0,1:0:0:0:
58,276,108630,6,0,B|2:372|2:372|294:288,1,409.499981254579,10|0,1:2|0:0,0:0:0:0:
511,291,109022,38,0,P|473:224|397:213,1,157.5,0|0,1:0|0:0,0:0:0:0:
365,280,109415,2,0,L|354:399,1,105,8|0,1:2|0:0,0:0:0:0:
94,168,109611,6,2,B|67:168|67:168|97:201|97:201|120:202|120:202|95:168,2,136.499993751526,0|8|0,0:0|0:0|0:0,0:0:0:0:
210,59,109905,1,8,0:0:0:0:
215,52,110003,2,0,L|220:-11,1,52.5,0|0,1:2|0:0,0:0:0:0:
77,89,110199,38,0,L|365:57,1,262.5,8|0,1:2|0:0,0:0:0:0:
351,89,110493,2,0,B|352:88|367:10,1,52.5,8|8,0:0|0:0,0:0:0:0:
351,89,110591,102,0,P|356:157|475:156,1,210,6|0,1:2|0:0,0:0:0:0:
215,52,110983,54,0,B|199:32|205:3|205:3|191:29|163:34,1,105,8|0,1:2|0:0,0:0:0:0:
205,172,111179,38,0,B|191:192|191:192|236:184|236:184|248:164|248:164|206:169,2,136.499993751526,2|8|0,0:0|0:2|0:0,0:0:0:0:
101,180,111473,1,8,0:0:0:0:
88,179,111571,2,0,L|19:185,1,52.5,0|0,1:0|0:0,0:0:0:0:
72,34,111767,54,0,B|47:37|24:17|24:17|41:42|31:69,1,105,8|0,1:2|0:0,0:0:0:0:
75,264,111964,2,0,B|33:321|98:373|98:373|113:323|171:311,1,204.749990627289,2|0,0:0|0:0,0:0:0:0:
168,336,112160,1,0,1:0:0:0:
313,128,112356,69,0,0:0:0:0:
313,128,112454,1,0,0:0:0:0:
313,128,112552,2,0,P|305:88|370:58,1,105,10|0,1:2|0:0,0:0:0:0:
438,168,112748,54,0,P|421:147|400:132,1,52.5,2|0,0:0|0:0,0:0:0:0:
512,124,112944,2,0,P|507:98|496:74,1,52.5,10|0,0:0|0:0,0:0:0:0:
388,243,113140,2,0,P|363:233|337:231,1,52.5,10|0,1:2|0:0,0:0:0:0:
182,181,113336,38,0,P|247:254|256:378,1,210,8|0,1:2|0:0,0:0:0:0:
172,326,113630,2,0,P|151:288|158:268,1,52.5
172,326,113728,102,0,L|108:314,1,52.5,0|0,1:0|0:0,0:0:0:0:
391,338,113924,6,0,L|442:347,1,52.5,0|0,1:0|0:0,0:0:0:0:
44,237,114120,54,0,L|55:173,1,52.5,0|0,1:0|0:0,0:0:0:0:
502,212,114317,38,0,L|493:264,1,52.5,0|0,1:0|0:0,0:0:0:0:
102,106,114513,6,0,L|165:117,1,52.5,0|0,1:0|0:0,0:0:0:0:
454,143,114709,54,0,L|390:131,1,52.5,0|0,1:0|0:0,0:0:0:0:
178,244,114905,38,0,L|188:193,1,52.5,0|0,1:0|0:0,0:0:0:0:
359,210,115101,6,0,L|350:262,1,52.5,0|0,1:0|0:0,0:0:0:0:
32,96,115297,53,0,1:0:0:0:
57,64,115395,1,0,1:0:0:0:
101,59,115493,1,0,1:0:0:0:
126,26,115591,1,0,1:0:0:0:
32,96,115689,37,0,1:0:0:0:
72,101,115787,1,0,1:0:0:0:
98,137,115885,1,0,1:0:0:0:
139,142,115983,1,0,1:0:0:0:
225,167,116081,5,0,1:0:0:0:
232,185,116147,1,0,1:0:0:0:
223,205,116212,1,0,1:0:0:0:
231,221,116277,2,0,L|230:264,2,26.2500010013581,0|0|0,1:0|1:0|1:0,1:0:0:0:
296,301,116473,53,0,1:2:0:0:
318,304,116539,1,0,1:2:0:0:
334,325,116604,1,0,1:2:0:0:
355,327,116669,2,0,L|399:353,2,26.2500010013581,0|0|0,1:2|1:2|1:2,1:2:0:0:
419,110,116866,101,2,0:0:0:0:
444,94,116964,1,2,0:0:0:0:
474,100,117062,1,2,0:0:0:0:
494,124,117160,1,2,0:0:0:0:
496,154,117258,1,2,0:0:0:0:
478,180,117356,1,2,0:0:0:0:
453,199,117454,1,2,0:0:0:0:
426,215,117552,1,2,0:0:0:0:
404,237,117650,1,2,0:0:0:0:
396,248,117748,1,2,0:0:0:0:
386,218,117846,1,2,0:0:0:0:
365,195,117944,1,2,0:0:0:0:
342,174,118042,1,2,0:0:0:0:
331,145,118140,1,2,0:0:0:0:
342,116,118238,1,2,0:0:0:0:
371,106,118336,1,2,0:0:0:0:
399,119,118434,1,0,0:0:0:0:
