osu file format v14

[General]
AudioFilename: audio.mp3
AudioLeadIn: 0
PreviewTime: -1
Countdown: 0
SampleSet: Soft
StackLeniency: 0.7
Mode: 3
LetterboxInBreaks: 0
SpecialStyle: 0
WidescreenStoryboard: 1

[Editor]
DistanceSpacing: 0.8
BeatDivisor: 4
GridSize: 4
TimelineZoom: 1.5

[Metadata]
Title:Take It to the Limit
TitleUnicode:Take It to the Limit
Artist:DDRKirby(ISQ)
ArtistUnicode:DDRKirby(ISQ)
Creator:ExPew
Version:Run~!
Source:Ripple Runner Deluxe
Tags:8bit
BeatmapID:1403324
BeatmapSetID:663013

[Difficulty]
HPDrainRate:8
CircleSize:7
OverallDifficulty:8
ApproachRate:5
SliderMultiplier:1.4
SliderTickRate:1

[Events]
//Background and Video events
//Break Periods
//Storyboard Layer 0 (Background)
//Storyboard Layer 1 (Fail)
//Storyboard Layer 2 (Pass)
//Storyboard Layer 3 (Foreground)
//Storyboard Layer 4 (Overlay)
//Storyboard Sound Samples

[TimingPoints]
-15,375,4,2,0,5,1,0

[HitObjects]
36,192,735,5,0,0:0:0:0:
182,192,828,1,0,0:0:0:0:
329,192,922,1,0,0:0:0:0:
475,192,1016,1,0,0:0:0:0:
36,192,1110,1,0,0:0:0:0:
182,192,1203,1,0,0:0:0:0:
329,192,1297,1,0,0:0:0:0:
475,192,1391,1,0,0:0:0:0:
36,192,1485,1,0,0:0:0:0:
256,192,1485,1,0,0:0:0:0:
182,192,1860,1,0,0:0:0:0:
402,192,1860,1,0,0:0:0:0:
256,192,2235,1,0,0:0:0:0:
36,192,2422,1,0,0:0:0:0:
182,192,2610,1,0,0:0:0:0:
402,192,2610,1,0,0:0:0:0:
36,192,2985,1,0,0:0:0:0:
256,192,2985,1,0,0:0:0:0:
109,192,3172,1,0,0:0:0:0:
182,192,3360,1,0,0:0:0:0:
402,192,3360,1,0,0:0:0:0:
256,192,3735,1,0,0:0:0:0:
36,192,3922,1,0,0:0:0:0:
402,192,4110,1,0,0:0:0:0:
182,192,4110,1,0,0:0:0:0:
475,192,4297,128,0,4485:0:0:0:0:
36,192,4485,1,0,0:0:0:0:
256,192,4485,128,0,4672:0:0:0:0:
109,192,4672,1,0,0:0:0:0:
402,192,4672,128,0,4860:0:0:0:0:
182,192,4860,1,0,0:0:0:0:
402,192,5047,128,0,5235:0:0:0:0:
256,192,5235,1,0,0:0:0:0:
36,192,5422,1,0,0:0:0:0:
182,192,5610,1,0,0:0:0:0:
402,192,5610,1,0,0:0:0:0:
36,192,5985,1,0,0:0:0:0:
256,192,5985,1,0,0:0:0:0:
109,192,6172,1,0,0:0:0:0:
182,192,6360,1,0,0:0:0:0:
402,192,6360,1,0,0:0:0:0:
329,192,6547,1,0,0:0:0:0:
475,192,6641,1,0,0:0:0:0:
329,192,6735,1,0,0:0:0:0:
475,192,6828,1,0,0:0:0:0:
36,192,6922,1,0,0:0:0:0:
182,192,7110,1,0,0:0:0:0:
402,192,7110,1,0,0:0:0:0:
329,192,7297,1,0,0:0:0:0:
182,192,7391,1,0,0:0:0:0:
109,192,7438,1,0,0:0:0:0:
36,192,7485,1,0,0:0:0:0:
475,192,7485,1,0,0:0:0:0:
402,192,7672,128,0,8610:0:0:0:0:
182,192,7672,1,0,0:0:0:0:
36,192,7860,1,0,0:0:0:0:
475,192,7860,1,0,0:0:0:0:
256,192,7860,1,0,0:0:0:0:
256,192,8047,1,0,0:0:0:0:
109,192,8235,1,0,0:0:0:0:
36,192,8422,1,0,0:0:0:0:
256,192,8422,1,0,0:0:0:0:
182,192,8610,1,0,0:0:0:0:
475,192,8610,1,0,0:0:0:0:
329,192,8610,1,0,0:0:0:0:
329,192,8797,1,0,0:0:0:0:
36,192,8985,1,0,0:0:0:0:
182,192,8985,1,0,0:0:0:0:
256,192,9172,1,0,0:0:0:0:
475,192,9360,1,0,0:0:0:0:
329,192,9360,1,0,0:0:0:0:
109,192,9360,1,0,0:0:0:0:
109,192,9547,1,0,0:0:0:0:
402,192,9735,1,0,0:0:0:0:
36,192,9922,1,0,0:0:0:0:
329,192,9922,1,0,0:0:0:0:
402,192,10110,1,0,0:0:0:0:
256,192,10110,1,0,0:0:0:0:
109,192,10110,1,0,0:0:0:0:
329,192,10203,1,0,0:0:0:0:
475,192,10297,1,0,0:0:0:0:
182,192,10297,1,0,0:0:0:0:
402,192,10485,1,0,0:0:0:0:
36,192,10485,1,0,0:0:0:0:
256,192,10485,1,0,0:0:0:0:
475,192,10672,128,0,11047:0:0:0:0:
36,192,10860,1,0,0:0:0:0:
182,192,10860,1,0,0:0:0:0:
329,192,11047,128,0,11610:0:0:0:0:
182,192,11235,1,0,0:0:0:0:
109,192,11422,1,0,0:0:0:0:
36,192,11610,128,0,11985:0:0:0:0:
475,192,11610,1,0,0:0:0:0:
256,192,11610,1,0,0:0:0:0:
109,192,11703,1,0,0:0:0:0:
182,192,11797,1,0,0:0:0:0:
256,192,11891,1,0,0:0:0:0:
329,192,11985,1,0,0:0:0:0:
109,192,11985,1,0,0:0:0:0:
402,192,12078,1,0,0:0:0:0:
475,192,12172,1,0,0:0:0:0:
329,192,12266,1,0,0:0:0:0:
402,192,12360,1,0,0:0:0:0:
475,192,12453,1,0,0:0:0:0:
329,192,12547,1,0,0:0:0:0:
402,192,12641,1,0,0:0:0:0:
475,192,12735,1,0,0:0:0:0:
182,192,12735,1,0,0:0:0:0:
329,192,12828,1,0,0:0:0:0:
36,192,12828,1,0,0:0:0:0:
402,192,12922,1,0,0:0:0:0:
109,192,12922,1,0,0:0:0:0:
475,192,13016,1,0,0:0:0:0:
182,192,13016,1,0,0:0:0:0:
36,192,13110,1,0,0:0:0:0:
329,192,13110,1,0,0:0:0:0:
109,192,13203,1,0,0:0:0:0:
402,192,13203,1,0,0:0:0:0:
182,192,13297,1,0,0:0:0:0:
475,192,13297,1,0,0:0:0:0:
36,192,13391,1,0,0:0:0:0:
329,192,13391,1,0,0:0:0:0:
256,192,13485,128,0,13672:0:0:0:0:
475,192,13485,1,0,0:0:0:0:
182,192,13485,1,0,0:0:0:0:
109,192,13672,1,0,0:0:0:0:
256,192,13766,128,0,13953:0:0:0:0:
36,192,13860,1,0,0:0:0:0:
402,192,13860,1,0,0:0:0:0:
256,192,14047,128,0,14235:0:0:0:0:
182,192,14422,128,0,14610:0:0:0:0:
36,192,14422,1,0,0:0:0:0:
329,192,14610,128,0,14797:0:0:0:0:
475,192,14610,1,0,0:0:0:0:
109,192,14610,1,0,0:0:0:0:
182,192,14797,128,0,14985:0:0:0:0:
329,192,14985,128,0,15172:0:0:0:0:
36,192,14985,1,0,0:0:0:0:
109,192,15172,1,0,0:0:0:0:
329,192,15266,128,0,15453:0:0:0:0:
182,192,15360,1,0,0:0:0:0:
475,192,15360,1,0,0:0:0:0:
329,192,15547,128,0,15735:0:0:0:0:
256,192,15922,128,0,16110:0:0:0:0:
182,192,15922,1,0,0:0:0:0:
402,192,16110,128,0,16297:0:0:0:0:
329,192,16110,1,0,0:0:0:0:
36,192,16110,1,0,0:0:0:0:
256,192,16297,128,0,16485:0:0:0:0:
402,192,16485,128,0,16672:0:0:0:0:
109,192,16485,128,0,16860:0:0:0:0:
329,192,16485,1,0,0:0:0:0:
256,192,16672,1,0,0:0:0:0:
402,192,16766,128,0,16953:0:0:0:0:
36,192,16860,1,0,0:0:0:0:
182,192,16860,1,0,0:0:0:0:
402,192,17047,128,0,17235:0:0:0:0:
109,192,17047,128,0,17422:0:0:0:0:
402,192,17422,1,0,0:0:0:0:
329,192,17422,128,0,17610:0:0:0:0:
475,192,17610,128,0,17797:0:0:0:0:
109,192,17610,1,0,0:0:0:0:
256,192,17610,1,0,0:0:0:0:
329,192,17797,128,0,17985:0:0:0:0:
182,192,17985,1,0,0:0:0:0:
36,192,17985,1,0,0:0:0:0:
256,192,18078,1,0,0:0:0:0:
109,192,18172,1,0,0:0:0:0:
36,192,18266,128,0,18641:0:0:0:0:
329,192,18360,1,0,0:0:0:0:
475,192,18360,1,0,0:0:0:0:
256,192,18735,1,0,0:0:0:0:
329,192,18828,1,0,0:0:0:0:
402,192,18922,1,0,0:0:0:0:
109,192,18922,1,0,0:0:0:0:
475,192,19016,128,0,19391:0:0:0:0:
36,192,19110,1,0,0:0:0:0:
182,192,19110,1,0,0:0:0:0:
36,192,19297,1,0,0:0:0:0:
182,192,19297,1,0,0:0:0:0:
182,192,19391,1,0,0:0:0:0:
36,192,19391,1,0,0:0:0:0:
475,192,19485,1,0,0:0:0:0:
256,192,19485,128,0,19672:0:0:0:0:
402,192,19578,1,0,0:0:0:0:
329,192,19672,1,0,0:0:0:0:
402,192,19766,1,0,0:0:0:0:
182,192,19766,128,0,19953:0:0:0:0:
475,192,19860,1,0,0:0:0:0:
402,192,19953,1,0,0:0:0:0:
329,192,20047,1,0,0:0:0:0:
109,192,20047,128,0,20235:0:0:0:0:
402,192,20141,1,0,0:0:0:0:
475,192,20235,128,0,20516:0:0:0:0:
182,192,20422,128,0,20610:0:0:0:0:
475,192,20610,128,0,20891:0:0:0:0:
109,192,20610,128,0,20797:0:0:0:0:
256,192,20610,1,0,0:0:0:0:
402,192,20610,1,0,0:0:0:0:
36,192,20797,128,0,20985:0:0:0:0:
329,192,20985,128,0,21172:0:0:0:0:
182,192,20985,1,0,0:0:0:0:
109,192,21078,1,0,0:0:0:0:
256,192,21266,128,0,21453:0:0:0:0:
475,192,21360,1,0,0:0:0:0:
109,192,21360,1,0,0:0:0:0:
182,192,21547,128,0,21735:0:0:0:0:
402,192,21735,1,0,0:0:0:0:
475,192,21828,1,0,0:0:0:0:
256,192,21922,128,0,22110:0:0:0:0:
182,192,22110,128,0,22297:0:0:0:0:
475,192,22110,128,0,22485:0:0:0:0:
36,192,22110,1,0,0:0:0:0:
402,192,22110,1,0,0:0:0:0:
109,192,22297,128,0,22485:0:0:0:0:
402,192,22485,128,0,22672:0:0:0:0:
182,192,22485,128,0,22860:0:0:0:0:
329,192,22766,128,0,22953:0:0:0:0:
109,192,22860,1,0,0:0:0:0:
475,192,22860,1,0,0:0:0:0:
256,192,23047,128,0,23235:0:0:0:0:
109,192,23047,128,0,23422:0:0:0:0:
329,192,23422,128,0,23610:0:0:0:0:
256,192,23610,128,0,23797:0:0:0:0:
36,192,23610,1,0,0:0:0:0:
402,192,23610,1,0,0:0:0:0:
182,192,23797,128,0,23985:0:0:0:0:
329,192,23985,1,0,0:0:0:0:
402,192,24078,1,0,0:0:0:0:
182,192,24172,1,0,0:0:0:0:
109,192,24266,128,0,24641:0:0:0:0:
256,192,24360,1,0,0:0:0:0:
329,192,24360,1,0,0:0:0:0:
256,192,24735,1,0,0:0:0:0:
329,192,24828,1,0,0:0:0:0:
109,192,24922,1,0,0:0:0:0:
36,192,25016,1,0,0:0:0:0:
402,192,25110,1,0,0:0:0:0:
182,192,25110,1,0,0:0:0:0:
256,192,25110,1,0,0:0:0:0:
475,192,25203,1,0,0:0:0:0:
402,192,25297,1,0,0:0:0:0:
109,192,25297,1,0,0:0:0:0:
36,192,25297,1,0,0:0:0:0:
475,192,25391,1,0,0:0:0:0:
329,192,25485,128,0,25672:0:0:0:0:
109,192,25672,128,0,25766:0:0:0:0:
402,192,25766,128,0,25953:0:0:0:0:
182,192,25953,128,0,26047:0:0:0:0:
475,192,26047,128,0,26235:0:0:0:0:
256,192,26235,128,0,26422:0:0:0:0:
402,192,26422,128,0,26703:0:0:0:0:
182,192,26610,128,0,26891:0:0:0:0:
402,192,26797,128,0,26985:0:0:0:0:
182,192,26985,128,0,27172:0:0:0:0:
402,192,27172,128,0,27266:0:0:0:0:
256,192,27266,128,0,27453:0:0:0:0:
109,192,27453,128,0,27547:0:0:0:0:
329,192,27547,128,0,27735:0:0:0:0:
475,192,27735,128,0,27922:0:0:0:0:
182,192,27922,128,0,28203:0:0:0:0:
402,192,28110,128,0,28391:0:0:0:0:
182,192,28297,128,0,28485:0:0:0:0:
109,192,28485,128,0,28766:0:0:0:0:
402,192,28485,128,0,28672:0:0:0:0:
256,192,28672,128,0,28766:0:0:0:0:
475,192,28766,128,0,28953:0:0:0:0:
256,192,28953,128,0,29047:0:0:0:0:
109,192,29047,128,0,29328:0:0:0:0:
402,192,29047,128,0,29235:0:0:0:0:
256,192,29235,128,0,29328:0:0:0:0:
475,192,29328,128,0,29610:0:0:0:0:
109,192,29610,128,0,29985:0:0:0:0:
475,192,29797,128,0,29985:0:0:0:0:
182,192,29985,1,0,0:0:0:0:
36,192,30078,1,0,0:0:0:0:
256,192,30172,1,0,0:0:0:0:
109,192,30266,128,0,30641:0:0:0:0:
329,192,30735,1,0,0:0:0:0:
475,192,30828,1,0,0:0:0:0:
256,192,30922,1,0,0:0:0:0:
402,192,31016,128,0,31391:0:0:0:0:
475,192,31485,1,0,0:0:0:0:
182,192,31485,128,0,31672:0:0:0:0:
402,192,31578,1,0,0:0:0:0:
329,192,31672,1,0,0:0:0:0:
36,192,31672,128,0,31766:0:0:0:0:
402,192,31766,1,0,0:0:0:0:
109,192,31766,128,0,31953:0:0:0:0:
475,192,31860,1,0,0:0:0:0:
402,192,31953,1,0,0:0:0:0:
182,192,31953,128,0,32047:0:0:0:0:
329,192,32047,1,0,0:0:0:0:
36,192,32047,128,0,32235:0:0:0:0:
402,192,32141,1,0,0:0:0:0:
475,192,32235,128,0,32516:0:0:0:0:
109,192,32235,128,0,32422:0:0:0:0:
182,192,32422,128,0,32610:0:0:0:0:
475,192,32610,128,0,32891:0:0:0:0:
109,192,32610,128,0,32797:0:0:0:0:
36,192,32797,128,0,32985:0:0:0:0:
182,192,32985,1,0,0:0:0:0:
329,192,32985,128,0,33172:0:0:0:0:
109,192,33078,1,0,0:0:0:0:
36,192,33172,1,0,0:0:0:0:
475,192,33172,128,0,33266:0:0:0:0:
109,192,33266,1,0,0:0:0:0:
402,192,33266,128,0,33453:0:0:0:0:
182,192,33360,1,0,0:0:0:0:
109,192,33453,1,0,0:0:0:0:
329,192,33453,128,0,33547:0:0:0:0:
36,192,33547,1,0,0:0:0:0:
475,192,33547,128,0,33735:0:0:0:0:
109,192,33641,1,0,0:0:0:0:
182,192,33735,128,0,34016:0:0:0:0:
402,192,33735,128,0,33922:0:0:0:0:
329,192,33922,128,0,34110:0:0:0:0:
182,192,34110,128,0,34391:0:0:0:0:
402,192,34110,128,0,34297:0:0:0:0:
475,192,34297,128,0,34485:0:0:0:0:
109,192,34485,128,0,34672:0:0:0:0:
329,192,34485,128,0,34766:0:0:0:0:
36,192,34672,128,0,34766:0:0:0:0:
182,192,34672,128,0,34766:0:0:0:0:
402,192,34766,128,0,34953:0:0:0:0:
475,192,34953,128,0,35047:0:0:0:0:
109,192,35047,128,0,35235:0:0:0:0:
329,192,35047,128,0,35328:0:0:0:0:
36,192,35235,128,0,35328:0:0:0:0:
182,192,35235,128,0,35328:0:0:0:0:
402,192,35328,128,0,35610:0:0:0:0:
109,192,35610,128,0,35797:0:0:0:0:
256,192,35797,128,0,35985:0:0:0:0:
36,192,35985,1,0,0:0:0:0:
475,192,36078,1,0,0:0:0:0:
402,192,36172,1,0,0:0:0:0:
329,192,36266,128,0,36641:0:0:0:0:
475,192,36735,1,0,0:0:0:0:
182,192,36735,1,0,0:0:0:0:
329,192,36828,1,0,0:0:0:0:
36,192,36828,1,0,0:0:0:0:
402,192,36922,1,0,0:0:0:0:
109,192,36922,1,0,0:0:0:0:
475,192,37016,1,0,0:0:0:0:
182,192,37016,1,0,0:0:0:0:
329,192,37110,1,0,0:0:0:0:
36,192,37110,1,0,0:0:0:0:
402,192,37203,1,0,0:0:0:0:
109,192,37203,1,0,0:0:0:0:
475,192,37297,1,0,0:0:0:0:
182,192,37297,1,0,0:0:0:0:
329,192,37391,1,0,0:0:0:0:
36,192,37391,1,0,0:0:0:0:
109,192,37485,1,0,0:0:0:0:
256,192,37485,1,0,0:0:0:0:
402,192,37485,128,0,40485:0:0:0:0:
475,192,37485,1,0,0:0:0:0:
329,192,37672,1,0,0:0:0:0:
36,192,38610,128,0,38985:0:0:0:0:
256,192,38985,128,0,39922:0:0:0:0:
36,192,39922,128,0,40110:0:0:0:0:
109,192,40110,128,0,40297:0:0:0:0:
182,192,40297,128,0,40485:0:0:0:0:
256,192,40297,1,0,0:0:0:0:
475,192,40485,128,0,43485:0:0:0:0:
329,192,40485,128,0,40860:0:0:0:0:
36,192,40485,1,0,0:0:0:0:
109,192,40672,1,0,0:0:0:0:
182,192,40860,128,0,41047:0:0:0:0:
402,192,40860,1,0,0:0:0:0:
36,192,41047,128,0,43110:0:0:0:0:
329,192,41047,1,0,0:0:0:0:
109,192,41985,1,0,0:0:0:0:
182,192,42360,1,0,0:0:0:0:
256,192,42735,1,0,0:0:0:0:
329,192,43110,1,0,0:0:0:0:
182,192,43110,128,0,43297:0:0:0:0:
256,192,43297,128,0,43485:0:0:0:0:
109,192,43485,128,0,46485:0:0:0:0:
402,192,43485,1,0,0:0:0:0:
329,192,43485,128,0,44422:0:0:0:0:
36,192,43672,1,0,0:0:0:0:
402,192,43860,1,0,0:0:0:0:
256,192,44610,128,0,44985:0:0:0:0:
402,192,44985,128,0,46485:0:0:0:0:
36,192,46485,128,0,49485:0:0:0:0:
182,192,46485,1,0,0:0:0:0:
329,192,46485,128,0,47422:0:0:0:0:
182,192,46860,1,0,0:0:0:0:
402,192,47047,1,0,0:0:0:0:
182,192,47422,128,0,47610:0:0:0:0:
256,192,47610,1,0,0:0:0:0:
402,192,47610,128,0,47985:0:0:0:0:
475,192,47797,1,0,0:0:0:0:
182,192,47985,1,0,0:0:0:0:
256,192,47985,128,0,48360:0:0:0:0:
329,192,48360,128,0,48547:0:0:0:0:
109,192,48360,1,0,0:0:0:0:
182,192,48547,128,0,48922:0:0:0:0:
402,192,48547,1,0,0:0:0:0:
475,192,48735,1,0,0:0:0:0:
109,192,48922,128,0,49485:0:0:0:0:
329,192,48922,1,0,0:0:0:0:
402,192,49110,1,0,0:0:0:0:
256,192,49297,1,0,0:0:0:0:
329,192,49485,1,0,0:0:0:0:
475,192,49485,128,0,52485:0:0:0:0:
402,192,49485,128,0,50610:0:0:0:0:
109,192,49672,1,0,0:0:0:0:
182,192,49860,1,0,0:0:0:0:
256,192,50047,1,0,0:0:0:0:
36,192,50610,128,0,50985:0:0:0:0:
182,192,50610,1,0,0:0:0:0:
329,192,50985,128,0,51547:0:0:0:0:
36,192,51547,128,0,51735:0:0:0:0:
256,192,51735,128,0,52016:0:0:0:0:
329,192,52016,128,0,52297:0:0:0:0:
109,192,52110,1,0,0:0:0:0:
36,192,52297,128,0,52485:0:0:0:0:
402,192,52485,128,0,55485:0:0:0:0:
182,192,52485,128,0,52860:0:0:0:0:
256,192,52485,1,0,0:0:0:0:
36,192,52860,128,0,53047:0:0:0:0:
329,192,52860,1,0,0:0:0:0:
109,192,53047,1,0,0:0:0:0:
256,192,53047,128,0,55110:0:0:0:0:
182,192,53422,1,0,0:0:0:0:
36,192,53610,1,0,0:0:0:0:
182,192,53985,1,0,0:0:0:0:
36,192,54360,1,0,0:0:0:0:
109,192,54735,1,0,0:0:0:0:
109,192,55110,128,0,55485:0:0:0:0:
182,192,55110,1,0,0:0:0:0:
36,192,55485,128,0,58485:0:0:0:0:
475,192,55485,128,0,56985:0:0:0:0:
329,192,55485,1,0,0:0:0:0:
256,192,55672,1,0,0:0:0:0:
182,192,55860,1,0,0:0:0:0:
402,192,56985,128,0,58110:0:0:0:0:
256,192,58110,128,0,58485:0:0:0:0:
109,192,58485,128,0,61485:0:0:0:0:
402,192,58485,128,0,59047:0:0:0:0:
329,192,58485,1,0,0:0:0:0:
182,192,58672,1,0,0:0:0:0:
36,192,58860,1,0,0:0:0:0:
475,192,59047,128,0,59422:0:0:0:0:
256,192,59047,1,0,0:0:0:0:
329,192,59422,128,0,59610:0:0:0:0:
256,192,59610,128,0,59797:0:0:0:0:
182,192,59797,128,0,59985:0:0:0:0:
475,192,59985,128,0,60172:0:0:0:0:
402,192,60266,128,0,60453:0:0:0:0:
329,192,60547,128,0,60735:0:0:0:0:
182,192,60735,128,0,60860:0:0:0:0:
475,192,60860,128,0,60985:0:0:0:0:
256,192,60985,128,0,61110:0:0:0:0:
402,192,61110,128,0,61235:0:0:0:0:
182,192,61235,128,0,61360:0:0:0:0:
475,192,61360,128,0,61485:0:0:0:0:
256,192,61485,128,0,64485:0:0:0:0:
329,192,61485,1,0,0:0:0:0:
36,192,61485,1,0,0:0:0:0:
182,192,61860,1,0,0:0:0:0:
475,192,61860,1,0,0:0:0:0:
36,192,62235,1,0,0:0:0:0:
109,192,62422,1,0,0:0:0:0:
182,192,62610,1,0,0:0:0:0:
475,192,62610,1,0,0:0:0:0:
182,192,62985,1,0,0:0:0:0:
475,192,62985,1,0,0:0:0:0:
329,192,63360,1,0,0:0:0:0:
36,192,63360,1,0,0:0:0:0:
475,192,63735,1,0,0:0:0:0:
402,192,63922,1,0,0:0:0:0:
329,192,64110,1,0,0:0:0:0:
36,192,64110,1,0,0:0:0:0:
109,192,64485,1,0,0:0:0:0:
475,192,64485,1,0,0:0:0:0:
402,192,64578,1,0,0:0:0:0:
329,192,64672,1,0,0:0:0:0:
402,192,64766,1,0,0:0:0:0:
475,192,64860,1,0,0:0:0:0:
182,192,64860,1,0,0:0:0:0:
36,192,64860,1,0,0:0:0:0:
402,192,64953,1,0,0:0:0:0:
329,192,65047,1,0,0:0:0:0:
402,192,65141,1,0,0:0:0:0:
475,192,65235,128,0,65516:0:0:0:0:
109,192,65235,1,0,0:0:0:0:
182,192,65422,1,0,0:0:0:0:
475,192,65610,128,0,65891:0:0:0:0:
256,192,65610,1,0,0:0:0:0:
36,192,65610,1,0,0:0:0:0:
36,192,65985,1,0,0:0:0:0:
402,192,65985,1,0,0:0:0:0:
109,192,66078,1,0,0:0:0:0:
182,192,66172,1,0,0:0:0:0:
109,192,66266,1,0,0:0:0:0:
329,192,66360,1,0,0:0:0:0:
475,192,66360,1,0,0:0:0:0:
36,192,66360,1,0,0:0:0:0:
109,192,66453,1,0,0:0:0:0:
182,192,66547,1,0,0:0:0:0:
109,192,66641,1,0,0:0:0:0:
36,192,66735,128,0,67016:0:0:0:0:
402,192,66735,1,0,0:0:0:0:
329,192,66922,1,0,0:0:0:0:
475,192,67110,1,0,0:0:0:0:
256,192,67110,1,0,0:0:0:0:
36,192,67110,128,0,67391:0:0:0:0:
402,192,67297,1,0,0:0:0:0:
36,192,67485,1,0,0:0:0:0:
256,192,67485,128,0,67672:0:0:0:0:
475,192,67672,128,0,67860:0:0:0:0:
109,192,67860,1,0,0:0:0:0:
402,192,67860,1,0,0:0:0:0:
256,192,67860,128,0,68047:0:0:0:0:
475,192,68047,128,0,68235:0:0:0:0:
182,192,68235,128,0,68422:0:0:0:0:
329,192,68422,128,0,68610:0:0:0:0:
36,192,68422,1,0,0:0:0:0:
475,192,68610,128,0,68985:0:0:0:0:
109,192,68610,1,0,0:0:0:0:
402,192,68610,1,0,0:0:0:0:
36,192,68985,1,0,0:0:0:0:
402,192,68985,1,0,0:0:0:0:
182,192,69078,1,0,0:0:0:0:
109,192,69172,1,0,0:0:0:0:
36,192,69266,1,0,0:0:0:0:
182,192,69360,1,0,0:0:0:0:
402,192,69360,1,0,0:0:0:0:
475,192,69360,1,0,0:0:0:0:
109,192,69453,1,0,0:0:0:0:
36,192,69547,1,0,0:0:0:0:
182,192,69641,1,0,0:0:0:0:
329,192,69735,1,0,0:0:0:0:
256,192,69735,128,0,69922:0:0:0:0:
182,192,69922,1,0,0:0:0:0:
475,192,69922,128,0,70110:0:0:0:0:
36,192,70110,1,0,0:0:0:0:
329,192,70110,1,0,0:0:0:0:
402,192,70110,128,0,70297:0:0:0:0:
182,192,70297,128,0,70485:0:0:0:0:
109,192,70297,1,0,0:0:0:0:
36,192,70485,1,0,0:0:0:0:
256,192,70485,128,0,70672:0:0:0:0:
475,192,70672,128,0,70860:0:0:0:0:
109,192,70860,1,0,0:0:0:0:
402,192,70860,1,0,0:0:0:0:
256,192,70860,128,0,71047:0:0:0:0:
475,192,71047,128,0,71235:0:0:0:0:
36,192,71235,1,0,0:0:0:0:
182,192,71235,128,0,71422:0:0:0:0:
329,192,71422,128,0,71610:0:0:0:0:
109,192,71422,1,0,0:0:0:0:
475,192,71610,128,0,71985:0:0:0:0:
36,192,71610,1,0,0:0:0:0:
182,192,71610,1,0,0:0:0:0:
329,192,71985,1,0,0:0:0:0:
109,192,71985,1,0,0:0:0:0:
475,192,72078,1,0,0:0:0:0:
402,192,72172,1,0,0:0:0:0:
329,192,72266,1,0,0:0:0:0:
475,192,72360,1,0,0:0:0:0:
36,192,72360,1,0,0:0:0:0:
182,192,72360,1,0,0:0:0:0:
402,192,72453,1,0,0:0:0:0:
329,192,72547,1,0,0:0:0:0:
475,192,72641,1,0,0:0:0:0:
329,192,72735,128,0,72922:0:0:0:0:
109,192,72922,1,0,0:0:0:0:
475,192,72922,128,0,73110:0:0:0:0:
256,192,73110,1,0,0:0:0:0:
36,192,73110,1,0,0:0:0:0:
402,192,73110,128,0,73297:0:0:0:0:
182,192,73297,128,0,73485:0:0:0:0:
329,192,73297,1,0,0:0:0:0:
109,192,73485,1,0,0:0:0:0:
329,192,73485,128,0,73672:0:0:0:0:
475,192,73485,1,0,0:0:0:0:
256,192,73672,1,0,0:0:0:0:
402,192,73766,128,0,73953:0:0:0:0:
36,192,73860,1,0,0:0:0:0:
182,192,73860,1,0,0:0:0:0:
329,192,73953,1,0,0:0:0:0:
475,192,74047,128,0,74235:0:0:0:0:
402,192,74235,1,0,0:0:0:0:
109,192,74422,128,0,74516:0:0:0:0:
256,192,74422,1,0,0:0:0:0:
475,192,74610,1,0,0:0:0:0:
182,192,74610,128,0,74703:0:0:0:0:
329,192,74610,1,0,0:0:0:0:
36,192,74703,1,0,0:0:0:0:
402,192,74797,1,0,0:0:0:0:
256,192,74797,128,0,74891:0:0:0:0:
109,192,74891,1,0,0:0:0:0:
36,192,74985,128,0,75172:0:0:0:0:
402,192,74985,1,0,0:0:0:0:
402,192,75172,1,0,0:0:0:0:
182,192,75172,1,0,0:0:0:0:
109,192,75266,128,0,75453:0:0:0:0:
329,192,75266,1,0,0:0:0:0:
36,192,75360,1,0,0:0:0:0:
402,192,75360,1,0,0:0:0:0:
256,192,75453,1,0,0:0:0:0:
475,192,75453,1,0,0:0:0:0:
182,192,75547,128,0,75735:0:0:0:0:
329,192,75547,1,0,0:0:0:0:
109,192,75641,1,0,0:0:0:0:
329,192,75735,1,0,0:0:0:0:
402,192,75828,1,0,0:0:0:0:
256,192,75922,1,0,0:0:0:0:
329,192,75922,128,0,76016:0:0:0:0:
109,192,75922,1,0,0:0:0:0:
475,192,76016,1,0,0:0:0:0:
182,192,76110,1,0,0:0:0:0:
256,192,76110,128,0,76203:0:0:0:0:
36,192,76110,1,0,0:0:0:0:
402,192,76203,1,0,0:0:0:0:
109,192,76297,1,0,0:0:0:0:
182,192,76297,128,0,76391:0:0:0:0:
329,192,76391,1,0,0:0:0:0:
475,192,76485,128,0,76672:0:0:0:0:
36,192,76485,1,0,0:0:0:0:
329,192,76672,1,0,0:0:0:0:
402,192,76766,128,0,76953:0:0:0:0:
109,192,76860,1,0,0:0:0:0:
36,192,76860,1,0,0:0:0:0:
256,192,76953,1,0,0:0:0:0:
329,192,77047,128,0,77235:0:0:0:0:
182,192,77235,1,0,0:0:0:0:
475,192,77422,128,0,77516:0:0:0:0:
109,192,77422,1,0,0:0:0:0:
36,192,77610,1,0,0:0:0:0:
256,192,77610,1,0,0:0:0:0:
402,192,77610,128,0,77703:0:0:0:0:
182,192,77703,1,0,0:0:0:0:
109,192,77797,1,0,0:0:0:0:
475,192,77797,128,0,77891:0:0:0:0:
402,192,77985,1,0,0:0:0:0:
256,192,77985,1,0,0:0:0:0:
36,192,77985,128,0,78172:0:0:0:0:
329,192,78078,1,0,0:0:0:0:
182,192,78172,1,0,0:0:0:0:
329,192,78266,1,0,0:0:0:0:
109,192,78266,128,0,78453:0:0:0:0:
402,192,78360,1,0,0:0:0:0:
36,192,78360,1,0,0:0:0:0:
256,192,78453,1,0,0:0:0:0:
402,192,78547,1,0,0:0:0:0:
182,192,78547,128,0,78735:0:0:0:0:
475,192,78641,1,0,0:0:0:0:
329,192,78735,1,0,0:0:0:0:
109,192,78922,128,0,79016:0:0:0:0:
256,192,78922,1,0,0:0:0:0:
182,192,79110,128,0,79203:0:0:0:0:
329,192,79110,1,0,0:0:0:0:
36,192,79110,1,0,0:0:0:0:
256,192,79297,128,0,79391:0:0:0:0:
402,192,79297,1,0,0:0:0:0:
36,192,79485,128,0,79672:0:0:0:0:
475,192,79485,1,0,0:0:0:0:
182,192,79672,1,0,0:0:0:0:
109,192,79766,128,0,79953:0:0:0:0:
402,192,79860,1,0,0:0:0:0:
475,192,79860,1,0,0:0:0:0:
256,192,79953,1,0,0:0:0:0:
182,192,80047,128,0,80235:0:0:0:0:
329,192,80235,1,0,0:0:0:0:
329,192,80422,128,0,80516:0:0:0:0:
475,192,80422,1,0,0:0:0:0:
256,192,80610,128,0,80703:0:0:0:0:
109,192,80610,1,0,0:0:0:0:
36,192,80610,1,0,0:0:0:0:
182,192,80797,128,0,80891:0:0:0:0:
329,192,80985,128,0,81172:0:0:0:0:
36,192,80985,1,0,0:0:0:0:
475,192,80985,1,0,0:0:0:0:
109,192,81078,1,0,0:0:0:0:
256,192,81172,1,0,0:0:0:0:
36,192,81172,1,0,0:0:0:0:
402,192,81266,128,0,81453:0:0:0:0:
182,192,81266,1,0,0:0:0:0:
329,192,81360,1,0,0:0:0:0:
109,192,81360,1,0,0:0:0:0:
256,192,81453,1,0,0:0:0:0:
36,192,81453,1,0,0:0:0:0:
475,192,81547,128,0,81735:0:0:0:0:
329,192,81547,1,0,0:0:0:0:
182,192,81641,1,0,0:0:0:0:
109,192,81735,1,0,0:0:0:0:
256,192,81735,1,0,0:0:0:0:
182,192,81922,128,0,82016:0:0:0:0:
36,192,81922,1,0,0:0:0:0:
256,192,82110,128,0,82203:0:0:0:0:
402,192,82110,1,0,0:0:0:0:
475,192,82110,1,0,0:0:0:0:
329,192,82297,128,0,82391:0:0:0:0:
36,192,82485,128,0,82672:0:0:0:0:
475,192,82485,1,0,0:0:0:0:
182,192,82672,1,0,0:0:0:0:
109,192,82766,128,0,82953:0:0:0:0:
475,192,82860,1,0,0:0:0:0:
329,192,82860,1,0,0:0:0:0:
256,192,82953,1,0,0:0:0:0:
402,192,82953,1,0,0:0:0:0:
182,192,83047,128,0,83235:0:0:0:0:
329,192,83047,1,0,0:0:0:0:
475,192,83141,1,0,0:0:0:0:
36,192,83235,1,0,0:0:0:0:
329,192,83422,128,0,83516:0:0:0:0:
256,192,83610,128,0,83703:0:0:0:0:
109,192,83610,1,0,0:0:0:0:
36,192,83610,1,0,0:0:0:0:
182,192,83797,128,0,83891:0:0:0:0:
256,192,83985,1,0,0:0:0:0:
36,192,83985,1,0,0:0:0:0:
475,192,83985,128,0,84172:0:0:0:0:
182,192,84078,1,0,0:0:0:0:
109,192,84172,1,0,0:0:0:0:
329,192,84172,1,0,0:0:0:0:
182,192,84266,1,0,0:0:0:0:
402,192,84266,128,0,84453:0:0:0:0:
36,192,84360,1,0,0:0:0:0:
256,192,84360,1,0,0:0:0:0:
475,192,84360,1,0,0:0:0:0:
182,192,84453,1,0,0:0:0:0:
109,192,84547,1,0,0:0:0:0:
475,192,84547,128,0,84735:0:0:0:0:
329,192,84547,1,0,0:0:0:0:
256,192,84641,1,0,0:0:0:0:
329,192,84735,1,0,0:0:0:0:
36,192,84735,1,0,0:0:0:0:
402,192,84922,128,0,85016:0:0:0:0:
256,192,84922,1,0,0:0:0:0:
36,192,85110,1,0,0:0:0:0:
182,192,85110,1,0,0:0:0:0:
329,192,85110,128,0,85203:0:0:0:0:
475,192,85110,1,0,0:0:0:0:
256,192,85297,128,0,85391:0:0:0:0:
402,192,85297,1,0,0:0:0:0:
109,192,85297,1,0,0:0:0:0:
182,192,85485,128,0,86610:0:0:0:0:
36,192,85485,1,0,0:0:0:0:
329,192,85485,1,0,0:0:0:0:
109,192,85672,1,0,0:0:0:0:
402,192,85672,1,0,0:0:0:0:
329,192,85860,1,0,0:0:0:0:
475,192,85860,1,0,0:0:0:0:
36,192,85860,1,0,0:0:0:0:
402,192,86047,1,0,0:0:0:0:
36,192,86235,1,0,0:0:0:0:
329,192,86235,1,0,0:0:0:0:
109,192,86422,1,0,0:0:0:0:
402,192,86422,1,0,0:0:0:0:
329,192,86610,1,0,0:0:0:0:
475,192,86610,1,0,0:0:0:0:
36,192,86610,1,0,0:0:0:0:
402,192,86797,1,0,0:0:0:0:
256,192,86985,128,0,87922:0:0:0:0:
475,192,86985,1,0,0:0:0:0:
182,192,86985,1,0,0:0:0:0:
402,192,87172,1,0,0:0:0:0:
109,192,87172,1,0,0:0:0:0:
182,192,87360,1,0,0:0:0:0:
36,192,87360,1,0,0:0:0:0:
475,192,87360,1,0,0:0:0:0:
329,192,87547,1,0,0:0:0:0:
475,192,87735,1,0,0:0:0:0:
182,192,87735,1,0,0:0:0:0:
36,192,87922,1,0,0:0:0:0:
329,192,87922,1,0,0:0:0:0:
109,192,88110,1,0,0:0:0:0:
402,192,88110,1,0,0:0:0:0:
256,192,88110,1,0,0:0:0:0:
182,192,88297,1,0,0:0:0:0:
475,192,88297,1,0,0:0:0:0:
475,192,88485,128,0,88860:0:0:0:0:
36,192,88485,1,0,0:0:0:0:
329,192,88485,1,0,0:0:0:0:
109,192,88672,1,0,0:0:0:0:
256,192,88672,1,0,0:0:0:0:
329,192,88860,1,0,0:0:0:0:
36,192,88860,1,0,0:0:0:0:
182,192,88860,1,0,0:0:0:0:
402,192,89047,128,0,91110:0:0:0:0:
256,192,89047,1,0,0:0:0:0:
182,192,89235,1,0,0:0:0:0:
109,192,89422,1,0,0:0:0:0:
256,192,89422,1,0,0:0:0:0:
36,192,89610,1,0,0:0:0:0:
475,192,89610,1,0,0:0:0:0:
329,192,89610,1,0,0:0:0:0:
109,192,89797,1,0,0:0:0:0:
36,192,89985,1,0,0:0:0:0:
256,192,89985,1,0,0:0:0:0:
109,192,90078,1,0,0:0:0:0:
182,192,90172,128,0,90547:0:0:0:0:
329,192,90172,1,0,0:0:0:0:
256,192,90360,1,0,0:0:0:0:
475,192,90360,1,0,0:0:0:0:
109,192,90360,1,0,0:0:0:0:
36,192,90547,1,0,0:0:0:0:
109,192,90641,1,0,0:0:0:0:
182,192,90735,128,0,91110:0:0:0:0:
256,192,90922,1,0,0:0:0:0:
329,192,91110,1,0,0:0:0:0:
475,192,91110,1,0,0:0:0:0:
109,192,91110,1,0,0:0:0:0:
402,192,91297,1,0,0:0:0:0:
36,192,91297,1,0,0:0:0:0:
182,192,91297,1,0,0:0:0:0:
109,192,91391,1,0,0:0:0:0:
329,192,91391,1,0,0:0:0:0:
475,192,91485,128,0,92610:0:0:0:0:
256,192,91485,1,0,0:0:0:0:
36,192,91485,1,0,0:0:0:0:
329,192,91672,1,0,0:0:0:0:
182,192,91860,1,0,0:0:0:0:
402,192,91860,1,0,0:0:0:0:
109,192,91860,128,0,92047:0:0:0:0:
36,192,91860,1,0,0:0:0:0:
256,192,92047,128,0,92235:0:0:0:0:
36,192,92235,1,0,0:0:0:0:
329,192,92328,1,0,0:0:0:0:
109,192,92422,1,0,0:0:0:0:
256,192,92422,1,0,0:0:0:0:
402,192,92516,1,0,0:0:0:0:
36,192,92610,128,0,92985:0:0:0:0:
182,192,92610,1,0,0:0:0:0:
256,192,92610,128,0,92797:0:0:0:0:
329,192,92610,1,0,0:0:0:0:
475,192,92797,128,0,92985:0:0:0:0:
329,192,92985,128,0,94485:0:0:0:0:
182,192,92985,1,0,0:0:0:0:
402,192,92985,1,0,0:0:0:0:
109,192,93078,1,0,0:0:0:0:
475,192,93172,1,0,0:0:0:0:
36,192,93172,1,0,0:0:0:0:
109,192,93360,1,0,0:0:0:0:
256,192,93360,128,0,93547:0:0:0:0:
402,192,93360,1,0,0:0:0:0:
182,192,93360,1,0,0:0:0:0:
182,192,93735,1,0,0:0:0:0:
475,192,93735,128,0,93922:0:0:0:0:
36,192,93922,128,0,94016:0:0:0:0:
109,192,93922,1,0,0:0:0:0:
109,192,94110,1,0,0:0:0:0:
402,192,94110,1,0,0:0:0:0:
36,192,94110,128,0,94203:0:0:0:0:
256,192,94110,1,0,0:0:0:0:
475,192,94297,128,0,94485:0:0:0:0:
256,192,94485,128,0,95047:0:0:0:0:
36,192,94485,1,0,0:0:0:0:
402,192,94485,1,0,0:0:0:0:
109,192,94578,1,0,0:0:0:0:
182,192,94672,1,0,0:0:0:0:
402,192,94672,1,0,0:0:0:0:
36,192,94766,1,0,0:0:0:0:
329,192,94860,1,0,0:0:0:0:
475,192,94860,1,0,0:0:0:0:
109,192,94860,1,0,0:0:0:0:
182,192,94953,1,0,0:0:0:0:
36,192,95047,1,0,0:0:0:0:
402,192,95047,1,0,0:0:0:0:
329,192,95047,128,0,95422:0:0:0:0:
109,192,95141,1,0,0:0:0:0:
256,192,95235,1,0,0:0:0:0:
475,192,95235,1,0,0:0:0:0:
402,192,95422,1,0,0:0:0:0:
36,192,95422,1,0,0:0:0:0:
182,192,95422,1,0,0:0:0:0:
256,192,95516,1,0,0:0:0:0:
475,192,95610,128,0,95985:0:0:0:0:
329,192,95610,1,0,0:0:0:0:
109,192,95610,1,0,0:0:0:0:
182,192,95703,1,0,0:0:0:0:
36,192,95797,1,0,0:0:0:0:
256,192,95797,1,0,0:0:0:0:
109,192,95891,1,0,0:0:0:0:
402,192,95985,128,0,96360:0:0:0:0:
256,192,95985,128,0,96172:0:0:0:0:
182,192,95985,1,0,0:0:0:0:
182,192,96172,128,0,96360:0:0:0:0:
109,192,96172,1,0,0:0:0:0:
109,192,96360,128,0,96547:0:0:0:0:
475,192,96360,128,0,96547:0:0:0:0:
329,192,96360,1,0,0:0:0:0:
36,192,96360,1,0,0:0:0:0:
36,192,96547,128,0,96735:0:0:0:0:
402,192,96547,128,0,96735:0:0:0:0:
256,192,96547,1,0,0:0:0:0:
329,192,96735,128,0,96922:0:0:0:0:
475,192,96735,1,0,0:0:0:0:
182,192,96735,128,0,96922:0:0:0:0:
36,192,96922,128,0,97485:0:0:0:0:
256,192,96922,128,0,97110:0:0:0:0:
402,192,96922,1,0,0:0:0:0:
329,192,97110,128,0,97297:0:0:0:0:
109,192,97110,1,0,0:0:0:0:
475,192,97110,1,0,0:0:0:0:
402,192,97297,128,0,97485:0:0:0:0:
182,192,97297,1,0,0:0:0:0:
256,192,97391,1,0,0:0:0:0:
475,192,97485,128,0,98610:0:0:0:0:
182,192,97485,128,0,97672:0:0:0:0:
109,192,97485,1,0,0:0:0:0:
329,192,97485,1,0,0:0:0:0:
109,192,97672,1,0,0:0:0:0:
329,192,97860,128,0,98047:0:0:0:0:
256,192,97860,1,0,0:0:0:0:
36,192,97860,1,0,0:0:0:0:
402,192,97860,1,0,0:0:0:0:
182,192,98047,128,0,98235:0:0:0:0:
109,192,98047,1,0,0:0:0:0:
402,192,98235,1,0,0:0:0:0:
109,192,98422,128,0,98610:0:0:0:0:
256,192,98422,1,0,0:0:0:0:
182,192,98422,1,0,0:0:0:0:
36,192,98610,128,0,98985:0:0:0:0:
256,192,98610,128,0,98797:0:0:0:0:
329,192,98610,1,0,0:0:0:0:
402,192,98610,1,0,0:0:0:0:
402,192,98797,128,0,98985:0:0:0:0:
182,192,98797,1,0,0:0:0:0:
475,192,98985,128,0,99547:0:0:0:0:
182,192,98985,128,0,99172:0:0:0:0:
109,192,98985,1,0,0:0:0:0:
329,192,98985,1,0,0:0:0:0:
329,192,99172,128,0,99360:0:0:0:0:
256,192,99172,1,0,0:0:0:0:
36,192,99172,1,0,0:0:0:0:
182,192,99360,1,0,0:0:0:0:
109,192,99360,1,0,0:0:0:0:
402,192,99360,1,0,0:0:0:0:
329,192,99453,1,0,0:0:0:0:
36,192,99547,128,0,99735:0:0:0:0:
256,192,99547,128,0,99735:0:0:0:0:
182,192,99735,128,0,100016:0:0:0:0:
402,192,99735,1,0,0:0:0:0:
109,192,99735,1,0,0:0:0:0:
329,192,99828,1,0,0:0:0:0:
256,192,99922,1,0,0:0:0:0:
475,192,99922,1,0,0:0:0:0:
36,192,100016,128,0,100297:0:0:0:0:
402,192,100016,1,0,0:0:0:0:
329,192,100110,1,0,0:0:0:0:
182,192,100110,1,0,0:0:0:0:
109,192,100110,1,0,0:0:0:0:
402,192,100203,1,0,0:0:0:0:
109,192,100297,128,0,100485:0:0:0:0:
475,192,100297,1,0,0:0:0:0:
256,192,100297,1,0,0:0:0:0:
329,192,100391,1,0,0:0:0:0:
475,192,100485,128,0,100860:0:0:0:0:
36,192,100485,128,0,100672:0:0:0:0:
182,192,100485,1,0,0:0:0:0:
402,192,100485,1,0,0:0:0:0:
256,192,100672,128,0,100860:0:0:0:0:
329,192,100672,1,0,0:0:0:0:
109,192,100672,1,0,0:0:0:0:
109,192,100860,128,0,101047:0:0:0:0:
182,192,100860,1,0,0:0:0:0:
402,192,100860,1,0,0:0:0:0:
36,192,100860,1,0,0:0:0:0:
256,192,101047,128,0,103110:0:0:0:0:
36,192,101047,128,0,101235:0:0:0:0:
475,192,101047,1,0,0:0:0:0:
329,192,101235,128,0,101422:0:0:0:0:
182,192,101235,1,0,0:0:0:0:
36,192,101422,1,0,0:0:0:0:
402,192,101422,1,0,0:0:0:0:
329,192,101610,1,0,0:0:0:0:
475,192,101610,1,0,0:0:0:0:
182,192,101610,1,0,0:0:0:0:
36,192,101703,1,0,0:0:0:0:
109,192,101797,1,0,0:0:0:0:
182,192,101891,1,0,0:0:0:0:
475,192,101985,128,0,102172:0:0:0:0:
402,192,101985,1,0,0:0:0:0:
182,192,102172,128,0,102360:0:0:0:0:
329,192,102172,1,0,0:0:0:0:
36,192,102360,1,0,0:0:0:0:
109,192,102360,1,0,0:0:0:0:
402,192,102360,1,0,0:0:0:0:
475,192,102547,128,0,102735:0:0:0:0:
329,192,102547,1,0,0:0:0:0:
109,192,102735,128,0,102922:0:0:0:0:
402,192,102735,1,0,0:0:0:0:
36,192,102922,128,0,103110:0:0:0:0:
182,192,102922,1,0,0:0:0:0:
329,192,103110,1,0,0:0:0:0:
109,192,103110,1,0,0:0:0:0:
475,192,103110,128,0,103485:0:0:0:0:
402,192,103110,1,0,0:0:0:0:
256,192,103203,1,0,0:0:0:0:
402,192,103297,1,0,0:0:0:0:
182,192,103297,1,0,0:0:0:0:
109,192,103391,1,0,0:0:0:0:
329,192,103391,1,0,0:0:0:0:
36,192,103485,128,0,104985:0:0:0:0:
256,192,103485,128,0,103672:0:0:0:0:
182,192,103485,1,0,0:0:0:0:
475,192,103672,128,0,103860:0:0:0:0:
402,192,103672,1,0,0:0:0:0:
182,192,103860,1,0,0:0:0:0:
109,192,103860,1,0,0:0:0:0:
329,192,103860,1,0,0:0:0:0:
402,192,104047,128,0,104235:0:0:0:0:
256,192,104047,1,0,0:0:0:0:
256,192,104235,128,0,104422:0:0:0:0:
109,192,104235,1,0,0:0:0:0:
182,192,104422,1,0,0:0:0:0:
402,192,104610,1,0,0:0:0:0:
475,192,104610,1,0,0:0:0:0:
182,192,104610,128,0,104797:0:0:0:0:
256,192,104610,1,0,0:0:0:0:
329,192,104797,128,0,104985:0:0:0:0:
109,192,104797,1,0,0:0:0:0:
475,192,104985,128,0,106110:0:0:0:0:
182,192,104985,128,0,105172:0:0:0:0:
402,192,104985,1,0,0:0:0:0:
256,192,104985,1,0,0:0:0:0:
36,192,105172,128,0,105360:0:0:0:0:
109,192,105172,1,0,0:0:0:0:
256,192,105360,128,0,105547:0:0:0:0:
329,192,105360,1,0,0:0:0:0:
402,192,105360,1,0,0:0:0:0:
109,192,105547,128,0,105735:0:0:0:0:
182,192,105547,1,0,0:0:0:0:
329,192,105735,128,0,105922:0:0:0:0:
402,192,105735,1,0,0:0:0:0:
182,192,105922,128,0,106110:0:0:0:0:
256,192,105922,1,0,0:0:0:0:
402,192,106110,128,0,106297:0:0:0:0:
329,192,106110,1,0,0:0:0:0:
36,192,106110,128,0,106485:0:0:0:0:
109,192,106110,1,0,0:0:0:0:
256,192,106297,128,0,106485:0:0:0:0:
182,192,106485,1,0,0:0:0:0:
329,192,106485,1,0,0:0:0:0:
475,192,106485,128,0,107047:0:0:0:0:
402,192,106578,1,0,0:0:0:0:
256,192,106672,1,0,0:0:0:0:
109,192,106672,1,0,0:0:0:0:
329,192,106766,1,0,0:0:0:0:
182,192,106860,1,0,0:0:0:0:
36,192,106860,1,0,0:0:0:0:
329,192,106953,1,0,0:0:0:0:
36,192,107047,128,0,107422:0:0:0:0:
109,192,107047,1,0,0:0:0:0:
256,192,107047,1,0,0:0:0:0:
402,192,107141,1,0,0:0:0:0:
182,192,107235,1,0,0:0:0:0:
329,192,107235,1,0,0:0:0:0:
402,192,107328,1,0,0:0:0:0:
475,192,107422,128,0,107610:0:0:0:0:
109,192,107422,1,0,0:0:0:0:
329,192,107422,1,0,0:0:0:0:
182,192,107516,1,0,0:0:0:0:
36,192,107610,128,0,107797:0:0:0:0:
402,192,107610,1,0,0:0:0:0:
256,192,107610,1,0,0:0:0:0:
182,192,107703,1,0,0:0:0:0:
475,192,107797,128,0,107985:0:0:0:0:
109,192,107797,1,0,0:0:0:0:
402,192,107797,1,0,0:0:0:0:
329,192,107891,1,0,0:0:0:0:
402,192,107985,128,0,108266:0:0:0:0:
36,192,107985,1,0,0:0:0:0:
256,192,107985,1,0,0:0:0:0:
109,192,108078,1,0,0:0:0:0:
182,192,108172,1,0,0:0:0:0:
36,192,108266,1,0,0:0:0:0:
109,192,108266,128,0,108547:0:0:0:0:
475,192,108360,1,0,0:0:0:0:
402,192,108453,1,0,0:0:0:0:
329,192,108547,1,0,0:0:0:0:
36,192,108547,128,0,108735:0:0:0:0:
475,192,108641,1,0,0:0:0:0:
329,192,108735,128,0,108860:0:0:0:0:
109,192,108735,1,0,0:0:0:0:
182,192,108828,1,0,0:0:0:0:
402,192,108860,128,0,108985:0:0:0:0:
109,192,108922,1,0,0:0:0:0:
475,192,108985,128,0,109110:0:0:0:0:
36,192,109016,1,0,0:0:0:0:
182,192,109110,128,0,109235:0:0:0:0:
402,192,109110,1,0,0:0:0:0:
329,192,109203,1,0,0:0:0:0:
109,192,109235,128,0,109360:0:0:0:0:
402,192,109297,1,0,0:0:0:0:
36,192,109360,128,0,109485:0:0:0:0:
475,192,109391,1,0,0:0:0:0:
329,192,109485,128,0,109672:0:0:0:0:
182,192,109485,1,0,0:0:0:0:
256,192,109485,1,0,0:0:0:0:
109,192,109672,1,0,0:0:0:0:
402,192,109766,128,0,109953:0:0:0:0:
475,192,110047,128,0,110235:0:0:0:0:
329,192,110047,1,0,0:0:0:0:
36,192,110235,1,0,0:0:0:0:
182,192,110235,1,0,0:0:0:0:
109,192,110422,128,0,110516:0:0:0:0:
182,192,110610,128,0,110703:0:0:0:0:
256,192,110797,128,0,110891:0:0:0:0:
402,192,110797,1,0,0:0:0:0:
36,192,110985,128,0,111172:0:0:0:0:
402,192,111172,1,0,0:0:0:0:
109,192,111266,128,0,111453:0:0:0:0:
402,192,111360,1,0,0:0:0:0:
182,192,111547,128,0,111735:0:0:0:0:
329,192,111735,1,0,0:0:0:0:
475,192,111735,1,0,0:0:0:0:
256,192,111922,128,0,112016:0:0:0:0:
182,192,112110,128,0,112203:0:0:0:0:
109,192,112297,128,0,112391:0:0:0:0:
402,192,112297,1,0,0:0:0:0:
329,192,112485,128,0,112672:0:0:0:0:
182,192,112485,1,0,0:0:0:0:
475,192,112485,1,0,0:0:0:0:
109,192,112672,1,0,0:0:0:0:
402,192,112766,128,0,112953:0:0:0:0:
475,192,113047,128,0,113235:0:0:0:0:
109,192,113047,1,0,0:0:0:0:
36,192,113235,1,0,0:0:0:0:
182,192,113235,1,0,0:0:0:0:
109,192,113422,128,0,113516:0:0:0:0:
182,192,113610,128,0,113703:0:0:0:0:
256,192,113797,128,0,113891:0:0:0:0:
402,192,113797,1,0,0:0:0:0:
36,192,113985,128,0,114172:0:0:0:0:
402,192,114172,1,0,0:0:0:0:
109,192,114266,128,0,114453:0:0:0:0:
402,192,114360,1,0,0:0:0:0:
182,192,114547,128,0,114735:0:0:0:0:
402,192,114547,1,0,0:0:0:0:
329,192,114735,1,0,0:0:0:0:
475,192,114735,1,0,0:0:0:0:
256,192,114922,128,0,115016:0:0:0:0:
402,192,114922,1,0,0:0:0:0:
182,192,115110,128,0,115203:0:0:0:0:
329,192,115110,1,0,0:0:0:0:
109,192,115297,128,0,115391:0:0:0:0:
256,192,115297,1,0,0:0:0:0:
475,192,115485,128,0,115672:0:0:0:0:
182,192,115485,1,0,0:0:0:0:
329,192,115485,1,0,0:0:0:0:
109,192,115672,1,0,0:0:0:0:
402,192,115766,128,0,115953:0:0:0:0:
329,192,116047,128,0,116235:0:0:0:0:
109,192,116047,1,0,0:0:0:0:
182,192,116235,1,0,0:0:0:0:
36,192,116235,1,0,0:0:0:0:
256,192,116422,128,0,116516:0:0:0:0:
329,192,116610,128,0,116703:0:0:0:0:
256,192,116797,1,0,0:0:0:0:
402,192,116797,128,0,116891:0:0:0:0:
182,192,116985,128,0,117172:0:0:0:0:
402,192,117172,1,0,0:0:0:0:
109,192,117266,128,0,117453:0:0:0:0:
402,192,117360,1,0,0:0:0:0:
36,192,117547,128,0,117735:0:0:0:0:
329,192,117735,1,0,0:0:0:0:
475,192,117735,1,0,0:0:0:0:
402,192,117922,128,0,118016:0:0:0:0:
329,192,118110,128,0,118203:0:0:0:0:
256,192,118297,128,0,118391:0:0:0:0:
475,192,118485,128,0,118672:0:0:0:0:
182,192,118485,1,0,0:0:0:0:
402,192,118485,1,0,0:0:0:0:
402,192,118766,128,0,118953:0:0:0:0:
109,192,118766,1,0,0:0:0:0:
329,192,119047,128,0,119235:0:0:0:0:
36,192,119047,1,0,0:0:0:0:
256,192,119047,1,0,0:0:0:0:
475,192,119235,1,0,0:0:0:0:
182,192,119235,1,0,0:0:0:0:
256,192,119422,128,0,119516:0:0:0:0:
109,192,119422,1,0,0:0:0:0:
329,192,119610,128,0,119703:0:0:0:0:
36,192,119610,1,0,0:0:0:0:
402,192,119797,128,0,119891:0:0:0:0:
256,192,119797,1,0,0:0:0:0:
182,192,119985,128,0,120172:0:0:0:0:
329,192,119985,1,0,0:0:0:0:
402,192,120172,1,0,0:0:0:0:
475,192,120172,1,0,0:0:0:0:
109,192,120266,128,0,120453:0:0:0:0:
36,192,120547,128,0,120735:0:0:0:0:
182,192,120547,1,0,0:0:0:0:
256,192,120735,1,0,0:0:0:0:
329,192,120735,1,0,0:0:0:0:
182,192,120922,1,0,0:0:0:0:
109,192,120969,1,0,0:0:0:0:
402,192,121016,1,0,0:0:0:0:
329,192,121063,1,0,0:0:0:0:
36,192,121110,1,0,0:0:0:0:
109,192,121297,1,0,0:0:0:0:
475,192,121297,1,0,0:0:0:0:
36,192,121485,1,0,0:0:0:0:
329,192,121485,128,0,121672:0:0:0:0:
182,192,121485,1,0,0:0:0:0:
256,192,121672,1,0,0:0:0:0:
475,192,121766,128,0,121953:0:0:0:0:
402,192,122047,128,0,122235:0:0:0:0:
109,192,122047,1,0,0:0:0:0:
36,192,122235,1,0,0:0:0:0:
256,192,122235,1,0,0:0:0:0:
182,192,122422,128,0,122516:0:0:0:0:
109,192,122610,128,0,122703:0:0:0:0:
36,192,122797,128,0,122891:0:0:0:0:
402,192,122797,1,0,0:0:0:0:
182,192,122985,128,0,123172:0:0:0:0:
402,192,123172,1,0,0:0:0:0:
36,192,123266,128,0,123453:0:0:0:0:
402,192,123360,1,0,0:0:0:0:
109,192,123547,128,0,123735:0:0:0:0:
256,192,123735,1,0,0:0:0:0:
475,192,123735,1,0,0:0:0:0:
329,192,123922,128,0,124016:0:0:0:0:
402,192,124110,128,0,124203:0:0:0:0:
475,192,124297,128,0,124391:0:0:0:0:
182,192,124297,1,0,0:0:0:0:
36,192,124485,128,0,124672:0:0:0:0:
329,192,124485,1,0,0:0:0:0:
109,192,124485,1,0,0:0:0:0:
475,192,124672,1,0,0:0:0:0:
182,192,124766,128,0,124953:0:0:0:0:
109,192,125047,128,0,125235:0:0:0:0:
329,192,125047,1,0,0:0:0:0:
182,192,125235,1,0,0:0:0:0:
402,192,125235,1,0,0:0:0:0:
475,192,125422,128,0,125516:0:0:0:0:
256,192,125422,1,0,0:0:0:0:
402,192,125610,128,0,125703:0:0:0:0:
329,192,125797,128,0,125891:0:0:0:0:
109,192,125797,1,0,0:0:0:0:
475,192,125985,128,0,126172:0:0:0:0:
182,192,126172,1,0,0:0:0:0:
329,192,126266,128,0,126453:0:0:0:0:
182,192,126360,1,0,0:0:0:0:
402,192,126547,128,0,126735:0:0:0:0:
182,192,126547,1,0,0:0:0:0:
109,192,126735,1,0,0:0:0:0:
329,192,126735,1,0,0:0:0:0:
36,192,126922,128,0,127016:0:0:0:0:
256,192,126922,1,0,0:0:0:0:
109,192,127110,128,0,127203:0:0:0:0:
329,192,127110,1,0,0:0:0:0:
182,192,127297,128,0,127391:0:0:0:0:
402,192,127297,1,0,0:0:0:0:
475,192,127485,128,0,127672:0:0:0:0:
256,192,127485,1,0,0:0:0:0:
36,192,127485,1,0,0:0:0:0:
329,192,127672,1,0,0:0:0:0:
109,192,127766,128,0,127953:0:0:0:0:
36,192,128047,128,0,128235:0:0:0:0:
256,192,128047,1,0,0:0:0:0:
182,192,128235,1,0,0:0:0:0:
402,192,128235,1,0,0:0:0:0:
475,192,128422,128,0,128516:0:0:0:0:
402,192,128610,128,0,128703:0:0:0:0:
329,192,128797,128,0,128891:0:0:0:0:
109,192,128797,1,0,0:0:0:0:
36,192,128985,128,0,129172:0:0:0:0:
182,192,129172,1,0,0:0:0:0:
402,192,129266,128,0,129453:0:0:0:0:
182,192,129360,1,0,0:0:0:0:
475,192,129547,128,0,129735:0:0:0:0:
109,192,129735,1,0,0:0:0:0:
329,192,129735,1,0,0:0:0:0:
36,192,129922,128,0,130016:0:0:0:0:
109,192,130110,128,0,130203:0:0:0:0:
182,192,130297,128,0,130391:0:0:0:0:
329,192,130297,1,0,0:0:0:0:
402,192,130485,128,0,130672:0:0:0:0:
109,192,130485,1,0,0:0:0:0:
256,192,130485,1,0,0:0:0:0:
36,192,130672,1,0,0:0:0:0:
475,192,130766,128,0,130953:0:0:0:0:
182,192,130766,1,0,0:0:0:0:
36,192,131047,128,0,131235:0:0:0:0:
256,192,131047,1,0,0:0:0:0:
475,192,131047,1,0,0:0:0:0:
182,192,131235,1,0,0:0:0:0:
402,192,131235,1,0,0:0:0:0:
329,192,131422,128,0,131516:0:0:0:0:
109,192,131422,1,0,0:0:0:0:
402,192,131610,128,0,131703:0:0:0:0:
36,192,131610,1,0,0:0:0:0:
475,192,131797,128,0,131891:0:0:0:0:
256,192,131797,1,0,0:0:0:0:
109,192,131985,128,0,132172:0:0:0:0:
256,192,131985,1,0,0:0:0:0:
329,192,132172,1,0,0:0:0:0:
402,192,132172,1,0,0:0:0:0:
36,192,132266,128,0,132453:0:0:0:0:
256,192,132360,1,0,0:0:0:0:
475,192,132547,128,0,132735:0:0:0:0:
256,192,132547,1,0,0:0:0:0:
329,192,132735,1,0,0:0:0:0:
402,192,132735,1,0,0:0:0:0:
182,192,132922,128,0,133016:0:0:0:0:
256,192,132922,1,0,0:0:0:0:
109,192,133110,128,0,133203:0:0:0:0:
182,192,133110,1,0,0:0:0:0:
36,192,133297,128,0,133391:0:0:0:0:
109,192,133297,1,0,0:0:0:0:
475,192,133485,128,0,138360:0:0:0:0:
182,192,133485,1,0,0:0:0:0:
329,192,133485,1,0,0:0:0:0:
36,192,133672,1,0,0:0:0:0:
