osu file format v14

[General]
AudioFilename: audio.mp3
AudioLeadIn: 0
PreviewTime: 133835
Countdown: 0
SampleSet: Soft
StackLeniency: 0.5
Mode: 0
LetterboxInBreaks: 0
WidescreenStoryboard: 0

[Editor]
Bookmarks: 179863,285892
DistanceSpacing: 1.6
BeatDivisor: 4
GridSize: 4
TimelineZoom: 1.1

[Metadata]
Title:Flying High (Archari Remix)
TitleUnicode:Flying High (Archari Remix)
Artist:DCX
ArtistUnicode:DCX
Creator:Lolipop
Version:Ethereal
Source:
Tags:UK Rave Hardcore JCore
BeatmapID:1252131
BeatmapSetID:591739

[Difficulty]
HPDrainRate:6.3
CircleSize:3.9
OverallDifficulty:7.8
ApproachRate:9.1
SliderMultiplier:1.65
SliderTickRate:1

[Events]
//Background and Video events
0,0,"bg.jpg",0,0
//Break Periods
//Storyboard Layer 0 (Background)
//Storyboard Layer 1 (Fail)
//Storyboard Layer 2 (Pass)
//Storyboard Layer 3 (Foreground)
//Storyboard Sound Samples

[TimingPoints]
313,342.857142857143,4,2,1,60,1,0
8541,-90.9090909090909,4,2,1,60,0,0
9913,-100,4,2,1,60,0,0
10598,-100,4,2,1,70,0,0
11284,-100,4,2,1,65,0,0
19513,-86.9565217391304,4,2,1,60,0,0
22235,342.857142857143,4,2,1,50,1,0
22235,-90.9090909090909,4,2,1,50,0,0
42806,-90.9090909090909,4,2,1,40,0,0
42977,-142.857142857143,4,2,1,25,0,0
43320,-142.857142857143,4,2,1,20,0,0
88577,-83.3333333333333,4,2,1,50,0,0
111377,-80,4,2,1,50,0,0
112749,-80,4,2,1,70,0,1
156635,-90.9090909090909,4,2,1,40,0,0
158026,342.857142857143,4,2,2,80,1,0
158026,-90.9090909090909,4,2,2,80,0,0
167626,-90.9090909090909,4,2,2,60,0,0
168997,-90.9090909090909,4,2,2,80,0,0
173797,-90.9090909090909,4,2,1,60,0,0
174483,-90.9090909090909,4,2,2,80,0,0
179626,-83.3333333333333,4,2,1,50,0,0
179948,342.857142857143,4,2,1,50,1,0
179948,-83.3333333333333,4,2,1,50,0,0
190576,-83.3333333333333,4,2,1,45,0,0
190833,-83.3333333333333,4,2,1,50,0,0
196062,-83.3333333333333,4,2,1,45,0,0
196319,-83.3333333333333,4,2,1,50,0,0
201910,342.857142857143,4,2,2,35,1,0
201910,-100,4,2,2,35,0,0
223833,342.857142857143,4,2,1,40,1,0
223833,-86.9565217391304,4,2,1,40,0,0
224518,-83.3333333333333,4,2,1,40,0,0
244062,-83.3333333333333,4,2,1,46,0,0
247833,-80,4,2,1,70,0,1
280747,-80,4,2,1,65,0,1
284861,-80,4,2,1,60,0,1
286233,-80,4,2,1,50,0,1
287947,-80,4,2,1,40,0,1
288975,-80,4,2,1,40,0,0
291375,-90.9090909090909,4,2,1,40,0,0

[Colours]
Combo1 : 46,179,250
Combo2 : 28,116,249
Combo3 : 173,63,248
Combo4 : 121,78,250

[HitObjects]
72,88,313,6,0,L|168:84,1,82.5
316,48,655,2,8,L|244:32,2,41.25
424,108,998,2,0,P|436:152|428:212,1,82.5
284,260,1341,2,8,L|332:276,2,41.25
160,272,1684,6,0,P|120:284|56:280,1,82.5
40,168,2027,1,8,0:0:0:0:
40,168,2113,1,8,0:0:0:0:
40,168,2198,1,8,0:0:0:0:
164,180,2370,2,0,L|260:172,1,82.5
392,96,2713,2,8,L|444:64,2,41.25
246,173,3055,5,0,0:0:0:0:
363,280,3227,1,0,0:0:0:0:
160,300,3398,2,0,L|64:296,1,82.5,8|0,0:0|0:0,0:0:0:0:
205,179,3741,2,8,L|253:171,2,41.25
32,84,4084,2,0,L|-24:76,2,41.25
196,60,4427,1,8,0:0:0:0:
196,60,4513,1,8,0:0:0:0:
196,60,4598,1,8,0:0:0:0:
76,176,4770,5,0,0:0:0:0:
76,176,4855,1,0,0:0:0:0:
76,176,4941,1,0,0:0:0:0:
240,164,5113,2,8,L|288:160,1,41.25
200,304,5370,2,8,L|140:312,1,41.25
324,280,5627,1,12,0:0:0:0:
408,192,5798,6,0,P|408:152|392:104,1,82.5
244,48,6141,2,8,L|292:36,2,41.25
156,156,6484,2,0,L|232:216,1,82.5
371,274,6827,1,8,0:0:0:0:
371,274,6913,1,8,0:0:0:0:
371,274,6998,1,8,0:0:0:0:
164,284,7170,6,0,P|127:264|99:232,1,82.5
156,156,7513,2,8,P|171:169|182:186,2,41.25
196,80,7855,2,0,P|178:71|158:68,2,41.25,8|0|0,0:0|0:0|0:0,0:0:0:0:
248,144,8198,2,0,L|352:140,1,82.5,8|0,0:0|0:0,0:0:0:0:
456,88,8541,6,8,B|404:84|404:84|360:52,1,90.7500027694703
456,196,8884,2,8,B|400:204|400:204|360:240,1,90.7500027694703
248,144,9227,1,0,0:0:0:0:
372,61,9398,1,0,0:0:0:0:
376,228,9570,2,0,L|300:308,1,90.7500027694703
92,208,9912,5,0,0:0:0:0:
92,208,9998,1,0,0:0:0:0:
176,308,10170,1,0,0:0:0:0:
176,308,10256,1,0,0:0:0:0:
288,200,10427,1,12,0:0:0:0:
288,200,10513,1,0,0:0:0:0:
288,200,10598,2,0,L|340:188,1,41.25
392,128,10770,2,0,L|443:115,1,41.25
348,48,10941,2,0,L|252:68,1,82.5,8|0,0:0|0:0,0:0:0:0:
104,44,11284,6,0,B|100:84|100:84|112:144,1,82.5
216,252,11627,1,8,0:0:0:0:
216,252,11713,1,8,0:0:0:0:
216,252,11798,1,8,0:0:0:0:
372,300,11970,2,0,L|456:292,1,82.5
328,188,12313,2,8,L|380:172,2,41.25
204,176,12655,6,0,P|220:132|252:92,1,82.5
364,80,12998,1,8,0:0:0:0:
364,80,13084,1,8,0:0:0:0:
364,80,13170,1,8,0:0:0:0:
168,48,13341,2,0,P|128:56|84:96,1,82.5
48,240,13684,2,8,L|84:188,2,41.25
160,296,14027,6,0,L|264:288,1,82.5
400,240,14370,1,8,0:0:0:0:
400,240,14455,1,8,0:0:0:0:
400,240,14541,1,8,0:0:0:0:
261,165,14713,1,0,0:0:0:0:
261,165,14798,1,0,0:0:0:0:
261,165,14884,1,0,0:0:0:0:
368,88,15055,2,8,L|424:92,2,41.25
452,175,15398,6,0,P|483:149|498:111,1,82.5
375,95,15741,1,8,0:0:0:0:
375,95,15827,1,8,0:0:0:0:
375,95,15913,1,8,0:0:0:0:
412,264,16084,6,8,L|352:272,1,41.25
212,312,16341,2,8,L|152:304,1,41.25
72,232,16598,1,8,0:0:0:0:
208,136,16770,6,0,P|248:128|312:128,1,82.5
440,192,17113,2,8,L|460:144,2,41.25
313,228,17455,2,0,P|337:276|385:312,1,82.5
229,190,17798,2,8,P|223:213|221:242,2,41.25
68,72,18141,6,0,P|112:80|168:80,1,82.5
312,56,18484,1,8,0:0:0:0:
312,56,18570,1,8,0:0:0:0:
312,56,18655,1,8,0:0:0:0:
188,164,18827,2,0,P|160:208|148:256,1,82.5
296,156,19170,1,8,0:0:0:0:
296,156,19255,1,8,0:0:0:0:
296,156,19341,1,8,0:0:0:0:
412,308,19513,6,8,L|424:200,1,94.8750018095971
328,344,19855,2,8,L|220:324,1,94.8750018095971
135,150,20198,2,8,P|155:126|179:106,2,47.4375009047985
104,240,20541,1,8,0:0:0:0:
61,54,20713,1,8,0:0:0:0:
216,188,20884,5,8,0:0:0:0:
258,185,20970,1,8,0:0:0:0:
297,170,21055,1,8,0:0:0:0:
323,136,21141,1,8,0:0:0:0:
320,88,21227,5,8,0:0:0:0:
294,47,21313,1,8,0:0:0:0:
249,30,21398,1,8,0:0:0:0:
201,36,21484,1,8,0:0:0:0:
162,64,21570,5,8,0:0:0:0:
131,105,21655,1,8,0:0:0:0:
122,156,21741,1,8,0:0:0:0:
136,207,21827,1,8,0:0:0:0:
136,207,21913,2,0,L|101:218,4,31.625000603199
184,277,22235,6,0,L|276:273,1,90.7500027694703,8|0,0:0|0:0,0:0:0:0:
380,188,22577,2,0,P|388:140|376:80,1,90.7500027694703,8|0,0:0|0:0,0:0:0:0:
260,36,22920,2,0,P|212:28|152:40,1,90.7500027694703,8|0,0:0|0:0,0:0:0:0:
70,125,23263,2,0,P|104:154|146:171,1,90.7500027694703,8|0,0:0|0:0,0:0:0:0:
276,128,23606,5,8,0:0:0:0:
348,24,23777,1,0,0:0:0:0:
224,52,23949,1,8,0:0:0:0:
220,180,24120,1,0,0:0:0:0:
132,88,24292,1,8,0:0:0:0:
276,128,24463,1,0,0:0:0:0:
348,24,24635,1,8,0:0:0:0:
224,52,24806,1,0,0:0:0:0:
372,140,24977,6,0,P|416:148|472:140,1,90.7500027694703,8|0,0:0|0:0,0:0:0:0:
364,240,25320,2,0,P|320:224|284:188,1,90.7500027694703,8|0,0:0|0:0,0:0:0:0:
224,76,25663,2,0,L|112:80,1,90.7500027694703,8|0,0:0|0:0,0:0:0:0:
128,216,26006,2,0,L|28:204,1,90.7500027694703,8|0,0:0|0:0,0:0:0:0:
32,68,26349,5,8,0:0:0:0:
37,205,26520,1,0,0:0:0:0:
133,79,26692,1,8,0:0:0:0:
73,233,26863,1,0,0:0:0:0:
36,84,27035,1,8,0:0:0:0:
41,257,27206,1,0,0:0:0:0:
212,80,27377,1,0,0:0:0:0:
258,266,27549,1,0,0:0:0:0:
344,80,27720,6,0,L|300:168,1,90.7500027694703,8|0,0:0|0:0,0:0:0:0:
180,220,28063,2,0,L|268:272,1,90.7500027694703,8|0,0:0|0:0,0:0:0:0:
216,136,28406,2,0,P|168:132|117:150,1,90.7500027694703,8|0,0:0|0:0,0:0:0:0:
76,268,28749,2,0,P|103:307|149:336,1,90.7500027694703,8|0,0:0|0:0,0:0:0:0:
40,176,29092,5,8,0:0:0:0:
127,144,29263,1,0,0:0:0:0:
52,76,29435,1,8,0:0:0:0:
40,176,29606,1,0,0:0:0:0:
160,64,29777,1,8,0:0:0:0:
52,76,29949,1,0,0:0:0:0:
224,144,30120,2,0,P|268:136|324:144,1,90.7500027694703,8|0,0:0|0:0,0:0:0:0:
488,200,30463,6,0,P|496:244|488:300,1,90.7500027694703,8|0,0:0|0:0,0:0:0:0:
408,120,30806,2,0,P|448:96|512:92,1,90.7500027694703,8|0,0:0|0:0,0:0:0:0:
392,240,31149,2,0,P|356:264|284:272,1,90.7500027694703,8|0,0:0|0:0,0:0:0:0:
128,256,31492,2,0,L|136:160,1,90.7500027694703,8|0,0:0|0:0,0:0:0:0:
279,63,31835,5,8,0:0:0:0:
246,78,31920,1,8,0:0:0:0:
247,178,32092,1,8,0:0:0:0:
280,193,32177,1,8,0:0:0:0:
246,78,32349,1,8,0:0:0:0:
146,111,32520,2,0,P|144:81|150:52,1,60.5000018463135,4|4,0:0|0:0,0:0:0:0:
160,209,32777,1,0,0:0:0:0:
160,209,32863,2,8,P|114:201|68:170,1,90.7500027694703,8|8,2:0|0:0,0:0:0:0:
240,96,33206,6,0,L|352:88,1,90.7500027694703,8|0,0:0|0:0,0:0:0:0:
388,212,33549,2,0,L|492:200,1,90.7500027694703,8|0,0:0|0:0,0:0:0:0:
432,72,33892,1,8,0:0:0:0:
292,188,34063,1,0,0:0:0:0:
330,89,34235,1,8,0:0:0:0:
325,269,34406,1,0,0:0:0:0:
240,96,34577,5,8,0:0:0:0:
388,212,34749,1,0,0:0:0:0:
180,180,34920,2,0,P|148:132|140:92,1,90.7500027694703,8|0,0:0|0:0,0:0:0:0:
275,100,35263,2,0,P|291:151|285:215,1,90.7500027694703,8|0,0:0|0:0,0:0:0:0:
196,272,35606,2,0,P|148:268|104:236,1,90.7500027694703,8|0,0:0|0:0,0:0:0:0:
292,284,35949,6,0,P|272:336|240:364,1,90.7500027694703,8|0,0:0|0:0,0:0:0:0:
305,188,36292,2,0,P|347:203|384:242,1,90.7500027694703,8|0,0:0|0:0,0:0:0:0:
488,304,36635,2,0,L|480:204,1,90.7500027694703,8|0,0:0|0:0,0:0:0:0:
380,116,36977,2,0,L|340:220,1,90.7500027694703,8|0,0:0|0:0,0:0:0:0:
240,284,37320,5,8,0:0:0:0:
220,148,37492,1,0,0:0:0:0:
240,284,37663,1,8,0:0:0:0:
347,200,37835,1,0,0:0:0:0:
160,232,38006,2,0,P|112:240|52:228,1,90.7500027694703,8|0,0:0|0:0,0:0:0:0:
152,104,38349,1,0,0:0:0:0:
296,65,38520,1,0,0:0:0:0:
152,104,38692,5,0,0:0:0:0:
296,196,38863,1,0,0:0:0:0:
296,196,39035,2,0,B|256:216|256:216|204:188,1,90.7500027694703,8|0,0:0|0:0,0:0:0:0:
84,224,39378,2,0,L|172:280,1,90.7500027694703,8|0,0:0|0:0,0:0:0:0:
212,100,39721,2,0,P|160:120|132:152,1,90.7500027694703,8|0,0:0|0:0,0:0:0:0:
244,244,40064,5,8,0:0:0:0:
300,120,40235,1,0,0:0:0:0:
344,248,40407,2,0,B|384:268|384:268|436:244,1,90.7500027694703,8|0,0:0|0:0,0:0:0:0:
476,124,40749,2,0,P|452:76|404:52,1,90.7500027694703,8|0,0:0|0:0,0:0:0:0:
288,88,41092,2,0,P|232:92|184:84,1,90.7500027694703,8|0,0:0|0:0,0:0:0:0:
64,52,41435,5,8,0:0:0:0:
104,184,41607,1,0,0:0:0:0:
197,87,41777,1,8,0:0:0:0:
16,140,41949,1,0,0:0:0:0:
136,0,42121,1,8,0:0:0:0:
200,168,42292,1,0,0:0:0:0:
296,264,42463,1,8,0:0:0:0:
432,272,42635,1,0,0:0:0:0:
388,144,42806,5,12,0:0:0:0:
168,64,42977,2,0,P|132:80|100:112,1,57.7499982376099,8|0,0:0|0:0,0:0:0:0:
226,171,43320,2,0,P|260:174|298:163,1,57.7499982376099,8|0,0:0|0:0,0:0:0:0:
388,144,43663,2,0,B|464:148|500:192|488:256|456:288|400:292|400:292|316:248|296:284|216:312|180:256|144:256|144:256|176:248|216:220|232:152,1,635.249980613709
264,60,45720,6,0,P|232:56|192:68,1,57.7499982376099,8|0,0:0|0:0,0:0:0:0:
104,112,46063,2,0,P|80:144|72:172,1,57.7499982376099,8|0,0:0|0:0,0:0:0:0:
84,276,46406,2,0,B|120:268|156:256|180:200|180:200|260:232|252:315|252:315|292:312|344:304|364:240,1,404.249987663269
380,144,47777,2,0,P|384:112|400:84,1,57.7499982376099,8|0,0:0|0:0,0:0:0:0:
496,148,48120,1,8,0:0:0:0:
416,232,48292,6,0,B|364:252|304:232|268:168|296:108|296:108|252:128|216:128|188:136|148:128|120:108|120:108|32:116|-12:152|-36:252|8:372|124:344|156:304|188:260|292:316,1,923.999971801759
408,324,51206,2,0,P|460:308|476:296,1,57.7499982376099,8|0,0:0|0:0,0:0:0:0:
500,196,51549,2,0,B|450:128|375:155|375:155|396:76|384:4|240:-36|172:40|175:112|196:169,1,519.749984138489,8|0,0:0|0:0,0:0:0:0:
273,235,53263,2,0,P|257:275|241:295,1,57.7499982376099,8|0,0:0|0:0,0:0:0:0:
180,316,53606,1,8,0:0:0:0:
180,316,53777,6,0,B|108:284|100:188|100:188|152:160|172:120|179:89|179:89|240:28|312:24|376:60|404:100|392:176|347:234|347:234|340:328|532:216|361:162|293:192|264:240,1,923.999971801759
180,316,56692,2,0,P|140:289|126:269,1,57.7499982376099,8|0,0:0|0:0,0:0:0:0:
152,144,57035,2,0,B|100:148|72:176|72:176|64:124|96:92|148:80|208:76|236:120|236:120|280:124|316:96|312:72|344:64|344:64|396:84|388:144,1,519.749984138489,8|0,0:0|0:0,0:0:0:0:
266,218,58749,2,0,P|294:231|331:229,1,57.7499982376099,8|0,0:0|0:0,0:0:0:0:
476,216,59092,1,8,0:0:0:0:
412,312,59263,6,0,B|364:336|332:332|300:320|264:292|266:219|266:219|227:228|200:216|184:208|184:208|160:224|128:228|88:200,1,404.249987663269
37,89,60635,2,0,B|93:85|121:101|141:137|141:137|165:121|213:125,1,173.24999471283,8|0,0:0|0:0,0:0:0:0:
292,200,61320,2,0,P|306:105|264:24,1,173.24999471283,8|0,0:0|0:0,0:0:0:0:
189,124,62006,2,0,B|221:112|265:119|293:148|293:202|293:202|337:220|393:180|393:180|426:196|432:225|437:260|433:300|433:300|357:276|305:348|293:276|241:272|194:301|194:301|165:284|153:252,1,692.999978851319,8|0,0:0|0:0,0:0:0:0:
95,168,64235,6,0,P|87:132|87:92,1,57.7499982376099,8|0,0:0|0:0,0:0:0:0:
189,124,64577,1,8,0:0:0:0:
159,266,64749,2,0,B|123:298|99:310|51:298|23:274|23:274|35:314|31:346|31:346|59:350|87:342|87:342|143:334|178:362|178:362|223:334|291:326|343:322|369:339|369:339|327:303|300:269|295:222|311:174|323:147|323:147|355:170|403:178|447:126,1,923.999971801759
364,32,67663,2,0,P|328:26|300:28,1,57.7499982376099,8|0,0:0|0:0,0:0:0:0:
240,124,68006,2,0,P|232:156|232:188,1,57.7499982376099,8|0,0:0|0:0,0:0:0:0:
348,172,68349,2,0,P|224:300|108:156,1,404.249987663269
32,76,69720,6,0,P|12:104|4:140,1,57.7499982376099,8|0,0:0|0:0,0:0:0:0:
44,236,70063,1,8,0:0:0:0:
160,240,70235,2,0,B|192:220|204:184|208:152|180:108|180:108|224:116|244:136|280:132|324:120|365:90|365:90|396:120|440:124|440:124|384:132|356:152|340:188|336:224|351:272|351:272|304:272|265:294|265:294|216:340|176:364|108:356|80:308,1,923.999971801759
32,216,73149,2,0,P|44:180|72:144,1,57.7499982376099,8|0,0:0|0:0,0:0:0:0:
136,88,73492,2,0,B|160:124|164:164|168:196|148:220|132:232|132:232|176:248|176:248|220:256|260:216|328:228|328:228|316:260|328:292|328:292|336:320|268:300|232:328,1,519.749984138489
132,352,75206,6,0,P|88:336|76:324,1,57.7499982376099,8|0,0:0|0:0,0:0:0:0:
36,224,75549,1,8,0:0:0:0:
152,240,75720,2,0,B|164:228|172:176|152:132|100:108|68:100|68:100|104:80|168:76,1,288.74999118805
276,40,76749,2,0,B|292:108|256:156|256:156|304:136|360:128|416:172,1,288.74999118805,8|0,0:0|0:0,0:0:0:0:
512,232,77777,2,0,P|464:272|348:268,1,173.24999471283,8|0,0:0|0:0,0:0:0:0:
260,212,78463,5,0,0:0:0:0:
184,300,78635,2,0,P|144:316|112:316,1,57.7499982376099,8|0,0:0|0:0,0:0:0:0:
124,204,78977,2,0,B|140:128|112:80|112:80|157:94|224:108|308:76|308:76|352:56|384:64|408:80|424:104|424:136,1,461.999985900879,8|0,0:0|0:0,0:0:0:0:
432,228,80520,5,0,0:0:0:0:
360,316,80692,2,0,P|318:334|298:337,1,57.7499982376099,8|0,0:0|0:0,0:0:0:0:
300,232,81035,1,8,0:0:0:0:
300,232,81206,2,0,B|256:232|216:252|192:280|176:328|176:328|128:308|96:312|56:324|56:324|96:280|104:216,1,404.249987663269
84,108,82577,2,0,P|164:92|260:128,1,173.24999471283,8|0,0:0|0:0,0:0:0:0:
364,136,83263,2,0,B|364:168|348:200|316:220|316:220|336:240|392:248,1,173.24999471283,8|0,0:0|0:0,0:0:0:0:
496,196,83949,5,0,0:0:0:0:
460,304,84120,2,0,P|436:328|404:340,1,57.7499982376099,8|0,0:0|0:0,0:0:0:0:
300,356,84463,2,0,P|248:356|220:352,1,57.7499982376099,8|0,0:0|0:0,0:0:0:0:
132,320,84806,2,0,P|111:262|344:112,1,404.249987663269
456,128,86177,2,0,P|444:164|424:188,1,57.7499982376099,8|0,0:0|0:0,0:0:0:0:
364,272,86520,2,0,P|316:296|292:300,1,57.7499982376099,8|0,0:0|0:0,0:0:0:0:
188,292,87035,5,0,0:0:0:0:
288,180,87377,1,0,0:0:0:0:
154,107,87720,1,0,0:0:0:0:
248,256,88063,1,0,0:0:0:0:
236,80,88406,1,0,0:0:0:0:
84,312,88749,6,0,P|76:260|80:200,1,98.9999969787599,10|0,0:0|0:0,0:0:0:0:
148,84,89092,2,0,P|200:76|264:88,1,98.9999969787599,10|0,0:0|0:0,0:0:0:0:
348,216,89435,6,0,P|416:200|336:140,1,197.99999395752,10|8,0:0|0:0,0:0:0:0:
224,188,89949,1,0,0:0:0:0:
80,156,90120,2,8,P|68:100|172:120,1,197.99999395752,10|8,0:0|0:0,0:0:0:0:
184,268,90635,1,0,0:0:0:0:
332,320,90806,6,0,P|376:272|388:216,1,98.9999969787599,10|0,0:0|0:0,0:0:0:0:
352,96,91149,2,0,P|292:72|244:68,1,98.9999969787599,8|0,0:0|0:0,0:0:0:0:
112,84,91492,1,10,0:0:0:0:
232,168,91663,1,0,0:0:0:0:
184,28,91835,1,10,0:0:0:0:
140,168,92006,1,0,0:0:0:0:
228,312,92177,6,0,P|279:302|338:261,1,98.9999969787599,10|0,0:0|0:0,0:0:0:0:
328,132,92520,2,0,P|384:144|428:172,1,98.9999969787599,8|0,0:0|0:0,0:0:0:0:
409,321,92863,2,0,P|360:306|319:279,1,98.9999969787599,10|0,0:0|0:0,0:0:0:0:
328,132,93206,2,0,P|280:120|232:125,1,98.9999969787599,8|0,0:0|0:0,0:0:0:0:
68,168,93549,2,8,P|37:116|144:115,1,197.99999395752,10|8,0:0|0:0,0:0:0:0:
240,196,94063,1,0,0:0:0:0:
380,248,94235,6,0,P|452:248|484:232,1,98.9999969787599,10|0,0:0|0:0,0:0:0:0:
348,164,94577,2,0,P|308:200|292:264,1,98.9999969787599,10|0,0:0|0:0,0:0:0:0:
436,152,94920,2,8,P|380:88|264:124,1,197.99999395752,10|8,0:0|0:0,0:0:0:0:
148,236,95435,1,0,0:0:0:0:
28,132,95606,2,8,P|24:65|118:100,1,197.99999395752,10|8,2:0|0:0,0:0:0:0:
148,236,96120,1,0,0:0:0:0:
288,288,96292,6,8,P|364:292|440:284,1,148.49999546814,10|8,0:0|0:0,0:0:0:0:
484,252,96635,1,0,0:0:0:0:
300,368,96806,1,0,0:0:0:0:
344,180,96977,2,0,P|344:124|332:80,1,98.9999969787599,10|0,0:0|0:0,0:0:0:0:
192,40,97320,2,0,P|161:78|142:124,1,98.9999969787599,10|0,0:0|0:0,0:0:0:0:
72,256,97663,6,0,L|196:264,1,98.9999969787599,10|0,0:0|0:0,0:0:0:0:
304,332,98006,2,0,L|424:324,1,98.9999969787599,10|0,0:0|0:0,0:0:0:0:
508,220,98349,2,0,P|508:164|492:104,1,98.9999969787599,10|0,0:0|0:0,0:0:0:0:
376,40,98692,2,0,P|320:40|260:56,1,98.9999969787599,10|0,0:0|0:0,0:0:0:0:
152,124,99035,2,8,P|116:173|218:171,1,197.99999395752,10|8,0:0|0:0,0:0:0:0:
278,49,99549,1,0,0:0:0:0:
320,208,99720,6,0,P|304:260|272:296,1,98.9999969787599,10|0,0:0|0:0,0:0:0:0:
384,128,100063,2,0,P|412:176|420:228,1,98.9999969787599,10|0,0:0|0:0,0:0:0:0:
276,308,100406,2,8,P|208:312|68:264,1,197.99999395752,10|8,0:0|0:0,0:0:0:0:
208,160,100920,1,0,0:0:0:0:
320,36,101092,2,8,P|350:97|360:244,1,197.99999395752,10|8,0:0|0:0,0:0:0:0:
208,160,101606,1,0,0:0:0:0:
90,69,101777,6,8,P|29:64|85:149,1,197.99999395752,10|8,0:0|0:0,0:0:0:0:
208,160,102292,1,0,0:0:0:0:
312,56,102463,2,0,P|360:68|420:104,1,98.9999969787599,10|0,0:0|0:0,0:0:0:0:
304,204,102806,2,0,P|372:207|416:188,1,98.9999969787599,10|0,0:0|0:0,0:0:0:0:
196,56,103149,2,0,P|148:68|88:104,1,98.9999969787599,10|0,0:0|0:0,0:0:0:0:
204,204,103492,2,0,P|135:207|91:188,1,98.9999969787599,10|0,0:0|0:0,0:0:0:0:
272,112,103835,5,10,0:0:0:0:
276,260,104006,1,0,0:0:0:0:
188,116,104177,1,10,0:0:0:0:
336,200,104349,1,0,0:0:0:0:
176,256,104520,2,0,P|128:257|116:61,1,296.99999093628,10|0,0:0|0:0,0:0:0:0:
268,96,105206,6,0,P|332:108|368:80,1,98.9999969787599,10|0,0:0|0:0,0:0:0:0:
176,136,105549,2,0,P|211:168|216:216,1,98.9999969787599,10|0,0:0|0:0,0:0:0:0:
72,304,105892,2,8,P|160:324|280:316,1,197.99999395752,10|8,0:0|0:0,0:0:0:0:
380,224,106406,1,0,0:0:0:0:
472,108,106577,2,8,P|487:44|385:64,1,197.99999395752,10|8,0:0|0:0,0:0:0:0:
280,152,107092,5,0,0:0:0:0:
152,80,107263,1,10,0:0:0:0:
196,244,107435,1,0,0:0:0:0:
236,80,107606,1,8,0:0:0:0:
120,200,107777,1,0,0:0:0:0:
64,116,107949,5,10,0:0:0:0:
208,156,108120,1,0,0:0:0:0:
348,204,108292,2,0,L|448:196,1,98.9999969787599,10|0,0:0|0:0,0:0:0:0:
380,64,108635,2,0,L|484:88,1,98.9999969787599,10|0,0:0|0:0,0:0:0:0:
275,105,108977,5,8,0:0:0:0:
446,196,109149,1,0,0:0:0:0:
292,276,109320,2,0,B|240:284|240:284|192:236,1,98.9999969787599,10|0,0:0|0:0,0:0:0:0:
200,60,109663,2,0,B|252:65|252:65|275:105,1,98.9999969787599,2|0,0:0|0:0,0:0:0:0:
388,268,110006,5,10,0:0:0:0:
276,236,110177,1,0,0:0:0:0:
396,232,110349,1,10,0:0:0:0:
288,280,110520,1,0,0:0:0:0:
336,100,110692,6,8,L|336:148,6,24.74999924469
388,44,111035,5,0,0:0:0:0:
260,152,111206,1,0,0:0:0:0:
128,228,111377,6,8,L|68:220,3,51.5625
172,310,111720,2,8,L|224:304,3,51.5625
324,288,112063,2,8,L|348:242,1,51.5625
428,176,112235,2,8,L|419:125,1,51.5625
340,60,112406,5,8,0:0:0:0:
96,248,112663,5,0,0:0:0:0:
96,248,112749,2,0,L|84:132,1,103.125,8|0,0:0|0:0,0:0:0:0:
240,168,113092,1,8,0:0:0:0:
128,60,113263,1,0,0:0:0:0:
280,36,113435,2,0,P|332:40|392:56,1,103.125,8|0,0:0|0:0,0:0:0:0:
276,156,113777,1,8,0:0:0:0:
148,68,113949,1,0,0:0:0:0:
164,220,114120,6,0,P|204:264|260:296,1,103.125,8|0,0:0|0:0,0:0:0:0:
392,248,114463,2,0,P|424:176|428:136,1,103.125,8|0,0:0|0:0,0:0:0:0:
304,60,114806,2,0,L|192:68,1,103.125,8|0,0:0|0:0,0:0:0:0:
64,140,115149,1,8,0:0:0:0:
64,140,115320,1,0,0:0:0:0:
236,175,115492,5,8,0:0:0:0:
104,60,115663,1,0,0:0:0:0:
141,231,115835,1,8,0:0:0:0:
201,67,116006,1,0,0:0:0:0:
360,112,116177,2,0,L|472:104,1,103.125,8|0,0:0|0:0,0:0:0:0:
300,36,116520,1,8,0:0:0:0:
240,200,116692,1,0,0:0:0:0:
360,112,116863,1,8,0:0:0:0:
200,80,117035,1,0,0:0:0:0:
332,192,117206,6,0,P|320:248|284:288,1,103.125,8|0,0:0|0:0,0:0:0:0:
116,284,117549,2,0,P|76:236|68:192,1,103.125,8|0,0:0|0:0,0:0:0:0:
184,64,117892,1,0,0:0:0:0:
356,88,118063,1,0,0:0:0:0:
192,152,118235,6,0,P|136:136|100:88,1,103.125,8|0,0:0|0:0,0:0:0:0:
280,136,118577,2,0,P|276:188|240:236,1,103.125,8|0,0:0|0:0,0:0:0:0:
184,64,118920,1,0,0:0:0:0:
359,67,119092,1,0,0:0:0:0:
472,144,119263,2,0,P|472:208|456:256,1,103.125,8|0,0:0|0:0,0:0:0:0:
304,168,119606,5,8,0:0:0:0:
392,320,119777,1,0,0:0:0:0:
472,144,119949,1,8,0:0:0:0:
334,251,120120,1,0,0:0:0:0:
161,286,120292,2,0,B|126:240|113:177,1,103.125,8|0,0:0|0:0,0:0:0:0:
128,40,120635,1,8,0:0:0:0:
228,184,120806,1,0,0:0:0:0:
68,116,120977,5,8,0:0:0:0:
248,40,121149,1,0,0:0:0:0:
412,144,121320,2,0,L|296:156,1,103.125,8|0,0:0|0:0,0:0:0:0:
224,264,121663,1,8,0:0:0:0:
112,104,121835,1,0,0:0:0:0:
32,240,122006,2,0,L|148:224,1,103.125,8|0,0:0|0:0,0:0:0:0:
224,72,122349,6,0,P|232:124|208:172,1,103.125,8|0,0:0|0:0,0:0:0:0:
32,240,122692,2,0,P|44:289|82:322,1,103.125,8|0,0:0|0:0,0:0:0:0:
95,146,123035,1,8,0:0:0:0:
224,264,123206,1,0,0:0:0:0:
264,72,123377,1,0,0:0:0:0:
92,36,123549,1,0,0:0:0:0:
264,72,123720,6,0,P|292:128|296:176,1,103.125,8|0,0:0|0:0,0:0:0:0:
168,288,124063,2,0,L|288:296,1,103.125,8|0,0:0|0:0,0:0:0:0:
454,241,124406,1,8,0:0:0:0:
296,167,124577,1,0,0:0:0:0:
168,288,124749,1,8,0:0:0:0:
229,102,124920,1,0,0:0:0:0:
372,164,125092,6,0,L|492:156,1,103.125,8|0,0:0|0:0,0:0:0:0:
318,76,125435,1,8,0:0:0:0:
204,208,125606,1,0,0:0:0:0:
69,176,125777,2,0,P|72:125|88:76,1,103.125,8|0,0:0|0:0,0:0:0:0:
137,266,126120,1,8,0:0:0:0:
332,283,126292,1,0,0:0:0:0:
204,164,126463,5,8,0:0:0:0:
52,292,126635,1,0,0:0:0:0:
312,184,126806,2,0,P|295:115|265:81,1,103.125,8|0,0:0|0:0,0:0:0:0:
104,164,127149,1,8,0:0:0:0:
252,260,127320,1,0,0:0:0:0:
55,270,127492,1,8,0:0:0:0:
162,106,127663,1,0,0:0:0:0:
312,184,127835,6,0,P|348:240|348:292,1,103.125,8|0,0:0|0:0,0:0:0:0:
226,153,128177,1,0,0:0:0:0:
350,275,128349,1,0,0:0:0:0:
204,240,128520,2,0,P|156:200|144:152,1,103.125,8|0,0:0|0:0,0:0:0:0:
312,184,128863,1,0,0:0:0:0:
159,59,129035,1,8,0:0:0:0:
376,52,129206,6,0,P|424:104|439:138,1,103.125,8|0,0:0|0:0,0:0:0:0:
336,296,129549,2,0,P|280:312|208:308,1,103.125,8|0,0:0|0:0,0:0:0:0:
92,212,129892,1,8,0:0:0:0:
268,216,130063,1,0,0:0:0:0:
176,64,130235,1,8,0:0:0:0:
20,140,130406,1,0,0:0:0:0:
244,124,130577,6,0,P|296:132|348:168,1,103.125,8|0,0:0|0:0,0:0:0:0:
136,264,130920,2,0,P|96:228|72:170,1,103.125,8|0,0:0|0:0,0:0:0:0:
248,36,131263,2,0,P|300:36|384:52,1,103.125,8|0,0:0|0:0,0:0:0:0:
308,300,131606,1,8,0:0:0:0:
104,296,131777,1,0,0:0:0:0:
224,212,131949,5,8,0:0:0:0:
52,240,132120,1,0,0:0:0:0:
228,132,132292,1,8,0:0:0:0:
104,296,132463,1,0,0:0:0:0:
74,122,132635,5,8,0:0:0:0:
228,214,132806,1,0,0:0:0:0:
385,102,132977,1,8,0:0:0:0:
312,284,133149,1,0,0:0:0:0:
228,132,133320,5,0,0:0:0:0:
144,260,133492,1,0,0:0:0:0:
149,85,133663,1,0,0:0:0:0:
228,214,133835,1,0,0:0:0:0:
348,324,134006,2,0,P|416:312|464:280,1,103.125,8|0,0:0|0:0,0:0:0:0:
443,99,134349,2,0,P|396:76|345:70,1,103.125,8|0,0:0|0:0,0:0:0:0:
271,230,134692,6,0,L|152:246,1,103.125,10|0,0:0|0:0,0:0:0:0:
50,143,135035,2,0,P|66:63|82:31,1,103.125,8|0,0:0|0:0,0:0:0:0:
248,20,135377,2,0,B|287:56|287:56|299:124,1,103.125,10|0,0:0|0:0,0:0:0:0:
272,292,135720,1,8,0:0:0:0:
272,292,135892,1,0,0:0:0:0:
428,216,136063,2,0,B|460:180|460:180|416:128,1,103.125,10|0,0:0|0:0,0:0:0:0:
280,36,136406,2,0,B|248:72|248:72|292:124,1,103.125,8|0,0:0|0:0,0:0:0:0:
428,216,136749,5,10,0:0:0:0:
248,200,136920,1,0,0:0:0:0:
379,53,137092,1,10,0:0:0:0:
355,274,137263,1,0,0:0:0:0:
283,113,137435,2,0,P|221:95|180:96,1,103.125,10|0,0:0|0:0,0:0:0:0:
48,208,137777,2,0,P|60:268|92:312,1,103.125,8|0,0:0|0:0,0:0:0:0:
228,204,138120,2,0,L|352:212,1,103.125,10|0,0:0|0:0,0:0:0:0:
491,139,138463,2,0,B|438:132|438:132|376:156,1,103.125
252,288,138806,6,0,P|192:284|156:252,1,103.125,10|0,0:0|0:0,0:0:0:0:
287,32,139149,2,0,P|319:92|311:136,1,103.125,8|0,0:0|0:0,0:0:0:0:
160,257,139492,1,10,0:0:0:0:
329,299,139663,1,0,0:0:0:0:
212,168,139835,1,10,0:0:0:0:
185,361,140006,1,0,0:0:0:0:
296,200,140177,6,0,P|296:144|268:96,1,103.125,10|0,0:0|0:0,0:0:0:0:
112,36,140520,2,0,L|100:168,1,103.125,8|0,0:0|0:0,0:0:0:0:
220,268,140863,1,10,0:0:0:0:
31,213,141035,1,0,0:0:0:0:
220,176,141206,1,8,0:0:0:0:
96,296,141377,1,0,0:0:0:0:
104,120,141549,5,10,0:0:0:0:
284,260,141720,1,0,0:0:0:0:
112,220,141892,1,8,0:0:0:0:
255,87,142063,1,0,0:0:0:0:
284,260,142235,6,0,P|328:260|388:212,1,103.125,10|0,0:0|0:0,0:0:0:0:
232,184,142577,2,0,P|196:236|196:296,1,103.125,10|0,0:0|0:0,0:0:0:0:
328,164,142920,1,10,0:0:0:0:
480,256,143092,1,0,0:0:0:0:
404,100,143263,1,8,0:0:0:0:
356,268,143435,1,0,0:0:0:0:
484,148,143606,6,0,P|492:88|476:44,1,103.125,10|0,0:0|0:0,0:0:0:0:
304,52,143949,2,0,L|168:60,1,103.125,10|0,0:0|0:0,0:0:0:0:
20,56,144292,1,10,0:0:0:0:
168,148,144463,1,0,0:0:0:0:
12,224,144635,1,8,0:0:0:0:
20,56,144806,1,0,0:0:0:0:
168,148,144977,2,0,P|220:160|280:160,1,103.125,10|0,0:0|0:0,0:0:0:0:
356,312,145320,2,0,P|408:268|428:224,1,103.125,10|0,0:0|0:0,0:0:0:0:
360,76,145663,6,0,B|408:60|408:60|452:104,1,103.125,10|0,0:0|0:0,0:0:0:0:
320,220,146006,2,0,B|271:204|271:204|262:143,1,103.125,8|0,0:0|0:0,0:0:0:0:
423,237,146349,1,10,0:0:0:0:
360,76,146520,1,0,0:0:0:0:
492,192,146692,1,8,0:0:0:0:
320,220,146863,1,0,0:0:0:0:
465,88,147035,5,10,0:0:0:0:
276,140,147206,1,0,0:0:0:0:
434,255,147378,1,8,0:0:0:0:
360,76,147549,1,0,0:0:0:0:
268,236,147720,2,0,P|204:220|176:176,1,103.125,10|0,0:0|0:0,0:0:0:0:
72,56,148063,2,0,P|56:104|56:168,1,103.125,10|0,0:0|0:0,0:0:0:0:
132,316,148406,6,0,P|180:328|248:324,1,103.125,10|0,0:0|0:0,0:0:0:0:
384,236,148749,2,0,P|396:184|392:112,1,103.125,8|0,0:0|0:0,0:0:0:0:
240,52,149092,1,10,0:0:0:0:
188,220,149263,1,0,0:0:0:0:
327,81,149435,1,8,0:0:0:0:
139,136,149606,1,0,0:0:0:0:
288,236,149777,6,0,P|264:288|220:320,1,103.125,10|0,0:0|0:0,0:0:0:0:
344,144,150120,2,0,P|384:188|396:244,1,103.125,8|0,0:0|0:0,0:0:0:0:
188,232,150463,2,0,B|136:244|136:244|80:232,1,103.125,10|0,0:0|0:0,0:0:0:0:
140,64,150806,2,0,B|192:80|192:80|233:118,1,103.125,10|0,0:0|0:0,0:0:0:0:
316,268,151149,6,8,P|348:312|408:216,1,206.25,10|8,0:0|0:0,0:0:0:0:
320,108,151663,1,0,0:0:0:0:
212,220,151835,2,8,P|150:154|228:110,1,206.25,10|8,0:0|0:0,0:0:0:0:
336,208,152349,1,0,0:0:0:0:
228,316,152520,2,0,P|176:320|115:304,1,103.125,10|0,0:0|0:0,0:0:0:0:
56,144,152863,2,0,P|72:96|112:46,1,103.125,8|0,0:0|0:0,0:0:0:0:
280,64,153206,2,0,B|319:95|319:95|306:156,1,103.125,10|0,0:0|0:0,0:0:0:0:
172,256,153549,2,0,B|141:215|141:215|170:159,1,103.125,10|0,0:0|0:0,0:0:0:0:
328,252,153892,5,10,0:0:0:0:
204,100,154063,1,0,0:0:0:0:
408,84,154235,2,0,P|440:132|456:180,1,103.125,8|0,0:0|0:0,0:0:0:0:
280,180,154577,5,10,0:0:0:0:
336,4,154749,1,0,0:0:0:0:
192,112,154920,2,0,P|164:188|160:240,1,103.125,8|0,0:0|0:0,0:0:0:0:
304,312,155263,5,10,0:0:0:0:
200,296,155435,1,0,0:0:0:0:
264,216,155606,1,10,0:0:0:0:
204,300,155777,1,0,0:0:0:0:
360,224,155949,1,10,0:0:0:0:
396,320,156120,1,0,0:0:0:0:
456,176,156292,2,0,P|452:118|440:68,2,103.125,8|0|0,0:0|0:0|0:0,0:0:0:0:
120,160,158026,6,0,P|168:160|232:148,1,90.7500027694703
332,76,158368,1,8,0:0:0:0:
408,188,158539,1,2,0:0:0:0:
304,276,158711,2,0,L|200:268,1,90.7500027694703
124,168,159054,1,8,0:0:0:0:
284,80,159225,1,2,0:0:0:0:
416,112,159396,6,2,P|444:156|452:208,1,90.7500027694703,10|2,0:0|0:0,0:0:0:0:
352,312,159739,2,2,P|312:332|236:340,1,90.7500027694703,10|2,2:0|2:0,2:0:0:0:
124,284,160082,1,8,0:0:0:0:
276,248,160254,1,2,0:0:0:0:
156,148,160426,2,0,P|112:168|84:208,1,90.7500027694703
212,308,160768,6,0,P|164:308|120:280,1,90.7500027694703,10|0,0:0|0:0,0:0:0:0:
276,248,161111,2,0,P|300:292|296:336,1,90.7500027694703,10|0,0:0|0:0,0:0:0:0:
192,216,161454,1,8,0:0:0:0:
364,232,161625,1,2,0:0:0:0:
208,300,161796,1,8,0:0:0:0:
116,176,161968,1,2,0:0:0:0:
248,96,162140,6,0,L|156:88,1,90.7500027694703
36,224,162483,2,0,P|72:256|113:268,1,90.7500027694703
340,288,162825,2,0,L|408:292,1,45.3750013847352,8|0,0:0|0:0,0:0:0:0:
356,196,162997,2,0,L|304:212,1,45.3750013847352,2|0,0:0|0:0,0:0:0:0:
348,116,163168,2,0,L|416:120,1,45.3750013847352,8|0,0:0|0:0,0:0:0:0:
364,24,163340,2,0,L|312:40,1,45.3750013847352,2|0,0:0|0:0,0:0:0:0:
224,72,163511,6,2,P|180:80|120:68,1,90.7500027694703,10|2,0:0|0:0,0:0:0:0:
32,164,163854,2,2,P|71:186|115:194,1,90.7500027694703,10|2,0:0|0:0,0:0:0:0:
268,168,164196,1,8,0:0:0:0:
156,276,164368,1,2,0:0:0:0:
288,252,164539,1,8,0:0:0:0:
332,104,164711,1,2,0:0:0:0:
376,232,164882,6,0,P|416:248|468:244,1,90.7500027694703,10|0,0:0|0:0,0:0:0:0:
420,116,165225,2,0,P|408:64|376:28,1,90.7500027694703,10|0,0:0|0:0,0:0:0:0:
248,20,165568,1,8,0:0:0:0:
248,20,165739,1,2,0:0:0:0:
160,148,165911,1,8,0:0:0:0:
40,52,166082,1,2,0:0:0:0:
84,200,166254,6,0,P|84:260|64:308,1,90.7500027694703,8|2,0:0|0:0,0:0:0:0:
160,148,166596,2,0,P|172:212|168:260,1,90.7500027694703,8|2,0:0|0:0,0:0:0:0:
84,112,166939,1,8,0:0:0:0:
171,237,167111,1,2,0:0:0:0:
28,180,167282,1,8,0:0:0:0:
152,60,167454,1,2,0:0:0:0:
292,124,167625,6,8,L|364:136,1,45.3750013847352
408,268,167882,2,8,L|366:286,1,45.3750013847352
212,292,168139,1,8,0:0:0:0:
100,184,168311,2,0,P|64:184|41:181,2,45.3750013847352,8|4|0,0:0|0:0|0:0,0:0:0:0:
192,164,168568,1,0,0:0:0:0:
192,164,168654,2,0,P|236:160|296:168,1,90.7500027694703,8|0,0:0|0:0,0:0:0:0:
424,224,168996,5,8,0:0:0:0:
340,96,169168,1,2,0:0:0:0:
308,264,169339,1,10,0:0:0:0:
192,164,169511,1,2,0:0:0:0:
76,264,169682,2,2,P|24:272|-24:256,1,90.7500027694703,10|2,0:0|0:0,0:0:0:0:
168,252,170025,2,2,P|164:296|132:344,1,90.7500027694703,10|2,0:0|0:0,0:0:0:0:
112,184,170368,5,8,0:0:0:0:
260,224,170539,1,2,0:0:0:0:
224,72,170711,1,8,0:0:0:0:
352,156,170882,1,2,0:0:0:0:
224,72,171054,2,2,P|180:64|128:68,1,90.7500027694703,10|2,0:0|0:0,0:0:0:0:
36,184,171396,2,2,P|32:228|44:300,1,90.7500027694703,10|2,0:0|0:0,0:0:0:0:
184,224,171739,5,8,0:0:0:0:
124,84,171911,1,2,0:0:0:0:
256,164,172082,2,2,L|360:172,1,90.7500027694703,10|2,0:0|0:0,0:0:0:0:
460,276,172425,2,2,L|369:282,1,90.7500027694703,10|2,0:0|0:0,0:0:0:0:
216,304,172768,5,10,0:0:0:0:
216,304,172939,1,2,0:0:0:0:
128,176,173111,1,8,0:0:0:0:
284,247,173282,1,2,0:0:0:0:
192,108,173454,1,8,0:0:0:0:
144,252,173625,1,2,0:0:0:0:
264,156,173796,5,8,0:0:0:0:
264,156,173882,1,8,0:0:0:0:
372,44,174054,1,8,0:0:0:0:
376,48,174139,1,8,0:0:0:0:
224,68,174311,1,8,0:0:0:0:
360,140,174482,6,2,P|408:132|444:104,1,90.7500027694703,10|2,0:0|0:0,0:0:0:0:
308,230,174825,2,2,P|272:188|263:151,1,90.7500027694703,10|2,0:0|0:0,0:0:0:0:
404,224,175168,1,8,0:0:0:0:
276,308,175339,1,0,0:0:0:0:
432,320,175511,1,8,0:0:0:0:
308,230,175682,1,0,0:0:0:0:
156,260,175854,6,2,P|112:268|64:260,1,90.7500027694703,10|2,0:0|0:0,0:0:0:0:
112,132,176196,2,2,P|156:124|204:132,1,90.7500027694703,10|2,0:0|0:0,0:0:0:0:
300,228,176539,1,8,0:0:0:0:
268,76,176711,1,2,0:0:0:0:
208,220,176882,1,8,0:0:0:0:
343,113,177054,1,2,0:0:0:0:
376,280,177225,6,2,P|340:312|288:320,1,90.7500027694703,10|2,0:0|0:0,0:0:0:0:
444,212,177568,2,2,P|468:264|468:312,1,90.7500027694703,10|2,0:0|0:0,0:0:0:0:
356,192,177911,1,8,0:0:0:0:
356,192,178082,1,2,0:0:0:0:
444,64,178254,1,10,0:0:0:0:
292,88,178425,1,2,0:0:0:0:
152,156,178596,6,0,L|124:208,3,45.3750013847352
236,248,178939,2,0,L|228:292,3,45.3750013847352
348,248,179282,2,0,L|336:200,3,45.3750013847352
349,155,179626,2,0,L|321:122,4,24.74999924469
292,172,179840,5,0,0:0:0:0:
292,172,179948,2,0,P|232:178|192:172,1,98.9999969787599,8|0,0:0|0:0,0:0:0:0:
64,160,180290,2,0,P|80:118|123:68,1,98.9999969787599,8|0,0:0|0:0,0:0:0:0:
240,44,180633,2,0,P|288:40|341:43,1,98.9999969787599,8|0,0:0|0:0,0:0:0:0:
440,124,180977,2,0,P|448:180|444:229,1,98.9999969787599,8|0,0:0|0:0,0:0:0:0:
384,336,181320,5,8,0:0:0:0:
328,212,181490,1,0,0:0:0:0:
460,296,181663,1,8,0:0:0:0:
392,156,181833,1,0,0:0:0:0:
316,292,182006,2,0,P|272:300|211:289,1,98.9999969787599,8|0,0:0|0:0,0:0:0:0:
108,196,182349,2,0,P|109:151|127:98,1,98.9999969787599,8|0,0:0|0:0,0:0:0:0:
252,16,182690,5,8,0:0:0:0:
204,164,182863,1,0,0:0:0:0:
356,132,183033,1,8,0:0:0:0:
244,28,183206,1,0,0:0:0:0:
396,44,183377,2,0,P|432:76|455:127,1,98.9999969787599,8|0,0:0|0:0,0:0:0:0:
400,248,183720,2,0,L|301:251,1,98.9999969787599,8|0,0:0|0:0,0:0:0:0:
160,288,184063,6,0,L|57:280,1,98.9999969787599,8|0,0:0|0:0,0:0:0:0:
120,136,184406,1,8,0:0:0:0:
268,176,184577,1,0,0:0:0:0:
40,184,184749,2,0,P|28:128|40:84,1,98.9999969787599,8|0,0:0|0:0,0:0:0:0:
176,36,185090,1,8,0:0:0:0:
324,76,185263,1,0,0:0:0:0:
236,204,185433,6,0,P|228:256|236:304,1,98.9999969787599,8|0,0:0|0:0,0:0:0:0:
380,320,185777,2,0,P|427:298|463:265,1,98.9999969787599,8|0,0:0|0:0,0:0:0:0:
356,176,186120,1,8,0:0:0:0:
220,104,186290,1,0,0:0:0:0:
372,88,186463,1,8,0:0:0:0:
248,184,186633,1,0,0:0:0:0:
292,36,186806,6,0,P|240:12|190:8,1,98.9999969787599,8|0,0:0|0:0,0:0:0:0:
64,72,187149,2,0,P|40:124|36:175,1,98.9999969787599,8|0,0:0|0:0,0:0:0:0:
108,292,187490,2,0,L|211:283,1,98.9999969787599,8|0,0:0|0:0,0:0:0:0:
132,144,187833,1,8,0:0:0:0:
264,224,188006,1,0,0:0:0:0:
400,156,188177,6,0,P|396:104|372:44,1,98.9999969787599,8|0,0:0|0:0,0:0:0:0:
372,248,188520,2,0,P|424:248|468:220,1,98.9999969787599,8|0,0:0|0:0,0:0:0:0:
312,176,188863,1,8,0:0:0:0:
260,324,189033,1,0,0:0:0:0:
164,188,189206,1,8,0:0:0:0:
316,72,189377,1,0,0:0:0:0:
208,48,189549,6,0,P|156:44|102:49,1,98.9999969787599,8|0,0:0|0:0,0:0:0:0:
36,180,189890,2,0,P|58:227|87:271,1,98.9999969787599,8|0,0:0|0:0,0:0:0:0:
200,160,190233,2,0,P|227:205|264:244,1,98.9999969787599,8|0,0:0|0:0,0:0:0:0:
392,300,190577,1,8,0:0:0:0:
276,60,190833,5,0,0:0:0:0:
276,60,190920,2,0,P|320:52|381:66,1,98.9999969787599,8|0,0:0|0:0,0:0:0:0:
488,152,191263,2,0,P|476:196|440:237,1,98.9999969787599,8|0,0:0|0:0,0:0:0:0:
308,296,191606,2,0,P|244:300|196:291,1,98.9999969787599,8|0,0:0|0:0,0:0:0:0:
72,228,191948,2,0,P|52:176|47:132,1,98.9999969787599,8|0,0:0|0:0,0:0:0:0:
164,40,192290,5,8,0:0:0:0:
252,160,192463,1,0,0:0:0:0:
248,12,192633,1,8,0:0:0:0:
160,132,192806,1,0,0:0:0:0:
288,84,192977,1,8,0:0:0:0:
320,240,193149,1,0,0:0:0:0:
168,200,193320,1,8,0:0:0:0:
348,152,193490,1,0,0:0:0:0:
236,256,193663,6,0,P|196:280|139:283,1,98.9999969787599,8|0,0:0|0:0,0:0:0:0:
260,176,194006,2,0,P|300:204|320:260,1,98.9999969787599,8|0,0:0|0:0,0:0:0:0:
176,184,194349,2,0,P|192:128|221:99,1,98.9999969787599,8|0,0:0|0:0,0:0:0:0:
360,56,194690,2,0,L|257:38,1,98.9999969787599,8|0,0:0|0:0,0:0:0:0:
368,160,195033,5,8,0:0:0:0:
472,48,195206,1,0,0:0:0:0:
452,200,195377,1,8,0:0:0:0:
296,208,195549,1,0,0:0:0:0:
368,72,195720,1,8,0:0:0:0:
512,132,195890,1,0,0:0:0:0:
296,120,196063,1,8,0:0:0:0:
104,252,196320,5,0,0:0:0:0:
104,252,196406,2,0,L|216:259,1,98.9999969787599,8|0,0:0|0:0,0:0:0:0:
76,160,196749,2,0,P|36:184|7:233,1,98.9999969787599,8|0,0:0|0:0,0:0:0:0:
160,172,197090,2,0,P|144:116|116:88,1,98.9999969787599,8|0,0:0|0:0,0:0:0:0:
104,248,197433,2,0,P|152:264|206:250,1,98.9999969787599,8|0,0:0|0:0,0:0:0:0:
272,100,197777,5,8,0:0:0:0:
280,260,197949,1,0,0:0:0:0:
364,128,198120,1,8,0:0:0:0:
212,172,198290,1,0,0:0:0:0:
360,228,198463,1,8,0:0:0:0:
272,100,198633,1,0,0:0:0:0:
432,188,198806,1,8,0:0:0:0:
332,40,198977,1,0,0:0:0:0:
336,216,199149,6,0,P|360:260|415:291,1,98.9999969787599,8|0,0:0|0:0,0:0:0:0:
264,156,199490,2,0,P|248:196|253:258,1,98.9999969787599,8|0,0:0|0:0,0:0:0:0:
344,364,199833,1,8,0:0:0:0:
196,316,200006,1,0,0:0:0:0:
399,286,200177,1,8,0:0:0:0:
403,137,200349,1,0,0:0:0:0:
272,68,200520,6,0,P|224:60|169:68,1,98.9999969787599,8|0,0:0|0:0,0:0:0:0:
76,178,200863,2,0,P|68:230|83:291,1,98.9999969787599,8|0,0:0|0:0,0:0:0:0:
184,176,201206,1,8,0:0:0:0:
328,148,201377,2,0,P|384:152|436:172,1,98.9999969787599,0|8,0:0|0:0,0:0:0:0:
500,296,201720,1,0,0:0:0:0:
344,292,201910,6,0,L|240:284,1,82.5
92,212,202253,2,2,P|84:156|88:120,1,82.5
204,56,202595,2,2,P|244:52|292:56,1,82.5
404,128,202938,1,2,0:0:0:0:
264,152,203110,1,2,0:0:0:0:
368,48,203281,6,0,P|416:44|452:56,1,82.5,2|0,0:0|0:0,0:0:0:0:
452,204,203624,2,0,P|408:216|360:208,1,82.5,2|0,0:0|0:0,0:0:0:0:
248,144,203967,2,0,L|148:152,1,82.5
44,220,204310,1,0,0:0:0:0:
176,264,204481,1,2,0:0:0:0:
248,144,204653,6,2,P|244:100|224:60,1,82.5
264,236,204995,2,2,P|312:212|332:176,1,82.5
356,52,205338,1,2,0:0:0:0:
416,180,205510,1,2,0:0:0:0:
296,112,205681,1,2,0:0:0:0:
436,84,205853,1,2,0:0:0:0:
327,189,206024,2,2,P|287:205|243:209,2,82.5
80,72,206881,5,2,0:0:0:0:
148,196,207053,1,2,0:0:0:0:
212,72,207224,1,2,0:0:0:0:
60,172,207395,2,2,P|64:232|80:260,1,82.5
200,308,207738,1,0,0:0:0:0:
200,308,208081,6,2,P|211:249|203:217,1,82.5
112,124,208424,2,2,P|152:112|208:116,1,82.5
328,148,208767,1,2,0:0:0:0:
236,40,208938,1,2,0:0:0:0:
248,180,209110,1,0,0:0:0:0:
248,180,209453,5,0,0:0:0:0:
248,180,209624,1,2,0:0:0:0:
128,108,209795,1,0,0:0:0:0:
128,108,209967,1,2,0:0:0:0:
44,228,210138,2,2,P|56:272|84:308,1,82.5
204,364,210481,2,2,P|244:368|288:356,1,82.5
340,228,210824,5,0,0:0:0:0:
416,344,210995,1,2,0:0:0:0:
256,252,211167,2,2,P|260:200|280:168,1,82.5
400,116,211510,2,2,P|378:80|344:58,1,82.5
204,48,211853,1,0,0:0:0:0:
344,58,212710,5,0,0:0:0:0:
208,128,212881,2,2,L|108:136,1,82.5
32,240,213224,2,2,L|124:248,1,82.5
32,136,213567,1,0,0:0:0:0:
140,48,213738,1,2,0:0:0:0:
32,136,213910,1,0,0:0:0:0:
140,48,214081,1,2,0:0:0:0:
256,156,214253,6,2,P|296:164|344:156,1,82.5
444,72,214595,2,2,P|472:112|480:156,1,82.5
412,268,214938,2,2,P|372:288|324:292,1,82.5
204,240,215281,1,0,0:0:0:0:
334,292,215453,1,2,0:0:0:0:
272,176,215624,1,0,0:0:0:0:
244,312,215795,1,2,0:0:0:0:
348,216,215967,6,2,P|356:164|340:124,1,82.5
236,56,216310,1,0,0:0:0:0:
236,56,216653,1,0,0:0:0:0:
376,36,216824,1,2,0:0:0:0:
240,64,216995,2,2,L|140:52,1,82.5
68,312,217681,5,0,0:0:0:0:
96,176,217853,1,2,0:0:0:0:
200,268,218024,1,0,0:0:0:0:
96,176,218195,1,2,0:0:0:0:
200,268,218367,2,2,P|244:264|284:244,1,82.5
252,104,218710,2,2,P|292:99|332:109,1,82.5
428,228,219052,6,0,P|419:275|387:311,1,82.5
428,228,219395,1,2,0:0:0:0:
416,88,219567,1,2,0:0:0:0:
284,44,219738,2,2,P|256:84|252:120,1,82.5
292,252,220081,1,0,0:0:0:0:
28,160,220424,5,0,0:0:0:0:
168,184,220595,1,2,0:0:0:0:
292,252,220767,1,0,0:0:0:0:
256,124,220938,1,2,0:0:0:0:
388,172,221110,2,2,P|416:216|424:260,1,82.5
336,96,221453,2,2,P|372:84|428:92,1,82.5
300,180,221795,5,2,0:0:0:0:
256,48,221967,1,2,0:0:0:0:
164,152,222138,1,2,0:0:0:0:
300,180,222310,1,2,0:0:0:0:
256,48,222481,1,2,0:0:0:0:
216,240,222653,1,0,0:0:0:0:
176,116,223833,6,0,L|274:123,1,94.8750018095971,10|0,0:0|0:0,0:0:0:0:
276,248,224176,2,0,L|375:223,1,94.8750018095971,10|0,0:0|0:0,0:0:0:0:
420,84,224518,5,10,0:0:0:0:
420,84,224604,1,8,0:0:0:0:
420,84,224690,1,8,0:0:0:0:
468,224,224862,2,0,P|464:248|450:289,2,49.4999984893799
308,224,225204,1,10,0:0:0:0:
308,224,225290,1,8,0:0:0:0:
308,224,225375,1,8,0:0:0:0:
288,76,225547,2,0,P|284:48|266:16,2,49.4999984893799
200,212,225890,5,10,0:0:0:0:
200,212,225975,1,8,0:0:0:0:
200,212,226061,1,8,0:0:0:0:
108,92,226233,1,8,0:0:0:0:
108,92,226318,1,8,0:0:0:0:
108,92,226404,1,8,0:0:0:0:
80,236,226576,2,0,P|120:302|140:319,1,98.9999969787599,10|0,0:0|0:0,0:0:0:0:
275,364,226918,2,0,P|331:360|375:348,1,98.9999969787599,10|0,0:0|0:0,0:0:0:0:
316,192,227261,5,10,0:0:0:0:
448,264,227433,1,0,0:0:0:0:
300,272,227604,1,8,0:0:0:0:
396,160,227775,1,0,0:0:0:0:
236,212,227947,2,0,P|184:216|128:212,1,98.9999969787599,10|0,0:0|0:0,0:0:0:0:
40,100,228290,2,0,P|89:82|144:72,1,98.9999969787599,10|0,0:0|0:0,0:0:0:0:
288,80,228633,6,0,L|228:124,2,49.4999984893799,10|0|0,0:0|0:0|0:0,0:0:0:0:
436,64,228975,1,8,0:0:0:0:
436,64,229061,1,0,0:0:0:0:
436,64,229147,1,0,0:0:0:0:
264,196,229318,5,10,0:0:0:0:
264,196,229404,1,8,0:0:0:0:
140,312,229575,1,10,0:0:0:0:
140,312,229661,1,8,0:0:0:0:
112,144,229833,1,4,0:0:0:0:
300,304,230004,5,10,0:0:0:0:
344,303,230090,1,8,0:0:0:0:
385,287,230175,1,8,0:0:0:0:
409,253,230261,1,8,0:0:0:0:
428,212,230347,2,8,L|484:188,3,49.4999984893799
415,120,230690,5,10,0:0:0:0:
380,92,230775,1,8,0:0:0:0:
335,88,230861,1,8,0:0:0:0:
293,104,230947,1,8,0:0:0:0:
267,140,231033,2,8,L|331:176,2,49.4999984893799
136,52,231375,5,10,0:0:0:0:
136,52,231461,1,8,0:0:0:0:
136,52,231547,1,8,0:0:0:0:
84,188,231718,1,8,0:0:0:0:
84,188,231804,1,8,0:0:0:0:
84,188,231890,1,8,0:0:0:0:
184,300,232061,6,0,L|292:292,1,98.9999969787599,10|0,0:0|0:0,0:0:0:0:
432,212,232404,2,0,L|312:204,1,98.9999969787599,10|0,0:0|0:0,0:0:0:0:
184,124,232747,1,6,0:0:0:0:
184,124,233090,5,8,0:0:0:0:
332,48,233261,1,8,0:0:0:0:
164,36,233433,1,8,0:0:0:0:
304,128,233604,1,8,0:0:0:0:
156,204,233775,1,8,0:0:0:0:
436,304,234118,6,0,L|368:316,1,49.4999984893799,10|8,0:0|0:0,0:0:0:0:
272,220,234375,2,0,L|340:232,1,49.4999984893799,10|8,0:0|0:0,0:0:0:0:
420,116,234633,1,4,0:0:0:0:
264,56,234804,1,10,0:0:0:0:
208,48,234890,1,8,0:0:0:0:
156,64,234975,1,8,0:0:0:0:
116,100,235061,1,8,0:0:0:0:
96,152,235147,1,10,0:0:0:0:
92,208,235233,1,8,0:0:0:0:
116,256,235318,1,8,0:0:0:0:
164,280,235404,1,8,0:0:0:0:
216,284,235490,6,0,L|276:288,2,49.4999984893799,10|0|0,0:0|0:0|0:0,0:0:0:0:
80,344,235833,1,8,0:0:0:0:
80,344,235919,1,8,0:0:0:0:
80,344,236004,1,8,0:0:0:0:
4,216,236175,5,10,0:0:0:0:
4,216,236261,1,8,0:0:0:0:
4,216,236347,1,8,0:0:0:0:
144,172,236518,2,8,L|208:180,2,49.4999984893799
44,64,236861,6,8,L|-16:72,2,49.4999984893799,10|8|8,0:0|0:0|0:0,0:0:0:0:
192,44,237204,1,8,0:0:0:0:
241,45,237290,1,8,0:0:0:0:
288,57,237375,1,8,0:0:0:0:
432,132,237547,6,0,P|440:200|432:244,1,98.9999969787599,10|0,0:0|0:0,0:0:0:0:
272,184,237890,2,0,P|260:160|256:132,2,49.4999984893799
384,316,238233,2,0,L|436:320,2,49.4999984893799
220,276,238575,1,0,0:0:0:0:
220,276,238661,1,0,0:0:0:0:
220,276,238747,1,0,0:0:0:0:
372,204,238918,1,0,0:0:0:0:
372,204,239004,1,0,0:0:0:0:
372,204,239090,1,0,0:0:0:0:
384,56,239261,5,8,0:0:0:0:
504,172,239433,1,0,0:0:0:0:
384,56,239604,2,0,P|328:48|280:68,1,98.9999969787599,10|0,0:0|0:0,0:0:0:0:
176,156,239947,2,0,P|127:160|81:141,1,98.9999969787599,8|0,0:0|0:0,0:0:0:0:
260,144,240290,6,0,P|260:176|252:208,2,49.4999984893799,12|0|0,0:0|0:0|0:0,0:0:0:0:
184,240,240547,2,0,P|200:260|224:276,2,49.4999984893799,0|12|0,0:0|0:0|0:0,0:0:0:0:
172,140,240804,1,0,0:0:0:0:
312,48,240975,2,0,P|361:64|416:102,1,98.9999969787599,10|0,0:0|0:0,0:0:0:0:
400,256,241318,2,0,P|358:282|311:297,1,98.9999969787599,8|0,0:0|0:0,0:0:0:0:
152,240,241661,5,10,0:0:0:0:
312,192,241833,1,0,0:0:0:0:
140,328,242004,2,0,P|92:300|68:248,1,98.9999969787599,8|0,0:0|0:0,0:0:0:0:
112,100,242347,1,10,0:0:0:0:
112,100,242518,1,0,0:0:0:0:
224,228,242690,1,8,0:0:0:0:
64,180,242861,1,0,0:0:0:0:
220,116,243033,6,0,L|320:108,1,98.9999969787599,10|0,0:0|0:0,0:0:0:0:
476,52,243375,2,0,P|488:112|480:156,1,98.9999969787599,10|0,0:0|0:0,0:0:0:0:
372,276,243718,1,14,0:0:0:0:
372,276,244061,5,8,0:0:0:0:
332,112,244233,1,0,0:0:0:0:
212,228,244404,2,0,P|140:236|120:220,1,98.9999969787599,8|0,0:0|0:0,0:0:0:0:
164,60,244747,2,0,P|230:89|239:112,1,98.9999969787599,10|0,0:0|0:0,0:0:0:0:
72,124,245090,5,8,0:0:0:0:
72,124,245261,1,2,0:0:0:0:
200,204,245433,2,0,P|252:208|300:188,1,98.9999969787599,10|0,0:0|0:0,0:0:0:0:
396,84,245775,5,8,0:0:0:0:
396,84,245947,1,2,0:0:0:0:
392,232,246118,2,0,P|356:280|320:300,1,98.9999969787599,10|0,0:0|0:0,0:0:0:0:
464,160,246461,6,8,P|480:180|496:216,3,49.4999984893799
384,140,246804,2,8,P|396:112|420:88,3,49.4999984893799
396,23,247147,1,8,0:0:0:0:
346,25,247233,1,8,0:0:0:0:
301,45,247318,1,8,0:0:0:0:
270,84,247404,1,8,0:0:0:0:
248,128,247490,2,0,L|256:156,6,24.74999924469
196,108,247833,6,0,P|142:114|81:137,1,103.125,8|0,0:0|0:0,0:0:0:0:
24,264,248175,1,8,0:0:0:0:
160,192,248347,1,0,0:0:0:0:
12,156,248518,2,0,P|16:96|40:56,1,103.125,8|0,0:0|0:0,0:0:0:0:
180,4,248861,1,8,0:0:0:0:
96,132,249033,1,0,0:0:0:0:
244,84,249204,6,0,L|364:76,1,103.125,8|0,0:0|0:0,0:0:0:0:
480,152,249547,2,0,P|480:208|464:264,1,103.125,8|0,0:0|0:0,0:0:0:0:
332,180,249890,1,8,0:0:0:0:
392,324,250061,1,0,0:0:0:0:
264,236,250233,1,8,0:0:0:0:
412,192,250404,1,0,0:0:0:0:
280,336,250575,6,0,L|148:328,1,103.125,8|0,0:0|0:0,0:0:0:0:
84,180,250918,2,0,P|96:124|128:64,1,103.125,8|0,0:0|0:0,0:0:0:0:
284,40,251261,1,8,0:0:0:0:
176,176,251433,1,0,0:0:0:0:
204,4,251604,1,8,0:0:0:0:
265,189,251775,1,0,0:0:0:0:
424,108,251947,1,8,0:0:0:0:
252,76,252118,1,0,0:0:0:0:
376,228,252290,6,0,L|388:340,1,103.125,8|0,0:0|0:0,0:0:0:0:
386,330,252633,1,8,0:0:0:0:
432,68,252975,1,8,0:0:0:0:
432,68,253147,1,0,0:0:0:0:
264,116,253318,5,8,0:0:0:0:
436,160,253490,1,0,0:0:0:0:
264,116,253661,1,8,0:0:0:0:
432,68,253833,1,0,0:0:0:0:
319,227,254004,2,0,P|267:243|203:227,1,103.125,8|0,0:0|0:0,0:0:0:0:
96,76,254347,5,8,0:0:0:0:
132,268,254518,1,0,0:0:0:0:
184,80,254690,1,8,0:0:0:0:
56,200,254861,1,0,0:0:0:0:
252,136,255033,1,8,0:0:0:0:
252,136,255204,1,0,0:0:0:0:
48,112,255375,1,8,0:0:0:0:
48,112,255547,1,0,0:0:0:0:
224,220,255718,6,0,P|280:220|328:184,1,103.125,8|0,0:0|0:0,0:0:0:0:
425,55,256061,1,8,0:0:0:0:
318,195,256233,1,0,0:0:0:0:
201,94,256404,2,0,P|149:77|74:93,1,103.125,8|0,0:0|0:0,0:0:0:0:
316,104,256747,5,8,0:0:0:0:
144,168,256918,1,0,0:0:0:0:
332,192,257090,1,8,0:0:0:0:
154,274,257261,1,0,0:0:0:0:
332,192,257433,1,8,0:0:0:0:
144,168,257604,1,0,0:0:0:0:
244,320,257775,6,0,P|296:312|360:280,1,103.125,8|0,0:0|0:0,0:0:0:0:
468,156,258118,1,8,0:0:0:0:
424,336,258290,1,0,0:0:0:0:
292,152,258461,1,0,0:0:0:0:
172,280,258633,1,0,0:0:0:0:
288,48,258804,6,0,P|344:64|384:108,1,103.125,8|0,0:0|0:0,0:0:0:0:
446,255,259147,2,0,L|322:215,1,103.125,8|0,0:0|0:0,0:0:0:0:
40,268,259490,1,8,0:0:0:0:
204,204,259661,1,0,0:0:0:0:
324,332,259833,2,0,L|200:292,1,103.125,8|0,0:0|0:0,0:0:0:0:
88,192,260175,1,8,0:0:0:0:
252,132,260347,1,0,0:0:0:0:
416,192,260518,6,0,P|448:152|452:88,1,103.125,8|0,0:0|0:0,0:0:0:0:
288,43,260861,1,0,0:0:0:0:
416,192,261033,1,0,0:0:0:0:
252,132,261204,1,8,0:0:0:0:
416,26,261375,1,0,0:0:0:0:
252,132,261547,6,0,P|201:133|141:118,1,103.125,8|0,0:0|0:0,0:0:0:0:
16,40,261890,1,8,0:0:0:0:
104,192,262061,1,0,0:0:0:0:
184,36,262233,1,8,0:0:0:0:
12,128,262404,1,0,0:0:0:0:
169,120,262575,1,8,0:0:0:0:
21,216,262747,1,0,0:0:0:0:
172,303,262918,6,0,P|224:311|284:307,1,103.125,8|0,0:0|0:0,0:0:0:0:
428,224,263261,2,0,P|430:171|420:112,1,103.125,8|0,0:0|0:0,0:0:0:0:
276,24,263604,1,0,0:0:0:0:
422,121,263775,1,0,0:0:0:0:
225,111,263947,1,0,0:0:0:0:
402,29,264118,1,0,0:0:0:0:
388,200,264290,6,0,P|340:232|292:236,1,103.125,8|0,0:0|0:0,0:0:0:0:
422,121,264633,2,0,P|464:158|475:218,1,103.125,8|0,0:0|0:0,0:0:0:0:
320,145,264975,1,0,0:0:0:0:
476,202,265147,1,0,0:0:0:0:
295,236,265318,1,8,0:0:0:0:
452,36,265490,1,0,0:0:0:0:
320,145,265661,2,0,L|219:187,1,103.125
108,240,266004,6,2,P|64:212|36:156,1,103.125,8|0,0:0|0:0,0:0:0:0:
124,16,266347,2,0,P|159:54|171:115,1,103.125,8|0,0:0|0:0,0:0:0:0:
108,240,266690,2,0,P|145:276|197:299,1,103.125,8|0,0:0|0:0,0:0:0:0:
328,184,267033,1,8,0:0:0:0:
284,352,267204,1,0,0:0:0:0:
188,204,267375,1,8,0:0:0:0:
344,288,267547,1,0,0:0:0:0:
252,140,267718,5,8,0:0:0:0:
429,223,267890,1,0,0:0:0:0:
240,276,268061,1,8,0:0:0:0:
429,223,268233,1,0,0:0:0:0:
188,204,268404,2,0,P|168:152|172:104,1,103.125,8|0,0:0|0:0,0:0:0:0:
333,43,268747,1,8,0:0:0:0:
304,215,268918,1,0,0:0:0:0:
144,312,269090,2,0,P|96:272|72:212,1,103.125,8|0,0:0|0:0,0:0:0:0:
163,83,269433,1,0,0:0:0:0:
304,215,269604,1,0,0:0:0:0:
505,57,269775,6,0,P|508:98|485:162,1,103.125
328,227,270118,1,8,0:0:0:0:
494,283,270290,1,0,0:0:0:0:
400,88,270461,2,0,P|344:84|292:104,1,103.125,8|0,0:0|0:0,0:0:0:0:
160,204,270804,1,8,0:0:0:0:
228,44,270975,1,0,0:0:0:0:
276,213,271147,2,0,P|332:209|384:177,1,103.125,8|0,0:0|0:0,0:0:0:0:
208,128,271490,5,8,0:0:0:0:
260,296,271661,1,0,0:0:0:0:
432,252,271833,2,0,P|456:208|444:136,1,103.125,8|0,0:0|0:0,0:0:0:0:
316,52,272175,1,8,0:0:0:0:
453,156,272347,1,0,0:0:0:0:
257,156,272518,6,0,P|209:121|193:72,1,103.125,8|0,0:0|0:0,0:0:0:0:
364,122,272861,2,0,P|372:173|348:225,1,103.125,8|0,0:0|0:0,0:0:0:0:
180,228,273204,1,8,0:0:0:0:
340,296,273375,1,0,0:0:0:0:
232,156,273547,1,8,0:0:0:0:
84,284,273718,1,0,0:0:0:0:
272,228,273890,5,8,0:0:0:0:
83,174,274061,1,0,0:0:0:0:
228,304,274233,2,0,P|288:312|340:280,1,103.125,8|0,0:0|0:0,0:0:0:0:
448,172,274575,2,0,P|452:120|444:60,1,103.125,8|0,0:0|0:0,0:0:0:0:
272,32,274918,1,0,0:0:0:0:
108,96,275090,1,0,0:0:0:0:
36,232,275261,6,0,L|160:224,1,103.125,8|0,0:0|0:0,0:0:0:0:
300,156,275604,1,8,0:0:0:0:
138,225,275775,1,0,0:0:0:0:
300,276,275947,2,0,B|348:292|348:292|408:272,1,103.125,8|0,0:0|0:0,0:0:0:0:
484,124,276290,2,0,B|441:96|441:96|378:99,1,103.125,8|0,0:0|0:0,0:0:0:0:
248,204,276633,5,8,0:0:0:0:
316,44,276804,1,0,0:0:0:0:
168,140,276975,1,8,0:0:0:0:
360,181,277147,1,0,0:0:0:0:
220,44,277318,1,8,0:0:0:0:
389,98,277490,1,0,0:0:0:0:
232,208,277661,1,8,0:0:0:0:
126,42,277833,1,0,0:0:0:0:
232,208,278004,6,0,P|288:220|352:192,1,103.125,8|0,0:0|0:0,0:0:0:0:
167,143,278347,2,0,P|109:140|55:96,1,103.125,8|0,0:0|0:0,0:0:0:0:
224,32,278690,1,8,0:0:0:0:
71,116,278861,1,0,0:0:0:0:
260,120,279033,1,8,0:0:0:0:
112,28,279204,1,0,0:0:0:0:
308,44,279375,6,0,P|360:56|408:84,1,103.125,8|0,0:0|0:0,0:0:0:0:
440,252,279718,2,0,P|392:280|344:289,1,103.125,8|0,0:0|0:0,0:0:0:0:
176,244,280061,1,8,0:0:0:0:
272,208,280233,1,0,0:0:0:0:
256,308,280404,1,8,0:0:0:0:
272,208,280575,1,0,0:0:0:0:
95,295,280747,2,0,P|89:247|102:177,1,103.125,8|0,0:0|0:0,0:0:0:0:
224,68,281090,2,0,P|272:68|340:88,1,103.125,8|0,0:0|0:0,0:0:0:0:
419,230,281433,1,8,0:0:0:0:
261,155,281604,1,0,0:0:0:0:
416,75,281775,1,8,0:0:0:0:
499,205,281947,1,0,0:0:0:0:
296,68,282118,6,0,P|236:84|200:116,1,103.125,8|0,0:0|0:0,0:0:0:0:
52,124,282461,2,0,P|105:154|132:195,1,103.125,8|0,0:0|0:0,0:0:0:0:
188,330,282804,2,0,L|286:290,1,103.125,8|0,0:0|0:0,0:0:0:0:
273,136,283147,1,8,0:0:0:0:
128,187,283318,1,0,0:0:0:0:
284,292,283490,6,0,P|336:285|380:249,1,103.125,8|0,0:0|0:0,0:0:0:0:
441,71,283833,2,0,L|333:59,1,103.125,8|0,0:0|0:0,0:0:0:0:
164,64,284175,1,8,0:0:0:0:
38,215,284347,1,0,0:0:0:0:
220,136,284518,1,8,0:0:0:0:
48,104,284690,1,0,0:0:0:0:
180,216,284861,5,8,0:0:0:0:
48,104,285033,1,0,0:0:0:0:
220,136,285204,1,8,0:0:0:0:
38,215,285375,1,0,0:0:0:0:
212,312,285547,2,0,P|264:316|320:304,1,103.125,8|0,0:0|0:0,0:0:0:0:
412,160,285890,1,12,0:0:0:0:
425,313,286061,1,0,0:0:0:0:
324,192,286233,6,0,P|324:136|356:88,1,103.125,8|0,0:0|0:0,0:0:0:0:
316,280,286575,2,0,P|264:252|244:200,1,103.125,8|0,0:0|0:0,0:0:0:0:
276,40,286918,1,8,0:0:0:0:
412,160,287090,1,0,0:0:0:0:
232,124,287261,2,0,P|180:124|112:136,1,103.125,8|0,0:0|0:0,0:0:0:0:
52,288,287604,2,0,P|102:298|171:301,1,103.125,8|0,0:0|0:0,0:0:0:0:
316,236,287947,5,8,0:0:0:0:
470,292,288118,1,0,0:0:0:0:
372,160,288290,1,8,0:0:0:0:
236,272,288461,1,0,0:0:0:0:
296,108,288633,1,8,0:0:0:0:
404,244,288804,1,0,0:0:0:0:
228,156,288975,6,0,B|204:112|204:112|196:52,1,103.125
164,232,289318,2,0,L|108:124,1,103.125
256,248,289661,1,0,0:0:0:0:
88,292,289833,1,0,0:0:0:0:
256,336,290004,1,0,0:0:0:0:
220,164,290175,1,0,0:0:0:0:
380,232,290347,6,8,L|444:224,3,51.5625
476,138,290690,2,8,L|420:126,3,51.5625
373,104,291033,1,8,0:0:0:0:
325,84,291118,1,8,0:0:0:0:
272,61,291204,1,8,0:0:0:0:
218,40,291290,1,8,0:0:0:0:
164,56,291375,2,8,L|125:62,6,22.6875006923676
156,112,291718,6,0,P|160:148|148:216,1,90.7500027694703,8|0,0:0|0:0,0:0:0:0:
88,320,292061,2,0,P|132:332|200:324,1,90.7500027694703,8|0,0:0|0:0,0:0:0:0:
304,276,292404,2,0,P|344:240|360:200,1,90.7500027694703,8|0,0:0|0:0,0:0:0:0:
412,80,292747,2,0,L|304:88,1,90.7500027694703,8|0,0:0|0:0,0:0:0:0:
212,164,293090,5,8,0:0:0:0:
244,32,293261,1,0,0:0:0:0:
304,176,293433,1,8,0:0:0:0:
176,88,293604,1,0,0:0:0:0:
64,196,293775,2,0,L|172:204,1,90.7500027694703,8|0,0:0|0:0,0:0:0:0:
256,320,294118,2,0,L|380:308,1,90.7500027694703,8|0,0:0|0:0,0:0:0:0:
444,212,294461,5,8,0:0:0:0:
444,212,294633,1,0,0:0:0:0:
348,92,294804,1,8,0:0:0:0:
348,92,294975,1,0,0:0:0:0:
200,132,295147,2,0,P|144:128|96:96,1,90.7500027694703,8|0,0:0|0:0,0:0:0:0:
276,176,295490,2,0,P|240:208|196:220,1,90.7500027694703,8|0,0:0|0:0,0:0:0:0:
360,152,295833,6,0,P|360:200|336:244,1,90.7500027694703,8|0,0:0|0:0,0:0:0:0:
408,68,296175,2,0,P|440:112|452:160,1,90.7500027694703,8|0,0:0|0:0,0:0:0:0:
316,60,296518,1,8,0:0:0:0:
198,73,296690,1,0,0:0:0:0:
68,48,296861,1,8,0:0:0:0:
125,204,297033,1,0,0:0:0:0:
212,240,297204,6,0,P|252:252|308:236,1,90.7500027694703,8|0,0:0|0:0,0:0:0:0:
196,152,297547,2,0,P|152:172|120:216,1,90.7500027694703,8|0,0:0|0:0,0:0:0:0:
276,164,297890,2,0,P|264:108|224:76,1,90.7500027694703,8|0,0:0|0:0,0:0:0:0:
108,52,298233,2,0,P|68:84|32:132,1,90.7500027694703,8|0,0:0|0:0,0:0:0:0:
168,164,298575,2,0,P|156:224|160:272,1,90.7500027694703,8|0,0:0|0:0,0:0:0:0:
272,324,298918,2,0,P|344:328|372:324,1,90.7500027694703,8|0,0:0|0:0,0:0:0:0:
320,196,299261,5,8,0:0:0:0:
444,288,299433,1,0,0:0:0:0:
396,144,299604,1,8,0:0:0:0:
362,325,299775,1,0,0:0:0:0:
464,200,299947,2,0,P|480:152|468:100,1,90.7500027694703,8|0,0:0|0:0,0:0:0:0:
332,48,300290,2,0,L|228:52,1,90.7500027694703,8|0,0:0|0:0,0:0:0:0:
152,152,300633,2,0,L|264:160,1,90.7500027694703,8|0,0:0|0:0,0:0:0:0:
340,252,300975,2,0,L|236:260,1,90.7500027694703,8|0,0:0|0:0,0:0:0:0:
112,272,301318,5,8,0:0:0:0:
244,348,301490,1,0,0:0:0:0:
180,208,301661,1,8,0:0:0:0:
148,360,301833,1,0,0:0:0:0:
24,268,302004,2,0,P|16:216|20:160,1,90.7500027694703,8|0,0:0|0:0,0:0:0:0:
17,178,302518,5,4,0:0:0:0:
394,225,302690,2,0,P|406:177|406:125,1,90.7500027694703,8|0,0:0|0:0,0:0:0:0:
280,168,303033,2,0,P|228:176|164:176,1,90.7500027694703,8|0,0:0|0:0,0:0:0:0:
280,52,303375,1,8,0:0:0:0:
408,136,303547,1,0,0:0:0:0:
304,252,303718,1,8,0:0:0:0:
408,136,303890,1,0,0:0:0:0:
212,112,304061,6,0,P|188:64|188:24,1,90.7500027694703,8|0,0:0|0:0,0:0:0:0:
300,136,304404,2,0,P|272:180|224:204,1,90.7500027694703,8|0,0:0|0:0,0:0:0:0:
104,220,304747,1,8,0:0:0:0:
180,272,304918,1,0,0:0:0:0:
24,260,305090,1,8,0:0:0:0:
104,220,305261,1,0,0:0:0:0:
236,204,305433,6,0,P|280:212|328:208,1,90.7500027694703,8|0,0:0|0:0,0:0:0:0:
448,264,305775,2,0,P|456:220|452:172,1,90.7500027694703,8|0,0:0|0:0,0:0:0:0:
376,40,306118,2,0,P|368:84|372:132,1,90.7500027694703,8|0,0:0|0:0,0:0:0:0:
232,64,306461,1,8,0:0:0:0:
320,192,306633,1,0,0:0:0:0:
196,280,306804,6,0,P|152:288|88:280,1,90.7500027694703,8|0,0:0|0:0,0:0:0:0:
208,168,307147,1,8,0:0:0:0:
300,292,307318,1,0,0:0:0:0:
124,196,307490,2,0,P|128:132|144:100,1,90.7500027694703,8|0,0:0|0:0,0:0:0:0:
288,60,307833,1,8,0:0:0:0:
208,168,308004,1,0,0:0:0:0:
320,264,308175,6,0,L|424:268,1,90.7500027694703,10|0,0:0|0:0,0:0:0:0:
272,340,308518,2,0,P|240:304|232:256,1,90.7500027694703,8|0,0:0|0:0,0:0:0:0:
276,148,308861,1,8,0:0:0:0:
144,228,309033,1,0,0:0:0:0:
204,88,309204,1,8,0:0:0:0:
231,263,309375,1,0,0:0:0:0:
124,128,309547,1,10,0:0:0:0:
64,256,309718,1,0,0:0:0:0:
216,228,309890,6,0,L|312:224,1,90.7500027694703,8|0,0:0|0:0,0:0:0:0:
336,72,310233,2,0,L|416:120,1,90.7500027694703,8|0,0:0|0:0,0:0:0:0:
260,128,310575,2,0,P|248:76|252:32,1,90.7500027694703,8|0,0:0|0:0,0:0:0:0:
336,168,310918,2,0,P|304:204|240:216,1,90.7500027694703,10|0,0:0|0:0,0:0:0:0:
116,176,311261,2,0,B|132:132|132:132|124:72,1,90.7500027694703,8|0,0:0|0:0,0:0:0:0:
8,188,311604,2,0,B|18:233|18:233|57:279,1,90.7500027694703,10|0,0:0|0:0,0:0:0:0:
48,112,311947,5,10,0:0:0:0:
128,244,312118,1,0,0:0:0:0:
212,116,312290,1,10,0:0:0:0:
128,244,312461,1,0,0:0:0:0:
288,304,312633,2,0,L|384:296,1,90.7500027694703,10|0,0:0|0:0,0:0:0:0:
334,167,312975,2,0,L|431:161,1,90.7500027694703,8|2,0:0|0:0,0:0:0:0:
424,161,313490,1,6,0:0:0:0:
