osu file format v14

[General]
AudioFilename: audio.mp3
AudioLeadIn: 0
PreviewTime: 55760
Countdown: 0
SampleSet: Soft
StackLeniency: 0.5
Mode: 0
LetterboxInBreaks: 0
WidescreenStoryboard: 1

[Editor]
Bookmarks: 8385,16385,24385,32385,40385,48385,56385,58135,64385,72385,80385,88385
DistanceSpacing: 1.3
BeatDivisor: 6
GridSize: 8
TimelineZoom: 2.799999

[Metadata]
Title:Scarlet (TV Size)
TitleUnicode:Scarlet (TV Size)
Artist:DAZBEE
ArtistUnicode:ダズビー
Creator:Xiirn
Version:Takeout
Source:メタリックルージュ
Tags:solarmymommy assassinalpha sanayui not your kitty not_your_kitty o_k_u dt best mod dt_best_mod metallic rouge ed ending japanese j pop jpop j-pop anime 다즈비 female vocal vocals vocalist ed1
BeatmapID:4476788
BeatmapSetID:2129083

[Difficulty]
HPDrainRate:5.7
CircleSize:4.4
OverallDifficulty:8.8
ApproachRate:9.1
SliderMultiplier:2.57
SliderTickRate:1

[Events]
//Background and Video events
Video,0,"video.mp4"
0,0,"backgroundamus.jpg",0,0
//Break Periods
//Storyboard Layer 0 (Background)
//Storyboard Layer 1 (Fail)
//Storyboard Layer 2 (Pass)
//Storyboard Layer 3 (Foreground)
//Storyboard Layer 4 (Overlay)
//Storyboard Sound Samples

[TimingPoints]
385,500,4,2,1,50,1,0
385,-142.857142857143,4,2,1,50,0,0
7885,-83.3333333333333,4,2,1,50,0,0
8135,-142.857142857143,4,2,1,50,0,0
8385,-111.111111111111,4,2,1,60,0,0
32385,-100,4,2,1,65,0,0
39885,-200,4,2,1,65,0,0
40322,-200,4,2,1,65,0,0
40385,-142.857142857143,4,2,2,50,0,0
54301,-142.857142857143,4,2,2,50,0,0
54385,-684.931506849315,4,2,1,50,0,0
54447,-684.931506849315,4,2,1,5,0,0
55885,-684.931506849315,4,2,1,50,0,0
56385,-71.4285714285714,4,2,1,80,0,1
57385,-66.6666666666667,4,2,1,80,0,1
58135,-71.4285714285714,4,2,1,80,0,1
59385,-66.6666666666667,4,2,1,80,0,1
60385,-71.4285714285714,4,2,1,80,0,1
64385,-66.6666666666667,4,2,1,80,0,1
64885,-71.4285714285714,4,2,1,80,0,1
65385,-66.6666666666667,4,2,1,80,0,1
65885,-71.4285714285714,4,2,1,80,0,1
67385,-66.6666666666667,4,2,1,80,0,1
68135,-71.4285714285714,4,2,1,80,0,1
70385,-66.6666666666667,4,2,1,80,0,1
71135,-62.5,4,2,1,80,0,1
71885,-142.857142857143,4,2,1,80,0,0
72322,-142.857142857143,4,2,1,80,0,0
72385,-66.6666666666667,4,2,1,80,0,1
73260,-71.4285714285714,4,2,1,80,0,1
74385,-83.3333333333333,4,2,1,80,0,1
74885,-76.9230769230769,4,2,1,80,0,1
75385,-71.4285714285714,4,2,1,80,0,1
76385,-66.6666666666667,4,2,1,80,0,1
77260,-71.4285714285714,4,2,1,80,0,1
78385,-83.3333333333333,4,2,1,80,0,1
78885,-76.9230769230769,4,2,1,80,0,1
79385,-71.4285714285714,4,2,1,80,0,1
80385,-66.6666666666667,4,2,1,80,0,1
81260,-71.4285714285714,4,2,1,80,0,1
82385,-83.3333333333333,4,2,1,80,0,1
82885,-76.9230769230769,4,2,1,80,0,1
83385,-71.4285714285714,4,2,1,80,0,1
84385,-66.6666666666667,4,2,1,80,0,1
85260,-71.4285714285714,4,2,1,80,0,1
87135,-83.3333333333333,4,2,1,80,0,1
88385,-290.697674418605,4,2,1,50,0,0
88447,-290.697674418605,4,2,1,5,0,0
89260,-290.697674418605,4,2,1,45,0,0

[Colours]
Combo1 : 168,170,164
Combo2 : 175,201,152
Combo3 : 199,199,199
Combo4 : 180,166,208

[HitObjects]
120,353,385,5,2,0:0:0:0:
181,298,635,2,0,P|205:301|221:323,3,29.9833324183146,2|0|0|0,0:0|0:0|0:0|0:0,0:0:0:0:
181,298,1885,5,2,0:0:0:0:
172,276,2135,1,2,0:0:0:0:
13,202,2385,5,2,0:0:0:0:
31,125,2635,1,2,0:0:0:0:
10,211,2885,6,0,P|18:251|29:300,1,89.9499972549439
142,235,3385,2,0,P|132:190|120:137,1,89.9499972549439
155,43,3885,5,2,0:0:0:0:
224,14,4135,1,2,0:0:0:0:
362,112,4385,5,2,0:0:0:0:
498,165,4635,1,2,0:0:0:0:
358,103,4885,6,0,P|326:109|318:163,1,89.9499972549439
364,281,5385,2,0,P|400:273|408:212,1,89.9499972549439
288,242,5885,5,2,0:0:0:0:
224,272,6135,1,2,0:0:0:0:
174,380,6385,5,2,0:0:0:0:
64,338,6635,1,2,0:0:0:0:
178,376,6885,6,0,P|172:328|167:276,1,89.9499972549439
51,248,7385,2,0,P|54:280|58:316,1,44.974998627472
316,181,7885,6,0,P|311:141|307:98,1,77.0999976470948,0|0,3:0|3:0,0:0:0:0:
249,55,8135,2,0,P|229:59|222:75,2,29.9833324183146
307,104,8385,6,0,P|300:167|293:230,1,115.649996470642,0|0,3:2|0:2,0:0:0:0:
224,274,8885,1,0,3:0:0:0:
240,348,9135,2,0,B|252:346|252:346|260:359|260:359|275:359|297:369,1,57.8249982353211,2|0,0:2|0:0,0:0:0:0:
233,360,9385,6,0,B|145:344|166:399|59:380,1,173.474994705963,2|0,3:2|0:0,0:0:0:0:
25,317,9885,2,0,P|39:254|50:198,1,115.649996470642,2|2,3:2|0:2,0:0:0:0:
127,166,10260,1,0,0:0:0:0:
127,166,10385,2,0,P|113:103|102:47,1,115.649996470642,2|2,3:2|0:2,0:0:0:0:
206,199,10885,5,2,3:2:0:0:
306,240,11135,1,0,0:0:0:0:
326,136,11385,5,0,3:0:0:0:
256,107,11635,1,0,0:0:0:0:
202,206,11885,5,0,3:2:0:0:
302,247,12135,1,2,0:2:0:0:
252,97,12385,6,0,P|197:113|139:133,1,115.649996470642,0|2,3:2|0:2,0:0:0:0:
82,88,12885,5,0,3:0:0:0:
114,17,13135,1,2,0:2:0:0:
51,161,13385,6,0,P|63:214|76:277,1,115.649996470642,2|2,3:2|0:2,0:0:0:0:
37,343,13760,1,0,0:0:0:0:
37,343,13885,2,0,P|10:337|-4:307,1,57.8249982353211,0|0,3:2|0:0,0:0:0:0:
116,368,14135,1,2,0:2:0:0:
130,354,14260,1,0,0:0:0:0:
167,368,14385,6,0,B|214:354|214:354|227:355|227:355|278:337,1,115.649996470642,2|2,3:2|0:2,0:0:0:0:
344,381,14760,1,2,0:2:0:0:
344,381,14885,5,0,3:0:0:0:
368,272,15135,1,0,0:0:0:0:
300,207,15385,5,0,3:0:0:0:
276,132,15635,1,0,0:0:0:0:
346,79,15885,5,0,3:2:0:0:
251,269,16135,1,0,0:2:0:0:
206,209,16385,6,0,P|147:232|85:259,1,115.649996470642,0|0,3:2|0:2,0:0:0:0:
40,205,16885,1,0,3:0:0:0:
0,269,17135,2,0,B|-2:281|-2:281|11:289|11:289|11:304|21:326,1,57.8249982353211,2|0,0:2|0:0,0:0:0:0:
49,200,17385,6,0,P|38:140|26:80,1,115.649996470642,2|0,3:2|0:0,0:0:0:0:
80,33,17760,1,0,0:0:0:0:
80,33,17885,2,0,P|107:32|124:68,1,57.8249982353211,2|0,3:2|0:0,0:0:0:0:
204,93,18135,1,2,0:2:0:0:
226,72,18260,1,0,0:0:0:0:
265,96,18385,6,0,B|329:93|302:68|374:57,1,115.649996470642,2|2,3:2|0:2,0:0:0:0:
500,176,18885,5,0,3:0:0:0:
388,145,19135,1,0,0:0:0:0:
352,246,19385,5,0,3:0:0:0:
426,225,19635,1,0,0:0:0:0:
501,167,19885,5,0,3:2:0:0:
389,136,20135,1,2,0:2:0:0:
344,253,20385,6,0,P|358:308|372:371,1,115.649996470642,2|0,3:2|0:2,0:0:0:0:
315,321,20760,2,0,P|265:324|212:369,1,115.649996470642,2|0,0:0|0:0,0:0:0:0:
148,341,21135,1,2,0:0:0:0:
42,215,21385,6,0,P|54:158|68:87,1,115.649996470642,2|0,3:2|0:0,0:0:0:0:
36,30,21760,1,0,0:0:0:0:
36,30,21885,2,0,P|12:32|-3:66,1,57.8249982353211,0|0,3:2|0:0,0:0:0:0:
119,1,22135,1,2,0:2:0:0:
137,16,22260,1,0,0:0:0:0:
178,1,22385,5,2,3:2:0:0:
178,1,22510,2,0,B|207:7|237:11|237:11|265:51|265:51|296:53|335:61,1,173.474994705963,2|0,0:0|3:0,0:0:0:0:
415,10,23135,1,2,0:0:0:0:
329,59,23385,6,0,P|341:112|353:173,1,115.649996470642,2|2,3:2|0:2,0:0:0:0:
487,227,23885,5,0,3:2:0:0:
509,152,24135,1,0,0:2:0:0:
457,304,24385,6,0,B|391:279|411:313|334:290,1,115.649996470642,0|0,3:2|0:2,0:0:0:0:
144,160,24885,2,0,P|196:141|264:119,1,115.649996470642,0|2,3:0|0:0,0:0:0:0:
439,37,25385,2,0,P|384:19|329:0,1,115.649996470642,0|0,3:0|0:0,0:0:0:0:
228,49,25885,5,2,3:2:0:0:
253,122,26135,1,2,0:2:0:0:
76,323,26385,6,0,P|38:298|61:230,1,115.649996470642,2|2,3:2|0:2,0:0:0:0:
203,346,26885,2,0,P|241:321|218:253,1,115.649996470642,0|0,3:0|0:0,0:0:0:0:
145,202,27385,5,0,3:2:0:0:
122,131,27635,1,0,0:0:0:0:
139,209,27885,5,0,3:2:0:0:
103,318,28135,1,2,0:2:0:0:
332,309,28385,6,0,P|278:282|226:258,1,115.649996470642,2|0,3:2|0:2,0:0:0:0:
384,185,28885,2,0,P|438:212|490:236,1,115.649996470642,0|2,3:0|0:0,0:0:0:0:
363,104,29385,5,2,3:2:0:0:
292,65,29635,1,0,0:0:0:0:
229,125,29885,5,2,3:2:0:0:
114,162,30135,1,2,0:2:0:0:
32,3,30385,6,0,P|69:1|95:48,1,86.7374973529816,0|0,3:2|0:0,0:0:0:0:
6,74,30760,1,2,0:2:0:0:
6,74,30885,2,0,P|21:127|36:192,1,115.649996470642,0|0,3:2|0:0,0:0:0:0:
116,243,31385,5,0,3:0:0:0:
96,313,31635,1,0,0:0:0:0:
196,218,31885,5,2,3:2:0:0:
196,218,32010,2,0,P|185:159|171:94,1,115.649996470642,2|0,0:2|0:0,0:0:0:0:
230,47,32385,6,0,B|333:47|303:104|411:110,1,192.75,2|0,3:2|0:0,0:0:0:0:
465,60,32885,5,0,3:0:0:0:
331,124,33135,1,2,0:2:0:0:
456,259,33385,6,0,P|470:198|487:125,1,128.5,2|2,3:2|0:0,0:0:0:0:
465,60,33760,1,2,0:0:0:0:
465,60,33885,1,2,3:2:0:0:
331,124,34135,1,2,0:2:0:0:
383,278,34385,6,0,B|319:248|266:220|266:220|254:249|240:278,1,192.75,2|0,3:2|0:0,0:0:0:0:
299,327,34885,2,0,P|286:227|273:132,1,192.75,2|0,3:2|0:0,0:0:0:0:
212,88,35385,6,0,P|172:95|151:176,1,128.5,2|0,3:2|0:0,0:0:0:0:
2,74,35885,5,2,3:2:0:0:
118,29,36135,1,0,0:2:0:0:
35,197,36385,6,0,P|18:130|-1:66,1,128.5,2|0,3:2|0:2,0:0:0:0:
219,189,36885,2,0,P|200:250|185:312,1,128.5,0|2,3:0|0:2,0:0:0:0:
240,367,37260,1,0,0:2:0:0:
240,367,37385,5,2,3:2:0:0:
334,328,37635,1,0,0:0:0:0:
414,365,37885,5,0,3:2:0:0:
487,383,38135,1,0,0:2:0:0:
401,282,38385,6,0,P|416:219|434:158,1,128.5,0|0,3:2|0:2,0:0:0:0:
390,89,38885,5,0,3:0:0:0:
270,44,39135,1,0,0:0:0:0:
208,106,39385,5,2,3:2:0:0:
114,137,39635,1,0,0:0:0:0:
0,118,39885,6,0,P|12:53|23:7,1,112.4375,2|0,3:2|0:0,0:0:0:0:
35,6,40385,6,0,P|75:10|92:58,1,89.9499972549439,8|0,0:3|0:0,0:0:0:0:
93,52,40760,1,2,0:0:0:0:
93,52,40885,1,8,3:0:0:0:
181,30,41135,1,4,3:0:0:0:
86,142,41385,5,2,0:0:0:0:
144,207,41635,2,0,P|183:187|231:166,2,89.9499972549439,8|4|2,3:0|3:0|0:0,0:0:0:0:
93,259,42260,1,0,0:0:0:0:
144,207,42385,6,0,P|186:228|239:252,1,89.9499972549439,2|0,3:2|0:0,0:0:0:0:
290,209,42760,1,2,0:0:0:0:
290,209,42885,2,0,P|332:188|385:164,2,89.9499972549439,8|4|0,3:0|3:0|0:0,0:0:0:0:
225,168,43635,1,8,3:0:0:0:
266,103,43885,5,4,3:0:0:0:
266,103,44135,1,2,0:0:0:0:
371,170,44385,6,0,P|357:221|348:259,1,89.9499972549439,4|2,3:0|0:0,0:0:0:0:
348,257,44760,1,2,0:0:0:0:
348,257,44885,1,8,3:0:0:0:
264,290,45135,2,0,P|278:341|287:379,1,89.9499972549439,4|0,3:0|0:0,0:0:0:0:
165,242,45635,1,8,3:0:0:0:
172,214,45760,1,2,0:0:0:0:
179,186,45885,1,4,3:0:0:0:
114,105,46135,1,2,0:0:0:0:
264,15,46385,6,0,P|306:27|363:50,1,89.9499972549439,4|0,3:0|0:0,0:0:0:0:
385,111,46760,1,2,0:0:0:0:
385,111,46885,1,8,3:0:0:0:
461,71,47135,1,4,3:0:0:0:
327,165,47385,6,0,P|338:209|348:260,1,89.9499972549439,2|8,0:0|3:0,0:0:0:0:
422,287,47885,1,4,3:0:0:0:
299,374,48135,1,0,0:0:0:0:
288,363,48260,1,0,0:0:0:0:
249,375,48385,6,0,B|219:367|186:360|186:360|164:320|164:320|129:312|92:302,1,179.899994509888,4|8,3:0|3:0,0:0:0:0:
35,347,49135,1,4,3:0:0:0:
159,240,49385,6,0,P|154:196|146:141,1,89.9499972549439,2|8,0:0|3:0,0:0:0:0:
88,17,49885,5,4,3:0:0:0:
18,58,50135,1,0,0:0:0:0:
209,84,50385,6,0,P|254:99|299:116,1,89.9499972549439,4|2,3:0|0:0,0:0:0:0:
360,70,50760,1,2,0:0:0:0:
360,70,50885,2,0,P|364:37|313:10,1,89.9499972549439,8|4,3:0|3:0,0:0:0:0:
361,155,51385,6,0,P|368:200|375:246,1,89.9499972549439,2|8,0:0|3:0,0:0:0:0:
450,303,51885,1,4,3:0:0:0:
422,375,52135,1,0,0:0:0:0:
198,275,52385,6,0,P|212:248|271:246,1,89.9499972549439,4|2,3:0|0:0,0:0:0:0:
323,295,52760,1,2,0:0:0:0:
323,295,52885,2,0,P|315:339|308:385,2,89.9499972549439,8|4|0,3:0|3:0|0:0,0:0:0:0:
454,201,53635,2,0,P|448:171|444:141,1,44.974998627472,8|0,3:0|0:0,0:0:0:0:
357,144,53885,1,4,3:0:0:0:
357,144,54010,2,0,P|363:174|367:204,1,44.974998627472,2|0,0:0|0:0,0:0:0:0:
362,52,54301,1,0,0:0:0:0:
362,52,54385,6,0,B|298:52|322:81|256:80,1,112.565998076265,2|0,0:0|0:0,0:0:0:0:
88,343,56385,6,0,B|71:331|47:319|47:319|111:301|175:274,1,179.899994509888,6|2,3:2|0:0,0:0:0:0:
243,319,56760,1,0,0:0:0:0:
147,178,56885,2,0,P|139:225|133:274,1,89.9499972549439,2|0,1:2|0:0,0:0:0:0:
320,143,57135,1,2,0:3:0:0:
244,96,57260,1,10,0:0:0:0:
315,40,57385,6,0,B|433:60|368:72|503:98,1,192.750007352829,2|2,3:2|0:3,0:0:0:0:
498,98,57760,1,2,0:0:0:0:
375,174,57885,2,0,P|365:128|351:79,1,96.3750036764146,2|0,1:2|0:0,0:0:0:0:
477,286,58135,5,2,0:3:0:0:
436,324,58260,1,8,0:0:0:0:
480,360,58385,2,0,B|501:344|525:337|525:337|391:379,1,179.899994509888,2|2,3:2|0:3,0:0:0:0:
336,336,58760,1,2,0:2:0:0:
431,212,58885,6,0,P|473:222|483:272,1,89.9499972549439,2|0,1:2|0:0,0:0:0:0:
329,342,59135,2,0,P|287:332|277:282,1,89.9499972549439,2|8,0:3|0:0,0:0:0:0:
400,117,59385,6,0,L|422:210,1,96.3750036764146,2|0,3:2|0:0,0:0:0:0:
243,97,59635,1,2,0:3:0:0:
309,37,59760,1,2,0:0:0:0:
231,0,59885,2,0,B|165:13|165:13|133:56|133:56|62:75,1,192.750007352829,0|2,1:0|0:3,0:0:0:0:
0,17,60260,1,8,0:3:0:0:
63,74,60385,6,0,P|53:118|41:178,1,89.9499972549439,2|0,3:2|0:0,0:0:0:0:
153,267,60635,1,2,0:3:0:0:
153,267,60760,1,0,0:3:0:0:
217,219,60885,6,0,P|227:175|239:115,1,89.9499972549439,2|0,1:2|0:0,0:0:0:0:
377,14,61135,1,2,0:3:0:0:
431,24,61260,1,8,0:0:0:0:
436,78,61385,2,0,P|391:105|352:92,1,89.9499972549439,2|0,3:2|0:0,0:0:0:0:
193,18,61635,2,0,P|238:-9|277:4,1,89.9499972549439,2|0,0:3|0:0,0:0:0:0:
412,186,61885,6,0,P|399:231|389:273,1,89.9499972549439,0|0,1:0|0:0,0:0:0:0:
194,305,62135,2,0,P|207:260|217:218,1,89.9499972549439,2|2,0:3|0:0,0:0:0:0:
137,70,62385,6,0,B|105:84|75:94|75:94|70:141|70:141|31:154|2:168,1,179.899994509888,2|6,3:2|0:3,0:0:0:0:
91,215,62760,1,8,0:0:0:0:
2,159,62885,6,0,B|25:149|64:136|64:136|69:89|69:89|99:79|131:65,1,179.899994509888,2|6,1:2|0:3,0:0:0:0:
205,120,63260,1,8,0:0:0:0:
312,15,63385,2,0,P|261:5|218:-6,1,89.9499972549439,0|0,3:0|0:0,0:0:0:0:
296,223,63635,2,0,P|339:212|383:203,1,89.9499972549439,2|0,3:2|0:0,0:0:0:0:
512,75,63885,5,0,1:0:0:0:
455,19,64010,1,8,0:0:0:0:
445,15,64072,1,8,0:0:0:0:
440,23,64135,2,0,P|431:49|424:75,1,44.974998627472,8|0,0:2|0:0,0:0:0:0:
471,128,64260,2,0,P|462:102|455:76,1,44.974998627472,8|0,0:2|0:0,0:0:0:0:
312,15,64385,6,0,B|187:28|246:59|125:71,1,192.750007352829,6|2,3:2|0:3,0:0:0:0:
64,12,64760,1,0,0:0:0:0:
215,93,64885,2,0,P|204:134|193:186,1,89.9499972549439,2|0,1:2|0:0,0:0:0:0:
354,319,65135,1,2,0:3:0:0:
428,273,65260,1,8,0:0:0:0:
359,212,65385,6,0,B|234:225|294:256|173:268,1,192.750007352829,2|2,3:2|0:3,0:0:0:0:
257,332,65760,1,2,0:0:0:0:
178,268,65885,2,0,P|185:221|196:169,1,89.9499972549439,0|0,1:0|0:0,0:0:0:0:
41,20,66135,1,2,0:3:0:0:
0,57,66260,1,10,0:0:0:0:
32,102,66385,6,0,B|96:79|151:55|151:55|168:79|183:108,1,179.899994509888,0|2,3:0|0:3,0:0:0:0:
119,152,66760,1,2,0:2:0:0:
248,46,66885,2,0,P|214:12|167:31,1,89.9499972549439,2|0,1:2|0:0,0:0:0:0:
308,209,67135,2,0,P|350:215|379:183,1,89.9499972549439,2|10,0:3|0:0,0:0:0:0:
503,81,67385,6,0,P|491:26|483:-22,1,96.3750036764146,2|0,3:2|0:0,0:0:0:0:
379,182,67635,1,2,0:3:0:0:
457,228,67760,1,10,0:0:0:0:
388,286,67885,2,0,B|349:269|315:251|315:251|276:266|276:266|245:249|206:233,1,192.750007352829,0|2,1:0|0:3,0:0:0:0:
146,294,68260,1,8,0:3:0:0:
89,227,68385,6,0,P|104:189|152:183,1,89.9499972549439,2|0,3:2|0:0,0:0:0:0:
226,326,68635,1,2,0:3:0:0:
226,326,68760,1,2,0:2:0:0:
161,383,68885,2,0,P|116:370|64:348,1,89.9499972549439,0|0,1:0|0:0,0:0:0:0:
308,272,69135,1,2,0:3:0:0:
356,296,69260,1,8,0:0:0:0:
393,255,69385,6,0,B|380:196|371:146|371:146|320:132|289:198,1,179.899994509888,2|2,3:2|0:3,0:0:0:0:
241,202,69760,1,0,0:0:0:0:
173,80,69885,2,0,P|216:94|268:108,1,89.9499972549439,0|0,1:0|0:0,0:0:0:0:
434,17,70135,5,2,0:0:0:0:
366,47,70260,1,8,0:0:0:0:
439,26,70385,6,0,B|471:-16|471:-16|438:120,1,192.750007352829,6|8,3:2|0:0,0:0:0:0:
497,310,70760,2,0,B|509:284|542:268|542:268|479:293|409:305,1,192.750007352829,6|0,1:2|0:0,0:0:0:0:
205,172,71135,6,0,B|173:133|206:58|290:51|348:152|265:250,1,308.4,6|0,3:2|0:0,0:0:0:0:
194,288,71635,1,0,3:0:0:0:
295,335,71760,1,0,3:0:0:0:
191,282,71885,6,0,B|136:299|136:299|111:327|111:327|46:348,1,157.412495196152,2|0,1:2|0:0,0:0:0:0:
51,346,72385,6,0,P|26:328|50:274,1,96.3750036764146,6|0,3:2|0:0,0:0:0:0:
199,203,72635,2,0,P|224:221|200:275,1,96.3750036764146,2|0,0:3|0:0,0:0:0:0:
0,108,72885,2,0,P|72:84|140:61,1,144.562505514622,2|0,1:2|0:0,0:0:0:0:
137,62,73135,1,2,0:2:0:0:
296,119,73260,6,0,P|309:74|332:27,1,89.9499972549439,10|0,0:0|3:0,0:0:0:0:
130,215,73510,2,0,P|117:170|94:123,1,89.9499972549439,2|2,0:0|0:3,0:0:0:0:
137,62,73760,1,2,0:0:0:0:
282,205,73885,6,0,B|355:210|337:172|422:179,1,134.924995882416,2|0,1:2|0:0,0:0:0:0:
413,179,74135,1,2,0:3:0:0:
487,111,74260,1,8,0:0:0:0:
502,232,74385,6,0,P|486:288|472:348,1,115.649996470642,2|0,3:2|0:0,0:0:0:0:
472,343,74635,2,0,P|440:312|402:321,1,77.0999976470948,2|0,0:3|0:0,0:0:0:0:
188,374,74885,6,0,B|181:356|166:330|166:330|220:354|290:380,1,167.049992353058,2|2,1:2|0:3,0:0:0:0:
338,338,75260,1,10,0:0:0:0:
242,253,75385,6,0,B|210:264|180:269|180:269|159:311|159:311|122:319|83:333,1,179.899994509888,0|2,3:0|0:3,0:0:0:0:
27,380,75760,1,0,0:0:0:0:
102,234,75885,2,0,P|90:191|76:137,1,89.9499972549439,0|0,1:0|0:0,0:0:0:0:
219,21,76135,1,8,0:0:0:0:
123,54,76260,1,8,0:0:0:0:
220,10,76385,6,0,P|275:6|308:88,1,144.562505514622,2|0,3:2|0:0,0:0:0:0:
311,77,76635,1,2,0:3:0:0:
256,142,76760,1,2,0:0:0:0:
439,236,76885,6,0,P|425:169|412:91,1,144.562505514622,2|0,1:2|0:0,0:0:0:0:
412,93,77135,1,2,0:2:0:0:
319,205,77260,6,0,P|362:187|410:170,1,89.9499972549439,10|0,0:0|3:0,0:0:0:0:
261,347,77510,2,0,P|219:329|177:314,1,89.9499972549439,2|2,0:0|0:3,0:0:0:0:
106,339,77760,1,2,0:0:0:0:
50,186,77885,6,0,P|98:178|131:251,1,134.924995882416,2|0,1:2|0:0,0:0:0:0:
132,245,78135,1,2,0:3:0:0:
55,273,78260,1,8,0:0:0:0:
132,245,78385,6,0,P|186:226|242:207,1,115.649996470642,2|0,3:2|0:0,0:0:0:0:
241,207,78635,2,0,P|254:249|234:273,1,77.0999976470948,6|0,0:3|0:0,0:0:0:0:
418,288,78885,2,0,P|374:220|406:147,1,167.049992353058,2|6,1:2|0:3,0:0:0:0:
486,99,79260,1,10,0:0:0:0:
415,42,79385,6,0,B|296:52|364:80|237:93,1,179.899994509888,2|2,3:2|0:3,0:0:0:0:
169,38,79760,1,2,0:0:0:0:
323,114,79885,6,0,P|311:157|301:208,1,89.9499972549439,2|0,1:2|0:0,0:0:0:0:
393,344,80135,1,8,0:0:0:0:
470,300,80260,1,8,0:0:0:0:
308,373,80385,6,0,B|265:355|220:334|220:334|209:356|192:379,1,144.562505514622,6|0,3:2|0:0,0:0:0:0:
194,375,80635,1,2,0:3:0:0:
99,337,80760,1,2,0:0:0:0:
184,272,80885,6,0,B|238:251|238:251|253:220|253:220|317:195,1,144.562505514622,2|0,1:2|0:0,0:0:0:0:
301,201,81135,1,2,0:2:0:0:
238,122,81260,6,0,P|231:162|224:222,1,89.9499972549439,10|0,0:0|3:0,0:0:0:0:
388,251,81510,2,0,P|394:210|402:151,1,89.9499972549439,2|2,0:0|0:3,0:0:0:0:
324,113,81760,1,2,0:0:0:0:
422,8,81885,6,0,P|468:3|509:75,1,134.924995882416,0|0,1:0|0:0,0:0:0:0:
509,71,82135,1,10,0:0:0:0:
439,134,82260,1,10,0:0:0:0:
438,142,82322,1,2,0:0:0:0:
442,154,82385,6,0,P|445:209|493:236,1,115.649996470642,2|0,3:2|0:0,0:0:0:0:
493,236,82635,2,0,P|445:247|412:258,1,77.0999976470948,2|0,0:3|0:0,0:0:0:0:
185,338,82885,6,0,B|177:329|163:318|163:318|205:332|276:353,1,125.287494264794,2|0,1:2|0:0,0:0:0:0:
254,346,83135,1,2,0:2:0:0:
315,286,83260,1,10,0:0:0:0:
245,236,83385,5,0,3:0:0:0:
245,236,83510,2,0,P|206:253|200:299,1,89.9499972549439,2|2,0:0|0:3,0:0:0:0:
254,346,83760,1,2,0:0:0:0:
247,225,83885,2,0,P|181:199|113:175,1,134.924995882416,2|0,1:2|0:0,0:0:0:0:
120,177,84135,1,8,0:0:0:0:
37,150,84260,1,8,0:0:0:0:
151,106,84385,5,2,3:2:0:0:
151,106,84510,2,0,P|136:58|111:11,1,96.3750036764146,0|2,0:0|0:3,0:0:0:0:
335,88,84760,2,0,P|313:130|298:176,1,96.3750036764146,0|2,0:0|1:2,0:0:0:0:
446,297,85010,1,0,0:0:0:0:
502,243,85135,1,2,0:2:0:0:
428,203,85260,6,0,P|397:199|372:251,1,89.9499972549439,10|0,0:0|3:0,0:0:0:0:
455,379,85510,2,0,P|486:383|511:331,1,89.9499972549439,2|2,0:0|0:3,0:0:0:0:
502,243,85760,5,2,0:0:0:0:
355,350,85885,2,0,B|273:314|273:314|251:355,1,134.924995882416,2|0,1:2|0:0,0:0:0:0:
251,353,86135,1,2,0:3:0:0:
188,299,86260,1,8,0:0:0:0:
248,238,86385,6,0,B|271:223|293:214|293:214|228:194|166:171,1,179.899994509888,2|8,3:2|0:0,0:0:0:0:
113,39,86760,2,0,B|88:26|69:12|69:12|84:78|95:143,1,179.899994509888,2|0,0:2|0:0,0:0:0:0:
22,247,87135,2,0,B|23:270|20:291|20:291|64:251|108:214,1,154.19999529419,2|0,0:3|3:0,0:0:0:0:
102,219,87635,1,0,3:0:0:0:
169,270,87760,1,0,3:0:0:0:
282,164,87885,6,0,L|245:2,1,154.19999529419,0|0,1:0|0:0,0:0:0:0:
412,215,88385,6,0,L|378:365,1,154.714006421236,2|0,0:0|0:0,0:0:0:0:
