osu file format v14

[General]
AudioFilename: audio.mp3
AudioLeadIn: 0
PreviewTime: 55760
Countdown: 0
SampleSet: Soft
StackLeniency: 0.2
Mode: 0
LetterboxInBreaks: 0
WidescreenStoryboard: 1

[Editor]
Bookmarks: 8385,16385,24385,32385,40385,46135,48385,54385,56385,58135,64385,72385,80385,81135,88385
DistanceSpacing: 0.5
BeatDivisor: 8
GridSize: 32
TimelineZoom: 2.799999

[Metadata]
Title:Scarlet (TV Size)
TitleUnicode:Scarlet (TV Size)
Artist:DAZBEE
ArtistUnicode:ダズビー
Creator:Xiirn
Version:O K U's Insane
Source:メタリックルージュ
Tags:solarmymommy assassinalpha sanayui not your kitty not_your_kitty o_k_u dt best mod dt_best_mod metallic rouge ed ending japanese j pop jpop j-pop anime 다즈비 female vocal vocals vocalist ed1
BeatmapID:4479130
BeatmapSetID:2129083

[Difficulty]
HPDrainRate:5
CircleSize:4.2
OverallDifficulty:8
ApproachRate:8.8
SliderMultiplier:2.1
SliderTickRate:1

[Events]
//Background and Video events
Video,0,"video.mp4"
0,0,"backgroundamus.jpg",0,0
//Break Periods
//Storyboard Layer 0 (Background)
//Storyboard Layer 1 (Fail)
//Storyboard Layer 2 (Pass)
//Storyboard Layer 3 (Foreground)
//Storyboard Layer 4 (Overlay)
//Storyboard Sound Samples

[TimingPoints]
385,500,4,2,1,50,1,0
385,-200,4,2,1,50,0,0
7885,-100,4,2,1,50,0,0
8010,-133.333333333333,4,2,1,50,0,0
8385,-133.333333333333,4,2,1,60,0,0
14885,-200,4,2,1,60,0,0
15885,-133.333333333333,4,2,1,60,0,0
22510,-100,4,2,1,60,0,0
32385,-100,4,2,1,65,0,0
38385,-200,4,2,1,65,0,0
39385,-133.333333333333,4,2,1,65,0,0
39885,-100,4,2,1,65,0,0
40385,-100,4,2,2,50,0,0
54385,-166.666666666667,4,2,1,50,0,0
54447,-166.666666666667,4,2,1,5,0,0
55885,-500,4,2,1,50,0,0
56385,-83.3333333333333,4,2,1,80,0,0
57385,-66.6666666666667,4,2,1,80,0,0
58135,-83.3333333333333,4,2,1,80,0,0
59385,-66.6666666666667,4,2,1,80,0,0
60135,-83.3333333333333,4,2,1,80,0,0
60385,-76.9230769230769,4,2,1,80,0,0
62385,-83.3333333333333,4,2,1,80,0,0
64385,-76.9230769230769,4,2,1,80,0,0
65385,-66.6666666666667,4,2,1,80,0,0
66135,-83.3333333333333,4,2,1,80,0,0
67385,-66.6666666666667,4,2,1,80,0,0
68385,-76.9230769230769,4,2,1,80,0,0
70385,-66.6666666666667,4,2,1,80,0,1
70510,-66.6666666666667,4,2,1,80,0,0
70760,-66.6666666666667,4,2,1,80,0,1
71010,-66.6666666666667,4,2,1,80,0,0
71135,-66.6666666666667,4,2,1,80,0,1
71510,-66.6666666666667,4,2,1,80,0,0
71885,-100,4,2,1,80,0,0
72385,-83.3333333333333,4,2,1,80,0,0
76385,-66.6666666666667,4,2,1,80,0,0
78135,-83.3333333333333,4,2,1,80,0,0
79885,-66.6666666666667,4,2,1,80,0,0
82135,-83.3333333333333,4,2,1,80,0,0
84385,-66.6666666666667,4,2,1,80,0,0
86385,-71.4285714285714,4,2,1,80,0,0
86760,-76.9230769230769,4,2,1,80,0,0
87135,-83.3333333333333,4,2,1,80,0,0
88385,-200,4,2,1,50,0,1
88447,-200,4,2,1,5,0,1
89260,-200,4,2,1,45,0,0

[Colours]
Combo1 : 168,170,164
Combo2 : 175,201,152
Combo3 : 199,199,199
Combo4 : 180,166,208

[HitObjects]
480,376,385,5,2,0:0:0:0:
354,302,635,2,0,P|348:295|344:287,2,17.5,2|0|0,0:0|0:0|0:0,0:0:0:0:
413,255,885,6,0,B|365:233|324:265|336:291|293:310|242:284,1,183.75
236,274,1885,1,2,0:0:0:0:
106,335,2135,1,2,0:0:0:0:
303,375,2385,1,2,0:0:0:0:
141,243,2635,1,2,0:0:0:0:
141,243,2885,6,0,P|149:219|149:193,3,52.5
200,352,3885,1,2,0:0:0:0:
64,228,4135,1,2,0:0:0:0:
219,153,4385,1,2,0:0:0:0:
91,307,4635,1,2,0:0:0:0:
91,307,4885,6,0,P|95:332|90:358,3,52.5
141,243,5885,1,2,0:0:0:0:
12,305,6135,1,2,0:0:0:0:
171,320,6385,1,2,0:0:0:0:
22,169,6635,1,2,0:0:0:0:
22,169,6885,6,0,L|40:102,1,52.5
8,185,7385,2,0,L|14:205,2,13.125
106,256,7885,6,0,L|98:281,1,26.25,0|0,3:0|0:0,0:0:0:0:
148,336,8010,2,0,L|121:261,1,78.7500030040742,0|0,3:0|0:0,0:0:0:0:
170,189,8385,6,0,P|193:177|248:187,2,78.7500030040742,0|0|0,3:2|0:2|3:0,0:0:0:0:
291,256,9135,2,0,L|286:280,1,19.6875007510186,2|0,0:2|0:0,0:0:0:0:
431,184,9385,2,0,P|415:147|414:108,1,78.7500030040742,2|0,3:2|0:0,0:0:0:0:
341,75,9760,1,0,0:0:0:0:
341,75,9885,2,0,P|356:38|357:0,1,78.7500030040742,2|2,3:2|0:2,0:0:0:0:
218,109,10385,2,0,L|247:197,1,78.7500030040742,2|2,3:2|0:2,0:0:0:0:
216,271,10760,2,0,B|186:230|219:179|235:191|265:136|224:79,1,196.875007510186,2|0,0:2|3:0,0:0:0:0:
228,280,11635,1,0,0:0:0:0:
125,232,11885,1,0,3:2:0:0:
243,288,12135,6,0,B|319:251|319:251|354:257,1,118.125004506111,2|0,0:2|0:0,0:0:0:0:
429,243,12635,2,0,P|428:281|406:313,1,78.7500030040742,2|0,0:2|3:0,0:0:0:0:
375,187,13135,1,2,0:2:0:0:
454,374,13385,1,2,3:2:0:0:
297,197,13635,2,0,P|294:177|299:158,1,39.3750015020371,2|0,0:2|0:0,0:0:0:0:
352,256,13885,1,0,3:2:0:0:
112,235,14135,1,2,0:2:0:0:
107,249,14260,1,0,0:0:0:0:
114,260,14385,2,0,L|207:235,1,78.7500030040742,2|2,3:2|0:2,0:0:0:0:
262,284,14760,1,2,0:2:0:0:
262,284,14885,6,0,P|262:309|245:336,3,52.5,0|0|0|0,3:0|0:0|3:0|0:0,0:0:0:0:
363,384,15885,2,0,P|341:351|342:312,1,78.7500030040742,0|0,3:2|0:2,0:0:0:0:
385,180,16385,2,0,P|406:212|405:251,2,78.7500030040742,0|0|0,3:2|0:2|3:0,0:0:0:0:
429,330,17135,2,0,L|448:337,1,19.6875007510186,2|0,0:2|0:0,0:0:0:0:
265,355,17385,6,0,P|232:334|193:330,1,78.7500030040742,2|0,3:2|0:0,0:0:0:0:
119,278,17760,1,0,0:0:0:0:
119,278,17885,2,0,P|86:298|47:302,1,78.7500030040742,2|2,3:2|0:2,0:0:0:0:
0,234,18260,1,0,0:0:0:0:
0,234,18385,1,2,3:2:0:0:
254,139,18635,2,1,B|300:188|287:294|194:330|194:330|223:293|210:253,1,315.000012016297,2|0,0:2|0:0,0:0:0:0:
315,349,19885,1,0,3:2:0:0:
113,246,20135,1,2,0:2:0:0:
117,230,20260,1,0,0:0:0:0:
137,224,20385,6,0,L|223:260,1,78.7500030040742,2|0,3:2|0:2,0:0:0:0:
285,217,20760,1,2,0:0:0:0:
285,217,20885,1,0,3:0:0:0:
106,327,21135,1,2,0:0:0:0:
359,266,21385,2,0,P|376:211|351:159,1,118.125004506111,2|0,3:2|0:0,0:0:0:0:
279,114,21885,2,0,L|242:127,1,39.3750015020371,0|0,3:2|0:0,0:0:0:0:
190,195,22135,2,0,L|153:181,1,39.3750015020371,2|0,0:2|0:0,0:0:0:0:
80,271,22385,1,2,3:2:0:0:
80,271,22510,6,0,P|110:199|101:121,1,157.5,2|0,0:0|3:0,0:0:0:0:
20,102,23010,2,0,P|42:56|94:41,1,105
166,73,23385,1,2,3:2:0:0:
29,191,23635,2,0,L|-6:179,1,26.25,2|0,0:2|0:0,0:0:0:0:
176,154,23885,1,0,3:2:0:0:
37,201,24135,1,0,0:2:0:0:
215,315,24385,6,0,B|370:254|370:254|411:266,1,210,0|0,3:2|3:0,0:0:0:0:
141,342,25135,1,2,0:0:0:0:
285,260,25385,1,0,3:0:0:0:
295,252,25510,2,0,P|308:202|286:155,1,105,2|0,0:0|0:0,0:0:0:0:
207,104,25885,1,2,3:2:0:0:
197,96,26010,2,0,P|183:46|205:0,1,105
294,40,26385,2,0,L|393:6,1,105,2|2,3:2|0:2,0:0:0:0:
196,195,26885,1,0,3:0:0:0:
181,201,27010,2,0,L|123:176,1,52.5,2|0,0:0|0:0,0:0:0:0:
83,263,27260,2,0,L|290:190,1,210,2|0,0:0|0:0,0:0:0:0:
352,238,27885,1,0,3:2:0:0:
433,121,28135,6,0,P|438:95|429:71,1,52.5,2|0,0:2|0:0,0:0:0:0:
290,36,28385,2,0,B|365:22|365:22|414:41|414:41|502:25,1,210,2|0,3:2|3:0,0:0:0:0:
356,153,29135,1,2,0:0:0:0:
279,26,29385,2,0,L|124:56,1,157.5,2|0,3:2|0:0,0:0:0:0:
53,8,29885,1,2,3:2:0:0:
0,219,30135,2,0,P|74:209|100:139,1,157.5,2|0,0:2|0:0,0:0:0:0:
118,266,30760,2,0,P|71:205|91:132,1,157.5,2|0,0:2|0:0,0:0:0:0:
282,25,31385,1,0,3:0:0:0:
218,159,31635,2,0,L|199:104,1,52.5,0|2,0:0|0:2,0:0:0:0:
274,43,31885,1,2,3:2:0:0:
267,60,32010,2,0,L|232:159,1,105,2|0,0:2|0:0,0:0:0:0:
293,237,32385,6,0,P|372:237|412:172,1,157.5,2|0,3:2|0:0,0:0:0:0:
345,110,32885,1,0,3:0:0:0:
494,248,33135,5,2,0:2:0:0:
337,102,33385,2,0,L|353:37,1,52.5,2|0,3:2|0:0,0:0:0:0:
238,125,33635,1,2,0:0:0:0:
230,133,33760,2,0,L|246:198,1,52.5,2|2,0:0|3:2,0:0:0:0:
123,102,34010,2,0,L|139:37,1,52.5,0|2,0:0|0:2,0:0:0:0:
16,133,34260,1,0,0:0:0:0:
16,133,34385,2,0,B|34:206|34:206|21:241,1,105,2|0,3:2|0:2,0:0:0:0:
220,380,34885,2,0,P|266:378|339:292,1,157.5,2|0,3:2|0:0,0:0:0:0:
450,302,35385,2,0,P|404:300|331:214,1,157.5,2|0,3:2|0:0,0:0:0:0:
220,224,35885,2,0,P|266:222|339:136,1,157.5,2|0,3:2|0:0,0:0:0:0:
294,69,36385,6,0,L|335:234,1,157.5,2|0,3:2|0:0,0:0:0:0:
398,255,36885,1,0,3:0:0:0:
195,373,37135,1,2,0:2:0:0:
184,357,37260,2,0,B|201:269|201:269|168:196|168:196|190:77|190:77|195:127|235:149,1,367.5,0|0,0:2|0:2,0:0:0:0:
173,345,38385,2,0,P|134:323|67:330,1,105,0|0,3:2|3:0,0:0:0:0:
0,384,39135,1,0,0:0:0:0:
158,228,39385,2,0,L|119:111,1,118.125004506111,2|0,3:2|0:0,0:0:0:0:
219,159,39885,2,0,L|166:317,1,157.5,2|0,3:2|0:0,0:0:0:0:
246,366,40385,6,0,P|281:368|329:311,1,105,8|0,0:3|0:0,0:0:0:0:
281,253,40760,1,2,0:0:0:0:
281,253,40885,1,8,3:0:0:0:
420,364,41135,1,4,3:0:0:0:
290,223,41385,1,2,0:0:0:0:
299,193,41510,1,0,0:0:0:0:
308,163,41635,1,8,3:0:0:0:
308,163,41885,5,4,3:0:0:0:
109,252,42135,1,2,0:0:0:0:
103,272,42260,1,0,0:0:0:0:
115,288,42385,6,0,P|161:294|206:254,1,105,2|0,3:2|0:0,0:0:0:0:
220,175,42760,1,2,0:0:0:0:
220,175,42885,1,8,3:0:0:0:
436,269,43135,2,0,B|374:258|374:258|344:232|344:232|281:221,1,157.5,4|0,3:0|0:0,0:0:0:0:
190,184,43635,1,8,3:0:0:0:
160,193,43760,1,0,0:0:0:0:
130,202,43885,2,0,P|107:167|108:135,1,52.5,4|0,3:0|0:0,0:0:0:0:
291,95,44135,2,0,P|283:120|266:139,1,52.5,2|0,0:0|0:0,0:0:0:0:
158,269,44385,6,0,L|41:226,1,105,4|2,3:0|0:0,0:0:0:0:
0,291,44760,1,2,0:0:0:0:
0,291,44885,1,8,3:0:0:0:
0,291,45135,5,4,3:0:0:0:
158,15,45635,1,8,3:0:0:0:
178,9,45760,1,2,0:0:0:0:
194,22,45885,2,0,L|171:92,1,52.5,4|0,3:0|0:0,0:0:0:0:
89,128,46135,2,0,L|112:198,1,52.5,2|0,0:0|0:0,0:0:0:0:
251,294,46385,6,0,P|211:326|160:321,1,105,4|0,3:0|0:0,0:0:0:0:
94,280,46760,1,2,0:0:0:0:
94,280,46885,1,8,3:0:0:0:
94,280,47135,5,4,3:0:0:0:
313,366,47385,1,2,0:0:0:0:
103,250,47635,1,8,3:0:0:0:
112,220,47760,1,0,0:0:0:0:
121,190,47885,1,4,3:0:0:0:
246,140,48135,1,0,0:0:0:0:
261,156,48260,1,0,0:0:0:0:
253,176,48385,6,0,B|87:132|87:132|39:149,1,210,4|8,3:0|3:0,0:0:0:0:
303,272,49135,1,4,3:0:0:0:
129,356,49385,1,2,0:0:0:0:
108,360,49510,1,0,0:0:0:0:
92,345,49635,2,0,L|108:295,1,52.5,8|0,3:0|0:0,0:0:0:0:
181,210,49885,2,0,L|148:109,1,105,4|0,3:0|0:0,0:0:0:0:
209,35,50260,1,0,0:0:0:0:
209,35,50385,5,4,3:0:0:0:
364,136,50635,1,2,0:0:0:0:
394,127,50760,1,2,0:0:0:0:
424,118,50885,1,8,3:0:0:0:
424,118,51135,5,4,3:0:0:0:
250,138,51385,2,0,P|232:186|251:234,1,105,2|8,0:0|3:0,0:0:0:0:
329,304,51760,1,0,0:0:0:0:
329,304,51885,2,0,P|258:270|180:260,1,157.5,4|0,3:0|0:0,0:0:0:0:
106,313,52385,5,4,3:0:0:0:
0,173,52635,1,2,0:0:0:0:
9,143,52760,1,2,0:0:0:0:
18,113,52885,1,8,3:0:0:0:
18,113,53135,5,4,3:0:0:0:
212,234,53635,2,0,L|273:208,1,52.5,8|0,3:0|0:0,0:0:0:0:
430,189,53885,1,4,3:0:0:0:
419,198,54010,2,0,L|326:158,1,78.75,2|0,0:0|0:0,0:0:0:0:
301,282,54301,1,0,0:0:0:0:
301,282,54385,6,0,B|259:216|310:145|347:173|391:103|334:23|334:23|339:55|313:85,1,346.49998942566,2|0,0:0|0:0,0:0:0:0:
229,37,55885,2,0,L|258:26,1,31.5
214,135,56385,6,0,L|133:103,1,62.9999980773926,6|0,3:2|0:0,0:0:0:0:
53,243,56635,2,0,L|134:211,1,62.9999980773926,2|0,0:0|0:0,0:0:0:0:
214,351,56885,2,0,L|133:319,1,62.9999980773926,2|0,1:2|0:0,0:0:0:0:
295,298,57135,1,2,0:3:0:0:
332,310,57260,1,10,0:0:0:0:
363,278,57385,2,0,B|313:100|313:100|342:58,1,236.250009012223,2|2,3:2|0:0,0:0:0:0:
266,0,57885,1,2,1:2:0:0:
380,195,58135,2,0,P|395:191|408:183,2,31.4999990386963,2|0|8,0:3|0:0|0:0,0:0:0:0:
363,278,58385,6,0,P|311:241|251:226,1,125.999996154785,2|2,3:2|0:3,0:0:0:0:
181,273,58760,1,2,0:2:0:0:
187,288,58885,2,0,L|214:355,1,62.9999980773926,2|0,1:2|0:0,0:0:0:0:
96,241,59135,1,2,0:3:0:0:
114,202,59260,1,8,0:0:0:0:
137,159,59385,2,0,P|114:128|61:121,1,78.7500030040742,2|0,3:2|0:0,0:0:0:0:
158,11,59635,1,2,0:3:0:0:
194,41,59760,1,2,0:0:0:0:
247,36,59885,2,0,L|331:-3,1,78.7500030040742,0|0,1:0|0:0,0:0:0:0:
423,54,60135,6,0,L|409:104,1,31.4999990386963,2|0,0:3|0:0,0:0:0:0:
403,100,60260,6,0,L|417:150,1,31.4999990386963,8|0,0:3|0:0,0:0:0:0:
424,144,60385,6,0,B|416:193|416:193|393:216|393:216|385:270,1,136.499993751526,2|2,3:2|0:3,0:0:0:0:
435,344,60760,1,0,0:3:0:0:
452,355,60885,2,0,P|491:335|506:298,1,68.2499968757631,2|0,1:2|0:0,0:0:0:0:
370,257,61135,1,2,0:3:0:0:
345,257,61260,1,8,0:0:0:0:
330,272,61385,2,0,L|352:338,1,68.2499968757631,2|0,3:2|0:0,0:0:0:0:
239,175,61635,2,0,L|217:239,1,68.2499968757631,2|0,0:3|0:0,0:0:0:0:
330,78,61885,2,0,L|352:144,1,68.2499968757631,0|0,1:0|0:0,0:0:0:0:
480,69,62135,1,2,0:3:0:0:
499,36,62260,1,2,0:0:0:0:
481,0,62385,6,0,P|450:-6|420:0,1,62.9999980773926,2|0,3:2|0:0,0:0:0:0:
301,67,62635,1,6,0:3:0:0:
268,54,62760,1,8,0:0:0:0:
235,41,62885,2,0,L|161:8,1,62.9999980773926,2|0,1:2|0:0,0:0:0:0:
78,67,63135,1,6,0:3:0:0:
71,85,63260,1,8,0:0:0:0:
65,103,63385,2,0,B|51:139|70:166|80:158|97:190|80:221,2,125.999996154785,0|2|0,3:0|3:2|1:0,0:0:0:0:
0,271,64135,2,0,P|29:303|68:313,1,62.9999980773926,8|8,0:2|0:2,0:0:0:0:
180,384,64385,6,0,P|211:358|258:352,1,68.2499968757631,6|0,3:2|0:0,0:0:0:0:
387,282,64635,2,0,P|348:268|320:230,1,68.2499968757631,2|0,0:3|0:0,0:0:0:0:
196,154,64885,2,0,P|203:193|184:237,1,68.2499968757631,2|0,1:2|0:0,0:0:0:0:
340,106,65135,1,2,0:3:0:0:
353,67,65260,1,8,0:0:0:0:
319,38,65385,2,0,B|269:66|269:66|175:29,1,157.500006008148,2|2,3:2|0:3,0:0:0:0:
29,146,65885,2,0,P|34:194|90:215,1,78.7500030040742,0|0,1:0|0:0,0:0:0:0:
181,322,66135,6,0,L|213:308,1,31.4999990386963,2|0,0:3|0:0,0:0:0:0:
223,294,66260,6,0,L|255:308,1,31.4999990386963,10|0,0:0|0:0,0:0:0:0:
274,302,66385,6,0,P|311:250|285:194,1,125.999996154785,0|2,3:0|0:3,0:0:0:0:
139,174,66760,1,2,0:2:0:0:
153,179,66885,2,0,L|224:154,1,62.9999980773926,2|0,1:2|0:0,0:0:0:0:
330,12,67135,1,2,0:3:0:0:
286,10,67260,1,10,0:0:0:0:
265,36,67385,2,0,L|291:126,1,78.7500030040742,2|0,3:2|0:0,0:0:0:0:
406,193,67635,1,2,0:3:0:0:
420,237,67760,1,10,0:0:0:0:
390,273,67885,2,0,P|354:256|315:252,1,78.7500030040742,0|0,1:0|0:0,0:0:0:0:
192,301,68135,1,2,0:3:0:0:
232,363,68260,1,8,0:3:0:0:
184,291,68385,6,0,L|214:148,1,136.499993751526,2|2,3:2|0:3,0:0:0:0:
160,82,68760,1,2,0:2:0:0:
148,65,68885,2,0,P|106:52|70:68,1,68.2499968757631,0|0,1:0|0:0,0:0:0:0:
35,203,69135,1,2,0:3:0:0:
57,233,69260,1,8,0:0:0:0:
97,231,69385,2,0,B|243:169|243:169|312:190,1,204.749990627289,2|0,3:2|0:0,0:0:0:0:
365,235,69885,1,0,1:0:0:0:
452,88,70135,1,2,0:0:0:0:
441,49,70260,1,8,0:0:0:0:
406,40,70385,6,0,L|329:66,1,78.7500030040742,6|0,3:2|0:0,0:0:0:0:
287,182,70635,1,8,0:0:0:0:
389,131,70760,6,0,L|238:80,1,157.500006008148,6|0,1:2|0:0,0:0:0:0:
160,138,71135,6,0,B|120:203|160:262|191:235|221:301|180:361,1,236.250009012223,6|0,3:2|0:0,0:0:0:0:
74,362,71635,1,0,3:0:0:0:
60,345,71760,1,0,3:0:0:0:
73,329,71885,1,2,1:2:0:0:
73,329,72135,5,0,0:0:0:0:
383,358,72385,6,0,L|348:235,1,125.999996154785,6|2,3:2|0:3,0:0:0:0:
404,169,72760,1,0,0:0:0:0:
411,157,72885,2,0,P|439:143|470:143,1,62.9999980773926,2|0,1:2|0:0,0:0:0:0:
272,76,73135,1,2,0:2:0:0:
279,88,73260,2,0,P|307:101|338:101,1,62.9999980773926,10|0,0:0|3:0,0:0:0:0:
147,157,73510,2,0,P|175:143|206:143,1,62.9999980773926,2|2,0:0|0:3,0:0:0:0:
8,76,73760,1,2,0:0:0:0:
15,88,73885,2,0,P|43:101|74:101,1,62.9999980773926,2|0,1:2|0:0,0:0:0:0:
220,156,74135,1,2,0:3:0:0:
232,170,74260,1,8,0:0:0:0:
244,185,74385,6,0,B|236:232|236:232|214:263|214:263|208:303,1,125.999996154785,2|2,3:2|0:3,0:0:0:0:
271,368,74760,1,0,0:0:0:0:
289,366,74885,2,0,P|312:346|324:317,1,62.9999980773926,2|0,1:2|0:0,0:0:0:0:
478,256,75135,1,2,0:3:0:0:
452,274,75260,1,10,0:0:0:0:
420,273,75385,2,0,P|396:253|401:145,1,125.999996154785,0|2,3:0|0:3,0:0:0:0:
440,83,75760,1,0,0:0:0:0:
453,78,75885,2,0,L|521:103,1,62.9999980773926,0|0,1:0|0:0,0:0:0:0:
355,0,76135,1,8,0:0:0:0:
306,16,76260,1,8,0:0:0:0:
257,32,76385,6,0,P|210:30|184:4,1,78.7500030040742,2|0,3:2|0:0,0:0:0:0:
37,68,76635,1,2,0:3:0:0:
29,90,76760,1,2,0:0:0:0:
40,110,76885,2,0,P|87:108|113:82,1,78.7500030040742,2|0,1:2|0:0,0:0:0:0:
267,179,77135,1,2,0:2:0:0:
257,188,77260,2,0,P|210:186|184:160,1,78.7500030040742,10|0,0:0|3:0,0:0:0:0:
40,266,77510,2,0,P|87:264|113:238,1,78.7500030040742,2|2,0:0|0:3,0:0:0:0:
267,335,77760,1,2,0:0:0:0:
257,344,77885,2,0,P|210:342|184:316,1,78.7500030040742,2|0,1:2|0:0,0:0:0:0:
364,264,78135,1,2,0:3:0:0:
394,273,78260,1,8,0:0:0:0:
423,283,78385,6,0,L|390:161,1,125.999996154785,2|6,3:2|0:3,0:0:0:0:
302,84,78760,1,0,0:0:0:0:
287,77,78885,2,0,L|207:107,1,62.9999980773926,2|0,1:2|0:0,0:0:0:0:
95,219,79135,1,6,0:3:0:0:
74,195,79260,1,10,0:0:0:0:
92,169,79385,2,0,L|228:204,1,125.999996154785,2|2,3:2|0:3,0:0:0:0:
278,276,79760,1,2,0:0:0:0:
356,220,79885,2,0,L|315:56,1,157.500006008148,2|8,1:2|0:0,0:0:0:0:
380,14,80260,1,8,0:0:0:0:
454,66,80385,6,0,P|442:115|405:136,1,78.7500030040742,6|0,3:2|0:0,0:0:0:0:
308,151,80635,1,2,0:3:0:0:
256,130,80760,1,2,0:0:0:0:
204,109,80885,2,0,L|245:7,1,78.7500030040742,2|0,1:2|0:0,0:0:0:0:
129,208,81135,1,2,0:2:0:0:
108,192,81260,2,0,L|67:90,1,78.7500030040742,10|0,0:0|3:0,0:0:0:0:
204,275,81510,2,0,L|245:173,1,78.7500030040742,2|2,0:0|0:3,0:0:0:0:
129,374,81760,1,2,0:0:0:0:
108,358,81885,2,0,L|67:256,1,78.7500030040742,0|0,1:0|0:0,0:0:0:0:
241,367,82135,1,10,0:0:0:0:
263,377,82260,1,10,0:0:0:0:
285,384,82385,6,0,P|339:354|346:294,1,125.999996154785,2|2,3:2|0:3,0:0:0:0:
441,244,82760,1,0,0:0:0:0:
424,240,82885,2,0,P|400:206|407:170,1,62.9999980773926,2|0,1:2|0:0,0:0:0:0:
498,76,83135,1,2,0:2:0:0:
512,103,83260,1,10,0:0:0:0:
490,126,83385,2,0,L|351:85,1,125.999996154785,0|2,3:0|0:3,0:0:0:0:
289,147,83760,1,2,0:0:0:0:
276,164,83885,2,0,L|300:237,1,62.9999980773926,2|0,1:2|0:0,0:0:0:0:
180,110,84135,2,0,L|204:37,1,62.9999980773926,8|8,0:0|0:0,0:0:0:0:
107,0,84385,5,2,3:2:0:0:
46,76,84510,2,0,P|72:116|72:156,1,78.7500030040742,0|2,0:0|0:3,0:0:0:0:
146,235,84760,2,0,P|120:275|119:315,1,78.7500030040742,0|2,0:0|1:2,0:0:0:0:
36,84,85010,2,0,P|62:124|62:164,1,78.7500030040742,0|2,0:0|0:2,0:0:0:0:
26,240,85260,1,10,0:0:0:0:
161,239,85385,6,0,L|320:291,1,157.500006008148,0|2,3:0|0:3,0:0:0:0:
397,342,85760,1,2,0:0:0:0:
323,297,85885,2,0,P|314:259|332:225,1,78.7500030040742,2|0,1:2|0:0,0:0:0:0:
445,129,86135,1,2,0:3:0:0:
460,92,86260,1,8,0:0:0:0:
439,61,86385,2,0,L|347:89,1,73.4999977569581,2|0,3:2|0:0,0:0:0:0:
261,130,86635,1,8,0:0:0:0:
228,119,86760,1,2,0:2:0:0:
194,110,86885,2,0,P|177:148|186:184,1,68.2499968757631,0|0,1:0|0:0,0:0:0:0:
323,297,87135,6,0,B|414:264|414:264|455:278,2,125.999996154785,2|0|0,0:3|3:0|3:0,0:0:0:0:
233,368,87760,1,0,3:0:0:0:
310,307,87885,2,0,B|297:232|297:232|272:201|272:201|259:126,1,188.999994232178,0|0,1:0|0:0,0:0:0:0:
355,84,88385,6,0,B|315:56|273:81|286:104|225:122|180:78,1,183.75,2|0,0:0|0:0,0:0:0:0:
