osu file format v14

[General]
AudioFilename: audio.mp3
AudioLeadIn: 0
PreviewTime: 55760
Countdown: 0
SampleSet: Soft
StackLeniency: 0.7
Mode: 0
LetterboxInBreaks: 0
WidescreenStoryboard: 1

[Editor]
Bookmarks: 8385,16385,24385,32385,40385,48385,56385,58135,64385,72385,80385,88385
DistanceSpacing: 1.3
BeatDivisor: 8
GridSize: 8
TimelineZoom: 2.799999

[Metadata]
Title:Scarlet (TV Size)
TitleUnicode:Scarlet (TV Size)
Artist:DAZBEE
ArtistUnicode:ダズビー
Creator:Xiirn
Version:Normal
Source:メタリックルージュ
Tags:solarmymommy assassinalpha sanayui not your kitty not_your_kitty o_k_u dt best mod dt_best_mod metallic rouge ed ending japanese j pop jpop j-pop anime 다즈비 female vocal vocals vocalist ed1
BeatmapID:4476789
BeatmapSetID:2129083

[Difficulty]
HPDrainRate:3.2
CircleSize:3.4
OverallDifficulty:4
ApproachRate:5.5
SliderMultiplier:1.2
SliderTickRate:1

[Events]
//Background and Video events
Video,0,"video.mp4"
0,0,"backgroundamus.jpg",0,0
//Break Periods
//Storyboard Layer 0 (Background)
//Storyboard Layer 1 (Fail)
//Storyboard Layer 2 (Pass)
//Storyboard Layer 3 (Foreground)
//Storyboard Layer 4 (Overlay)
//Storyboard Sound Samples

[TimingPoints]
385,500,4,2,1,50,1,0
385,-125,4,2,1,50,0,0
8385,-100,4,2,1,60,0,0
32385,-100,4,2,1,65,0,0
40385,-100,4,2,2,50,0,0
54385,-100,4,2,1,50,0,0
54447,-100,4,2,1,5,0,0
55885,-100,4,2,1,50,0,0
56385,-83.3333333333333,4,2,1,80,0,1
71885,-83.3333333333333,4,2,1,80,0,0
72385,-83.3333333333333,4,2,1,80,0,1
88385,-83.3333333333333,4,2,1,50,0,0
88447,-83.3333333333333,4,2,1,5,0,0
89260,-83.3333333333333,4,2,1,45,0,0

[Colours]
Combo1 : 168,170,164
Combo2 : 175,201,152
Combo3 : 199,199,199
Combo4 : 180,166,208

[HitObjects]
101,362,8385,6,0,P|96:328|90:290,1,60,0|0,3:2|0:2,0:0:0:0:
35,248,8885,2,0,P|40:214|46:176,1,60,0|2,3:0|0:2,0:0:0:0:
93,128,9385,2,0,B|152:101|149:135|231:98,1,120,2|2,3:2|3:2,0:0:0:0:
247,38,10135,1,2,0:2:0:0:
247,38,10385,2,0,P|275:42|295:73,1,60,2|2,3:2|0:2,0:0:0:0:
328,83,10760,2,0,L|316:181,1,89.9999999999999,2|0,0:2|0:0,0:0:0:0:
247,208,11385,2,0,L|254:272,1,60,0|0,3:0|0:0,0:0:0:0:
312,319,11885,1,0,3:2:0:0:
457,375,12385,6,0,P|496:346|467:278,1,120,0|0,3:2|3:0,0:0:0:0:
432,221,13135,2,0,L|364:242,2,60,2|2|2,0:2|3:2|0:2,0:0:0:0:
466,151,13885,1,0,3:2:0:0:
489,76,14135,1,2,0:2:0:0:
489,76,14385,2,0,P|470:47|437:41,1,60,2|2,3:2|0:2,0:0:0:0:
419,12,14760,2,0,L|322:40,1,89.9999999999999,2|0,0:2|0:0,0:0:0:0:
282,96,15385,2,0,L|207:74,1,60,0|0,3:0|0:0,0:0:0:0:
171,22,15885,1,0,3:2:0:0:
39,105,16385,6,0,P|49:136|59:170,1,60,0|0,3:2|0:2,0:0:0:0:
122,205,16885,2,0,P|112:236|102:270,1,60,0|2,3:0|0:2,0:0:0:0:
149,326,17385,2,0,B|211:336|206:303|271:314,1,120,2|2,3:2|3:2,0:0:0:0:
328,266,18135,1,2,0:2:0:0:
328,266,18385,2,0,P|331:229|310:202,1,60,2|2,3:2|0:2,0:0:0:0:
357,141,18885,2,0,L|341:76,1,60,0|0,3:0|0:0,0:0:0:0:
418,63,19385,2,0,L|434:128,1,60,0|0,3:0|0:0,0:0:0:0:
414,197,19885,1,0,3:2:0:0:
278,119,20385,6,0,L|177:98,1,89.9999999999999,2|2,3:2|0:0,0:0:0:0:
164,70,20885,2,0,P|129:82|122:109,1,60,0|2,3:0|0:0,0:0:0:0:
58,146,21385,2,0,L|93:277,1,120,2|0,3:2|3:2,0:0:0:0:
43,325,22135,1,2,0:2:0:0:
109,374,22385,2,0,B|155:361|155:361|161:365|161:365|223:347,1,120,2|0,3:2|3:0,0:0:0:0:
271,286,23135,2,0,P|269:253|249:238,1,60,2|2,0:0|3:2,0:0:0:0:
174,214,23635,1,2,0:2:0:0:
98,194,23885,1,0,3:2:0:0:
202,78,24385,6,0,P|229:70|258:84,1,60,0|0,3:2|0:2,0:0:0:0:
330,110,24885,2,0,L|309:234,1,120,0|0,3:0|3:0,0:0:0:0:
237,257,25635,1,0,0:0:0:0:
237,257,25885,2,0,L|247:319,1,60,2|2,3:2|0:2,0:0:0:0:
188,368,26385,6,0,P|151:360|116:315,1,90,2|0,3:2|0:0,0:0:0:0:
52,279,27010,2,0,P|46:254|68:220,1,60,2|2,0:0|0:0,0:0:0:0:
91,200,27385,1,0,3:2:0:0:
125,47,27885,1,0,3:2:0:0:
300,20,28385,6,0,B|361:4|356:50|422:35,1,120,2|0,3:2|3:0,0:0:0:0:
491,71,29135,1,2,0:0:0:0:
491,71,29385,2,0,P|505:92|486:130,1,60,2|0,3:2|0:0,0:0:0:0:
444,182,29885,2,0,P|430:203|449:241,1,60,2|2,3:2|0:2,0:0:0:0:
504,279,30385,2,0,L|464:368,1,90,0|2,3:2|0:2,0:0:0:0:
428,354,30885,2,0,L|361:339,1,60,0|0,3:2|0:0,0:0:0:0:
312,289,31385,1,0,3:0:0:0:
312,289,31635,1,0,0:0:0:0:
239,319,31885,1,2,3:2:0:0:
83,268,32385,6,0,P|75:205|65:142,1,120,2|0,3:2|3:0,0:0:0:0:
17,87,33135,1,2,0:2:0:0:
17,87,33385,2,0,P|33:63|73:58,1,60,2|2,3:2|0:0,0:0:0:0:
88,26,33760,2,0,L|180:52,1,90,2|2,0:0|0:2,0:0:0:0:
246,100,34385,2,0,B|313:100|296:75|371:73,1,120,2|2,3:2|3:2,0:0:0:0:
429,122,35135,1,0,0:0:0:0:
429,122,35385,2,0,L|418:182,1,60,2|0,3:2|0:0,0:0:0:0:
480,228,35885,2,0,L|491:288,1,60,2|0,3:2|0:2,0:0:0:0:
447,352,36385,6,0,L|326:325,1,120,2|0,3:2|3:0,0:0:0:0:
279,266,37135,1,2,0:2:0:0:
279,266,37385,2,0,L|217:283,1,60,2|0,3:2|0:0,0:0:0:0:
175,345,37885,1,0,3:2:0:0:
46,257,38385,2,0,P|13:217|42:163,1,120,0|0,3:2|3:0,0:0:0:0:
110,125,39135,1,0,0:0:0:0:
110,125,39385,2,0,P|129:101|112:69,1,60,2|0,3:2|0:0,0:0:0:0:
60,25,39885,1,2,3:2:0:0:
215,0,40385,6,0,L|305:24,2,90,8|2|4,0:3|0:0|3:0,0:0:0:0:
137,11,41385,1,2,0:0:0:0:
267,205,42135,1,2,0:0:0:0:
267,205,42385,2,0,P|292:187|286:127,2,90,2|2|4,3:2|0:0|3:0,0:0:0:0:
204,251,43385,1,0,0:0:0:0:
95,363,43885,1,4,3:0:0:0:
95,363,44135,1,2,0:0:0:0:
95,363,44385,6,0,B|70:368|70:368|0:347,2,90,4|2|4,3:0|0:0|3:0,0:0:0:0:
239,303,45635,1,8,3:0:0:0:
239,303,45885,1,4,3:0:0:0:
316,333,46135,1,2,0:0:0:0:
316,333,46385,2,0,L|408:313,2,90,4|2|4,3:0|0:0|3:0,0:0:0:0:
239,303,47385,2,0,P|224:282|254:198,1,120,2|4,0:0|3:0,0:0:0:0:
380,113,48385,6,0,L|364:13,2,90,4|0|4,3:0|0:0|3:0,0:0:0:0:
313,154,49385,2,0,L|246:139,1,60,2|8,0:0|3:0,0:0:0:0:
195,89,49885,2,0,L|128:104,1,60,4|0,3:0|0:0,0:0:0:0:
69,60,50385,2,0,P|31:67|17:116,2,90,4|2|4,3:0|0:0|3:0,0:0:0:0:
136,102,51385,2,0,L|126:169,1,60,2|8,0:0|3:0,0:0:0:0:
68,212,51885,2,0,L|78:279,1,60,4|0,3:0|0:0,0:0:0:0:
137,320,52385,6,0,P|170:317|201:300,1,60,4|2,3:0|0:0,0:0:0:0:
219,275,52760,2,0,P|264:279|307:302,1,90,2|4,0:0|3:0,0:0:0:0:
444,366,53635,1,8,3:0:0:0:
505,317,53885,2,0,L|486:191,1,120,4|2,3:0|0:0,0:0:0:0:
431,111,55885,1,0,0:0:0:0:
261,32,56385,6,0,P|206:21|164:92,1,143.999995605469,6|2,3:2|1:2,0:0:0:0:
75,120,57135,1,2,0:3:0:0:
75,120,57385,2,0,P|91:180|112:267,1,143.999995605469,2|2,3:2|1:2,0:0:0:0:
166,334,58135,1,2,0:3:0:0:
166,334,58385,6,0,P|192:337|233:311,1,71.9999978027344,2|2,3:2|0:3,0:0:0:0:
248,271,58760,2,0,P|274:268|342:323,1,107.999996704102,2|2,0:2|0:3,0:0:0:0:
422,269,59385,2,0,L|391:118,1,143.999995605469,2|0,3:2|1:0,0:0:0:0:
307,104,60135,1,2,0:3:0:0:
307,104,60385,6,0,P|263:103|225:157,1,107.999996704102,2|0,3:2|0:3,0:0:0:0:
178,151,60885,1,2,1:2:0:0:
103,203,61135,1,2,0:3:0:0:
103,203,61385,2,0,L|123:280,1,71.9999978027344,2|2,3:2|0:3,0:0:0:0:
213,255,61885,2,0,L|193:178,1,71.9999978027344,0|2,1:0|0:3,0:0:0:0:
133,114,62385,6,0,L|58:97,1,71.9999978027344,2|6,3:2|0:3,0:0:0:0:
114,19,62885,2,0,L|189:36,2,71.9999978027344,2|6|0,1:2|0:3|3:0,0:0:0:0:
277,110,63885,1,0,1:0:0:0:
355,59,64135,1,8,0:2:0:0:
355,59,64385,6,0,P|395:60|427:151,1,143.999995605469,6|2,3:2|1:2,0:0:0:0:
365,213,65135,1,2,0:3:0:0:
365,213,65385,2,0,L|335:362,1,143.999995605469,2|0,3:2|1:0,0:0:0:0:
249,380,66135,1,2,0:3:0:0:
249,380,66385,6,0,P|223:380|176:359,1,71.9999978027344,0|2,3:0|0:3,0:0:0:0:
153,325,66760,2,0,P|127:325|64:378,1,107.999996704102,2|2,0:2|0:3,0:0:0:0:
6,295,67385,2,0,L|45:151,1,143.999995605469,2|0,3:2|1:0,0:0:0:0:
75,63,68135,1,2,0:3:0:0:
75,63,68385,6,0,L|181:32,2,107.999996704102,2|2|2,3:2|0:2|0:3,0:0:0:0:
120,144,69385,2,0,L|197:121,2,71.9999978027344,2|2|0,3:2|0:3|1:0,0:0:0:0:
181,214,70135,1,2,0:0:0:0:
181,214,70385,6,0,L|164:329,1,107.999996704102,6|6,3:2|1:2,0:0:0:0:
293,378,71135,2,0,L|318:223,1,143.999995605469,6|0,3:2|3:0,0:0:0:0:
257,162,71885,1,2,1:2:0:0:
377,18,72385,6,0,P|420:19|439:48,2,71.9999978027344,6|2|2,3:2|0:3|1:2,0:0:0:0:
248,73,73260,2,0,L|176:49,2,71.9999978027344,10|2|2,0:0|0:0|0:0,0:0:0:0:
269,114,73885,1,2,1:2:0:0:
351,168,74135,1,2,0:3:0:0:
351,168,74385,6,0,L|328:284,1,107.999996704102,2|0,3:2|0:0,0:0:0:0:
314,317,74885,2,0,B|262:311|272:340|204:328,1,107.999996704102,2|10,1:2|0:0,0:0:0:0:
174,296,75385,1,0,3:0:0:0:
223,216,75635,1,2,0:3:0:0:
146,162,75885,1,0,1:0:0:0:
269,21,76385,6,0,L|341:38,1,71.9999978027344,2|2,3:2|0:3,0:0:0:0:
372,70,76760,1,2,0:0:0:0:
473,174,77260,2,0,P|459:209|460:253,2,71.9999978027344,10|2|2,0:0|0:0|0:0,0:0:0:0:
459,129,77885,1,2,1:2:0:0:
374,169,78135,1,2,0:3:0:0:
374,169,78385,6,0,B|328:180|328:180|314:187|314:187|267:199,1,107.999996704102,2|0,3:2|0:0,0:0:0:0:
227,177,78885,2,0,P|201:191|199:266,1,107.999996704102,2|10,1:2|0:0,0:0:0:0:
232,291,79385,1,2,3:2:0:0:
168,360,79635,1,2,0:3:0:0:
74,351,79885,1,2,1:2:0:0:
20,171,80385,6,0,L|35:92,1,71.9999978027344,6|2,3:2|0:3,0:0:0:0:
11,58,80760,1,2,0:0:0:0:
191,9,81260,2,0,L|263:25,2,71.9999978027344,10|2|2,0:0|0:0|0:0,0:0:0:0:
148,28,81885,1,0,1:0:0:0:
164,112,82135,1,10,0:0:0:0:
164,112,82385,6,0,L|277:137,1,107.999996704102,2|0,3:2|0:0,0:0:0:0:
308,109,82885,2,0,P|354:143|343:196,1,107.999996704102,2|10,1:2|0:0,0:0:0:0:
318,224,83385,1,0,3:0:0:0:
392,280,83635,1,2,0:3:0:0:
348,362,83885,1,2,1:2:0:0:
160,356,84385,6,0,P|84:337|46:330,1,107.999996704102,2|0,3:2|0:0,0:0:0:0:
31,290,84885,2,0,P|21:268|50:222,1,71.9999978027344,2|2,1:2|0:2,0:0:0:0:
82,207,85260,2,0,P|94:177|55:115,1,107.999996704102,10|2,0:0|0:3,0:0:0:0:
3,40,85885,1,2,1:2:0:0:
182,4,86385,6,0,L|291:31,2,107.999996704102,2|2|2,3:2|0:2|0:3,0:0:0:0:
105,58,87385,1,0,3:0:0:0:
170,124,87635,1,0,3:0:0:0:
102,188,87885,2,0,L|128:335,1,143.999995605469,0|2,1:0|0:0,0:0:0:0:
