osu file format v14

[General]
AudioFilename: audio.ogg
AudioLeadIn: 0
PreviewTime: 57021
Countdown: 0
SampleSet: Soft
StackLeniency: 0.5
Mode: 0
LetterboxInBreaks: 0
WidescreenStoryboard: 0

[Editor]
DistanceSpacing: 0.9
BeatDivisor: 4
GridSize: 4
TimelineZoom: 1.4

[Metadata]
Title:Ibitsuna Kotoba (TV Size)
TitleUnicode:イビツナコトバ (TV Size)
Artist:DAZBEE
ArtistUnicode:ダズビー
Creator:Doyak
Version:Ultimate Dere
Source:ツンデレ悪役令嬢リーゼロッテと実況の遠藤くんと解説の小林さん
Tags:다즈비 REQ Accelers Dailycare Sure ykcarrot Japanese anime Tsundere Akuyaku Reijou Liselotte to Jikkyou no Endou-kun Kaisetsu Kobayashi-san opening
BeatmapID:4143027
BeatmapSetID:1993694

[Difficulty]
HPDrainRate:6
CircleSize:4.2
OverallDifficulty:9
ApproachRate:9.3
SliderMultiplier:2
SliderTickRate:1

[Events]
//Background and Video events
0,0,"tsundere-villainess-opening-and-ending-video.jpg",0,0
Video,170,"aaaaaaagaga.mp4"
//Break Periods
//Storyboard Layer 0 (Background)
//Storyboard Layer 1 (Fail)
//Storyboard Layer 2 (Pass)
//Storyboard Layer 3 (Foreground)
//Storyboard Layer 4 (Overlay)
//Storyboard Sound Samples

[TimingPoints]
-4504,337.078651685393,4,2,1,40,1,0
552,-142.857142857143,4,2,1,40,0,0
6282,-119.047619047619,4,2,1,50,0,0
9147,-119.047619047619,4,2,1,30,0,0
9231,-119.047619047619,4,2,1,33,0,0
9316,-119.047619047619,4,2,1,36,0,0
9400,-119.047619047619,4,2,1,39,0,0
9484,-119.047619047619,4,2,1,42,0,0
9569,-119.047619047619,4,2,1,45,0,0
9653,-119.047619047619,4,2,1,48,0,0
9737,-119.047619047619,4,2,1,51,0,0
9821,-119.047619047619,4,2,1,54,0,0
9906,-119.047619047619,4,2,1,57,0,0
9990,-119.047619047619,4,2,1,60,0,0
10158,-119.047619047619,4,2,1,50,0,0
11507,-95.2380952380952,4,2,1,75,0,0
16479,-95.2380952380952,4,2,1,5,0,0
16563,-95.2380952380952,4,2,1,75,0,0
17069,-95.2380952380952,4,2,1,80,0,0
17827,-95.2380952380952,4,2,1,5,0,0
17911,-95.2380952380952,4,2,1,80,0,0
18501,-95.2380952380952,4,2,1,5,0,0
18585,-95.2380952380952,4,2,1,80,0,0
19175,-95.2380952380952,4,2,1,5,0,0
19260,-95.2380952380952,4,2,1,80,0,0
19597,-95.2380952380952,4,2,1,85,0,0
20945,-95.2380952380952,4,2,1,90,0,0
21788,-95.2380952380952,4,2,1,95,0,0
22462,-117.647058823529,4,2,2,50,0,0
27855,-117.647058823529,4,2,2,60,0,0
31563,-117.647058823529,4,2,1,60,0,0
31731,-83.3333333333333,4,2,1,90,0,0
31984,-83.3333333333333,4,2,1,5,0,0
32069,-83.3333333333333,4,2,1,90,0,0
32321,-83.3333333333333,4,2,1,5,0,0
32406,-83.3333333333333,4,2,1,90,0,0
32658,-83.3333333333333,4,2,1,5,0,0
32743,-83.3333333333333,4,2,1,90,0,0
33248,-105.263157894737,4,2,1,70,0,0
38642,-105.263157894737,4,2,1,75,0,0
44035,-105.263157894737,4,2,1,70,0,0
47574,-105.263157894737,4,2,1,80,0,0
48080,-83.3333333333333,4,2,1,90,0,0
49344,-83.3333333333333,4,2,1,5,0,0
49428,-105.263157894737,4,2,1,70,0,0
52125,-95.2380952380952,4,2,1,80,0,0
54821,-90.9090909090909,4,2,1,80,0,0
56001,-90.9090909090909,4,2,1,90,0,0
56675,-66.6666666666667,4,2,1,90,0,0
57097,-74.0740740740741,4,2,1,5,0,0
57181,-74.0740740740741,4,2,1,80,0,0
57518,-86.9565217391304,4,2,1,85,0,1
60467,-86.9565217391304,4,2,1,5,0,1
60552,-86.9565217391304,4,2,1,85,0,1
61647,-86.9565217391304,4,2,1,5,0,1
61731,-86.9565217391304,4,2,1,85,0,1
62321,-86.9565217391304,4,2,1,5,0,1
62406,-86.9565217391304,4,2,1,85,0,1
63164,-86.9565217391304,4,2,1,5,0,1
63248,-86.9565217391304,4,2,1,85,0,1
64344,-86.9565217391304,4,2,1,5,0,1
64428,-86.9565217391304,4,2,1,85,0,1
65608,-86.9565217391304,4,2,1,90,0,1
66788,-86.9565217391304,4,2,1,95,0,1
67462,-86.9565217391304,4,2,1,100,0,1
68389,-86.9565217391304,4,2,1,85,0,1
71254,-86.9565217391304,4,2,1,5,0,1
71338,-86.9565217391304,4,2,1,85,0,1
73698,-74.0740740740741,4,2,1,90,0,1
74456,-74.0740740740741,4,2,1,5,0,1
74540,-74.0740740740741,4,2,1,90,0,1
75130,-74.0740740740741,4,2,1,5,0,1
75215,-74.0740740740741,4,2,1,90,0,1
76479,-74.0740740740741,4,2,1,5,0,1
76563,-74.0740740740741,4,2,1,70,0,1
76731,-74.0740740740741,4,2,1,75,0,1
76900,-74.0740740740741,4,2,1,80,0,1
77069,-74.0740740740741,4,2,1,85,0,1
77237,-74.0740740740741,4,2,1,90,0,1
77406,-74.0740740740741,4,2,1,95,0,1
77574,-74.0740740740741,4,2,1,100,0,1
78922,-90.9090909090909,4,2,1,100,0,0
79007,-90.9090909090909,4,2,1,80,0,0
83894,-90.9090909090909,4,2,1,5,0,0
83979,-90.9090909090909,4,2,1,80,0,0
84484,-90.9090909090909,4,2,1,85,0,0
85243,-90.9090909090909,4,2,1,5,0,0
85327,-90.9090909090909,4,2,1,85,0,0
85917,-90.9090909090909,4,2,1,5,0,0
86001,-90.9090909090909,4,2,1,85,0,0
86591,-90.9090909090909,4,2,1,5,0,0
86675,-90.9090909090909,4,2,1,85,0,0
87012,-90.9090909090909,4,2,1,90,0,0
88361,-90.9090909090909,4,2,1,95,0,0
89203,-90.9090909090909,4,2,1,100,0,0
89878,-90.9090909090909,4,2,1,40,0,0
93922,-90.9090909090909,4,2,1,5,0,0

[Colours]
Combo1 : 69,133,228
Combo2 : 233,194,41
Combo3 : 213,230,91
Combo4 : 65,226,206

[HitObjects]
196,135,552,5,2,2:2:0:0:
196,135,720,1,2,2:2:0:0:
256,249,889,6,0,L|265:179,2,69.9999978637696,2|0|0,2:2|2:2|2:2,2:2:0:0:
243,328,1394,1,0,2:2:0:0:
339,226,1563,5,2,2:2:0:0:
402,177,1731,1,2,2:2:0:0:
476,208,1900,1,2,2:2:0:0:
422,316,2069,6,0,L|401:170,1,139.999995727539,2|0,2:2|2:2,2:2:0:0:
390,95,2574,1,2,2:2:0:0:
339,226,2743,1,0,2:2:0:0:
270,269,2911,6,0,P|257:236|260:202,1,69.9999978637696,2|0,2:2|2:2,2:2:0:0:
321,148,3248,1,2,2:2:0:0:
243,124,3417,1,2,2:2:0:0:
180,248,3585,6,0,L|110:258,2,69.9999978637696,0|0|0,2:2|2:2|2:2,2:2:0:0:
258,236,4091,1,0,2:2:0:0:
184,334,4260,5,2,2:2:0:0:
110,366,4429,1,2,2:2:0:0:
47,317,4597,1,2,2:2:0:0:
134,172,4765,5,2,2:2:0:0:
145,248,5102,5,2,2:2:0:0:
221,237,5439,5,2,2:2:0:0:
210,160,5776,6,0,L|200:91,1,69.9999978637696,2|0,2:2|2:2,2:2:0:0:
188,12,6113,1,2,2:2:0:0:
365,30,6282,6,0,L|352:112,1,83.9999974365235,2|0,2:2|2:2,2:2:0:0:
340,194,6619,1,2,2:2:0:0:
419,338,6788,6,0,P|467:273|439:198,1,167.999994873047,2|2,2:2|2:2,2:2:0:0:
382,262,7294,1,2,2:2:0:0:
185,229,7462,6,0,B|309:208|309:208|299:248,1,167.999994873047,2|0,2:2|2:2,2:2:0:0:
238,305,7967,1,2,2:2:0:0:
212,142,8136,1,0,2:2:0:0:
407,98,8304,6,0,L|394:180,1,83.9999974365235,2|0,2:2|2:2,2:2:0:0:
369,344,8642,1,2,2:2:0:0:
147,305,8810,6,0,P|100:239|128:164,1,167.999994873047,2|0,2:2|2:2,2:2:0:0:
183,118,9231,1,2,2:2:0:0:
187,115,9316,6,0,L|228:121,3,41.9999987182618,2|2|2|2,2:2|2:2|2:2|2:2,2:2:0:0:
270,55,9653,5,2,2:2:0:0:
244,51,9737,1,2,2:2:0:0:
220,48,9821,1,2,2:2:0:0:
195,43,9905,1,2,2:2:0:0:
170,40,9990,1,2,2:2:0:0:
22,108,10158,6,0,L|104:95,1,83.9999974365235,2|0,2:2|2:2,2:2:0:0:
190,207,10495,5,2,2:2:0:0:
53,225,10664,1,2,2:2:0:0:
116,176,10832,1,2,2:2:0:0:
136,334,11001,6,0,L|218:321,1,83.9999974365235,2|0,2:2|2:2,2:2:0:0:
300,309,11338,1,2,2:2:0:0:
489,141,11507,6,0,P|398:100|321:164,1,209.999993591309,6|2,2:2|3:2,2:2:0:0:
431,348,12012,2,0,L|409:192,1,157.499995193482,10|0,2:2|2:2,2:2:0:0:
407,174,12349,5,2,3:2:0:0:
276,278,12518,1,2,3:2:0:0:
252,111,12687,1,10,2:2:0:0:
191,339,12855,6,0,B|200:269|200:269|155:216|155:216|165:147,1,209.999993591309,2|2,3:2|3:2,2:2:0:0:
178,52,13361,1,8,2:2:0:0:
348,175,13529,2,0,L|245:190,1,104.999996795654,2|0,3:2|2:2,2:2:0:0:
7,281,13866,2,0,L|111:296,1,104.999996795654,2|8,3:2|2:2,2:2:0:0:
143,70,14203,1,0,2:2:0:0:
144,66,14288,1,0,2:2:0:0:
145,62,14372,6,0,P|235:21|312:85,1,209.999993591309,2|8,3:2|2:2,2:2:0:0:
285,271,14878,1,0,2:2:0:0:
285,271,14962,1,0,2:2:0:0:
285,271,15046,5,2,3:2:0:0:
118,247,15215,1,2,2:2:0:0:
222,116,15384,1,10,2:2:0:0:
189,348,15552,5,2,3:2:0:0:
202,253,15889,2,0,B|254:246|254:246|294:280|294:280|346:272,1,157.499995193482,2|0,3:2|2:2,2:2:0:0:
349,254,16226,2,0,P|386:191|455:214,1,157.499995193482,2|0,3:2|2:2,2:2:0:0:
466,230,16563,5,2,2:2:0:0:
303,163,16732,1,10,2:2:0:0:
440,54,16901,1,2,2:2:0:0:
440,54,16984,1,0,2:2:0:0:
440,54,17069,5,14,2:2:0:0:
253,81,17237,1,2,3:2:0:0:
369,229,17406,1,2,3:2:0:0:
183,379,17574,6,0,L|27:357,1,157.499995193482,14|0,2:2|2:2,2:2:0:0:
9,355,17911,1,2,3:2:0:0:
59,132,18080,1,2,3:2:0:0:
275,316,18248,6,0,L|119:294,1,157.499995193482,14|0,2:2|2:2,2:2:0:0:
101,292,18585,1,2,3:2:0:0:
151,69,18754,1,2,3:2:0:0:
367,253,18922,6,0,L|211:231,1,157.499995193482,14|0,2:2|2:2,2:2:0:0:
193,229,19259,1,10,2:2:0:0:
243,6,19428,1,10,2:2:0:0:
275,316,19597,6,0,P|365:357|442:293,1,209.999993591309,14|0,2:2|3:2,2:2:0:0:
330,100,20102,1,8,2:2:0:0:
353,262,20271,1,0,3:2:0:0:
353,262,20355,1,0,3:2:0:0:
353,262,20439,5,0,3:2:0:0:
237,114,20608,1,8,2:2:0:0:
424,87,20776,1,0,3:2:0:0:
185,236,20945,6,0,L|81:221,1,104.999996795654,6|0,3:2|2:2,2:2:0:0:
13,87,21282,1,6,3:2:0:0:
115,347,21451,1,14,2:2:0:0:
285,126,21619,1,10,2:2:0:0:
259,122,21703,1,8,2:2:0:0:
233,118,21787,5,14,2:2:0:0:
503,305,21956,1,14,2:2:0:0:
401,359,22462,6,0,L|424:190,1,170.000003242493,4|10,3:2|2:2,2:2:0:0:
435,104,22967,1,10,2:2:0:0:
404,24,23136,1,2,3:2:0:0:
404,24,23304,2,0,P|445:19|484:35,1,85.0000016212464,2|8,2:2|2:2,2:2:0:0:
356,137,23642,6,0,P|317:152|275:148,1,85.0000016212464,2|0,2:2|3:2,2:2:0:0:
222,81,23979,1,2,2:2:0:0:
252,2,24147,1,10,2:2:0:0:
306,68,24316,2,0,L|317:152,1,85.0000016212464,10|0,2:2|3:2,2:2:0:0:
273,314,24653,2,0,L|284:229,1,85.0000016212464,2|8,2:2|2:2,2:2:0:0:
233,164,24990,1,2,2:2:0:0:
189,297,25158,6,0,P|112:325|47:276,1,170.000003242493,0|10,3:2|2:2,2:2:0:0:
94,160,25664,1,10,2:2:0:0:
125,240,25833,1,2,3:2:0:0:
94,160,26001,2,0,P|135:155|174:171,1,85.0000016212464,2|8,2:2|2:2,2:2:0:0:
250,87,26338,6,0,L|273:256,1,170.000003242493,2|2,3:2|2:2,2:2:0:0:
321,323,26844,1,10,2:2:0:0:
321,323,27012,2,0,P|282:339|241:335,1,85.0000016212464,10|0,2:2|3:2,2:2:0:0:
134,200,27349,1,2,2:2:0:0:
187,267,27518,1,8,2:2:0:0:
103,279,27687,1,0,2:2:0:0:
241,153,27855,6,0,P|282:148|321:164,1,85.0000016212464,4|0,3:2|2:2,2:2:0:0:
437,255,28192,2,0,P|395:259|357:243,1,85.0000016212464,10|8,2:2|2:2,2:2:0:0:
419,92,28529,2,0,L|408:176,1,85.0000016212464,2|0,3:2|2:2,2:2:0:0:
270,231,28866,1,10,2:2:0:0:
383,344,29035,6,0,L|467:333,2,85.0000016212464,2|0|0,2:2|3:2|2:2,2:2:0:0:
335,188,29540,1,10,2:2:0:0:
199,298,29709,1,10,2:2:0:0:
199,298,29878,2,0,L|283:287,1,85.0000016212464,0|0,3:2|2:2,2:2:0:0:
454,138,30215,1,10,2:2:0:0:
306,118,30383,1,2,2:2:0:0:
362,256,30552,6,0,L|373:172,1,85.0000016212464,0|0,3:2|2:2,2:2:0:0:
255,52,30889,1,10,2:2:0:0:
225,130,31058,2,0,P|266:134|305:117,1,85.0000016212464,10|0,2:2|3:2,2:2:0:0:
134,112,31394,5,2,3:2:0:0:
139,143,31478,1,0,3:2:0:0:
143,174,31563,2,2,L|148:216,1,42.5000008106232,2|2,2:2|2:2,2:2:0:0:
50,315,31731,6,0,B|110:306|110:306|154:346|154:346|213:338,1,179.999994506836,6|0,2:2|2:2,2:2:0:0:
218,310,32069,6,0,P|256:245|294:310,1,179.999994506836,6|0,2:2|2:2,2:2:0:0:
299,338,32406,6,0,B|357:346|357:346|401:305|401:305|462:314,1,179.999994506836,6|0,2:2|2:2,2:2:0:0:
484,318,32743,5,6,3:2:0:0:
337,204,32911,1,8,2:2:0:0:
509,135,33079,1,8,2:2:0:0:
312,21,33248,6,0,L|123:47,1,189.999994926453,4|10,3:2|2:2,2:2:0:0:
77,161,33754,1,2,2:2:0:0:
199,143,33922,1,2,3:2:0:0:
0,127,34091,2,0,P|-7:173|12:216,1,94.9999974632264,2|8,2:2|2:2,2:2:0:0:
122,383,34428,6,0,B|112:319|112:319|155:272|155:272|147:212,1,189.999994926453,2|2,3:2|3:2,2:2:0:0:
123,40,34934,1,10,2:2:0:0:
53,89,35102,2,0,P|135:125|204:68,1,189.999994926453,2|2,3:2|3:2,2:2:0:0:
415,35,35608,1,8,2:2:0:0:
318,112,35776,1,2,3:2:0:0:
418,252,35945,6,0,L|431:158,1,94.9999974632264,0|0,3:2|2:2,2:2:0:0:
222,212,36282,1,10,2:2:0:0:
344,194,36451,1,2,3:2:0:0:
298,309,36619,1,2,2:2:0:0:
274,145,36788,2,0,L|260:51,1,94.9999974632264,2|8,3:2|2:2,2:2:0:0:
50,187,37125,6,0,B|114:177|114:177|161:220|161:220|221:212,1,189.999994926453,2|2,3:2|3:2,2:2:0:0:
135,98,37630,1,10,2:2:0:0:
89,262,37799,2,0,L|102:355,1,94.9999974632264,2|0,3:2|2:2,2:2:0:0:
320,355,38136,5,2,3:2:0:0:
298,200,38304,1,10,2:2:0:0:
178,299,38473,1,10,2:2:0:0:
379,173,38642,6,0,P|310:115|228:151,1,189.999994926453,2|10,3:2|2:2,2:2:0:0:
342,262,39147,2,0,L|436:248,1,94.9999974632264,2|0,2:2|3:2,2:2:0:0:
506,90,39484,2,0,L|411:76,1,94.9999974632264,2|8,2:2|2:2,2:2:0:0:
258,28,39821,6,0,B|248:92|248:92|291:139|291:139|283:199,1,189.999994926453,2|2,3:2|3:2,2:2:0:0:
174,345,40327,1,10,2:2:0:0:
107,178,40495,2,0,L|201:165,1,94.9999974632264,2|0,3:2|2:2,2:2:0:0:
335,65,40833,1,2,3:2:0:0:
358,68,40917,1,0,3:2:0:0:
382,71,41001,1,10,2:2:0:0:
482,203,41170,1,2,3:2:0:0:
373,383,41338,6,0,P|315:314|351:232,1,189.999994926453,2|10,3:2|2:2,2:2:0:0:
494,288,41844,2,0,L|400:301,1,94.9999974632264,2|0,3:2|2:2,2:2:0:0:
211,328,42181,1,2,3:2:0:0:
282,151,42349,1,8,2:2:0:0:
40,203,42518,6,0,B|100:195|100:195|147:238|147:238|211:228,1,189.999994926453,2|0,3:2|3:2,2:2:0:0:
160,57,43024,2,0,L|173:151,1,94.9999974632264,10|0,2:2|3:2,2:2:0:0:
119,359,43361,1,2,2:2:0:0:
84,114,43529,1,2,3:2:0:0:
139,230,43698,2,0,P|185:237|227:217,1,94.9999974632264,8|0,2:2|2:2,2:2:0:0:
442,137,44035,6,0,P|360:100|291:159,1,189.999994926453,4|10,3:2|2:2,2:2:0:0:
446,219,44540,1,2,2:2:0:0:
396,356,44709,2,0,B|406:292|406:292|363:245|363:245|371:185,1,189.999994926453,2|10,3:2|2:2,2:2:0:0:
269,7,45215,6,0,P|232:89|290:157,1,189.999994926453,2|2,3:2|3:2,2:2:0:0:
426,62,45720,1,10,2:2:0:0:
401,253,45889,2,0,L|307:240,1,94.9999974632264,2|0,3:2|2:2,2:2:0:0:
161,220,46226,1,0,3:2:0:0:
295,325,46394,1,10,2:2:0:0:
319,155,46563,1,2,2:2:0:0:
319,155,46647,1,0,2:2:0:0:
319,155,46731,6,0,P|250:96|168:133,1,189.999994926453,0|8,3:2|2:2,2:2:0:0:
52,206,47237,1,0,2:2:0:0:
167,354,47406,1,0,3:2:0:0:
238,181,47574,5,10,2:2:0:0:
238,181,47658,1,8,2:2:0:0:
238,181,47743,1,10,2:2:0:0:
66,314,47911,1,2,3:2:0:0:
303,134,48080,5,6,2:2:0:0:
29,19,48248,1,6,2:2:0:0:
98,318,48585,5,6,2:2:0:0:
61,15,48922,6,0,B|162:0|162:0|237:67|237:67|332:54,1,299.999990844727,6|0,2:2|2:2,2:2:0:0:
337,72,49428,6,0,P|419:108|488:50,1,189.999994926453,4|10,3:2|2:2,2:2:0:0:
407,21,49934,1,2,2:2:0:0:
431,191,50102,2,0,L|444:285,1,94.9999974632264,2|0,3:2|2:2,2:2:0:0:
282,347,50439,1,10,2:2:0:0:
212,295,50608,6,0,P|294:258|363:316,1,189.999994926453,2|2,3:2|3:2,2:2:0:0:
512,199,51113,1,10,2:2:0:0:
336,127,51282,2,0,B|272:117|272:117|225:160|225:160|165:152,1,189.999994926453,2|0,3:2|3:2,2:2:0:0:
60,50,51788,1,10,2:2:0:0:
91,275,51956,1,2,2:2:0:0:
153,36,52125,6,0,P|199:12|249:22,1,104.999996795654,4|0,3:2|2:2,2:2:0:0:
425,116,52462,1,10,2:2:0:0:
229,212,52630,2,0,L|215:110,1,104.999996795654,2|0,2:2|3:2,2:2:0:0:
347,0,52967,2,0,L|332:102,1,104.999996795654,2|8,2:2|2:2,2:2:0:0:
302,310,53304,1,2,2:2:0:0:
451,253,53473,6,0,B|379:264|379:264|327:216|327:216|261:225,1,209.999993591309,4|8,3:2|2:2,2:2:0:0:
53,254,53979,1,0,2:2:0:0:
131,59,54147,2,0,L|146:161,1,104.999996795654,0|0,3:2|2:2,2:2:0:0:
274,326,54484,1,8,2:2:0:0:
68,356,54653,1,0,2:2:0:0:
229,98,54821,6,0,L|336:113,1,110.000003356934,6|0,3:2|2:2,2:2:0:0:
512,140,55158,1,10,2:2:0:0:
137,137,55327,2,0,P|126:84|151:36,1,110.000003356934,2|0,2:2|3:2,2:2:0:0:
337,113,55664,1,2,2:2:0:0:
152,349,55832,1,8,2:2:0:0:
39,70,56001,5,14,2:2:0:0:
480,119,56338,5,14,2:2:0:0:
26,168,56675,6,0,P|91:41|116:181,1,375.000014305115,14|0,2:2|2:2,2:2:0:0:
57,271,57181,5,2,3:2:0:0:
80,116,57349,1,2,2:2:0:0:
84,77,57434,1,0,2:2:0:0:
89,40,57518,6,0,B|160:30|160:30|217:82|217:82|296:70,1,230.000004386902,6|8,3:2|2:2,2:2:0:0:
467,43,58024,1,0,2:2:0:0:
305,248,58192,5,2,3:2:0:0:
509,219,58361,1,2,2:2:0:0:
382,56,58529,1,10,2:2:0:0:
293,334,58698,6,0,B|253:328|227:299|217:257|217:257|197:295|164:315|122:310,1,230.000004386902,2|0,3:2|3:2,2:2:0:0:
0,153,59203,1,10,2:2:0:0:
196,126,59372,1,0,3:2:0:0:
17,267,59540,5,2,2:2:0:0:
212,239,59709,1,0,3:2:0:0:
91,84,59878,1,10,2:2:0:0:
123,310,60046,1,2,2:2:0:0:
123,310,60130,1,0,2:2:0:0:
123,310,60215,6,0,P|197:270|280:287,1,172.500003290176,0|0,3:2|2:2,2:2:0:0:
339,240,60552,2,0,L|452:256,1,115.000002193451,8|0,2:2|2:2,2:2:0:0:
511,160,60889,5,2,3:2:0:0:
307,132,61057,1,2,2:2:0:0:
384,323,61226,1,10,2:2:0:0:
437,71,61394,6,0,B|376:80|376:80|334:41|334:41|280:48,1,172.500003290176,2|0,3:2|2:2,2:2:0:0:
205,60,61732,1,2,3:2:0:0:
225,285,61900,1,8,2:2:0:0:
16,198,62069,6,0,B|76:207|76:207|118:168|118:168|172:175,1,172.500003290176,2|0,3:2|2:2,2:2:0:0:
247,186,62406,1,2,3:2:0:0:
47,101,62574,1,8,2:2:0:0:
78,326,62743,1,2,2:2:0:0:
78,326,62827,1,0,2:2:0:0:
78,326,62911,6,0,L|248:301,1,172.500003290176,2|0,3:2|2:2,2:2:0:0:
317,271,63248,2,0,P|328:215|302:165,1,115.000002193451,8|0,2:2|2:2,2:2:0:0:
116,63,63585,5,2,3:2:0:0:
243,226,63753,1,2,2:2:0:0:
320,35,63922,1,10,2:2:0:0:
163,261,64091,6,0,P|229:309|307:280,1,172.500003290176,2|0,3:2|2:2,2:2:0:0:
355,222,64428,1,2,3:2:0:0:
271,13,64597,1,10,2:2:0:0:
132,191,64765,2,0,L|18:174,1,115.000002193451,2|0,3:2|2:2,2:2:0:0:
54,58,65102,5,2,3:2:0:0:
58,295,65271,1,10,2:2:0:0:
130,69,65439,1,10,2:2:0:0:
381,150,65608,5,2,3:2:0:0:
177,298,65776,1,2,2:2:0:0:
256,58,65945,1,10,2:2:0:0:
332,298,66113,1,2,3:2:0:0:
128,150,66282,1,2,2:2:0:0:
405,61,66451,5,10,2:2:0:0:
256,322,66619,1,10,2:2:0:0:
105,61,66788,1,6,3:2:0:0:
82,42,67125,5,10,2:2:0:0:
430,42,67293,1,10,2:2:0:0:
256,343,67462,1,6,3:2:0:0:
256,374,67799,5,2,3:2:0:0:
256,9,67967,1,10,2:2:0:0:
347,374,68136,1,10,2:2:0:0:
347,374,68220,1,0,2:2:0:0:
347,374,68304,6,0,B|337:303|337:303|389:246|389:246|377:167,1,230.000004386902,6|8,3:2|2:2,2:2:0:0:
351,0,68810,1,0,2:2:0:0:
202,210,68979,5,2,3:2:0:0:
365,83,69148,1,2,2:2:0:0:
174,6,69316,1,10,2:2:0:0:
20,272,69484,6,0,B|61:277|94:257|114:219|114:219|124:261|150:290|190:296,1,230.000004386902,2|0,3:2|3:2,2:2:0:0:
232,93,69990,1,10,2:2:0:0:
36,66,70159,1,0,3:2:0:0:
215,207,70327,5,2,2:2:0:0:
20,179,70496,1,0,3:2:0:0:
141,24,70665,1,10,2:2:0:0:
109,250,70833,1,2,2:2:0:0:
109,250,70917,1,0,2:2:0:0:
109,250,71001,6,0,P|183:290|266:273,1,172.500003290176,0|0,3:2|2:2,2:2:0:0:
340,239,71338,2,0,L|454:256,1,115.000002193451,8|0,2:2|2:2,2:2:0:0:
493,384,71675,5,2,3:2:0:0:
267,352,71844,1,2,2:2:0:0:
408,170,72012,1,10,2:2:0:0:
180,339,72181,5,2,3:2:0:0:
180,339,72518,1,2,3:2:0:0:
145,89,72687,1,8,2:2:0:0:
379,183,72855,6,0,L|265:200,1,115.000002193451,2|0,3:2|2:2,2:2:0:0:
6,236,73192,1,2,3:2:0:0:
154,347,73361,1,8,2:2:0:0:
117,86,73529,1,2,2:2:0:0:
116,82,73613,1,0,2:2:0:0:
115,78,73698,5,14,2:2:0:0:
215,206,73866,1,0,3:2:0:0:
277,53,74035,1,2,3:2:0:0:
74,266,74203,6,0,B|136:257|136:257|187:303|187:303|257:292,1,202.500000772476,14|0,2:2|2:2,2:2:0:0:
338,280,74540,1,2,3:2:0:0:
308,66,74709,1,2,3:2:0:0:
354,361,74878,6,0,P|419:292|377:208,1,202.500000772476,14|0,2:2|2:2,2:2:0:0:
363,126,75215,1,0,3:2:0:0:
240,31,75383,1,2,3:2:0:0:
460,0,75552,1,12,2:2:0:0:
375,207,75720,5,2,2:2:0:0:
92,166,75889,1,0,3:2:0:0:
254,45,76057,1,14,2:2:0:0:
214,329,76226,6,0,B|223:267|223:267|177:216|177:216|188:146,1,202.500000772476,2|0,3:2|2:2,2:2:0:0:
265,119,76563,1,0,3:2:0:0:
438,342,76731,5,8,2:2:0:0:
159,381,76900,1,8,2:2:0:0:
287,279,77069,1,0,3:2:0:0:
14,205,77237,5,8,2:2:0:0:
300,126,77406,1,0,3:2:0:0:
1,51,77574,6,0,P|57:17|120:33,1,135.000000514984,4|0,3:2|2:2,2:2:0:0:
331,58,77911,1,6,3:2:0:0:
230,306,78080,1,14,2:2:0:0:
67,96,78248,1,2,3:2:0:0:
280,182,78417,5,10,2:2:0:0:
148,201,78586,1,2,3:2:0:0:
199,77,78754,1,10,2:2:0:0:
230,306,78922,6,0,P|325:349|406:281,1,220.000006713867,6|2,2:2|3:2,2:2:0:0:
296,139,79428,2,0,L|311:247,1,110.000003356934,10|0,2:2|0:0,2:2:0:0:
311,247,79681,1,0,2:2:0:0:
311,247,79765,5,2,3:2:0:0:
192,97,79933,1,2,3:2:0:0:
382,68,80102,1,10,2:2:0:0:
103,54,80271,6,0,B|93:127|93:127|140:183|140:183|130:255,1,220.000006713867,2|2,3:2|3:2,2:2:0:0:
41,213,80776,1,8,2:2:0:0:
192,97,80945,2,0,L|300:112,1,110.000003356934,2|0,3:2|2:2,2:2:0:0:
469,174,81282,2,0,L|360:189,1,110.000003356934,2|8,3:2|2:2,2:2:0:0:
239,379,81619,1,0,2:2:0:0:
239,379,81703,1,0,2:2:0:0:
239,379,81788,6,0,P|196:284|264:203,1,220.000006713867,2|8,3:2|2:2,2:2:0:0:
479,323,82293,1,0,2:2:0:0:
479,323,82378,1,0,2:2:0:0:
479,323,82462,5,2,3:2:0:0:
294,297,82630,1,2,2:2:0:0:
409,149,82799,1,10,2:2:0:0:
376,384,82967,5,2,3:2:0:0:
389,285,83304,2,0,B|334:277|334:277|292:313|292:313|237:304,1,165.000005035401,2|0,3:2|2:2,2:2:0:0:
233,283,83642,2,0,P|194:216|121:241,1,165.000005035401,2|0,3:2|2:2,2:2:0:0:
110,259,83979,5,2,2:2:0:0:
266,137,84147,1,10,2:2:0:0:
83,63,84316,1,2,2:2:0:0:
83,63,84400,1,0,2:2:0:0:
83,63,84484,5,14,2:2:0:0:
218,236,84653,1,2,3:2:0:0:
301,33,84821,1,2,3:2:0:0:
466,178,84990,6,0,B|411:186|411:186|369:150|369:150|314:159,1,165.000005035401,14|0,2:2|2:2,2:2:0:0:
297,160,85327,1,2,3:2:0:0:
391,380,85495,1,2,3:2:0:0:
489,104,85664,6,0,B|434:112|434:112|392:76|392:76|337:85,1,165.000005035401,14|0,2:2|2:2,2:2:0:0:
320,86,86001,1,2,3:2:0:0:
414,306,86169,1,2,3:2:0:0:
512,30,86338,6,0,B|457:38|457:38|415:2|415:2|360:11,1,165.000005035401,14|0,2:2|2:2,2:2:0:0:
343,12,86675,1,10,2:2:0:0:
437,232,86843,1,10,2:2:0:0:
146,282,87012,6,0,P|103:187|171:106,1,220.000006713867,14|0,2:2|3:2,2:2:0:0:
398,228,87518,1,8,2:2:0:0:
202,200,87687,1,0,3:2:0:0:
202,200,87771,1,0,3:2:0:0:
202,200,87855,5,0,3:2:0:0:
324,44,88024,1,8,2:2:0:0:
287,301,88192,1,0,3:2:0:0:
164,21,88361,5,6,3:2:0:0:
164,21,88698,5,6,3:2:0:0:
348,363,88866,1,14,2:2:0:0:
444,90,89203,5,14,2:2:0:0:
67,293,89371,1,14,2:2:0:0:
256,192,89878,5,2,2:2:0:0:
