osu file format v14

[General]
AudioFilename: audio.ogg
AudioLeadIn: 0
PreviewTime: 57021
Countdown: 0
SampleSet: Soft
StackLeniency: 0.4
Mode: 0
LetterboxInBreaks: 0
WidescreenStoryboard: 1

[Editor]
Bookmarks: 889,11675,22462,33248,44035,57518,68304,79091,89878
DistanceSpacing: 1.1
BeatDivisor: 4
GridSize: 4
TimelineZoom: 1.7

[Metadata]
Title:Ibitsuna Kotoba (TV Size)
TitleUnicode:イビツナコトバ (TV Size)
Artist:DAZBEE
ArtistUnicode:ダズビー
Creator:Doyak
Version:Sure's Tsun-Hard
Source:ツンデレ悪役令嬢リーゼロッテと実況の遠藤くんと解説の小林さん
Tags:다즈비 REQ Accelers Dailycare Sure ykcarrot Japanese anime Tsundere Akuyaku Reijou Liselotte to Jikkyou no Endou-kun Kaisetsu Kobayashi-san opening
BeatmapID:4148801
BeatmapSetID:1993694

[Difficulty]
HPDrainRate:5
CircleSize:4
OverallDifficulty:6
ApproachRate:8
SliderMultiplier:1.6
SliderTickRate:1

[Events]
//Background and Video events
0,0,"tsundere-villainess-opening-and-ending-video.jpg",0,0
Video,170,"aaaaaaagaga.mp4"
//Break Periods
//Storyboard Layer 0 (Background)
//Storyboard Layer 1 (Fail)
//Storyboard Layer 2 (Pass)
//Storyboard Layer 3 (Foreground)
//Storyboard Layer 4 (Overlay)
//Storyboard Sound Samples

[TimingPoints]
-4504,337.078651685393,4,2,1,40,1,0
552,-111.111111111111,4,2,1,40,0,0
6282,-111.111111111111,4,2,1,50,0,0
8810,-100,4,2,1,50,0,0
9147,-100,4,2,1,30,0,0
9231,-100,4,2,1,33,0,0
9316,-100,4,2,1,36,0,0
9400,-100,4,2,1,39,0,0
9484,-100,4,2,1,42,0,0
9569,-100,4,2,1,45,0,0
9653,-100,4,2,1,48,0,0
9737,-100,4,2,1,51,0,0
9821,-100,4,2,1,54,0,0
9906,-100,4,2,1,57,0,0
9990,-100,4,2,1,60,0,0
10158,-100,4,2,1,50,0,0
11507,-90.9090909090909,4,2,1,75,0,0
16479,-90.9090909090909,4,2,1,5,0,0
16563,-90.9090909090909,4,2,1,75,0,0
17069,-90.9090909090909,4,2,1,80,0,0
17827,-90.9090909090909,4,2,1,5,0,0
17911,-90.9090909090909,4,2,1,80,0,0
18501,-90.9090909090909,4,2,1,5,0,0
18585,-90.9090909090909,4,2,1,80,0,0
19175,-90.9090909090909,4,2,1,5,0,0
19260,-90.9090909090909,4,2,1,80,0,0
19597,-90.9090909090909,4,2,1,85,0,0
20945,-90.9090909090909,4,2,1,90,0,0
21788,-90.9090909090909,4,2,1,95,0,0
22462,-100,4,2,2,50,0,0
27855,-100,4,2,2,60,0,0
31563,-100,4,2,1,60,0,0
31731,-100,4,2,1,90,0,0
31984,-100,4,2,1,5,0,0
32069,-100,4,2,1,90,0,0
32321,-100,4,2,1,5,0,0
32406,-100,4,2,1,90,0,0
32658,-100,4,2,1,5,0,0
32743,-100,4,2,1,90,0,0
33248,-90.9090909090909,4,2,1,70,0,0
38642,-90.9090909090909,4,2,1,75,0,0
44035,-90.9090909090909,4,2,1,70,0,0
47574,-90.9090909090909,4,2,1,80,0,0
48080,-100,4,2,1,90,0,0
49344,-100,4,2,1,5,0,0
49428,-90.9090909090909,4,2,1,70,0,0
52125,-90.9090909090909,4,2,1,80,0,0
56001,-90.9090909090909,4,2,1,90,0,0
57097,-90.9090909090909,4,2,1,5,0,0
57181,-90.9090909090909,4,2,1,80,0,0
57518,-83.3333333333333,4,2,1,85,0,1
60467,-83.3333333333333,4,2,1,5,0,1
60552,-83.3333333333333,4,2,1,85,0,1
61647,-83.3333333333333,4,2,1,5,0,1
61731,-83.3333333333333,4,2,1,85,0,1
62321,-83.3333333333333,4,2,1,5,0,1
62406,-83.3333333333333,4,2,1,85,0,1
63164,-83.3333333333333,4,2,1,5,0,1
63248,-83.3333333333333,4,2,1,85,0,1
64344,-83.3333333333333,4,2,1,5,0,1
64428,-83.3333333333333,4,2,1,85,0,1
65608,-83.3333333333333,4,2,1,90,0,1
66788,-83.3333333333333,4,2,1,95,0,1
67462,-83.3333333333333,4,2,1,100,0,1
68389,-83.3333333333333,4,2,1,85,0,1
71254,-83.3333333333333,4,2,1,5,0,1
71338,-83.3333333333333,4,2,1,85,0,1
73698,-83.3333333333333,4,2,1,90,0,1
74456,-83.3333333333333,4,2,1,5,0,1
74540,-83.3333333333333,4,2,1,90,0,1
75130,-83.3333333333333,4,2,1,5,0,1
75215,-83.3333333333333,4,2,1,90,0,1
76479,-83.3333333333333,4,2,1,5,0,1
76563,-83.3333333333333,4,2,1,70,0,1
76731,-83.3333333333333,4,2,1,75,0,1
76900,-83.3333333333333,4,2,1,80,0,1
77069,-83.3333333333333,4,2,1,85,0,1
77237,-83.3333333333333,4,2,1,90,0,1
77406,-83.3333333333333,4,2,1,95,0,1
77574,-83.3333333333333,4,2,1,100,0,1
78922,-90.9090909090909,4,2,1,100,0,0
79007,-90.9090909090909,4,2,1,80,0,0
83894,-90.9090909090909,4,2,1,5,0,0
83979,-90.9090909090909,4,2,1,80,0,0
84484,-90.9090909090909,4,2,1,85,0,0
85243,-90.9090909090909,4,2,1,5,0,0
85327,-90.9090909090909,4,2,1,85,0,0
85917,-90.9090909090909,4,2,1,5,0,0
86001,-90.9090909090909,4,2,1,85,0,0
86591,-90.9090909090909,4,2,1,5,0,0
86675,-90.9090909090909,4,2,1,85,0,0
87012,-90.9090909090909,4,2,1,90,0,0
88361,-90.9090909090909,4,2,1,95,0,0
89203,-90.9090909090909,4,2,1,100,0,0
89878,-90.9090909090909,4,2,1,40,0,0
93922,-90.9090909090909,4,2,1,5,0,0

[Colours]
Combo1 : 69,133,228
Combo2 : 233,194,41
Combo3 : 213,230,91
Combo4 : 65,226,206

[HitObjects]
496,150,552,6,0,L|444:98,1,71.9999978027344,2|2,2:2|2:2,0:0:0:0:
388,42,889,2,0,L|244:42,1,143.999995605469,2|0,2:2|2:2,2:2:0:0:
244,42,1563,1,2,2:2:0:0:
164,42,1731,1,2,2:2:0:0:
164,122,1900,1,2,2:2:0:0:
244,122,2069,2,0,P|276:184|244:246,1,143.999995605469,2|0,2:2|2:2,2:2:0:0:
164,246,2574,2,0,P|132:184|164:122,2,143.999995605469,2|2|2,2:2|2:2|2:2,0:0:0:0:
212,184,3417,6,0,B|236:156|276:156|276:156|348:156|348:156|388:156|412:128,1,215.999993408203,2|0,2:2|2:2,0:0:0:0:
412,128,4260,1,2,2:2:0:0:
412,48,4428,1,2,2:2:0:0:
492,48,4597,1,2,2:2:0:0:
492,128,4765,1,2,2:2:0:0:
492,144,5102,1,2,2:2:0:0:
492,160,5439,2,0,L|492:308,2,143.999995605469,2|2|2,2:2|2:2|2:2,0:0:0:0:
492,80,6282,6,0,P|428:52|364:80,1,143.999995605469,2|2,2:2|2:2,2:2:0:0:
316,144,6788,2,0,P|290:209|225:234,1,143.999995605469,2|2,2:2|2:2,2:2:0:0:
163,183,7293,1,2,2:2:0:0:
112,121,7462,2,0,P|137:55|202:30,1,143.999995605469,2|0,2:2|2:2,2:2:0:0:
265,81,7967,2,0,L|163:182,2,143.999995605469,2|2|2,2:2|2:2|2:2,0:0:0:0:
320,24,8810,6,0,B|377:23|422:69|422:125|422:125|383:120|383:120|388:159|388:159|349:154|349:154|354:193|354:193|315:188|315:188|321:227|321:227|281:221|281:221|287:261|287:261|247:255|247:255|253:295|253:295|213:289|213:289|219:329|219:329|179:323|179:323|184:364,1,720,2|0,2:2|2:2,2:2:0:0:
105,363,10495,2,0,L|25:363,2,80,2|2|2,2:2|2:2|2:2,0:0:0:0:
184,364,11001,2,0,P|256:334|328:364,1,160,2|2,2:2|2:2,2:2:0:0:
424,272,11507,6,0,B|448:232|424:188|424:188|400:144|424:104,1,176.000005371094,6|2,2:2|3:2,2:2:0:0:
468,28,12012,1,10,2:2:0:0:
468,28,12349,2,0,P|504:56|512:96,2,88.000002685547,2|2|10,3:2|3:2|2:2,0:0:0:0:
424,104,12855,2,0,L|324:104,1,88.000002685547,2|0,3:2|0:0,2:2:0:0:
336,192,13192,2,0,L|336:284,1,88.000002685547,2|8,3:2|2:2,0:0:0:0:
248,280,13529,2,0,L|156:280,1,88.000002685547,2|0,3:2|2:2,2:2:0:0:
116,356,13866,2,0,P|80:328|72:288,2,88.000002685547,2|8|0,3:2|2:2|2:2,2:2:0:0:
160,280,14372,6,0,L|336:280,1,176.000005371094,2|8,3:2|2:2,2:2:0:0:
336,280,15046,1,2,3:2:0:0:
424,280,15215,1,2,2:2:0:0:
424,192,15383,1,10,2:2:0:0:
336,192,15552,1,2,3:2:0:0:
320,192,15889,1,2,3:2:0:0:
304,192,16226,2,0,L|128:192,1,176.000005371094,2|2,3:2|2:2,2:2:0:0:
40,192,16731,1,10,2:2:0:0:
84,116,16900,1,2,2:2:0:0:
128,192,17069,6,0,P|120:236|92:268,2,88.000002685547,14|2|2,2:2|3:2|3:2,0:0:0:0:
176,88,17574,2,0,P|256:56|336:88,1,176.000005371094,14|2,2:2|3:2,2:2:0:0:
336,88,18080,1,2,3:2:0:0:
452,116,18248,2,0,P|400:184|316:204,1,176.000005371094,14|2,2:2|3:2,2:2:0:0:
316,204,18754,1,2,3:2:0:0:
196,204,18922,2,0,P|112:184|60:116,1,176.000005371094,14|10,2:2|2:2,2:2:0:0:
60,116,19428,1,10,2:2:0:0:
176,88,19597,6,0,P|256:56|336:88,1,176.000005371094,14|0,2:2|3:2,2:2:0:0:
256,172,20102,1,8,2:2:0:0:
256,172,20271,1,0,3:2:0:0:
196,272,20439,2,0,B|184:316|184:316|196:356,1,88.000002685547,0|8,3:2|2:2,0:0:0:0:
316,272,20776,2,0,B|328:316|328:316|316:356,1,88.000002685547,0|6,3:2|3:2,0:0:0:0:
316,356,21282,5,6,3:2:0:0:
196,356,21451,1,14,2:2:0:0:
256,256,21619,1,10,2:2:0:0:
256,256,21703,1,8,2:2:0:0:
256,256,21788,2,0,L|256:160,1,88.000002685547,14|14,2:2|2:2,0:0:0:0:
296,56,22125,2,0,P|300:40|216:56,1,176.000005371094,2|4,0:0|3:2,0:0:0:0:
176,324,22799,5,10,2:2:0:0:
176,324,22967,1,10,2:2:0:0:
176,324,23136,2,0,L|4:324,2,160,2|8|0,3:2|2:2|3:2,0:0:0:0:
336,324,24147,5,10,2:2:0:0:
336,324,24316,1,10,2:2:0:0:
336,324,24484,2,0,L|496:324,2,160,0|8|0,3:2|2:2|3:2,0:0:0:0:
256,192,25495,5,10,2:2:0:0:
256,192,25664,1,10,2:2:0:0:
256,192,25833,2,0,L|256:24,1,160,2|8,3:2|2:2,0:0:0:0:
176,116,26338,6,0,B|152:192|152:192|176:268,1,160,2|2,3:2|2:2,2:2:0:0:
256,352,26844,1,10,2:2:0:0:
336,268,27012,2,0,B|360:192|360:192|336:116,1,160,10|2,2:2|2:2,2:2:0:0:
256,192,27518,2,0,L|256:352,1,160,8|4,2:2|3:2,0:0:0:0:
336,116,28192,5,10,2:2:0:0:
336,116,28360,1,8,2:2:0:0:
336,116,28529,2,0,L|508:116,2,160,2|10|0,3:2|2:2|3:2,2:2:0:0:
176,116,29540,5,10,2:2:0:0:
176,116,29709,1,10,2:2:0:0:
176,116,29877,2,0,L|16:116,2,160,0|10|0,3:2|2:2|3:2,2:2:0:0:
256,256,30889,5,10,2:2:0:0:
256,256,31057,1,10,2:2:0:0:
256,256,31226,2,0,L|256:96,1,160,0|2,3:2|2:2,0:0:0:0:
256,16,31731,5,6,2:2:0:0:
432,192,32069,1,6,2:2:0:0:
256,368,32406,1,6,2:2:0:0:
80,192,32743,1,6,3:2:0:0:
168,192,32911,1,8,2:2:0:0:
168,192,33080,1,8,2:2:0:0:
256,192,33248,5,4,3:2:0:0:
256,192,33585,2,0,P|244:236|256:276,1,88.000002685547,10|2,2:2|2:2,0:0:0:0:
344,276,33922,1,2,3:2:0:0:
432,276,34091,2,0,P|444:232|432:192,1,88.000002685547,2|8,2:2|2:2,2:2:0:0:
344,192,34428,6,0,L|168:192,1,176.000005371094,2|2,3:2|3:2,2:2:0:0:
112,124,34934,1,10,2:2:0:0:
168,56,35102,2,0,L|352:56,1,176.000005371094,2|2,3:2|3:2,2:2:0:0:
400,124,35608,2,0,L|456:192,1,88.000002685547,8|2,2:2|3:2,0:0:0:0:
400,260,35945,5,0,3:2:0:0:
400,260,36282,2,0,L|344:192,2,88.000002685547,10|2|2,2:2|3:2|2:2,0:0:0:0:
456,192,36788,2,0,L|400:124,1,88.000002685547,2|8,3:2|2:2,2:2:0:0:
344,56,37125,6,0,L|164:56,1,176.000005371094,2|2,3:2|3:2,2:2:0:0:
112,124,37630,1,10,2:2:0:0:
168,192,37799,2,0,L|344:192,1,176.000005371094,2|2,3:2|3:2,2:2:0:0:
400,260,38304,1,10,2:2:0:0:
400,260,38473,1,10,2:2:0:0:
344,328,38642,6,0,L|164:328,1,176.000005371094,2|10,3:2|2:2,2:2:0:0:
80,328,39147,2,0,P|68:284|80:244,1,88.000002685547,2|0,2:2|3:2,2:2:0:0:
168,244,39484,2,0,P|180:200|168:160,1,88.000002685547,2|8,2:2|2:2,2:2:0:0:
124,84,39821,6,0,B|168:60|208:84|208:84|248:108|292:84,1,176.000005371094,2|2,3:2|3:2,2:2:0:0:
368,40,40327,1,10,2:2:0:0:
444,84,40495,2,0,P|456:128|444:168,1,88.000002685547,2|0,3:2|2:2,2:2:0:0:
368,212,40833,2,0,P|356:256|368:296,2,88.000002685547,2|10|2,3:2|2:2|3:2,0:0:0:0:
444,256,41338,6,0,L|264:256,1,176.000005371094,2|10,3:2|2:2,2:2:0:0:
268,164,41844,2,0,L|92:164,1,176.000005371094,2|2,3:2|3:2,2:2:0:0:
92,76,42349,1,8,2:2:0:0:
12,40,42518,6,0,P|16:120|92:164,1,176.000005371094,2|0,3:2|3:2,2:2:0:0:
168,120,43024,2,0,P|212:108|252:120,1,88.000002685547,10|0,2:2|3:2,2:2:0:0:
328,164,43361,1,2,2:2:0:0:
404,208,43529,2,0,P|448:220|488:208,2,88.000002685547,2|8|0,3:2|2:2|2:2,0:0:0:0:
328,164,44035,5,4,3:2:0:0:
328,164,44372,2,0,L|284:240,1,88.000002685547,10|2,2:2|2:2,0:0:0:0:
240,316,44709,2,0,L|88:228,1,176.000005371094,2|10,3:2|2:2,2:2:0:0:
8,192,45215,6,0,P|20:284|88:316,1,176.000005371094,2|2,3:2|3:2,2:2:0:0:
164,272,45720,1,10,2:2:0:0:
240,228,45889,2,0,P|316:268|320:352,1,176.000005371094,2|0,3:2|3:2,2:2:0:0:
240,316,46394,2,0,L|164:272,1,88.000002685547,10|2,2:2|2:2,0:0:0:0:
88,228,46731,6,0,L|88:28,2,176.000005371094,0|8|0,3:2|2:2|3:2,2:2:0:0:
88,348,47574,1,10,2:2:0:0:
88,348,47658,1,8,2:2:0:0:
88,348,47743,1,10,2:2:0:0:
200,288,47911,1,2,3:2:0:0:
88,228,48080,5,6,2:2:0:0:
200,168,48248,1,6,2:2:0:0:
216,160,48585,1,6,2:2:0:0:
232,152,48922,2,0,L|375:72,1,160,6|0,2:2|0:0,2:2:0:0:
448,28,49428,5,4,3:2:0:0:
448,28,49765,2,0,L|492:108,1,88.000002685547,10|2,2:2|2:2,0:0:0:0:
412,148,50102,2,0,L|252:236,1,176.000005371094,2|10,3:2|2:2,2:2:0:0:
174,261,50608,6,0,P|188:173|261:142,1,176.000005371094,2|2,3:2|3:2,2:2:0:0:
335,191,51113,1,10,2:2:0:0:
408,239,51282,2,0,P|484:203|495:120,1,176.000005371094,2|0,3:2|3:2,2:2:0:0:
412,148,51788,2,0,L|335:191,1,88.000002685547,10|2,2:2|2:2,0:0:0:0:
256,232,52125,6,0,L|256:52,1,176.000005371094,4|10,3:2|2:2,2:2:0:0:
168,56,52630,2,0,P|124:64|96:96,1,88.000002685547,2|0,2:2|3:2,2:2:0:0:
96,184,52967,2,0,P|140:176|168:144,1,88.000002685547,2|8,2:2|2:2,2:2:0:0:
168,56,53304,1,2,2:2:0:0:
256,56,53473,6,0,L|256:232,1,176.000005371094,4|8,3:2|2:2,2:2:0:0:
328,284,53979,2,0,P|256:327|184:284,1,176.000005371094,0|0,2:2|2:2,0:0:0:0:
256,232,54484,1,8,2:2:0:0:
256,144,54653,1,0,2:2:0:0:
328,92,54821,6,0,P|256:49|184:92,1,176.000005371094,6|10,3:2|2:2,2:2:0:0:
156,184,55327,2,0,L|208:256,1,88.000002685547,2|0,2:2|3:2,2:2:0:0:
304,256,55664,2,0,L|356:184,1,88.000002685547,2|8,2:2|2:2,0:0:0:0:
388,92,56001,5,14,2:2:0:0:
124,92,56338,1,14,2:2:0:0:
256,320,56675,2,0,L|256:144,1,176.000005371094,14|0,2:2|0:0,2:2:0:0:
300,68,57181,1,2,3:2:0:0:
212,68,57349,1,2,2:2:0:0:
124,92,57518,6,0,P|80:160|124:252,1,191.999994140625,6|8,3:2|2:2,2:2:0:0:
300,332,58192,2,0,P|336:368|380:376,2,95.9999970703126,2|2|10,3:2|2:2|2:2,0:0:0:0:
220,280,58698,2,0,P|288:236|380:280,1,191.999994140625,2|0,3:2|3:2,2:2:0:0:
300,332,59203,2,0,P|264:368|220:376,1,95.9999970703126,10|0,2:2|3:2,0:0:0:0:
220,280,59540,2,0,B|196:232|220:188|220:188|244:144|220:96,1,191.999994140625,2|10,2:2|2:2,0:0:0:0:
172,12,60046,1,2,2:2:0:0:
124,96,60215,6,0,L|316:96,1,191.999994140625,0|8,3:2|2:2,2:2:0:0:
508,96,60889,2,0,P|500:48|464:16,2,95.9999970703126,2|2|10,3:2|2:2|2:2,0:0:0:0:
412,96,61394,2,0,L|316:96,1,95.9999970703126,2|0,3:2|0:0,2:2:0:0:
316,192,61731,2,0,L|316:296,1,95.9999970703126,2|8,3:2|2:2,0:0:0:0:
220,288,62069,2,0,L|124:288,1,95.9999970703126,2|0,3:2|0:0,2:2:0:0:
28,288,62406,2,0,P|36:336|72:368,2,95.9999970703126,2|8|2,3:2|2:2|2:2,0:0:0:0:
28,192,62911,6,0,L|220:192,1,191.999994140625,2|8,3:2|2:2,2:2:0:0:
412,192,63585,2,0,L|508:192,2,95.9999970703126,2|2|10,3:2|2:2|2:2,0:0:0:0:
316,192,64091,2,0,P|280:112|180:104,1,191.999994140625,2|2,3:2|3:2,2:2:0:0:
220,192,64597,1,10,2:2:0:0:
124,192,64765,2,0,P|160:272|260:280,1,191.999994140625,2|2,3:2|3:2,2:2:0:0:
220,192,65271,1,10,2:2:0:0:
220,192,65439,1,10,2:2:0:0:
316,192,65608,5,2,3:2:0:0:
364,108,65776,1,2,2:2:0:0:
412,192,65945,1,10,2:2:0:0:
364,276,66113,1,2,3:2:0:0:
268,276,66282,1,2,2:2:0:0:
220,192,66451,1,10,2:2:0:0:
268,108,66619,1,10,2:2:0:0:
364,108,66788,6,0,L|460:276,1,191.999994140625,6|10,3:2|2:2,0:0:0:0:
412,360,67293,1,10,2:2:0:0:
316,360,67462,2,0,L|220:192,1,191.999994140625,6|2,3:2|3:2,0:0:0:0:
268,108,67967,1,10,2:2:0:0:
268,108,68136,1,10,2:2:0:0:
348,56,68304,6,0,P|280:12|188:56,1,191.999994140625,6|8,3:2|2:2,2:2:0:0:
68,208,68979,2,0,P|32:172|24:128,2,95.9999970703126,2|2|10,3:2|2:2|2:2,0:0:0:0:
120,288,69485,2,0,P|164:220|120:128,1,191.999994140625,2|0,3:2|3:2,2:2:0:0:
68,208,69990,2,0,P|32:244|24:288,1,95.9999970703126,10|0,2:2|3:2,0:0:0:0:
120,288,70327,2,0,B|168:312|212:288|212:288|256:264|304:288,1,191.999994140625,2|10,2:2|2:2,0:0:0:0:
388,336,70833,1,2,2:2:0:0:
304,384,71001,6,0,L|304:192,1,191.999994140625,0|8,3:2|2:2,2:2:0:0:
304,0,71675,2,0,P|352:8|384:44,2,95.9999970703126,2|2|10,3:2|2:2|2:2,0:0:0:0:
304,96,72181,2,0,L|200:96,1,95.9999970703126,2|0,3:2|0:0,0:0:0:0:
304,192,72518,2,0,L|184:192,1,95.9999970703126,2|8,3:2|2:2,0:0:0:0:
304,288,72855,2,0,L|192:288,1,95.9999970703126,2|0,3:2|2:2,2:2:0:0:
208,384,73192,2,0,P|160:376|128:340,2,95.9999970703126,2|8|2,3:2|2:2|2:2,0:0:0:0:
304,384,73698,6,0,P|352:376|384:340,2,95.9999970703126,14|0|2,2:2|3:2|3:2,0:0:0:0:
256,284,74203,2,0,B|232:236|256:192|256:192|280:148|256:100,1,191.999994140625,14|2,2:2|3:2,2:2:0:0:
256,100,74709,1,2,3:2:0:0:
128,108,74878,2,0,B|100:124|96:160|96:160|96:224|96:224|100:260|128:276,1,191.999994140625,14|0,2:2|3:2,2:2:0:0:
128,276,75383,1,2,3:2:0:0:
256,284,75552,2,0,B|280:236|256:192|256:192|232:148|256:100,1,191.999994140625,12|0,2:2|3:2,0:0:0:0:
256,100,76057,1,14,2:2:0:0:
384,108,76226,2,0,B|412:124|416:160|416:160|416:224|416:224|412:260|384:276,1,191.999994140625,2|0,3:2|3:2,2:2:0:0:
256,320,76731,5,8,2:2:0:0:
256,320,76900,1,8,2:2:0:0:
188,204,77069,1,0,3:2:0:0:
188,204,77237,1,8,2:2:0:0:
324,204,77406,1,0,3:2:0:0:
324,204,77574,1,4,3:2:0:0:
324,204,77911,2,0,L|420:204,2,95.9999970703126,6|14|2,3:2|2:2|3:2,0:0:0:0:
188,204,78417,2,0,L|92:204,2,95.9999970703126,10|2|10,2:2|3:2|2:2,0:0:0:0:
256,88,78922,6,0,B|296:64|340:88|340:88|384:112|424:88,1,176.000005371094,6|2,2:2|3:2,2:2:0:0:
500,44,79428,1,10,2:2:0:0:
500,44,79765,2,0,P|472:12|428:0,2,88.000002685547,2|2|10,3:2|3:2|2:2,0:0:0:0:
423,88,80271,2,0,L|388:168,1,88.000002685547,2|0,3:2|0:0,2:2:0:0:
352,248,80608,2,0,L|272:213,1,88.000002685547,2|8,3:2|2:2,0:0:0:0:
192,176,80945,2,0,L|156:256,1,88.000002685547,2|0,3:2|2:2,2:2:0:0:
80,304,81282,2,0,P|108:336|152:348,2,88.000002685547,2|8|0,3:2|2:2|2:2,2:2:0:0:
156,256,81788,6,0,L|228:96,1,176.000005371094,2|8,3:2|2:2,2:2:0:0:
228,96,82462,1,2,3:2:0:0:
264,16,82630,1,2,2:2:0:0:
344,52,82799,1,10,2:2:0:0:
308,132,82967,1,2,3:2:0:0:
300,148,83304,1,2,3:2:0:0:
292,164,83642,2,0,L|220:324,1,176.000005371094,2|2,3:2|2:2,2:2:0:0:
144,368,84147,1,10,2:2:0:0:
140,280,84316,5,2,2:2:0:0:
140,280,84400,1,0,2:2:0:0:
140,280,84484,2,0,P|96:292|68:328,2,88.000002685547,14|2|2,2:2|3:2|3:2,0:0:0:0:
256,280,84990,2,0,P|332:318|408:280,1,176.000005371094,14|2,2:2|3:2,2:2:0:0:
408,280,85495,1,2,3:2:0:0:
332,192,85664,2,0,P|256:154|180:192,1,176.000005371094,14|2,2:2|3:2,2:2:0:0:
180,192,86170,1,2,3:2:0:0:
104,280,86338,2,0,P|180:318|256:280,1,176.000005371094,14|10,2:2|2:2,2:2:0:0:
256,280,86844,1,10,2:2:0:0:
332,192,87012,6,0,P|256:154|180:192,1,176.000005371094,14|0,2:2|3:2,2:2:0:0:
256,280,87518,1,8,2:2:0:0:
256,280,87687,1,0,3:2:0:0:
332,192,87855,2,0,P|344:148|332:108,1,88.000002685547,0|8,3:2|2:2,0:0:0:0:
180,192,88192,2,0,P|168:148|180:108,1,88.000002685547,0|6,3:2|3:2,0:0:0:0:
180,108,88698,5,6,3:2:0:0:
256,12,88866,1,14,2:2:0:0:
332,108,89203,5,14,2:2:0:0:
256,12,89371,1,14,2:2:0:0:
256,12,89878,5,2,2:2:0:0:
